osu file format v14

[General]
AudioFilename: audio.mp3
AudioLeadIn: 0
PreviewTime: 31893
Countdown: 0
SampleSet: Soft
StackLeniency: 0.4
Mode: 2
LetterboxInBreaks: 0
WidescreenStoryboard: 1

[Editor]
DistanceSpacing: 1.4
BeatDivisor: 4
GridSize: 32
TimelineZoom: 1.9

[Metadata]
Title:Yuugure no Tori
TitleUnicode:夕暮れの鳥
Artist:Shinsei Kamattechan
ArtistUnicode:神聖かまってちゃん
Creator:Monstrata
Version:Ascendance's Rain
Source:進撃の巨人
Tags:ascendance revo mikasa ackerman Shingeki no Kyojin Attack on Titan Season 2 two Ending TV size theme dusk bird
BeatmapID:1456901
BeatmapSetID:688427

[Difficulty]
HPDrainRate:5
CircleSize:3.5
OverallDifficulty:8.4
ApproachRate:8.4
SliderMultiplier:2.59999990463257
SliderTickRate:4

[Events]
//Background and Video events
0,0,"435907.jpg",0,0
//Break Periods
2,60492,62298
//Storyboard Layer 0 (Background)
//Storyboard Layer 1 (Fail)
//Storyboard Layer 2 (Pass)
//Storyboard Layer 3 (Foreground)
//Storyboard Sound Samples

[TimingPoints]
966,674.157303370787,4,2,1,75,1,0
11752,-100,4,2,1,65,0,0
33325,-83.3333333333333,4,2,1,85,0,0
54898,-100,4,2,1,65,0,0
62988,-100,4,2,1,85,0,0
65685,-100,4,2,1,85,0,0
87258,-100,4,2,1,65,0,0
88943,-100,4,2,1,5,0,0

[Colours]
Combo1 : 218,218,218
Combo2 : 255,128,128

[HitObjects]
114,322,292,6,0,L|104:175,1,129.999995231628,0|0,0:0|0:0,0:0:0:0:
417,279,966,6,0,P|488:182|370:93,1,259.999990463257,6|8,1:2|0:0,0:0:0:0:
210,49,1977,1,0,0:0:0:0:
212,113,2145,1,0,0:0:0:0:
214,178,2314,1,0,0:0:0:0:
395,189,2651,1,0,1:0:0:0:
205,26,2988,2,0,L|66:41,1,129.999995231628,10|0,0:0|0:0,0:0:0:0:
287,177,3662,6,0,L|129:166,2,129.999995231629,2|0|8,0:2|1:0|0:0,0:0:0:0:
116,242,4674,1,0,0:0:0:0:
29,215,4842,2,0,L|27:122,1,64.9999976158143,0|0,0:0|0:0,0:0:0:0:
264,162,5348,1,0,1:0:0:0:
59,69,5685,2,0,L|205:62,1,129.999995231629,10|0,0:0|0:0,0:0:0:0:
406,149,6359,6,0,L|275:139,2,129.999995231629,2|0|8,0:0|1:0|0:0,0:0:0:0:
221,336,7370,1,0,0:0:0:0:
185,282,7538,1,0,0:0:0:0:
188,218,7707,1,0,0:0:0:0:
226,167,7875,1,0,0:0:0:0:
287,148,8044,1,0,1:0:0:0:
84,300,8382,2,0,L|64:157,1,129.999995231629,10|0,0:0|0:0,0:0:0:0:
279,321,9056,5,2,0:0:0:0:
337,269,9224,1,0,0:0:0:0:
401,221,9393,1,0,1:0:0:0:
76,147,9730,2,0,L|215:142,1,129.999995231629,8|0,0:0|0:0,0:0:0:0:
366,245,10404,1,2,3:2:0:0:
423,197,10572,1,0,3:0:0:0:
426,126,10741,1,0,1:0:0:0:
359,89,10909,1,0,0:0:0:0:
263,34,11078,2,0,L|400:42,1,129.999995231629,10|0,0:0|0:0,0:0:0:0:
321,83,11583,1,0,0:0:0:0:
81,110,11752,6,0,P|-3:196|82:291,1,259.999990463257,2|2,3:2|0:0,0:0:0:0:
260,301,12764,1,0,0:0:0:0:
169,267,12932,2,0,P|121:190|184:116,1,194.999992847443,2|0,0:0|0:0,0:0:0:0:
423,95,13775,2,0,L|277:94,1,129.999995231629,2|0,0:0|0:0,0:0:0:0:
202,95,14280,1,0,0:0:0:0:
110,96,14449,5,2,3:2:0:0:
378,176,14786,1,0,0:0:0:0:
231,352,15123,2,0,L|226:203,1,129.999995231629,2|0,0:0|0:0,0:0:0:0:
317,217,15629,1,0,0:0:0:0:
407,215,15797,1,2,3:2:0:0:
219,218,16134,1,0,0:0:0:0:
398,221,16471,2,0,L|225:221,1,129.999995231629,2|0,0:0|0:0,0:0:0:0:
85,309,17146,6,0,L|238:309,1,129.999995231629,2|0,3:2|0:0,0:0:0:0:
396,304,17820,1,2,0:0:0:0:
214,285,18157,1,0,0:0:0:0:
304,286,18325,2,0,P|351:216|292:133,1,194.999992847443,0|2,0:0|0:0,0:0:0:0:
88,149,19168,2,0,L|247:140,1,129.999995231629,2|0,0:0|0:0,0:0:0:0:
307,127,19674,1,0,0:0:0:0:
396,112,19842,5,2,3:2:0:0:
222,56,20179,1,0,0:0:0:0:
396,112,20516,2,0,L|391:253,1,129.999995231629,2|0,0:0|0:0,0:0:0:0:
300,252,21022,1,0,0:0:0:0:
209,258,21191,1,2,3:2:0:0:
41,272,21528,1,0,0:0:0:0:
239,340,21865,2,0,L|87:349,1,129.999995231629,2|0,0:0|0:0,0:0:0:0:
390,369,22539,6,0,L|415:221,1,129.999995231629,2|0,3:2|0:0,0:0:0:0:
208,150,23213,2,0,L|343:145,1,129.999995231629,2|0,0:0|0:0,0:0:0:0:
245,97,23719,1,0,0:0:0:0:
442,185,24056,2,0,L|459:117,1,64.9999976158143,0|0,0:0|0:0,0:0:0:0:
249,227,24561,2,0,L|106:227,1,129.999995231629,2|0,0:0|0:0,0:0:0:0:
27,229,25067,1,0,0:0:0:0:
118,229,25236,5,2,3:2:0:0:
293,230,25573,1,0,0:0:0:0:
116,134,25910,2,0,L|277:134,1,129.999995231629,2|0,0:0|0:0,0:0:0:0:
336,135,26415,1,0,0:0:0:0:
427,135,26584,1,2,3:2:0:0:
251,86,26921,1,2,0:0:0:0:
477,199,27258,2,0,L|466:338,1,129.999995231629,2|0,0:0|0:0,0:0:0:0:
363,350,27764,1,0,0:0:0:0:
261,356,27932,5,2,3:2:0:0:
449,357,28269,1,0,0:0:0:0:
261,356,28606,2,0,L|108:356,1,129.999995231629,2|0,0:0|0:0,0:0:0:0:
239,310,29112,2,0,L|248:239,1,64.9999976158143
137,260,29449,2,0,L|128:189,1,64.9999976158143
244,177,29955,2,0,L|387:170,1,129.999995231629,6|0,0:0|0:0,0:0:0:0:
453,167,30460,1,0,0:0:0:0:
182,79,30629,6,0,L|198:242,1,129.999995231629,2|0,3:2|3:2,0:0:0:0:
402,182,31303,2,0,L|415:323,1,129.999995231629,8|8,0:2|0:2,0:0:0:0:
151,289,31977,2,0,L|-4:303,2,129.999995231629,10|8|8,0:0|0:0|1:2,0:0:0:0:
356,306,32988,2,0,L|362:238,1,64.9999976158143,8|8,1:2|1:2,0:0:0:0:
128,242,33325,6,0,P|68:152|162:61,1,233.999984275818,14|0,0:0|0:0,0:0:0:0:
226,65,34000,1,8,0:0:0:0:
69,147,34337,1,0,0:0:0:0:
71,224,34505,1,0,0:0:0:0:
73,302,34674,1,2,1:2:0:0:
276,216,35011,1,0,0:0:0:0:
66,132,35348,2,0,L|226:142,1,155.999989517212,8|2,0:0|0:0,0:0:0:0:
428,290,36022,6,0,P|464:224|390:154,1,155.999989517212,2|0,1:2|0:0,0:0:0:0:
266,152,36696,1,8,0:0:0:0:
171,222,36865,2,0,L|269:221,1,77.9999947586062,2|0,0:0|0:0,0:0:0:0:
333,325,37202,2,0,L|130:342,2,155.999989517212,0|0|0,0:0|0:0|0:0,0:0:0:0:
57,253,38045,1,10,0:0:0:0:
146,201,38213,2,0,L|322:217,1,155.999989517212,0|0,0:0|0:0,0:0:0:0:
161,321,38719,6,0,L|145:164,1,155.999989517212,2|0,1:2|0:0,0:0:0:0:
316,210,39393,1,8,0:0:0:0:
147,137,39730,1,2,0:0:0:0:
379,63,40067,2,0,L|208:73,2,155.999989517212,2|0|10,1:2|0:0|0:0,0:0:0:0:
244,177,40910,2,0,L|76:154,1,155.999989517212,0|0,0:0|0:0,0:0:0:0:
382,334,41415,6,0,L|418:162,1,155.999989517212,2|0,1:2|0:0,0:0:0:0:
257,233,42089,2,0,L|84:242,1,155.999989517212,8|0,0:0|0:0,0:0:0:0:
299,142,42764,1,2,0:0:0:0:
376,149,42932,1,0,1:0:0:0:
454,156,43101,1,0,1:0:0:0:
50,258,43438,2,0,L|28:98,1,155.999989517212,10|2,0:0|0:0,0:0:0:0:
441,79,44112,6,0,L|278:98,1,155.999989517212,6|0,1:2|0:0,0:0:0:0:
453,270,44786,2,0,L|454:125,1,77.9999947586062,8|2,0:0|0:0,0:0:0:0:
334,160,45123,1,0,0:0:0:0:
463,90,45292,2,0,L|228:106,1,233.999984275818,0|0,0:0|0:0,0:0:0:0:
18,41,46134,2,0,L|173:55,1,155.999989517212,8|2,0:0|0:0,0:0:0:0:
413,93,46640,6,0,P|474:192|369:280,1,233.999984275818,0|0,0:0|0:0,0:0:0:0:
127,337,47483,1,8,0:0:0:0:
243,283,47651,2,0,L|381:302,2,77.9999947586062,2|0|0,0:0|0:0|0:0,0:0:0:0:
399,175,48325,2,0,L|311:187,2,77.9999947586062,0|0|0,1:0|1:0|0:0,0:0:0:0:
124,297,48831,1,8,0:0:0:0:
86,230,48999,1,0,0:0:0:0:
104,156,49168,1,2,0:0:0:0:
167,114,49336,1,0,0:0:0:0:
261,114,49505,6,0,L|80:94,1,155.999989517212,2|0,1:2|0:0,0:0:0:0:
346,227,50179,1,8,0:0:0:0:
231,171,50348,2,0,L|70:190,2,155.999989517212,0|0|0,0:0|0:0|0:0,0:0:0:0:
399,301,51528,2,0,L|408:135,1,155.999989517212,8|0,0:0|0:0,0:0:0:0:
263,88,52202,5,2,0:2:0:0:
354,81,52370,1,0,1:0:0:0:
452,72,52539,1,0,1:0:0:0:
42,45,52876,1,12,0:0:0:0:
210,73,53213,2,0,L|201:155,1,77.9999947586062,0|0,0:0|0:0,0:0:0:0:
97,199,53550,6,0,L|15:201,1,77.9999947586062,0|0,3:0|3:0,0:0:0:0:
97,199,53887,2,0,L|181:196,1,77.9999947586062,0|0,1:0|1:0,0:0:0:0:
414,299,54224,2,0,L|432:207,1,77.9999947586062,8|8,0:0|0:0,0:0:0:0:
159,101,54561,2,0,L|67:79,1,77.9999947586062,8|8,0:0|0:0,0:0:0:0:
397,48,54898,5,2,0:0:0:0:
256,192,55067,12,2,60292,0:0:0:0:
122,310,62988,6,0,L|112:222,1,64.9999976158143,12|8,0:0|0:0,0:0:0:0:
330,228,63494,2,0,L|417:221,1,64.9999976158143,8|8,0:3|0:3,0:0:0:0:
46,233,64000,2,0,L|36:145,1,64.9999976158143,8|8,0:0|0:0,0:0:0:0:
254,151,64506,2,0,L|341:144,1,64.9999976158143,8|8,0:3|0:3,0:0:0:0:
66,58,65011,2,0,L|221:68,1,129.999995231629,8|8,0:3|0:3,0:0:0:0:
296,78,65516,1,0,0:0:0:0:
52,156,65685,5,6,1:2:0:0:
202,288,66022,2,0,L|205:203,1,64.9999976158143,0|0,0:0|0:0,0:0:0:0:
52,156,66359,1,8,0:0:0:0:
247,80,66696,1,0,0:0:0:0:
311,82,66864,1,0,0:0:0:0:
376,85,67033,1,2,1:2:0:0:
172,28,67370,1,0,0:0:0:0:
474,161,67707,2,0,L|469:299,1,129.999995231629,8|0,0:0|0:0,0:0:0:0:
365,320,68213,1,0,0:0:0:0:
40,249,68382,6,0,L|27:106,1,129.999995231629,2|0,1:2|0:0,0:0:0:0:
446,229,69056,2,0,L|456:88,1,129.999995231629,8|0,0:0|0:0,0:0:0:0:
354,67,69561,1,0,0:0:0:0:
259,56,69730,1,2,1:2:0:0:
471,31,70067,1,0,0:0:0:0:
68,239,70404,2,0,L|55:94,1,129.999995231629,8|0,0:0|1:0,0:0:0:0:
253,171,71078,6,0,L|387:158,1,129.999995231629,2|0,1:2|0:0,0:0:0:0:
124,89,71752,1,8,0:0:0:0:
256,39,72089,2,0,L|334:42,2,64.9999976158143,0|0|2,0:0|0:0|1:2,0:0:0:0:
117,180,72764,2,0,L|105:108,1,64.9999976158143,0|0,0:0|0:0,0:0:0:0:
348,239,73101,2,0,L|505:251,1,129.999995231629,8|0,0:0|0:0,0:0:0:0:
391,299,73606,1,0,0:0:0:0:
275,299,73775,5,2,1:2:0:0:
107,303,74112,1,0,0:0:0:0:
347,299,74449,2,0,L|494:300,1,129.999995231629,8|0,0:0|0:0,0:0:0:0:
61,307,75123,6,0,L|54:168,1,129.999995231629,2|0,1:2|0:0,0:0:0:0:
230,130,75797,2,0,L|91:122,1,129.999995231629,8|0,0:0|0:0,0:0:0:0:
193,80,76303,1,0,0:0:0:0:
426,75,76471,6,0,P|481:131|411:225,1,194.999992847443,6|0,1:2|0:0,0:0:0:0:
275,268,77146,2,0,L|441:268,1,129.999995231629,8|0,0:0|0:0,0:0:0:0:
237,338,77820,2,0,L|88:338,1,129.999995231629,2|0,1:2|0:0,0:0:0:0:
185,301,78325,1,0,0:0:0:0:
435,299,78494,1,8,0:0:0:0:
285,299,78831,2,0,L|207:300,1,64.9999976158143,0|0,0:0|0:0,0:0:0:0:
40,297,79168,5,2,1:2:0:0:
214,299,79505,1,0,0:0:0:0:
480,304,79843,1,8,0:0:0:0:
299,300,80179,2,0,L|206:301,1,64.9999976158143,0|0,0:0|0:0,0:0:0:0:
386,232,80516,1,2,1:2:0:0:
197,237,80854,1,0,0:0:0:0:
386,232,81191,2,0,L|516:232,1,129.999995231629,8|0,0:0|1:0,0:0:0:0:
249,168,81865,6,0,L|93:167,1,129.999995231629,2|0,1:2|0:0,0:0:0:0:
371,104,82539,1,8,0:0:0:0:
172,172,82876,1,0,0:0:0:0:
175,236,83044,1,0,0:0:0:0:
179,301,83213,1,2,1:2:0:0:
345,127,83550,1,0,0:0:0:0:
35,83,83887,2,0,L|118:77,2,64.9999976158143,8|2|0,0:0|0:0|0:0,0:0:0:0:
471,272,84561,6,0,L|500:119,1,129.999995231629,2|0,1:2|0:0,0:0:0:0:
33,212,85236,2,0,L|171:196,1,129.999995231629,8|0,0:0|0:0,0:0:0:0:
246,185,85741,1,0,0:0:0:0:
485,160,85910,5,6,1:2:0:0:
119,125,86584,2,0,L|385:108,1,259.999990463257,8|6,0:0|0:0,0:0:0:0:
256,192,87427,12,0,88943,0:0:0:0:
