osu file format v14

[General]
AudioFilename: audio.mp3
AudioLeadIn: 0
PreviewTime: 39551
Countdown: 0
SampleSet: Soft
StackLeniency: 0.7
Mode: 3
LetterboxInBreaks: 0
SpecialStyle: 0
WidescreenStoryboard: 1

[Editor]
DistanceSpacing: 0.9
BeatDivisor: 4
GridSize: 32
TimelineZoom: 1.8

[Metadata]
Title:Boku no Sensou (TV Size)
TitleUnicode:僕の戦争 (TV Size)
Artist:Shinsei Kamattechan
ArtistUnicode:神聖かまってちゃん
Creator:Mirea
Version:Hard
Source:進撃の巨人 The Final Season
Tags:my war snk shingeki no kyojin aot attack on titan sensō anime english opening famoss roger ][ -GH- ][
BeatmapID:2821761
BeatmapSetID:1361666

[Difficulty]
HPDrainRate:8
CircleSize:4
OverallDifficulty:8
ApproachRate:5
SliderMultiplier:1.4
SliderTickRate:1

[Events]
//Background and Video events
0,0,"bg.jpg",0,0
//Break Periods
//Storyboard Layer 0 (Background)
//Storyboard Layer 1 (Fail)
//Storyboard Layer 2 (Pass)
//Storyboard Layer 3 (Foreground)
//Storyboard Layer 4 (Overlay)
//Storyboard Sound Samples
Sample,388,0,"D#5S_Eb5S.wav",70
Sample,40180,0,"A4S_s.wav",70

[TimingPoints]
389,416.666666666667,4,2,1,70,1,0
40389,-100,4,2,1,70,0,1
52055,-100,4,2,1,70,0,0
53722,-100,4,2,1,70,0,1
67055,-100,4,2,1,70,0,0

[HitObjects]
320,192,389,1,2,0:0:0:0:
448,192,389,128,4,1222:0:0:0:0:
192,192,727,1,0,0:0:0:0:
64,192,1222,128,0,2055:0:0:0:70:E5S.wav
192,192,1639,1,0,0:0:0:0:
320,192,1847,1,0,0:0:0:0:
192,192,2055,1,2,0:0:0:0:
448,192,2055,128,0,2889:0:0:0:70:D#5S_Eb5S.wav
64,192,2394,1,0,0:0:0:0:
192,192,2889,128,0,3305:0:0:0:70:E5S.wav
64,192,3305,128,0,3722:0:0:0:70:G#5S_Ab5S.wav
192,192,3722,128,2,4555:0:0:0:0:
320,192,3722,1,0,0:0:0:70:D#5S_Eb5S.wav
448,192,4060,1,0,0:0:0:0:
320,192,4555,128,0,5389:0:0:0:70:E5S.wav
64,192,4972,1,0,0:0:0:0:
192,192,5389,1,2,0:0:0:0:
448,192,5389,128,0,6222:0:0:0:70:D#5S_Eb5S.wav
64,192,5727,1,0,0:0:0:0:
320,192,6222,128,0,6639:0:0:0:70:C#5S_Db5S_s.wav
64,192,6430,128,0,6847:0:0:0:70:B4S_s.wav
448,192,6639,128,0,6847:0:0:0:70:A4S_s.wav
192,192,6847,128,0,7055:0:0:0:70:G#4S_Ab4S_s.wav
64,192,7055,1,4,0:0:0:0:
320,192,7055,1,2,0:0:0:0:
448,192,7055,1,0,0:0:0:0:
64,192,7264,1,2,0:0:0:0:
192,192,7264,1,0,0:0:0:0:
320,192,7472,1,8,0:0:0:0:
448,192,7472,1,0,0:0:0:0:
192,192,7680,1,0,0:0:0:0:
64,192,7889,1,2,0:0:0:0:
320,192,7889,128,0,8097:0:0:0:0:
192,192,8097,1,2,0:0:0:0:
448,192,8097,128,0,8305:0:0:0:0:
64,192,8305,1,8,0:0:0:0:
192,192,8305,1,0,0:0:0:0:
448,192,8514,1,0,0:0:0:0:
192,192,8618,1,8,0:0:0:0:
64,192,8722,128,2,9034:0:0:0:0:
320,192,8722,128,0,8826:0:0:0:0:
192,192,8930,128,2,9034:0:0:0:0:
448,192,8930,1,0,0:0:0:0:
64,192,9139,128,8,9243:0:0:0:0:
448,192,9139,128,0,9451:0:0:0:0:
320,192,9347,128,0,9451:0:0:0:0:
64,192,9451,1,8,0:0:0:0:
192,192,9555,1,2,0:0:0:0:
448,192,9555,1,0,0:0:0:0:
192,192,9764,1,2,0:0:0:0:
320,192,9764,1,0,0:0:0:0:
64,192,9972,1,8,0:0:0:0:
448,192,9972,1,0,0:0:0:0:
320,192,10180,1,0,0:0:0:0:
192,192,10284,1,8,0:0:0:0:
64,192,10389,1,2,0:0:0:0:
320,192,10389,1,0,0:0:0:0:
192,192,10597,1,2,0:0:0:0:
320,192,10597,1,0,0:0:0:0:
64,192,10805,1,8,0:0:0:0:
448,192,10805,1,0,0:0:0:0:
192,192,11014,1,0,0:0:0:0:
320,192,11118,1,8,0:0:0:0:
192,192,11222,128,2,11430:0:0:0:0:
448,192,11222,1,0,0:0:0:0:
64,192,11430,1,2,0:0:0:0:
320,192,11430,128,0,11639:0:0:0:0:
64,192,11639,1,8,0:0:0:0:
192,192,11639,1,0,0:0:0:0:
448,192,11847,1,0,0:0:0:0:
192,192,11951,1,8,0:0:0:0:
320,192,12055,128,2,12159:0:0:0:0:
448,192,12055,128,0,12368:0:0:0:0:
192,192,12264,128,2,12368:0:0:0:0:
64,192,12472,128,8,12784:0:0:0:0:
448,192,12472,128,4,12576:0:0:0:0:
192,192,12680,128,0,12784:0:0:0:0:
448,192,12784,1,8,0:0:0:0:
64,192,12889,1,2,0:0:0:0:
320,192,12889,1,0,0:0:0:0:
64,192,13097,1,8,0:0:0:0:
192,192,13097,1,0,0:0:0:0:
320,192,13201,1,0,0:0:0:0:
448,192,13305,1,8,0:0:0:0:
64,192,13409,1,8,0:0:0:0:
320,192,13514,1,0,0:0:0:70:tom03.wav
192,192,13618,1,0,0:0:0:70:tom04.wav
64,192,13722,1,2,0:0:0:0:
320,192,13722,1,4,0:0:0:0:
448,192,13722,1,0,0:0:0:0:
192,192,13930,1,2,0:0:0:0:
448,192,13930,1,0,0:0:0:0:
64,192,14139,1,8,0:0:0:0:
320,192,14139,1,0,0:0:0:0:
192,192,14347,1,0,0:0:0:0:
320,192,14451,1,8,0:0:0:0:
64,192,14555,128,2,14764:0:0:0:0:
448,192,14555,1,0,0:0:0:0:
192,192,14764,128,2,14972:0:0:0:0:
320,192,14764,1,0,0:0:0:0:
320,192,14972,1,8,0:0:0:0:
448,192,14972,1,0,0:0:0:0:
192,192,15180,1,0,0:0:0:0:
192,192,15389,128,2,15493:0:0:0:0:
320,192,15389,128,0,15701:0:0:0:0:
64,192,15597,1,2,0:0:0:0:
448,192,15597,128,0,15701:0:0:0:0:
64,192,15805,128,8,16118:0:0:0:0:
320,192,15805,128,0,15909:0:0:0:0:
192,192,16014,128,0,16118:0:0:0:0:
320,192,16118,1,8,0:0:0:0:
64,192,16222,1,2,0:0:0:0:
448,192,16222,1,0,0:0:0:0:
320,192,16430,1,2,0:0:0:0:
448,192,16430,1,0,0:0:0:0:
64,192,16639,1,8,0:0:0:0:
192,192,16639,1,0,0:0:0:0:
320,192,16847,1,0,0:0:0:0:
192,192,17055,128,2,17472:0:0:0:0:
320,192,17055,1,0,0:0:0:0:
448,192,17264,1,2,0:0:0:0:
64,192,17472,1,8,0:0:0:0:
320,192,17472,128,4,17680:0:0:0:0:
448,192,17472,128,0,17680:0:0:0:0:
64,192,17680,1,0,0:0:0:0:
64,192,17889,128,2,18305:0:0:0:0:
192,192,17889,1,0,0:0:0:0:
320,192,18097,1,2,0:0:0:0:
192,192,18305,128,8,18514:0:0:0:0:
320,192,18305,128,4,18514:0:0:0:0:
448,192,18305,1,0,0:0:0:0:
448,192,18514,1,0,0:0:0:0:
192,192,18722,1,2,0:0:0:0:
448,192,18722,1,0,0:0:0:0:
64,192,18930,1,8,0:0:0:0:
192,192,18930,1,4,0:0:0:0:
320,192,18930,1,0,0:0:0:0:
64,192,19139,1,8,0:0:0:0:
320,192,19139,128,4,19347:0:0:0:0:
448,192,19139,1,0,0:0:0:0:
192,192,19347,128,2,19555:0:0:0:0:
448,192,19347,1,0,0:0:0:0:
64,192,19555,128,10,20180:0:0:0:0:
320,192,19555,1,4,0:0:0:0:
320,192,19764,1,8,0:0:0:0:
448,192,19764,1,0,0:0:0:0:
192,192,19868,1,8,0:0:0:0:
320,192,19972,1,10,0:0:0:0:
192,192,20076,1,8,0:0:0:0:
448,192,20180,1,10,0:0:0:0:
320,192,20284,1,8,0:0:0:0:
64,192,20389,128,4,20805:0:0:0:0:
192,192,20389,1,2,0:0:0:0:
448,192,20389,1,0,0:0:0:0:
320,192,20597,128,2,20805:0:0:0:0:
192,192,20805,1,8,0:0:0:0:
448,192,20805,128,0,21222:0:0:0:0:
192,192,21014,128,0,21222:0:0:0:0:
64,192,21222,1,2,0:0:0:0:
320,192,21222,128,0,21639:0:0:0:0:
64,192,21430,128,2,21639:0:0:0:0:
192,192,21639,128,8,22055:0:0:0:0:
448,192,21639,1,0,0:0:0:0:
320,192,21847,128,0,22055:0:0:0:0:
64,192,22055,128,2,22264:0:0:0:0:
448,192,22055,128,0,22472:0:0:0:0:
192,192,22264,128,2,22680:0:0:0:0:
64,192,22472,128,8,22680:0:0:0:0:
320,192,22472,1,0,0:0:0:0:
320,192,22680,128,0,22889:0:0:0:0:
64,192,22889,128,2,23305:0:0:0:0:
448,192,22889,128,0,23097:0:0:0:0:
320,192,23097,128,2,23514:0:0:0:0:
192,192,23305,1,8,0:0:0:0:
448,192,23305,128,0,23514:0:0:0:0:
192,192,23514,128,0,23722:0:0:0:0:
64,192,23722,1,2,0:0:0:0:
448,192,23722,128,0,24139:0:0:0:0:
192,192,23930,128,2,24139:0:0:0:0:
64,192,24139,128,8,24555:0:0:0:0:
320,192,24139,1,0,0:0:0:0:
320,192,24347,128,0,24555:0:0:0:0:
192,192,24555,128,2,24972:0:0:0:0:
448,192,24555,1,0,0:0:0:0:
448,192,24764,128,2,24972:0:0:0:0:
64,192,24972,1,8,0:0:0:0:
320,192,24972,128,0,25389:0:0:0:0:
192,192,25180,128,0,25389:0:0:0:0:
64,192,25389,128,2,25597:0:0:0:0:
448,192,25389,1,0,0:0:0:0:
320,192,25597,128,2,25805:0:0:0:0:
64,192,25805,1,8,0:0:0:0:
192,192,25805,128,4,26222:0:0:0:0:
448,192,25805,1,0,0:0:0:0:
320,192,26014,128,0,26222:0:0:0:0:
64,192,26222,128,2,26430:0:0:0:0:
448,192,26222,1,0,0:0:0:0:
192,192,26430,1,8,0:0:0:0:
320,192,26430,1,0,0:0:0:0:
448,192,26534,1,8,0:0:0:0:
64,192,26639,1,0,0:0:0:70:tom01.wav
192,192,26639,128,0,27055:0:0:0:0:
64,192,27055,1,4,0:0:0:0:
320,192,27055,1,2,0:0:0:0:
448,192,27055,1,0,0:0:0:0:
192,192,27264,1,2,0:0:0:0:
192,192,27472,1,8,0:0:0:0:
448,192,27472,1,0,0:0:0:0:
320,192,27889,1,2,0:0:0:0:
448,192,27889,1,0,0:0:0:0:
192,192,28097,1,2,0:0:0:0:
448,192,28097,1,0,0:0:0:0:
64,192,28305,1,8,0:0:0:0:
320,192,28305,1,0,0:0:0:0:
192,192,28514,1,0,0:0:0:0:
192,192,28722,1,2,0:0:0:0:
320,192,28722,1,0,0:0:0:0:
64,192,28930,1,2,0:0:0:0:
320,192,28930,1,0,0:0:0:0:
192,192,29139,1,8,0:0:0:0:
448,192,29139,1,0,0:0:0:0:
320,192,29347,1,0,0:0:0:0:
192,192,29451,1,8,0:0:0:0:
64,192,29555,1,2,0:0:0:0:
448,192,29555,1,0,0:0:0:0:
320,192,29764,1,2,0:0:0:0:
448,192,29764,1,0,0:0:0:0:
64,192,29972,1,8,0:0:0:0:
192,192,29972,1,0,0:0:0:0:
320,192,30180,1,0,0:0:0:0:
64,192,30284,1,8,0:0:0:0:
192,192,30389,1,2,0:0:0:0:
320,192,30389,1,0,0:0:0:0:
192,192,30597,1,2,0:0:0:0:
448,192,30597,1,0,0:0:0:0:
64,192,30805,1,8,0:0:0:0:
320,192,30805,1,0,0:0:0:0:
448,192,31014,1,0,0:0:0:0:
320,192,31118,1,8,0:0:0:0:
64,192,31222,1,2,0:0:0:0:
192,192,31222,1,0,0:0:0:0:
192,192,31430,1,2,0:0:0:0:
320,192,31430,1,0,0:0:0:0:
64,192,31639,1,8,0:0:0:0:
448,192,31639,1,0,0:0:0:0:
192,192,31847,1,0,0:0:0:0:
64,192,31951,1,8,0:0:0:0:
320,192,32055,1,2,0:0:0:0:
448,192,32055,1,0,0:0:0:0:
192,192,32264,1,2,0:0:0:0:
448,192,32264,1,0,0:0:0:0:
64,192,32472,1,8,0:0:0:0:
320,192,32472,1,0,0:0:0:0:
192,192,32680,1,0,0:0:0:0:
320,192,32784,1,8,0:0:0:0:
64,192,32889,1,2,0:0:0:0:
448,192,32889,128,0,33097:0:0:0:0:
192,192,33097,128,2,33305:0:0:0:0:
320,192,33097,1,0,0:0:0:0:
64,192,33305,1,8,0:0:0:0:
448,192,33305,128,0,33722:0:0:0:0:
320,192,33514,128,0,33722:0:0:0:0:
64,192,33722,1,2,0:0:0:0:
192,192,33722,1,0,0:0:0:0:
64,192,33930,1,2,0:0:0:0:
320,192,33930,1,0,0:0:0:0:
192,192,34139,1,8,0:0:0:0:
448,192,34139,128,0,34347:0:0:0:0:
64,192,34347,1,0,0:0:0:0:
192,192,34451,1,8,0:0:0:0:
320,192,34555,1,2,0:0:0:0:
448,192,34555,1,0,0:0:0:0:
192,192,34764,1,2,0:0:0:0:
448,192,34764,1,0,0:0:0:0:
64,192,34972,1,8,0:0:0:0:
320,192,34972,1,0,0:0:0:0:
448,192,35180,1,0,0:0:0:0:
320,192,35284,1,8,0:0:0:0:
64,192,35389,1,2,0:0:0:0:
192,192,35389,1,0,0:0:0:0:
192,192,35597,1,2,0:0:0:0:
320,192,35597,1,0,0:0:0:0:
64,192,35805,128,8,36014:0:0:0:0:
448,192,35805,1,0,0:0:0:0:
320,192,36014,1,0,0:0:0:0:
448,192,36118,1,8,0:0:0:0:
64,192,36222,1,2,0:0:0:0:
192,192,36222,1,0,0:0:0:0:
192,192,36430,1,2,0:0:0:0:
448,192,36430,1,0,0:0:0:0:
64,192,36639,1,8,0:0:0:0:
320,192,36639,1,0,0:0:0:0:
192,192,37055,1,2,0:0:0:0:
320,192,37055,1,8,0:0:0:0:
192,192,37264,1,8,0:0:0:0:
320,192,37264,1,0,0:0:0:0:
448,192,37472,128,0,37680:0:0:0:0:
64,192,37680,1,8,0:0:0:0:
320,192,37680,1,2,0:0:0:0:
64,192,38097,1,2,0:0:0:0:
320,192,38097,1,8,0:0:0:0:
320,192,38514,1,8,0:0:0:0:
448,192,38514,1,2,0:0:0:0:
64,192,38722,1,10,0:0:0:0:
192,192,38722,1,4,0:0:0:0:
320,192,39555,1,0,0:0:0:70:D5S_s.wav
192,192,39659,1,0,0:0:0:0:
448,192,39764,1,0,0:0:0:70:C5S_s.wav
320,192,39868,1,0,0:0:0:0:
64,192,39972,1,8,0:0:0:0:
192,192,39972,1,0,0:0:0:70:A#4S_Bb4S_s.wav
320,192,40076,1,8,0:0:0:0:
64,192,40180,1,8,0:0:0:0:
192,192,40284,1,8,0:0:0:0:
64,192,40389,1,2,0:0:0:0:
320,192,40389,1,4,0:0:0:0:
448,192,40389,1,0,0:0:0:0:
320,192,40597,1,2,0:0:0:0:
448,192,40597,1,0,0:0:0:0:
64,192,40805,128,8,41014:0:0:0:0:
192,192,40805,128,0,41014:0:0:0:0:
320,192,41014,1,0,0:0:0:0:
192,192,41118,1,8,0:0:0:0:
64,192,41222,1,2,0:0:0:0:
320,192,41222,128,0,41430:0:0:0:0:
192,192,41430,1,2,0:0:0:0:
448,192,41430,128,0,41639:0:0:0:0:
192,192,41639,128,8,41847:0:0:0:0:
320,192,41639,128,0,41847:0:0:0:0:
64,192,41847,1,0,0:0:0:0:
64,192,42055,128,2,42368:0:0:0:0:
320,192,42055,128,0,42159:0:0:0:0:
192,192,42264,128,2,42368:0:0:0:0:
448,192,42264,1,0,0:0:0:0:
64,192,42472,128,8,42576:0:0:0:0:
192,192,42472,128,0,42680:0:0:0:0:
448,192,42472,128,0,42784:0:0:0:0:
320,192,42680,128,0,42784:0:0:0:0:
64,192,42784,1,8,0:0:0:0:
192,192,42889,128,2,43097:0:0:0:0:
448,192,42889,1,0,0:0:0:0:
64,192,43097,1,2,0:0:0:0:
320,192,43097,1,0,0:0:0:0:
192,192,43305,1,8,0:0:0:0:
448,192,43305,1,0,0:0:0:0:
64,192,43514,1,0,0:0:0:0:
192,192,43618,1,8,0:0:0:0:
320,192,43722,1,2,0:0:0:0:
448,192,43722,1,0,0:0:0:0:
64,192,43930,1,2,0:0:0:0:
448,192,43930,1,0,0:0:0:0:
192,192,44139,128,8,44347:0:0:0:0:
320,192,44139,128,0,44347:0:0:0:0:
448,192,44347,1,0,0:0:0:0:
192,192,44451,1,8,0:0:0:0:
64,192,44555,128,2,44764:0:0:0:0:
320,192,44555,1,0,0:0:0:0:
192,192,44764,128,2,44972:0:0:0:0:
448,192,44764,1,0,0:0:0:0:
64,192,44972,128,8,45180:0:0:0:0:
448,192,44972,128,0,45180:0:0:0:0:
192,192,45180,1,0,0:0:0:0:
320,192,45284,1,8,0:0:0:0:
192,192,45389,128,2,45493:0:0:0:0:
448,192,45389,128,0,45701:0:0:0:0:
64,192,45597,1,2,0:0:0:0:
320,192,45597,128,0,45701:0:0:0:0:
64,192,45805,128,8,46118:0:0:0:0:
320,192,45805,128,0,46014:0:0:0:0:
448,192,45805,128,0,45909:0:0:0:0:
192,192,46014,128,0,46118:0:0:0:0:
448,192,46118,1,8,0:0:0:0:
64,192,46222,1,2,0:0:0:0:
320,192,46222,128,0,46639:0:0:0:0:
192,192,46430,1,2,0:0:0:0:
64,192,46639,128,8,46847:0:0:0:0:
192,192,46639,128,0,46847:0:0:0:0:
448,192,46847,1,0,0:0:0:70:tom03.wav
320,192,46951,1,0,0:0:0:70:tom04.wav
64,192,47055,1,2,0:0:0:0:
192,192,47055,1,4,0:0:0:0:
448,192,47055,1,0,0:0:0:0:
64,192,47264,1,2,0:0:0:0:
320,192,47264,1,0,0:0:0:0:
192,192,47472,128,8,47680:0:0:0:0:
448,192,47472,128,0,47680:0:0:0:0:
320,192,47680,1,0,0:0:0:0:
192,192,47784,1,8,0:0:0:0:
64,192,47889,1,2,0:0:0:0:
320,192,47889,128,0,48097:0:0:0:0:
192,192,48097,1,2,0:0:0:0:
448,192,48097,128,0,48305:0:0:0:0:
64,192,48305,128,8,48514:0:0:0:0:
192,192,48305,128,0,48514:0:0:0:0:
320,192,48514,1,0,0:0:0:0:
448,192,48618,1,8,0:0:0:0:
192,192,48722,128,2,48826:0:0:0:0:
320,192,48722,128,0,49034:0:0:0:0:
64,192,48930,1,2,0:0:0:0:
448,192,48930,128,0,49034:0:0:0:0:
64,192,49139,128,8,49451:0:0:0:0:
192,192,49139,128,0,49243:0:0:0:0:
448,192,49139,128,0,49347:0:0:0:0:
320,192,49347,128,0,49451:0:0:0:0:
192,192,49451,1,8,0:0:0:0:
64,192,49555,1,2,0:0:0:0:
448,192,49555,128,0,49972:0:0:0:0:
192,192,49764,1,2,0:0:0:0:
192,192,49972,128,8,50180:0:0:0:0:
320,192,49972,128,0,50180:0:0:0:0:
64,192,50180,1,0,0:0:0:0:
192,192,50284,1,8,0:0:0:0:
320,192,50389,128,2,50805:0:0:0:0:
448,192,50389,1,0,0:0:0:0:
64,192,50597,1,2,0:0:0:0:
64,192,50805,128,8,51014:0:0:0:0:
192,192,50805,128,4,51014:0:0:0:0:
448,192,50805,1,0,0:0:0:0:
448,192,51014,1,0,0:0:0:0:
192,192,51118,1,8,0:0:0:0:
320,192,51222,1,2,0:0:0:0:
448,192,51222,128,0,51639:0:0:0:0:
192,192,51430,1,2,0:0:0:0:
64,192,51639,1,8,0:0:0:0:
192,192,51639,128,4,51847:0:0:0:0:
320,192,51639,128,0,51847:0:0:0:0:
64,192,51847,1,0,0:0:0:0:
320,192,51951,1,8,0:0:0:0:
192,192,52055,1,2,0:0:0:0:
448,192,52055,1,0,0:0:0:0:
64,192,52264,1,8,0:0:0:0:
320,192,52264,1,4,0:0:0:0:
448,192,52264,1,0,0:0:0:0:
64,192,52472,1,8,0:0:0:0:
192,192,52472,128,4,52680:0:0:0:0:
448,192,52472,1,0,0:0:0:0:
64,192,52680,1,2,0:0:0:0:
320,192,52680,128,0,52889:0:0:0:0:
192,192,52889,1,2,0:0:0:0:
448,192,52889,128,4,53097:0:0:0:0:
64,192,53097,128,8,53305:0:0:0:0:
320,192,53097,1,0,0:0:0:0:
192,192,53201,1,8,0:0:0:0:
320,192,53305,128,8,53514:0:0:0:0:
448,192,53409,1,8,0:0:0:0:
64,192,53514,128,0,53618:0:0:0:70:tom03.wav
192,192,53618,128,0,53722:0:0:0:70:tom04.wav
64,192,53722,1,2,0:0:0:0:
320,192,53722,1,4,0:0:0:0:
448,192,53722,128,0,54555:0:0:0:0:
192,192,53930,1,2,0:0:0:0:
64,192,54139,1,8,0:0:0:0:
192,192,54139,128,0,54347:0:0:0:0:
320,192,54347,1,0,0:0:0:0:
64,192,54555,128,2,54972:0:0:0:0:
192,192,54555,1,0,0:0:0:0:
320,192,54764,1,2,0:0:0:0:
192,192,54972,128,8,55180:0:0:0:0:
448,192,54972,128,0,55389:0:0:0:0:
320,192,55284,1,8,0:0:0:0:
64,192,55389,1,2,0:0:0:0:
192,192,55389,128,0,56222:0:0:0:0:
320,192,55597,1,2,0:0:0:0:
64,192,55805,1,8,0:0:0:0:
320,192,55805,128,0,56014:0:0:0:0:
64,192,56118,1,8,0:0:0:0:
320,192,56222,1,2,0:0:0:0:
448,192,56222,128,0,56639:0:0:0:0:
64,192,56430,1,2,0:0:0:0:
64,192,56639,128,8,56847:0:0:0:0:
320,192,56639,128,0,57055:0:0:0:0:
192,192,56951,1,8,0:0:0:0:
64,192,57055,128,2,57889:0:0:0:0:
448,192,57055,1,0,0:0:0:0:
320,192,57264,1,2,0:0:0:0:
192,192,57472,1,8,0:0:0:0:
320,192,57472,128,0,57680:0:0:0:0:
448,192,57784,1,8,0:0:0:0:
192,192,57889,128,2,58305:0:0:0:0:
320,192,57889,1,0,0:0:0:0:
64,192,58097,1,2,0:0:0:0:
64,192,58305,128,8,58514:0:0:0:0:
320,192,58305,128,0,58722:0:0:0:0:
192,192,58618,1,8,0:0:0:0:
64,192,58722,1,2,0:0:0:0:
448,192,58722,128,0,59139:0:0:0:0:
192,192,58930,1,2,0:0:0:0:
192,192,59139,128,8,59555:0:0:0:0:
320,192,59139,128,0,59347:0:0:0:0:
64,192,59451,1,8,0:0:0:0:
320,192,59555,1,2,0:0:0:0:
448,192,59555,128,0,59972:0:0:0:0:
64,192,59764,1,2,0:0:0:0:
192,192,59764,128,0,60180:0:0:0:0:
64,192,59972,128,8,60180:0:0:0:0:
320,192,59972,1,0,0:0:0:0:
448,192,60180,128,0,60389:0:0:0:0:
320,192,60284,1,8,0:0:0:0:
64,192,60389,128,2,61222:0:0:0:0:
192,192,60389,1,0,0:0:0:0:
320,192,60597,1,2,0:0:0:0:
320,192,60805,128,8,61014:0:0:0:0:
448,192,60805,1,0,0:0:0:0:
448,192,61118,1,8,0:0:0:0:
192,192,61222,1,2,0:0:0:0:
320,192,61222,128,0,62055:0:0:0:0:
64,192,61430,1,2,0:0:0:0:
192,192,61639,128,8,61847:0:0:0:0:
448,192,61639,1,0,0:0:0:0:
64,192,61951,1,8,0:0:0:0:
192,192,62055,1,2,0:0:0:0:
448,192,62055,128,0,62680:0:0:0:0:
64,192,62264,1,2,0:0:0:0:
64,192,62472,128,8,62680:0:0:0:0:
192,192,62472,128,0,62889:0:0:0:0:
448,192,62784,1,8,0:0:0:0:
64,192,62889,128,2,63305:0:0:0:0:
320,192,62889,1,0,0:0:0:0:
320,192,63097,128,2,63514:0:0:0:0:
448,192,63097,1,0,0:0:0:0:
192,192,63305,1,8,0:0:0:0:
448,192,63305,128,0,63514:0:0:0:0:
64,192,63514,128,0,63722:0:0:0:0:
192,192,63618,1,8,0:0:0:0:
320,192,63722,1,2,0:0:0:0:
448,192,63722,128,0,64139:0:0:0:0:
192,192,63930,1,2,0:0:0:0:
64,192,64139,1,8,0:0:0:0:
192,192,64139,128,4,64347:0:0:0:0:
320,192,64139,128,0,64347:0:0:0:0:
64,192,64347,1,0,0:0:0:0:
192,192,64451,1,8,0:0:0:0:
320,192,64555,128,2,64972:0:0:0:0:
448,192,64555,1,0,0:0:0:0:
64,192,64764,1,2,0:0:0:0:
64,192,64972,128,8,65180:0:0:0:0:
192,192,64972,128,4,65180:0:0:0:0:
448,192,64972,1,0,0:0:0:0:
448,192,65180,1,0,0:0:0:0:
320,192,65284,1,8,0:0:0:0:
64,192,65389,1,2,0:0:0:0:
192,192,65389,1,0,0:0:0:0:
192,192,65597,1,8,0:0:0:0:
320,192,65597,1,4,0:0:0:0:
448,192,65597,1,0,0:0:0:0:
64,192,65805,1,8,0:0:0:0:
192,192,65805,128,4,66014:0:0:0:0:
448,192,65805,1,0,0:0:0:0:
64,192,66014,1,2,0:0:0:0:
320,192,66014,128,0,66222:0:0:0:0:
192,192,66222,1,2,0:0:0:0:
448,192,66222,128,4,66847:0:0:0:0:
64,192,66430,1,8,0:0:0:0:
192,192,66430,1,0,0:0:0:0:
320,192,66534,1,8,0:0:0:0:
64,192,66639,1,0,0:0:0:70:tom01.wav
192,192,66743,1,0,0:0:0:70:tom02.wav
320,192,66847,128,0,66951:0:0:0:70:tom03.wav
192,192,66951,128,0,67055:0:0:0:70:tom04.wav
64,192,67055,1,4,0:0:0:0:
320,192,67055,1,2,0:0:0:0:
448,192,67055,1,0,0:0:0:0:
64,192,67264,1,2,0:0:0:0:
192,192,67264,1,0,0:0:0:0:
320,192,67472,1,8,0:0:0:0:
448,192,67472,1,0,0:0:0:0:
64,192,67680,1,0,0:0:0:0:
192,192,67784,1,8,0:0:0:0:
64,192,67889,1,2,0:0:0:0:
320,192,67889,1,0,0:0:0:0:
192,192,68097,1,2,0:0:0:0:
320,192,68097,1,0,0:0:0:0:
64,192,68305,1,8,0:0:0:0:
448,192,68305,1,0,0:0:0:0:
320,192,68514,1,0,0:0:0:0:
448,192,68618,1,8,0:0:0:0:
64,192,68722,1,2,0:0:0:0:
192,192,68722,1,0,0:0:0:0:
64,192,68930,1,2,0:0:0:0:
320,192,68930,1,0,0:0:0:0:
192,192,69139,1,8,0:0:0:0:
448,192,69139,1,0,0:0:0:0:
320,192,69347,1,0,0:0:0:0:
192,192,69451,1,8,0:0:0:0:
64,192,69555,1,2,0:0:0:0:
320,192,69555,1,0,0:0:0:0:
448,192,69659,1,8,0:0:0:0:
64,192,69764,1,2,0:0:0:0:
192,192,69764,1,0,0:0:0:0:
320,192,69972,1,8,0:0:0:0:
448,192,69972,1,0,0:0:0:0:
448,192,70180,1,0,0:0:0:0:
320,192,70284,1,8,0:0:0:0:
64,192,70389,128,2,70805:0:0:0:0:
192,192,70389,1,0,0:0:0:0:
320,192,70597,1,2,0:0:0:0:
192,192,70805,128,8,71014:0:0:0:0:
320,192,70805,128,4,71014:0:0:0:0:
448,192,70805,1,0,0:0:0:0:
448,192,71014,1,0,0:0:0:0:
320,192,71118,1,8,0:0:0:0:
64,192,71222,1,2,0:0:0:0:
192,192,71222,128,0,71639:0:0:0:0:
448,192,71430,1,2,0:0:0:0:
64,192,71639,1,8,0:0:0:0:
320,192,71639,128,4,71847:0:0:0:0:
448,192,71639,128,0,71847:0:0:0:0:
64,192,71847,1,0,0:0:0:0:
192,192,71951,1,8,0:0:0:0:
320,192,72055,1,2,0:0:0:0:
448,192,72055,1,0,0:0:0:0:
192,192,72264,1,2,0:0:0:0:
448,192,72264,1,0,0:0:0:0:
64,192,72472,1,8,0:0:0:0:
320,192,72472,128,4,72680:0:0:0:0:
448,192,72472,1,0,0:0:0:0:
192,192,72680,128,0,72889:0:0:0:0:
64,192,72889,128,2,73514:0:0:0:0:
448,192,72889,1,4,0:0:0:0:
192,192,73097,1,2,0:0:0:0:
320,192,73201,1,8,0:0:0:0:
448,192,73305,1,8,0:0:0:0:
192,192,73409,1,8,0:0:0:0:
320,192,73514,1,0,0:0:0:70:tom03.wav
192,192,73618,1,0,0:0:0:70:tom04.wav
64,192,73722,1,2,0:0:0:0:
320,192,73722,1,4,0:0:0:0:
448,192,73722,1,0,0:0:0:0:
192,192,73930,1,8,0:0:0:0:
192,192,74139,1,8,0:0:0:0:
448,192,74139,1,0,0:0:0:0:
64,192,74347,1,8,0:0:0:0:
320,192,74382,1,8,0:0:0:0:
320,192,74555,1,8,0:0:0:0:
448,192,74555,1,0,0:0:0:0:
192,192,74764,1,8,0:0:0:0:
192,192,74972,1,8,0:0:0:0:
448,192,74972,1,0,0:0:0:0:
320,192,75180,1,8,0:0:0:0:
64,192,75215,1,8,0:0:0:0:
64,192,75389,1,2,0:0:0:0:
192,192,75389,1,0,0:0:0:0:
320,192,75597,1,8,0:0:0:0:
64,192,75805,1,8,0:0:0:0:
320,192,75805,1,0,0:0:0:0:
192,192,76014,1,8,0:0:0:0:
448,192,76048,1,8,0:0:0:0:
64,192,76222,128,8,76847:0:0:0:0:
448,192,76222,1,0,0:0:0:0:
320,192,76430,1,8,0:0:0:0:
192,192,76639,1,8,0:0:0:0:
320,192,76639,1,0,0:0:0:0:
448,192,76847,1,8,0:0:0:0:
192,192,76882,1,8,0:0:0:0:
64,192,77055,1,4,0:0:0:0:
192,192,77055,1,2,0:0:0:0:
448,192,77055,1,0,0:0:0:0:
320,192,77264,1,8,0:0:0:0:
64,192,77472,1,8,0:0:0:0:
320,192,77472,1,0,0:0:0:0:
448,192,77680,1,8,0:0:0:0:
192,192,77715,1,8,0:0:0:0:
64,192,77889,1,8,0:0:0:0:
192,192,77889,1,0,0:0:0:0:
320,192,78097,1,8,0:0:0:0:
64,192,78305,1,8,0:0:0:0:
320,192,78305,1,0,0:0:0:0:
192,192,78514,1,8,0:0:0:0:
448,192,78548,1,8,0:0:0:0:
320,192,78722,1,2,0:0:0:0:
448,192,78722,1,0,0:0:0:0:
192,192,78930,1,8,0:0:0:0:
192,192,79139,1,8,0:0:0:0:
448,192,79139,1,0,0:0:0:0:
320,192,79347,1,8,0:0:0:0:
64,192,79382,1,8,0:0:0:0:
64,192,79555,1,8,0:0:0:0:
448,192,79555,128,0,80180:0:0:0:0:
192,192,79764,1,8,0:0:0:0:
192,192,79972,1,8,0:0:0:0:
320,192,79972,1,0,0:0:0:0:
64,192,80180,1,8,0:0:0:0:
320,192,80215,1,8,0:0:0:0:
192,192,80389,1,2,0:0:0:0:
320,192,80389,1,4,0:0:0:0:
448,192,80389,1,0,0:0:0:0:
64,192,80597,1,8,0:0:0:0:
64,192,80805,1,8,0:0:0:0:
320,192,80805,1,0,0:0:0:0:
192,192,81014,1,8,0:0:0:0:
448,192,81048,1,8,0:0:0:0:
320,192,81222,1,8,0:0:0:0:
448,192,81222,1,0,0:0:0:0:
192,192,81430,1,8,0:0:0:0:
192,192,81639,1,8,0:0:0:0:
320,192,81639,1,0,0:0:0:0:
448,192,81847,1,8,0:0:0:0:
64,192,81882,1,8,0:0:0:0:
64,192,82055,1,2,0:0:0:0:
192,192,82055,1,0,0:0:0:0:
448,192,82264,1,8,0:0:0:0:
192,192,82472,1,8,0:0:0:0:
448,192,82472,1,0,0:0:0:0:
320,192,82680,1,8,0:0:0:0:
64,192,82715,1,8,0:0:0:0:
64,192,82889,128,8,83514:0:0:0:0:
192,192,82889,1,0,0:0:0:0:
320,192,83097,1,8,0:0:0:0:
192,192,83305,1,8,0:0:0:0:
320,192,83305,1,0,0:0:0:0:
448,192,83514,1,8,0:0:0:0:
192,192,83548,1,8,0:0:0:0:
64,192,83722,1,4,0:0:0:0:
320,192,83722,128,2,83930:0:0:0:0:
448,192,83722,128,0,84451:0:0:0:0:
192,192,83930,128,8,84034:0:0:0:0:
64,192,84139,128,8,84451:0:0:0:0:
192,192,84139,1,0,0:0:0:0:
320,192,84347,128,8,84451:0:0:0:0:
64,192,84555,128,8,85284:0:0:0:0:
192,192,84555,128,4,84764:0:0:0:0:
448,192,84555,1,0,0:0:0:0:
320,192,84764,128,8,84868:0:0:0:0:
320,192,84972,1,8,0:0:0:0:
448,192,84972,128,0,85284:0:0:0:0:
192,192,85180,128,8,85284:0:0:0:0:
64,192,85389,128,2,85701:0:0:0:0:
320,192,85389,1,4,0:0:0:0:
448,192,85389,128,0,86118:0:0:0:0:
192,192,85597,128,8,85701:0:0:0:0:
192,192,85805,128,8,86014:0:0:0:0:
320,192,85805,128,0,86118:0:0:0:0:
64,192,86014,128,8,86118:0:0:0:0:
64,192,86222,128,8,86534:0:0:0:0:
192,192,86222,1,4,0:0:0:0:
448,192,86222,128,0,86534:0:0:0:0:
320,192,86430,128,8,86534:0:0:0:0:
64,192,86639,128,2,86951:0:0:0:0:
192,192,86639,128,4,86951:0:0:0:0:
448,192,86639,128,0,86951:0:0:0:0:
