osu file format v14

[General]
AudioFilename: audio.mp3
AudioLeadIn: 0
PreviewTime: 39551
Countdown: 0
SampleSet: Soft
StackLeniency: 0.7
Mode: 3
LetterboxInBreaks: 0
SpecialStyle: 0
WidescreenStoryboard: 1

[Editor]
DistanceSpacing: 0.9
BeatDivisor: 4
GridSize: 32
TimelineZoom: 1.8

[Metadata]
Title:Boku no Sensou (TV Size)
TitleUnicode:僕の戦争 (TV Size)
Artist:Shinsei Kamattechan
ArtistUnicode:神聖かまってちゃん
Creator:Mirea
Version:Easy
Source:進撃の巨人 The Final Season
Tags:my war snk shingeki no kyojin aot attack on titan sensō anime english opening famoss roger ][ -GH- ][
BeatmapID:2836350
BeatmapSetID:1361666

[Difficulty]
HPDrainRate:7
CircleSize:4
OverallDifficulty:7
ApproachRate:5
SliderMultiplier:1.4
SliderTickRate:1

[Events]
//Background and Video events
0,0,"bg.jpg",0,0
//Break Periods
//Storyboard Layer 0 (Background)
//Storyboard Layer 1 (Fail)
//Storyboard Layer 2 (Pass)
//Storyboard Layer 3 (Foreground)
//Storyboard Layer 4 (Overlay)
//Storyboard Sound Samples
Sample,388,0,"D#5S_Eb5S.wav",70
Sample,6430,0,"B4S_s.wav",70
Sample,6847,0,"G#4S_Ab4S_s.wav",70
Sample,39764,0,"C5S_s.wav",70
Sample,39972,0,"A#4S_Bb4S_s.wav",70
Sample,40180,0,"A4S_s.wav",70

[TimingPoints]
389,416.666666666667,4,2,1,70,1,0
40389,-100,4,2,1,70,0,1
52055,-100,4,2,1,70,0,0
53722,-100,4,2,1,70,0,1
67055,-100,4,2,1,70,0,0

[HitObjects]
192,192,389,128,2,1222:0:0:0:0:
320,192,389,1,4,0:0:0:0:
64,192,1222,128,0,2055:0:0:0:70:E5S.wav
320,192,2055,1,2,0:0:0:0:
448,192,2055,128,0,2889:0:0:0:70:D#5S_Eb5S.wav
192,192,2889,128,0,3305:0:0:0:70:E5S.wav
320,192,3305,128,0,3722:0:0:0:70:G#5S_Ab5S.wav
64,192,3722,128,2,4555:0:0:0:0:
448,192,3722,1,0,0:0:0:70:D#5S_Eb5S.wav
320,192,4555,128,0,5389:0:0:0:70:E5S.wav
192,192,5389,1,2,0:0:0:0:
448,192,5389,128,0,6222:0:0:0:70:D#5S_Eb5S.wav
64,192,6222,128,0,6639:0:0:0:70:C#5S_Db5S_s.wav
448,192,6639,128,0,7055:0:0:0:70:A4S_s.wav
64,192,7055,1,4,0:0:0:0:
192,192,7055,1,2,0:0:0:0:
320,192,7472,1,8,0:0:0:0:
448,192,7889,1,2,0:0:0:0:
192,192,8097,1,2,0:0:0:0:
320,192,8305,1,8,0:0:0:0:
448,192,8722,128,2,9139:0:0:0:0:
64,192,9139,128,8,9555:0:0:0:0:
320,192,9555,1,2,0:0:0:0:
192,192,9764,1,2,0:0:0:0:
64,192,9972,1,8,0:0:0:0:
320,192,10389,1,2,0:0:0:0:
448,192,10389,1,0,0:0:0:0:
192,192,10805,1,8,0:0:0:0:
448,192,11222,1,2,0:0:0:0:
64,192,11430,1,2,0:0:0:0:
320,192,11639,1,8,0:0:0:0:
64,192,12055,128,2,12472:0:0:0:0:
320,192,12472,1,8,0:0:0:0:
448,192,12472,128,4,12889:0:0:0:0:
192,192,12889,1,2,0:0:0:0:
320,192,13097,1,8,0:0:0:0:
192,192,13305,1,8,0:0:0:0:
64,192,13514,1,0,0:0:0:70:tom03.wav
320,192,13722,1,2,0:0:0:0:
448,192,13722,1,4,0:0:0:0:
64,192,14139,1,8,0:0:0:0:
192,192,14555,1,2,0:0:0:0:
320,192,14764,1,2,0:0:0:0:
448,192,14972,1,8,0:0:0:0:
192,192,15389,128,2,15805:0:0:0:0:
64,192,15805,128,8,16222:0:0:0:0:
320,192,16222,1,2,0:0:0:0:
192,192,16430,1,2,0:0:0:0:
448,192,16639,1,8,0:0:0:0:
64,192,17055,1,2,0:0:0:0:
192,192,17264,1,2,0:0:0:0:
320,192,17472,1,8,0:0:0:0:
448,192,17472,1,4,0:0:0:0:
448,192,17889,1,2,0:0:0:0:
320,192,18097,1,2,0:0:0:0:
64,192,18305,1,8,0:0:0:0:
192,192,18305,1,4,0:0:0:0:
448,192,18722,1,2,0:0:0:0:
192,192,18930,1,12,0:0:0:0:
192,192,19139,128,8,19555:0:0:0:0:
320,192,19139,1,4,0:0:0:0:
64,192,19555,1,10,0:0:0:0:
448,192,19555,128,4,19972:0:0:0:0:
192,192,19972,1,10,0:0:0:0:
320,192,20180,1,10,0:0:0:0:
64,192,20389,128,4,20805:0:0:0:0:
448,192,20389,1,2,0:0:0:0:
320,192,20805,1,8,0:0:0:0:
192,192,21222,1,2,0:0:0:0:
64,192,21430,1,2,0:0:0:0:
448,192,21639,1,8,0:0:0:0:
320,192,22055,128,2,22472:0:0:0:0:
192,192,22472,1,8,0:0:0:0:
64,192,22889,1,2,0:0:0:0:
320,192,23097,1,2,0:0:0:0:
448,192,23305,128,8,23722:0:0:0:0:
192,192,23722,128,2,24139:0:0:0:0:
320,192,24139,1,8,0:0:0:0:
64,192,24555,1,2,0:0:0:0:
192,192,24764,1,2,0:0:0:0:
320,192,24972,1,8,0:0:0:0:
64,192,25389,128,2,25805:0:0:0:0:
320,192,25805,1,8,0:0:0:0:
448,192,25805,128,4,26222:0:0:0:0:
192,192,26222,1,2,0:0:0:0:
320,192,26430,1,8,0:0:0:0:
192,192,26639,128,0,27055:0:0:0:70:tom01.wav
448,192,26639,1,0,0:0:0:0:
64,192,27055,1,4,0:0:0:0:
448,192,27055,1,2,0:0:0:0:
192,192,27472,1,8,0:0:0:0:
320,192,27889,1,2,0:0:0:0:
448,192,28097,1,2,0:0:0:0:
192,192,28305,1,8,0:0:0:0:
64,192,28722,1,2,0:0:0:0:
320,192,28722,1,0,0:0:0:0:
192,192,29139,1,8,0:0:0:0:
448,192,29555,1,2,0:0:0:0:
320,192,29764,1,2,0:0:0:0:
192,192,29972,1,8,0:0:0:0:
64,192,30389,1,2,0:0:0:0:
448,192,30389,1,0,0:0:0:0:
320,192,30805,1,8,0:0:0:0:
192,192,31222,1,2,0:0:0:0:
64,192,31430,1,2,0:0:0:0:
448,192,31639,1,8,0:0:0:0:
192,192,32055,1,2,0:0:0:0:
320,192,32055,1,0,0:0:0:0:
448,192,32472,1,8,0:0:0:0:
64,192,32889,1,2,0:0:0:0:
320,192,33097,1,2,0:0:0:0:
192,192,33305,1,8,0:0:0:0:
64,192,33722,1,2,0:0:0:0:
448,192,33722,1,0,0:0:0:0:
192,192,34139,1,8,0:0:0:0:
320,192,34555,1,2,0:0:0:0:
448,192,34764,1,2,0:0:0:0:
64,192,34972,1,8,0:0:0:0:
192,192,35389,1,2,0:0:0:0:
448,192,35389,1,0,0:0:0:0:
320,192,35805,1,8,0:0:0:0:
64,192,36222,1,2,0:0:0:0:
192,192,36430,1,2,0:0:0:0:
320,192,36639,1,8,0:0:0:0:
192,192,37055,1,2,0:0:0:0:
448,192,37055,1,8,0:0:0:0:
64,192,37264,1,8,0:0:0:0:
64,192,37680,1,10,0:0:0:0:
64,192,38097,1,10,0:0:0:0:
448,192,38514,1,10,0:0:0:0:
64,192,38722,1,10,0:0:0:0:
192,192,38722,1,4,0:0:0:0:
448,192,39555,128,0,39972:0:0:0:70:D5S_s.wav
192,192,39972,1,8,0:0:0:0:
320,192,40180,1,8,0:0:0:0:
192,192,40389,1,2,0:0:0:0:
448,192,40389,1,4,0:0:0:0:
64,192,40805,1,8,0:0:0:0:
320,192,41222,1,2,0:0:0:0:
192,192,41430,1,2,0:0:0:0:
448,192,41639,1,8,0:0:0:0:
192,192,42055,128,2,42472:0:0:0:0:
448,192,42472,128,8,42889:0:0:0:0:
64,192,42889,1,2,0:0:0:0:
320,192,43097,1,2,0:0:0:0:
448,192,43305,1,8,0:0:0:0:
192,192,43722,1,2,0:0:0:0:
320,192,44139,1,8,0:0:0:0:
64,192,44555,1,2,0:0:0:0:
192,192,44764,1,2,0:0:0:0:
320,192,44972,1,8,0:0:0:0:
448,192,45389,128,2,45805:0:0:0:0:
192,192,45805,128,8,46222:0:0:0:0:
320,192,46222,1,2,0:0:0:0:
448,192,46430,1,2,0:0:0:0:
192,192,46639,1,8,0:0:0:0:
64,192,46847,1,0,0:0:0:70:tom03.wav
320,192,47055,1,2,0:0:0:0:
448,192,47055,1,4,0:0:0:0:
192,192,47472,1,8,0:0:0:0:
320,192,47889,1,2,0:0:0:0:
64,192,48097,1,2,0:0:0:0:
192,192,48305,1,8,0:0:0:0:
320,192,48722,128,2,49139:0:0:0:0:
448,192,49139,128,8,49555:0:0:0:0:
64,192,49555,1,2,0:0:0:0:
320,192,49764,1,2,0:0:0:0:
192,192,49972,1,8,0:0:0:0:
448,192,50389,1,2,0:0:0:0:
320,192,50597,1,2,0:0:0:0:
64,192,50805,1,8,0:0:0:0:
192,192,50805,1,4,0:0:0:0:
192,192,51222,1,2,0:0:0:0:
64,192,51430,1,2,0:0:0:0:
320,192,51639,1,8,0:0:0:0:
448,192,51639,1,4,0:0:0:0:
64,192,52055,1,2,0:0:0:0:
320,192,52264,1,12,0:0:0:0:
192,192,52472,1,8,0:0:0:0:
320,192,52472,128,4,52889:0:0:0:0:
64,192,52889,128,6,53305:0:0:0:0:
320,192,53305,1,8,0:0:0:0:
192,192,53514,1,0,0:0:0:70:tom03.wav
64,192,53722,1,2,0:0:0:0:
448,192,53722,128,4,54555:0:0:0:0:
192,192,54139,1,8,0:0:0:0:
64,192,54555,1,2,0:0:0:0:
320,192,54764,1,2,0:0:0:0:
192,192,54972,1,8,0:0:0:0:
64,192,55389,128,2,56222:0:0:0:0:
448,192,55805,1,8,0:0:0:0:
320,192,56222,1,2,0:0:0:0:
192,192,56430,1,2,0:0:0:0:
448,192,56639,1,8,0:0:0:0:
320,192,57055,128,2,57889:0:0:0:0:
64,192,57472,1,8,0:0:0:0:
192,192,57889,1,2,0:0:0:0:
448,192,58097,1,2,0:0:0:0:
64,192,58305,1,8,0:0:0:0:
192,192,58722,128,2,59139:0:0:0:0:
320,192,59139,128,8,59555:0:0:0:0:
448,192,59555,1,2,0:0:0:0:
192,192,59764,1,2,0:0:0:0:
64,192,59972,128,8,60389:0:0:0:0:
320,192,60389,1,2,0:0:0:0:
448,192,60805,1,8,0:0:0:0:
64,192,61222,1,2,0:0:0:0:
320,192,61430,1,2,0:0:0:0:
448,192,61639,1,8,0:0:0:0:
192,192,62055,1,2,0:0:0:0:
320,192,62472,128,8,62889:0:0:0:0:
192,192,62889,1,2,0:0:0:0:
64,192,63097,1,2,0:0:0:0:
448,192,63305,128,8,63722:0:0:0:0:
64,192,63722,1,2,0:0:0:0:
192,192,63930,1,2,0:0:0:0:
320,192,64139,1,8,0:0:0:0:
448,192,64139,1,4,0:0:0:0:
320,192,64555,1,2,0:0:0:0:
448,192,64764,1,2,0:0:0:0:
64,192,64972,1,8,0:0:0:0:
192,192,64972,1,4,0:0:0:0:
448,192,65389,1,2,0:0:0:0:
192,192,65597,1,12,0:0:0:0:
192,192,65805,1,8,0:0:0:0:
320,192,65805,128,4,66222:0:0:0:0:
448,192,66222,128,6,66639:0:0:0:0:
192,192,66639,1,0,0:0:0:70:tom01.wav
320,192,66847,1,0,0:0:0:70:tom03.wav
64,192,67055,1,4,0:0:0:0:
448,192,67055,1,2,0:0:0:0:
320,192,67472,1,8,0:0:0:0:
448,192,67889,1,2,0:0:0:0:
192,192,68097,1,2,0:0:0:0:
64,192,68305,1,8,0:0:0:0:
320,192,68722,1,2,0:0:0:0:
448,192,69139,1,8,0:0:0:0:
64,192,69555,1,2,0:0:0:0:
192,192,69764,1,2,0:0:0:0:
320,192,69972,1,8,0:0:0:0:
448,192,70389,1,2,0:0:0:0:
320,192,70597,1,2,0:0:0:0:
192,192,70805,1,8,0:0:0:0:
448,192,70805,1,4,0:0:0:0:
64,192,71222,1,2,0:0:0:0:
192,192,71430,1,2,0:0:0:0:
64,192,71639,1,8,0:0:0:0:
320,192,71639,1,4,0:0:0:0:
192,192,72055,1,2,0:0:0:0:
320,192,72264,1,2,0:0:0:0:
64,192,72472,1,8,0:0:0:0:
320,192,72472,128,4,72889:0:0:0:0:
448,192,72889,128,6,73305:0:0:0:0:
192,192,73305,1,8,0:0:0:0:
320,192,73514,1,0,0:0:0:70:tom03.wav
64,192,73722,1,2,0:0:0:0:
192,192,73722,1,4,0:0:0:0:
64,192,74139,1,8,0:0:0:0:
448,192,74347,1,8,0:0:0:0:
320,192,74555,1,8,0:0:0:0:
320,192,74972,1,8,0:0:0:0:
192,192,75180,1,8,0:0:0:0:
448,192,75389,1,2,0:0:0:0:
448,192,75805,1,8,0:0:0:0:
320,192,76014,1,8,0:0:0:0:
64,192,76222,128,8,76639:0:0:0:0:
192,192,76639,1,8,0:0:0:0:
320,192,76847,1,8,0:0:0:0:
192,192,77055,1,4,0:0:0:0:
448,192,77055,1,2,0:0:0:0:
192,192,77472,1,8,0:0:0:0:
320,192,77680,1,8,0:0:0:0:
64,192,77889,1,8,0:0:0:0:
64,192,78305,1,8,0:0:0:0:
192,192,78514,1,8,0:0:0:0:
320,192,78722,1,2,0:0:0:0:
320,192,79139,1,8,0:0:0:0:
192,192,79347,1,8,0:0:0:0:
448,192,79555,128,8,79972:0:0:0:0:
320,192,79972,1,8,0:0:0:0:
192,192,80180,1,8,0:0:0:0:
64,192,80389,1,2,0:0:0:0:
320,192,80389,1,4,0:0:0:0:
320,192,80805,1,8,0:0:0:0:
64,192,81014,1,8,0:0:0:0:
192,192,81222,1,8,0:0:0:0:
192,192,81639,1,8,0:0:0:0:
320,192,81847,1,8,0:0:0:0:
448,192,82055,1,2,0:0:0:0:
448,192,82472,1,8,0:0:0:0:
192,192,82680,1,8,0:0:0:0:
64,192,82889,128,8,83305:0:0:0:0:
448,192,83305,1,8,0:0:0:0:
320,192,83514,1,8,0:0:0:0:
192,192,83722,128,4,84139:0:0:0:0:
448,192,83722,1,2,0:0:0:0:
64,192,84139,128,8,84555:0:0:0:0:
192,192,84555,1,8,0:0:0:0:
320,192,84555,128,4,84972:0:0:0:0:
64,192,84972,128,8,85389:0:0:0:0:
320,192,85389,1,2,0:0:0:0:
448,192,85389,128,4,85805:0:0:0:0:
64,192,85805,128,8,86222:0:0:0:0:
192,192,86222,128,8,86639:0:0:0:0:
320,192,86222,1,4,0:0:0:0:
64,192,86639,128,2,86951:0:0:0:0:
448,192,86639,128,4,86951:0:0:0:0:
