osu file format v14

[General]
AudioFilename: audio.mp3
AudioLeadIn: 0
PreviewTime: -1
Countdown: 1
SampleSet: None
StackLeniency: 0.7
Mode: 0
LetterboxInBreaks: 0
WidescreenStoryboard: 1

[Editor]
DistanceSpacing: 0.8
BeatDivisor: 3
GridSize: 8
TimelineZoom: 3.750002

[Metadata]
Title:Corpse Party Blood Drive Opening
TitleUnicode:Corpse Party Blood Drive Opening
Artist:Shinsans
ArtistUnicode:Shinsans
Creator:Shinsans
Version:Hard
Source:
Tags:
BeatmapID:1006168
BeatmapSetID:470613

[Difficulty]
HPDrainRate:5
CircleSize:5
OverallDifficulty:5
ApproachRate:5
SliderMultiplier:1.4
SliderTickRate:1

[Events]
//Background and Video events
Video,0,"Corpse Party Blood Drive Opening コープスパーティー 2014.mp4"
0,0,"téléchargement (8).jpg",0,0
//Break Periods
//Storyboard Layer 0 (Background)
//Storyboard Layer 1 (Fail)
//Storyboard Layer 2 (Pass)
//Storyboard Layer 3 (Foreground)
//Storyboard Sound Samples

[TimingPoints]
898,157.068062827225,4,1,0,100,1,0

[Colours]
Combo1 : 128,0,0
Combo2 : 0,0,0
Combo3 : 255,255,255

[HitObjects]
72,248,1996,5,0,0:0:0:0:
192,336,2206,1,0,0:0:0:0:
248,200,2416,1,0,0:0:0:0:
312,216,2651,1,0,0:0:0:0:
304,48,2887,1,0,0:0:0:0:
176,128,3165,1,0,0:0:0:0:
112,288,3411,1,0,0:0:0:0:
256,304,3620,1,0,0:0:0:0:
376,240,3867,1,0,0:0:0:0:
376,120,4039,1,0,0:0:0:0:
272,72,4196,1,0,0:0:0:0:
160,64,4353,1,0,0:0:0:0:
216,184,4569,1,0,0:0:0:0:
256,280,4719,1,0,0:0:0:0:
360,328,4877,1,0,0:0:0:0:
344,160,5154,1,0,0:0:0:0:
360,256,5295,1,0,0:0:0:0:
472,280,5452,1,0,0:0:0:0:
480,144,5739,1,0,0:0:0:0:
352,112,5924,1,0,0:0:0:0:
240,88,6081,1,0,0:0:0:0:
240,216,6401,1,0,0:0:0:0:
128,304,6604,2,0,L|480:304,1,326.666666666667
152,136,7156,1,0,0:0:0:0:
240,136,7285,2,0,L|480:136,1,233.333333333333
320,32,7808,2,0,B|88:40|112:32,1,186.666666666667
224,264,8132,1,0,0:0:0:0:
256,192,8620,1,0,0:0:0:0:
160,208,8751,2,0,P|296:344|336:344,1,233.333333333333
440,128,9130,5,0,0:0:0:0:
432,232,9274,2,0,L|192:320,1,233.333333333333
256,128,9715,1,0,0:0:0:0:
88,176,9955,1,0,0:0:0:0:
248,216,10183,1,0,0:0:0:0:
328,104,10374,1,0,0:0:0:0:
448,224,10651,1,0,0:0:0:0:
400,328,11002,1,0,0:0:0:0:
344,192,11212,1,0,0:0:0:0:
176,168,11400,1,0,0:0:0:0:
200,32,11820,1,0,0:0:0:0:
328,48,11997,1,0,0:0:0:0:
200,272,12405,1,0,0:0:0:0:
248,80,12678,1,0,0:0:0:0:
344,200,12900,1,0,0:0:0:0:
344,64,13096,1,0,0:0:0:0:
264,320,13341,1,0,0:0:0:0:
160,280,13692,1,0,0:0:0:0:
288,240,13882,1,0,0:0:0:0:
232,112,14150,1,0,0:0:0:0:
360,184,14353,1,0,0:0:0:0:
360,32,14627,1,0,0:0:0:0:
256,80,14978,5,0,0:0:0:0:
72,48,15243,2,0,L|72:312,1,233.333333333333
272,184,15682,1,0,0:0:0:0:
456,232,16031,2,0,B|448:32|448:64|456:96,1,140
256,192,16447,12,0,17128,0:0:0:0:
432,272,17434,5,0,0:0:0:0:
312,280,17599,2,0,L|80:280,1,186.666666666667
280,176,18070,1,0,0:0:0:0:
208,80,18370,1,0,0:0:0:0:
128,176,18541,2,0,L|416:304,1,280
256,192,19117,12,0,19746,0:0:0:0:
368,248,19986,5,0,0:0:0:0:
368,160,20112,2,0,L|72:48,1,280
64,280,20740,1,0,0:0:0:0:
216,248,20998,1,0,0:0:0:0:
328,256,21159,2,0,L|488:80,1,233.333333333333
224,136,21758,1,0,0:0:0:0:
200,224,21892,2,0,L|16:328,2,186.666666666667
328,184,22517,1,0,0:0:0:0:
384,40,22730,1,0,0:0:0:0:
376,240,23024,1,0,0:0:0:0:
272,312,23201,1,0,0:0:0:0:
104,192,23516,6,0,P|384:160|408:160,1,280
280,264,24039,2,0,L|280:64,1,186.666666666667
104,152,24510,2,0,L|448:152,1,326.666666666667
304,280,25505,1,0,0:0:0:0:
408,240,25662,2,0,P|416:48|328:48,1,326.666666666667
224,128,26440,1,0,0:0:0:0:
32,136,26709,1,0,0:0:0:0:
136,296,27025,1,0,0:0:0:0:
56,264,27285,1,0,0:0:0:0:
312,232,27610,1,0,0:0:0:0:
232,104,28078,1,0,0:0:0:0:
128,200,28280,2,0,B|496:80|480:80,1,373.333333333333
376,248,29013,1,0,0:0:0:0:
320,112,29222,2,0,L|16:112,2,280
448,104,30112,1,0,0:0:0:0:
256,192,30374,12,0,31473,0:0:0:0:
368,232,32391,6,0,L|248:200,2,93.3333333333333
344,104,32835,2,0,L|80:104,2,233.333333333333
416,184,33515,1,0,0:0:0:0:
296,208,33910,1,0,0:0:0:0:
400,32,34196,2,0,L|56:32,1,326.666666666667
424,288,34922,1,0,0:0:0:0:
472,144,35138,1,0,0:0:0:0:
368,240,35429,1,0,0:0:0:0:
392,112,35610,5,0,0:0:0:0:
312,192,35935,1,0,0:0:0:0:
240,160,36441,1,0,0:0:0:0:
288,104,36948,1,0,0:0:0:0:
336,160,37454,1,0,0:0:0:0:
328,232,37960,1,0,0:0:0:0:
232,112,38175,1,0,0:0:0:0:
296,296,38467,1,0,0:0:0:0:
392,160,38699,2,0,L|400:312,3,140
144,288,39479,2,0,B|256:288|256:288|232:288|240:288,2,93.3333333333333
256,192,40007,12,0,40845,0:0:0:0:
56,272,41059,5,0,0:0:0:0:
104,136,41264,1,0,0:0:0:0:
128,296,41547,1,0,0:0:0:0:
256,136,42011,2,0,B|256:248|256:240|256:240|264:232,2,93.3333333333333
256,192,42468,12,0,43044,0:0:0:0:
224,208,43498,5,0,0:0:0:0:
296,240,43986,1,0,0:0:0:0:
248,176,44473,2,0,P|144:112|112:192,1,233.333333333333
216,280,44929,2,0,P|416:272|168:64,1,746.666666666667
184,168,46181,1,0,0:0:0:0:
128,208,46568,5,0,0:0:0:0:
312,104,46866,1,0,0:0:0:0:
216,224,47156,1,0,0:0:0:0:
456,248,47494,1,0,0:0:0:0:
112,280,47834,1,0,0:0:0:0:
96,40,48175,1,0,0:0:0:0:
216,232,48593,1,0,0:0:0:0:
280,192,49100,1,0,0:0:0:0:
344,232,49606,1,0,0:0:0:0:
104,72,50007,1,0,0:0:0:0:
440,32,50479,1,0,0:0:0:0:
296,184,50872,1,0,0:0:0:0:
32,96,51264,1,0,0:0:0:0:
184,304,51630,1,0,0:0:0:0:
328,144,52138,1,0,0:0:0:0:
24,80,52573,1,0,0:0:0:0:
208,40,52835,1,0,0:0:0:0:
272,216,53403,1,0,0:0:0:0:
264,304,53986,1,0,0:0:0:0:
416,264,54416,1,0,0:0:0:0:
432,184,54961,1,0,0:0:0:0:
376,136,55449,1,0,0:0:0:0:
208,176,55935,1,0,0:0:0:0:
320,312,56185,2,0,L|56:312,1,233.333333333333
304,120,56695,1,0,0:0:0:0:
192,232,56918,2,0,P|432:336|464:320,1,280
200,88,57454,2,0,L|416:240,1,233.333333333333
256,192,57913,12,0,58960,0:0:0:0:
320,192,59226,6,0,L|104:96,1,233.333333333333
88,208,59641,2,0,L|352:328,1,280
400,184,60165,2,0,P|96:88|80:56,1,373.333333333333
200,64,60740,1,0,0:0:0:0:
256,192,62259,12,0,64719,0:0:0:0:
48,144,65191,6,0,P|384:168|376:128,1,606.666666666667
216,240,66133,2,0,P|48:104|248:80,1,513.333333333333
320,272,67023,2,0,P|208:120|272:296,1,513.333333333333
256,192,67913,12,0,70793,0:0:0:0:
88,200,71125,6,0,P|352:184|336:144,1,466.666666666667
240,104,71840,1,0,0:0:0:0:
152,312,72154,1,0,0:0:0:0:
376,280,72468,1,0,0:0:0:0:
216,184,72730,1,0,0:0:0:0:
192,328,73096,1,0,0:0:0:0:
416,328,73411,1,0,0:0:0:0:
351,180,73910,2,0,P|64:184|72:216,1,513.333333333333
192,168,74667,2,0,P|464:296|352:352,1,653.333333333333
256,280,75610,2,0,P|296:32|152:56,1,466.666666666667
256,192,76604,12,0,77337,0:0:0:0:
208,160,77707,5,0,0:0:0:0:
416,88,78018,1,0,0:0:0:0:
288,240,78467,1,0,0:0:0:0:
312,312,78973,1,0,0:0:0:0:
344,216,79117,2,0,P|120:152|352:56,1,606.666666666667
120,104,80112,1,0,0:0:0:0:
96,248,80492,1,0,0:0:0:0:
264,192,80740,2,0,P|416:112|376:224,1,373.333333333333
264,152,81369,2,0,B|48:96|96:104,1,186.666666666667
312,296,82011,1,0,0:0:0:0:
256,192,82206,12,0,83201,0:0:0:0:
176,120,83530,5,0,0:0:0:0:
136,216,83672,1,0,0:0:0:0:
264,352,83934,1,0,0:0:0:0:
200,136,84248,1,0,0:0:0:0:
344,200,84796,1,0,0:0:0:0:
368,72,84981,2,0,B|120:304|192:288,2,280
168,144,86062,1,0,0:0:0:0:
288,96,86238,2,0,L|56:360,1,326.666666666667
128,160,86866,1,0,0:0:0:0:
336,224,87327,1,0,0:0:0:0:
176,112,87599,1,0,0:0:0:0:
40,296,87913,1,0,0:0:0:0:
304,152,88332,1,0,0:0:0:0:
120,272,88846,1,0,0:0:0:0:
256,192,89117,12,0,90112,0:0:0:0:
288,120,90365,5,0,0:0:0:0:
440,104,90583,2,0,B|328:336|344:320,1,233.333333333333
256,192,91316,12,0,93463,0:0:0:0:
40,56,93725,6,0,P|448:56|440:32,1,793.333333333333
432,264,94929,2,0,P|24:264|32:288,1,793.333333333333
104,128,96290,2,0,P|400:128|136:304,1,793.333333333333
112,184,97390,1,0,0:0:0:0:
328,136,97704,1,0,0:0:0:0:
176,296,98018,1,0,0:0:0:0:
448,176,98437,1,0,0:0:0:0:
192,232,98803,1,0,0:0:0:0:
176,64,99170,1,0,0:0:0:0:
256,192,99536,12,0,100269,0:0:0:0:
144,112,100492,5,0,0:0:0:0:
240,88,100636,1,0,0:0:0:0:
424,216,100950,1,0,0:0:0:0:
288,344,101212,1,0,0:0:0:0:
40,16,101788,1,0,0:0:0:0:
160,208,102011,5,0,0:0:0:0:
248,304,102468,1,0,0:0:0:0:
264,168,102770,1,0,0:0:0:0:
80,232,103044,1,0,0:0:0:0:
368,136,103530,1,0,0:0:0:0:
376,208,104036,1,0,0:0:0:0:
120,176,104289,1,0,0:0:0:0:
328,72,104615,2,0,P|48:72|40:72,1,280
264,208,105302,1,0,0:0:0:0:
256,192,105714,12,0,106342,0:0:0:0:
264,168,106709,6,0,P|48:224|264:72,1,746.666666666667
160,120,107834,1,0,0:0:0:0:
184,248,108018,2,0,P|424:256|312:136,1,560
136,112,108908,1,0,0:0:0:0:
360,224,109353,1,0,0:0:0:0:
120,80,109746,1,0,0:0:0:0:
344,48,110060,1,0,0:0:0:0:
176,224,110619,2,0,B|408:96|464:96|400:344|384:336,1,420
256,192,111369,12,0,113044,0:0:0:0:
288,280,113657,6,0,P|120:96|216:32,1,420
304,200,114405,1,0,0:0:0:0:
40,168,114772,1,0,0:0:0:0:
160,288,115243,2,0,P|424:88|208:72,1,793.333333333333
216,104,116441,2,0,B|432:328|472:360|72:328,1,560
224,144,117390,2,0,B|464:208|384:160|232:368|80:192|96:224,1,420
256,192,118123,12,0,120007,0:0:0:0:
160,112,120374,6,0,P|376:248|392:32,1,560
160,144,121369,2,0,P|464:192|192:216,1,933.333333333333
72,160,123096,1,0,0:0:0:0:
216,328,123411,1,0,0:0:0:0:
192,280,123777,2,0,P|432:192|184:112,1,653.333333333333
256,192,124929,12,0,131136,0:0:0:0:
