osu file format v14

[General]
AudioFilename: audio.mp3
AudioLeadIn: 0
PreviewTime: 1350
Countdown: 0
SampleSet: Soft
StackLeniency: 0.7
Mode: 0
LetterboxInBreaks: 0
WidescreenStoryboard: 0

[Editor]
Bookmarks: 147560,165560
DistanceSpacing: 0.7
BeatDivisor: 16
GridSize: 4
TimelineZoom: 2.799999

[Metadata]
Title:Zenryoku Happy Life
TitleUnicode:全力ハッピーライフ
Artist:Shinra-bansho
ArtistUnicode:森羅万象
Creator:Hailie
Version:Extra
Source:東方永夜抄 ~ Imperishable Night.
Tags:Full power ayaponzu* touhou zun Reisen Udongein Inaba theme Caral kaztora 狂気の瞳 ~ Invisible Full Moon 東方Project あやぽんず* banshou Yugu
BeatmapID:1692553
BeatmapSetID:806350

[Difficulty]
HPDrainRate:6
CircleSize:4.2
OverallDifficulty:8.7
ApproachRate:8.7
SliderMultiplier:1.75
SliderTickRate:1

[Events]
//Background and Video events
0,0,"bg.jpg",0,0
Video,0,"vid.avi"
//Break Periods
//Storyboard Layer 0 (Background)
//Storyboard Layer 1 (Fail)
//Storyboard Layer 2 (Pass)
//Storyboard Layer 3 (Foreground)
//Storyboard Sound Samples

[TimingPoints]
1350,315.789473684211,4,2,0,50,1,0
12718,-100,4,2,0,60,0,0
30402,-117.647058823529,4,2,0,50,0,0
40507,-100,4,2,0,60,0,0
73350,-100,4,2,0,50,0,0
75876,-80,4,2,0,75,0,1
76192,-80,4,2,0,75,0,0
96086,-80,4,2,0,40,0,0
97350,-133.333333333333,4,2,0,40,0,0
107455,-133.333333333333,4,2,0,60,0,0
107771,-100,4,2,0,60,0,0
140297,-100,4,2,0,50,0,0
141876,-100,4,2,0,60,0,0
142192,-90.9090909090909,4,2,0,60,0,0
142507,-83.3333333333333,4,2,0,60,0,0
142823,-80,4,2,0,75,0,1
143139,-80,4,2,0,75,0,0
165560,-80,4,2,0,65,0,0
188297,315.789473684211,3,2,0,50,1,0
188297,-133.333333333333,3,2,0,50,0,0
199665,315.789473684211,4,2,0,60,1,0
199665,-105.263157894737,4,2,0,60,0,0
211033,-80.0000000000001,4,2,0,60,0,0
212296,-80.0000000000001,4,2,0,45,0,0
224928,-74.0740740740741,4,2,0,85,0,1
247665,-74.0740740740741,4,2,0,55,0,0
251454,-80,4,2,0,70,0,1
251770,-80,4,2,0,70,0,0
269138,-80,4,2,0,40,0,0
270559,-80,4,2,0,70,0,0
271112,-80,4,2,0,5,0,0

[Colours]
Combo1 : 240,139,79
Combo2 : 226,65,97

[HitObjects]
470,42,1350,6,0,P|388:13|328:88,1,175,4|0,1:0|1:0,0:0:0:0:
147,134,1823,2,0,P|228:183|299:117,1,175,0|0,1:0|1:0,0:0:0:0:
156,36,2455,1,0,1:0:0:0:
332,36,2613,6,0,L|323:233,1,175,4|0,1:0|1:0,0:0:0:0:
449,338,3086,2,0,L|431:130,1,175,0|0,1:0|1:0,0:0:0:0:
497,32,3718,1,0,1:0:0:0:
434,164,3876,6,0,P|352:196|258:140,1,175,4|0,1:0|1:0,0:0:0:0:
122,264,4350,2,0,P|187:234|276:280,1,175,0|0,1:0|1:0,0:0:0:0:
255,75,4981,1,0,1:0:0:0:
274,277,5455,6,0,L|266:164,1,87.5,4|0,1:0|0:0,0:0:0:0:
374,46,5771,2,0,P|382:87|375:150,1,87.5,0|0,1:0|0:0,0:0:0:0:
267,189,6086,1,4,1:3:0:0:
267,189,6165,1,4,1:3:0:0:
267,189,6244,1,4,1:3:0:0:
438,298,6402,6,0,B|367:261|367:261|265:278,1,175,4|0,1:0|1:0,0:0:0:0:
72,359,6876,2,0,P|142:381|204:310,1,175,0|0,1:0|1:0,0:0:0:0:
353,221,7507,1,0,1:0:0:0:
124,275,7665,6,0,B|144:219|115:191|90:149|119:86,1,175,4|0,1:0|1:0,0:0:0:0:
335,83,8139,2,0,L|142:46,1,175,0|0,1:0|1:0,0:0:0:0:
377,18,8771,1,0,1:0:0:0:
409,158,8928,6,0,P|368:139|429:141,1,175,4|0,1:0|1:0,0:0:0:0:
280,242,9560,2,0,P|298:297|248:246,1,175,4|0,1:0|1:0,0:0:0:0:
71,64,10192,6,0,L|82:183,1,87.5,4|0,1:0|0:0,0:0:0:0:
128,246,10507,2,0,L|167:155,1,87.5,4|0,1:3|0:0,0:0:0:0:
314,88,10823,2,0,L|221:78,1,87.5,4|0,1:3|1:0,0:0:0:0:
242,90,11060,1,0,1:0:0:0:
259,96,11139,2,0,L|365:104,1,87.5,4|0,1:3|1:0,0:0:0:0:
346,102,12718,6,0,P|316:154|337:251,1,131.25,4|0,1:0|0:0,0:0:0:0:
399,206,13034,1,0,1:0:0:0:
218,193,13192,1,2,0:0:0:0:
211,201,13271,1,2,0:0:0:0:
203,208,13350,2,0,L|88:204,1,87.5,4|2,0:3|3:0,0:0:0:0:
316,309,13665,2,0,L|196:298,1,87.5,0|2,1:0|0:0,0:0:0:0:
79,348,13981,1,4,1:3:0:0:
39,168,14139,6,0,P|31:207|56:275,1,87.5,2|0,3:0|1:0,0:0:0:0:
197,163,14455,2,0,P|204:117|184:57,1,87.5,2|4,3:0|3:0,0:0:0:0:
321,196,14771,1,2,3:2:0:0:
152,192,14928,1,0,1:0:0:0:
241,61,15086,1,2,0:0:0:0:
241,276,15244,6,0,P|235:201|293:137,1,131.25,4|0,1:0|0:0,0:0:0:0:
180,119,15560,1,0,1:0:0:0:
335,216,15718,1,2,0:0:0:0:
342,223,15797,1,2,0:0:0:0:
350,229,15876,2,0,L|337:347,1,87.5,4|2,0:3|3:0,0:0:0:0:
436,168,16192,2,0,L|431:274,1,87.5,0|2,1:0|0:0,0:0:0:0:
488,96,16507,1,4,1:3:0:0:
350,229,16665,6,0,P|304:235|246:219,1,87.5,2|0,3:0|1:0,0:0:0:0:
401,97,16981,2,0,P|443:91|503:99,1,87.5,2|4,3:0|3:0,0:0:0:0:
277,104,17297,1,2,3:2:0:0:
418,176,17455,1,0,1:0:0:0:
243,104,17613,1,2,0:0:0:0:
163,309,17771,6,0,P|206:282|237:207,1,131.25,4|0,1:0|0:0,0:0:0:0:
305,173,18086,1,0,1:0:0:0:
163,309,18244,1,2,0:0:0:0:
154,317,18323,1,2,0:0:0:0:
145,326,18402,2,0,L|36:283,1,87.5,4|2,0:3|3:0,0:0:0:0:
265,280,18718,2,0,L|151:238,1,87.5,0|2,1:0|0:0,0:0:0:0:
320,355,19034,1,4,1:3:0:0:
446,194,19192,6,0,B|449:151|449:151|431:89,1,87.5,2|0,3:0|1:0,0:0:0:0:
273,194,19507,2,0,P|260:246|274:303,1,87.5,2|4,3:0|3:0,0:0:0:0:
324,117,19823,1,2,3:2:0:0:
324,117,19902,1,0,1:0:0:0:
324,117,19981,2,0,P|270:109|214:125,1,87.5,0|2,1:0|0:0,0:0:0:0:
196,131,20218,1,0,1:0:0:0:
141,188,20297,6,0,P|121:252|162:337,1,131.25,4|0,1:0|0:0,0:0:0:0:
237,241,20613,2,0,P|243:189|157:124,1,131.25,4|0,1:0|0:0,0:0:0:0:
352,209,20928,2,0,P|359:284|434:290,1,131.25,4|0,1:0|0:0,0:0:0:0:
411,148,21244,2,0,P|400:88|315:87,1,131.25,4|0,1:0|0:0,0:0:0:0:
272,103,21560,5,4,1:0:0:0:
139,311,21876,1,4,1:0:0:0:
411,148,22034,1,0,1:0:0:0:
411,148,22113,1,0,1:0:0:0:
411,148,22192,1,4,1:0:0:0:
180,60,22350,1,0,1:0:0:0:
139,311,22507,1,4,1:3:0:0:
105,278,22586,1,0,1:0:0:0:
97,226,22665,1,0,1:0:0:0:
112,175,22744,1,0,1:0:0:0:
152,149,22823,6,0,B|202:165|202:165|235:128|294:143,1,131.25,4|0,1:0|0:0,0:0:0:0:
334,66,23139,1,0,1:0:0:0:
375,190,23297,1,2,0:0:0:0:
384,203,23376,1,2,0:0:0:0:
395,230,23455,2,0,P|377:283|397:331,1,87.5,4|2,0:3|3:0,0:0:0:0:
462,198,23771,1,0,1:0:0:0:
297,316,23928,6,0,L|141:290,1,131.25,2|0,0:0|0:0,0:0:0:0:
85,273,24244,2,0,L|213:260,1,87.5,2|0,3:0|1:0,0:0:0:0:
297,316,24560,1,2,3:0:0:0:
338,179,24718,1,4,0:3:0:0:
208,133,24876,1,2,0:0:0:0:
172,264,25034,1,0,1:0:0:0:
208,133,25192,1,2,0:0:0:0:
391,183,25350,6,0,B|339:180|339:180|319:220|247:223,1,131.25,4|0,1:0|0:0,0:0:0:0:
285,106,25665,1,0,1:0:0:0:
461,141,25823,1,2,0:0:0:0:
475,131,25902,1,2,0:0:0:0:
485,122,25981,2,0,P|485:74|478:13,1,87.5,4|2,0:3|3:0,0:0:0:0:
494,224,26297,1,0,1:0:0:0:
372,59,26455,6,0,B|331:79|303:56|281:41|215:67,1,131.25,2|0,0:0|0:0,0:0:0:0:
184,123,26771,2,0,P|212:89|221:23,1,87.5,2|0,3:0|1:0,0:0:0:0:
139,185,27086,1,2,3:0:0:0:
81,48,27244,1,4,0:3:0:0:
139,185,27402,1,2,0:0:0:0:
14,260,27560,1,0,1:0:0:0:
133,345,27718,1,2,0:0:0:0:
189,162,27876,6,0,L|159:56,1,87.5,4|0,1:0|1:0,0:0:0:0:
161,66,28113,1,0,1:0:0:0:
161,65,28192,1,2,1:2:0:0:
261,157,28350,1,0,1:0:0:0:
261,157,28428,1,0,1:0:0:0:
261,157,28507,1,4,1:3:0:0:
364,248,28665,1,4,0:3:0:0:
364,248,28744,1,4,0:3:0:0:
364,248,28823,1,12,0:3:0:0:
441,42,28981,1,4,1:0:0:0:
393,268,29297,5,0,1:0:0:0:
402,78,29455,1,4,1:3:0:0:
428,292,29613,1,0,1:0:0:0:
377,63,29771,1,4,1:3:0:0:
469,322,29928,1,0,1:0:0:0:
469,322,30007,1,0,1:0:0:0:
469,322,30086,1,4,1:3:0:0:
318,220,30244,1,8,0:3:0:0:
165,192,30402,5,4,1:0:0:0:
165,192,30718,2,0,P|165:148|186:112,1,74.3750014185906,4|0,0:3|0:0,0:0:0:0:
251,91,31034,1,4,0:3:0:0:
251,91,31192,2,0,B|300:117|325:89|349:65|418:93,1,148.750002837181,2|0,0:0|0:0,0:0:0:0:
466,45,31665,2,0,P|473:118|483:206,1,148.750002837181,4|4,0:3|0:3,0:0:0:0:
428,253,32139,2,0,P|355:252|266:253,1,148.750002837181,2|2,0:0|0:0,0:0:0:0:
279,252,32613,1,4,0:3:0:0:
249,338,32771,1,2,3:2:0:0:
145,353,32928,1,4,1:0:0:0:
145,353,33244,6,0,P|114:325|144:219,1,148.750002837181,4|4,0:3|0:3,0:0:0:0:
175,151,33718,2,0,P|217:199|305:170,1,148.750002837181,2|0,0:0|0:0,0:0:0:0:
377,188,34192,1,4,0:3:0:0:
377,188,34350,2,0,P|384:235|377:287,1,74.3750014185906,2|4,0:0|1:3,0:0:0:0:
378,336,34665,2,0,P|340:335|281:311,1,74.3750014185906,2|4,0:0|0:3,0:0:0:0:
305,324,34981,1,2,0:0:0:0:
231,298,35139,1,4,0:3:0:0:
182,225,35297,1,2,3:2:0:0:
141,312,35455,6,0,P|54:298|-11:339,1,148.750002837181,4|8,0:0|3:0,0:0:0:0:
99,189,35928,1,2,0:3:0:0:
108,207,36086,1,4,0:3:0:0:
258,241,36244,1,2,0:0:0:0:
88,165,36402,2,0,L|-7:177,1,74.3750014185906,4|0,0:3|0:0,0:0:0:0:
229,113,36718,6,0,P|215:187|284:250,1,148.750002837181,4|4,0:0|0:3,0:0:0:0:
306,125,37192,2,0,P|304:92|281:34,1,74.3750014185906,2|4,0:3|0:3,0:0:0:0:
126,35,37507,1,2,0:0:0:0:
46,128,37665,2,0,L|38:230,1,74.3750014185906,4|0,0:3|0:0,0:0:0:0:
153,332,37981,2,0,P|150:290|164:243,1,74.3750014185906,4|12,1:0|0:3,0:0:0:0:
266,138,38297,1,4,0:3:0:0:
160,262,38455,1,12,0:3:0:0:
160,262,38534,1,4,3:0:0:0:
160,262,38613,1,4,1:3:0:0:
270,110,38771,1,4,0:3:0:0:
157,289,38928,1,4,1:3:0:0:
272,78,39086,1,4,0:3:0:0:
256,351,39244,5,4,1:0:0:0:
372,354,39402,1,2,0:0:0:0:
315,281,39560,1,2,0:0:0:0:
440,294,39718,1,2,0:0:0:0:
466,148,39876,2,0,L|451:39,1,74.3750014185906,4|4,0:3|0:3,0:0:0:0:
476,52,40113,1,0,1:0:0:0:
476,52,40192,1,4,1:0:0:0:
504,245,40350,1,2,0:0:0:0:
371,65,40507,1,4,1:0:0:0:
373,88,40665,1,2,0:0:0:0:
279,150,40823,6,0,P|223:174|129:105,1,175,0|4,1:0|0:3,0:0:0:0:
38,241,41297,2,0,P|81:247|141:221,1,87.5,0|0,3:0|1:0,0:0:0:0:
247,121,41613,1,0,3:0:0:0:
191,282,41771,2,0,B|129:270|122:235|122:235|83:258|22:237,1,175,4|0,3:3|1:0,0:0:0:0:
91,353,42244,1,2,3:2:0:0:
226,234,42402,5,4,3:0:0:0:
293,308,42560,1,2,0:0:0:0:
123,237,42718,1,0,1:0:0:0:
239,134,42876,1,0,3:0:0:0:
372,318,43034,2,0,P|353:357|252:370,1,131.25,4|0,1:0|0:0,0:0:0:0:
293,308,43350,2,0,P|321:260|386:243,1,87.5,0|2,1:0|0:0,0:0:0:0:
453,343,43665,1,4,0:3:0:0:
349,216,43823,5,0,3:0:0:0:
469,123,43981,1,0,1:0:0:0:
318,206,44139,2,0,L|218:165,1,87.5,0|4,3:0|3:3,0:0:0:0:
56,102,44455,2,0,L|161:143,1,87.5,0|0,3:0|1:0,0:0:0:0:
337,121,44771,2,0,P|332:167|304:228,1,87.5,2|0,3:2|3:0,0:0:0:0:
137,136,45086,1,2,0:0:0:0:
107,293,45244,2,0,P|149:291|205:237,1,87.5,0|0,1:0|3:0,0:0:0:0:
147,60,45560,1,4,1:0:0:0:
142,99,45718,1,2,0:0:0:0:
32,235,45876,6,0,P|21:170|62:114,1,131.25,0|0,1:0|0:0,0:0:0:0:
142,99,46192,1,4,0:3:0:0:
100,282,46350,2,0,L|205:263,1,87.5,0|0,3:0|1:0,0:0:0:0:
289,374,46665,2,0,P|294:332|256:238,1,131.25,0|0,3:0|0:0,0:0:0:0:
280,175,46981,1,0,3:0:0:0:
142,99,47139,2,0,P|133:150|154:205,1,87.5,0|2,1:0|3:2,0:0:0:0:
201,32,47455,6,0,P|153:17|109:19,1,87.5,0|2,3:0|0:0,0:0:0:0:
55,183,47771,2,0,P|93:189|159:178,1,87.5,0|0,1:0|3:0,0:0:0:0:
342,182,48086,2,0,P|289:194|337:294,1,175,4|0,1:0|1:0,0:0:0:0:
461,226,48560,1,2,0:0:0:0:
316,107,48718,1,4,0:3:0:0:
382,240,48876,1,2,3:2:0:0:
451,102,49034,1,0,1:0:0:0:
382,240,49192,1,0,3:0:0:0:
278,156,49350,6,0,L|280:93,1,43.75,4|0,1:0|0:0,0:0:0:0:
399,258,49507,2,0,L|395:318,1,43.75,4|0,3:0|0:0,0:0:0:0:
310,88,49665,1,0,1:0:0:0:
240,260,49823,2,0,B|185:235|153:268|125:297|45:256,1,175,4|12,1:1|0:3,0:0:0:0:
152,83,50297,1,12,0:3:0:0:
257,357,50613,5,4,1:0:0:0:
413,192,50928,1,0,1:0:0:0:
230,42,51244,2,0,L|128:97,1,87.5,4|2,1:3|0:0,0:0:0:0:
118,83,51481,1,0,1:0:0:0:
118,83,51560,1,0,1:0:0:0:
491,191,51876,5,4,1:0:0:0:
388,112,52034,2,0,P|312:112|286:116,1,87.5,2|2,0:0|0:0,0:0:0:0:
246,178,52350,2,0,P|226:227|104:245,1,175,4|0,0:3|0:0,0:0:0:0:
303,298,52823,2,0,P|378:266|439:294,1,131.25,2|0,0:0|0:0,0:0:0:0:
476,343,53139,5,4,1:0:0:0:
332,219,53455,1,0,1:0:0:0:
166,72,53771,2,0,P|236:94|276:93,1,87.5,4|2,1:3|0:0,0:0:0:0:
282,95,54007,1,0,1:0:0:0:
282,95,54086,1,0,1:0:0:0:
46,95,54244,1,8,0:3:0:0:
176,228,54402,5,0,1:0:0:0:
249,94,54560,1,2,1:2:0:0:
93,104,54718,1,0,1:0:0:0:
190,302,54876,2,0,B|242:278|242:278|294:303|373:277,1,175,4|0,1:0|1:0,0:0:0:0:
389,267,55271,1,0,1:0:0:0:
389,267,55350,1,4,1:3:0:0:
512,370,55507,1,12,0:3:0:0:
460,204,55665,6,0,L|454:97,1,87.5,4|0,1:0|0:0,0:0:0:0:
283,248,55981,2,0,L|286:351,1,87.5,0|0,1:0|3:0,0:0:0:0:
424,185,56297,2,0,P|468:138|386:84,1,175,4|0,1:3|1:0,0:0:0:0:
227,142,56928,6,0,P|176:145|134:112,1,87.5,4|0,1:0|3:0,0:0:0:0:
0,202,57244,2,0,P|44:192|61:304,1,175,0|4,1:0|1:3,0:0:0:0:
203,257,57718,1,0,3:0:0:0:
160,364,57876,1,0,1:0:0:0:
77,291,58034,1,0,3:0:0:0:
324,186,58192,6,0,L|115:176,1,175,4|0,1:0|1:0,0:0:0:0:
430,58,58823,2,0,L|443:263,1,175,4|0,1:0|1:0,0:0:0:0:
80,203,59455,2,0,B|90:144|90:144|59:121|59:121|70:71|40:31,1,175,4|0,1:0|1:0,0:0:0:0:
161,242,59928,2,0,P|127:305|26:263,1,175,4|8,1:0|0:3,0:0:0:0:
267,192,60402,1,12,0:3:0:0:
309,192,60481,1,12,0:3:0:0:
345,214,60560,1,8,0:3:0:0:
359,253,60639,1,8,0:3:0:0:
358,280,60718,5,2,0:0:0:0:
313,69,61034,1,0,1:0:0:0:
80,195,61350,1,0,1:0:0:0:
321,333,61507,1,0,1:0:0:0:
321,333,61586,1,0,1:0:0:0:
321,333,61665,1,0,1:0:0:0:
242,194,61823,1,8,0:3:0:0:
376,19,61981,6,0,P|394:58|395:102,1,87.5,4|2,1:0|0:0,0:0:0:0:
481,217,62297,1,4,3:0:0:0:
308,91,62455,2,0,P|264:144|306:266,1,175,2|0,0:0|3:0,0:0:0:0:
352,334,62928,2,0,P|289:323|233:343,1,87.5,0|0,1:0|3:0,0:0:0:0:
165,215,63244,6,0,L|181:120,1,87.5,4|0,1:0|3:0,0:0:0:0:
56,264,63560,2,0,L|48:364,1,87.5,0|0,1:0|3:0,0:0:0:0:
165,215,63876,1,4,0:3:0:0:
56,264,64034,1,4,0:3:0:0:
271,265,64192,1,0,1:0:0:0:
172,67,64350,1,4,1:0:0:0:
165,215,64665,5,4,0:3:0:0:
257,82,64823,1,0,1:0:0:0:
50,222,64981,2,0,P|81:297|171:333,1,175,4|4,1:0|0:3,0:0:0:0:
106,157,65455,2,0,P|91:123|46:75,1,87.5,0|2,1:0|0:0,0:0:0:0:
264,102,65771,5,4,1:0:0:0:
131,73,65928,1,0,0:0:0:0:
176,200,66086,1,0,1:0:0:0:
326,54,66244,2,0,P|350:102|360:159,1,87.5,0|4,3:0|0:3,0:0:0:0:
413,267,66560,1,2,0:0:0:0:
445,149,66718,1,0,1:0:0:0:
339,288,66876,2,0,P|337:333|344:378,1,87.5,2|4,3:0|0:3,0:0:0:0:
428,211,67192,1,0,3:0:0:0:
339,288,67350,1,0,1:0:0:0:
260,138,67507,2,0,P|257:87|272:36,1,87.5,2|4,0:0|0:3,0:0:0:0:
267,224,67823,1,0,3:0:0:0:
153,34,67981,1,0,1:0:0:0:
36,269,68297,5,4,1:0:0:0:
116,199,68455,1,2,0:0:0:0:
204,293,68613,1,0,1:0:0:0:
131,360,68771,1,2,0:0:0:0:
261,232,68928,1,4,1:0:0:0:
387,329,69086,1,4,0:3:0:0:
387,329,69165,1,0,1:0:0:0:
387,329,69244,1,0,1:0:0:0:
487,192,69402,2,0,P|483:130|424:42,1,131.25,4|0,1:0|0:0,0:0:0:0:
371,35,69718,1,6,0:3:0:0:
429,202,69876,5,0,1:0:0:0:
373,54,70034,1,0,1:0:0:0:
215,144,70192,1,4,1:3:0:0:
287,313,70350,1,4,0:3:0:0:
231,115,70507,1,0,1:0:0:0:
36,235,70665,1,0,1:0:0:0:
231,115,70981,5,4,0:3:0:0:
315,222,71139,1,4,1:3:0:0:
271,47,71297,1,4,1:3:0:0:
186,192,71455,1,2,1:2:0:0:
381,114,71613,1,2,1:2:0:0:
309,306,71771,1,2,1:2:0:0:
158,94,71928,1,4,1:0:0:0:
20,329,72244,5,0,1:0:0:0:
158,94,72402,1,4,1:0:0:0:
487,282,72718,2,0,P|434:283|406:180,1,175,6|2,1:0|0:0,0:0:0:0:
432,217,74613,5,2,0:0:0:0:
432,217,74692,1,2,0:0:0:0:
432,217,74771,1,2,0:0:0:0:
432,217,74850,1,2,0:0:0:0:
432,217,74928,1,2,0:0:0:0:
432,217,75007,1,2,0:0:0:0:
432,217,75086,1,2,0:0:0:0:
432,217,75165,1,2,0:0:0:0:
432,217,75244,1,2,0:0:0:0:
432,217,75323,1,2,0:0:0:0:
432,217,75402,2,0,L|389:210,1,43.75,2|2,0:0|0:0,0:0:0:0:
244,130,75560,2,0,P|283:140|307:225,1,131.25,2|0,0:0|0:0,0:0:0:0:
195,273,75876,6,0,P|236:339|332:336,1,164.0625,4|0,1:0|0:0,0:0:0:0:
336,122,76192,2,0,P|289:142|293:267,1,164.0625,0|0,1:0|0:0,0:0:0:0:
471,195,76507,2,0,B|434:179|434:179|395:197|347:187,1,109.375,4|0,3:0|0:0,0:0:0:0:
355,152,76744,1,2,3:2:0:0:
355,152,76823,1,0,1:0:0:0:
231,292,76981,1,2,0:0:0:0:
177,84,77139,6,0,B|234:84|234:84|249:66|288:51,1,109.375,0|0,1:0|3:0,0:0:0:0:
162,146,77455,1,0,1:0:0:0:
58,52,77613,1,2,0:0:0:0:
26,201,77771,2,0,L|51:83,1,109.375,4|2,3:0|3:0,0:0:0:0:
96,262,78086,1,0,1:0:0:0:
48,94,78244,1,2,0:0:0:0:
22,309,78402,6,0,P|70:344|142:334,1,109.375,4|2,1:0|3:2,0:0:0:0:
255,176,78718,2,0,P|187:172|143:202,1,109.375,0|0,1:0|3:0,0:0:0:0:
225,338,79034,1,4,0:3:0:0:
255,176,79192,1,2,0:0:0:0:
93,256,79350,1,0,1:0:0:0:
225,338,79507,1,2,0:0:0:0:
206,107,79665,5,0,1:0:0:0:
420,140,79823,1,0,1:0:0:0:
420,140,79902,1,0,1:0:0:0:
420,140,79981,1,4,1:3:0:0:
256,29,80139,2,0,P|249:125|325:181,1,164.0625,0|0,1:0|0:0,0:0:0:0:
266,350,80455,2,0,P|257:292|201:240,1,109.375,0|4,1:0|0:3,0:0:0:0:
443,179,80771,1,0,1:0:0:0:
443,179,80850,1,0,1:0:0:0:
404,197,80928,6,0,P|350:232|293:159,1,164.0625,4|0,1:0|0:0,0:0:0:0:
153,96,81244,2,0,P|212:92|271:99,1,109.375,0|0,1:0|3:0,0:0:0:0:
116,229,81560,2,0,B|72:235|72:235|38:220|4:229,1,109.375,4|0,3:3|0:3,0:3:0:0:
5,269,81797,1,2,3:2:0:0:
5,269,81876,1,0,1:0:0:0:
8,99,82034,2,0,B|6:46|6:46|44:-5,1,109.375,2|0,0:0|1:0,0:0:0:0:
168,156,82350,2,0,P|161:226|178:276,1,109.375,0|0,3:0|1:0,0:0:0:0:
265,156,82665,1,2,0:0:0:0:
138,340,82823,2,0,P|74:350|14:317,1,109.375,4|2,3:0|3:0,0:0:0:0:
248,273,83139,2,0,P|297:270|374:310,1,109.375,0|2,1:0|0:0,0:0:0:0:
287,53,83455,6,0,P|289:108|252:168,1,109.375,4|2,1:0|0:0,0:0:0:0:
352,291,83771,1,0,1:0:0:0:
323,89,83928,1,0,3:0:0:0:
115,142,84086,2,0,L|173:137,1,54.6875,4|0,0:3|0:0,0:0:0:0:
376,96,84244,2,0,L|284:107,1,54.6875,2|2,0:0|0:0,0:0:0:0:
132,116,84402,1,0,1:0:0:0:
391,124,84560,1,2,0:0:0:0:
161,267,84718,2,0,L|163:152,1,109.375,6|0,1:0|0:0,0:0:0:0:
315,51,85034,2,0,L|308:187,1,109.375,0|2,1:0|0:0,0:0:0:0:
109,115,85350,1,4,3:0:0:0:
395,183,85507,1,2,3:0:0:0:
86,226,85665,1,0,1:0:0:0:
120,214,85744,1,0,1:0:0:0:
158,198,85823,1,0,1:0:0:0:
202,180,85902,1,0,2:0:0:0:
237,160,85981,6,0,B|241:228|241:228|304:253|286:344,1,164.0625,4|0,1:0|0:0,0:0:0:0:
169,298,86297,1,0,1:0:0:0:
401,315,86455,1,0,3:0:0:0:
284,92,86613,2,0,P|236:77|174:108,1,109.375,4|2,0:3|0:0,0:0:0:0:
328,23,86928,1,0,1:0:0:0:
140,175,87086,2,0,P|79:183|19:157,1,109.375,2|0,0:0|1:0,0:0:0:0:
232,244,87402,1,0,3:0:0:0:
183,98,87560,1,0,1:0:0:0:
246,288,87718,1,2,0:0:0:0:
308,75,87876,2,0,B|361:104|386:75|414:41|484:93,1,164.0625,4|0,3:0|0:0,0:0:0:0:
502,180,88192,1,0,1:0:0:0:
350,2,88350,1,2,0:0:0:0:
336,197,88507,6,0,L|355:328,1,109.375,4|0,1:0|3:0,0:0:0:0:
151,312,88823,1,0,1:0:0:0:
378,318,88981,1,0,3:0:0:0:
254,144,89139,1,4,0:3:0:0:
360,99,89297,1,2,0:0:0:0:
336,197,89455,1,0,1:0:0:0:
277,42,89613,1,2,0:0:0:0:
107,75,89771,6,0,P|68:131|106:233,1,164.0625,0|0,1:0|0:0,0:0:0:0:
283,158,90086,2,0,P|227:190|223:93,1,164.0625,0|0,1:0|0:0,0:0:0:0:
262,308,90402,2,0,B|206:317|163:282|163:282|125:336|52:314,1,218.75,4|0,1:3|1:0,0:0:0:0:
308,377,90876,6,0,P|337:341|347:265,1,109.375,2|4,0:0|1:0,0:0:0:0:
365,120,91192,1,0,0:0:0:0:
461,225,91350,1,0,1:0:0:0:
436,55,91507,1,0,3:0:0:0:
468,275,91665,2,0,L|447:128,1,109.375,4|2,0:3|0:0,0:0:0:0:
494,347,91981,1,0,1:0:0:0:
306,212,92139,6,0,P|255:213|194:236,1,109.375,2|0,0:0|1:0,0:0:0:0:
381,182,92455,1,0,3:0:0:0:
117,196,92613,2,0,L|103:78,1,109.375,0|2,1:0|0:0,0:0:0:0:
260,193,92928,1,4,3:0:0:0:
107,91,93086,1,2,3:0:0:0:
107,91,93165,1,0,1:0:0:0:
107,91,93244,1,0,1:0:0:0:
80,293,93402,1,4,0:3:0:0:
288,119,93560,6,0,P|354:124|429:98,1,109.375,4|0,1:0|0:0,0:0:0:0:
505,237,93876,1,0,1:0:0:0:
346,84,94034,1,4,3:0:0:0:
250,311,94192,1,4,1:3:0:0:
173,177,94350,1,2,0:0:0:0:
366,197,94507,1,0,1:0:0:0:
266,39,94665,1,2,0:0:0:0:
250,311,94823,6,0,L|446:306,1,164.0625,0|0,1:0|0:0,0:0:0:0:
252,343,95139,2,0,L|107:337,1,109.375,0|2,1:0|0:0,0:0:0:0:
141,164,95455,1,4,3:0:0:0:
143,338,95613,1,2,3:0:0:0:
143,338,95692,1,0,1:0:0:0:
143,338,95771,1,0,1:0:0:0:
248,156,95928,1,2,1:2:0:0:
194,72,96086,5,0,3:0:0:0:
255,258,97350,1,4,2:0:0:0:
255,258,97665,6,0,B|311:294|311:294|356:353,1,131.25000500679,2|0,0:0|0:0,0:0:0:0:
431,359,98139,2,0,P|482:317|457:256,1,131.25000500679,2|2,0:0|0:0,0:0:0:0:
441,178,98613,2,0,L|461:30,1,131.25000500679,4|0,1:3|3:0,0:0:0:0:
375,26,99086,1,0,3:0:0:0:
368,41,99165,1,0,3:0:0:0:
364,61,99244,1,0,1:0:0:0:
412,153,99402,1,0,3:0:0:0:
364,61,99560,1,0,3:0:0:0:
269,103,99718,1,2,3:2:0:0:
323,201,99876,1,4,3:0:0:0:
323,201,100192,6,0,B|254:193|254:193|182:215,1,131.25000500679,2|0,0:0|0:0,0:0:0:0:
112,191,100665,2,0,P|111:243|184:298,1,131.25000500679,2|2,0:0|0:0,0:0:0:0:
241,343,101139,2,0,B|305:324|302:378|386:338,1,131.25000500679,4|0,1:3|3:0,0:0:0:0:
456,277,101613,1,0,3:0:0:0:
449,245,101692,1,0,3:0:0:0:
445,216,101771,1,0,1:0:0:0:
340,225,101928,1,0,3:0:0:0:
445,216,102086,1,0,3:0:0:0:
429,94,102244,1,2,3:2:0:0:
353,147,102402,6,0,B|276:135|231:213|266:271|297:299|297:299|359:299,1,262.500010013581,4|0,3:0|0:0,0:0:0:0:
331,384,103192,1,2,0:0:0:0:
248,369,103350,1,4,3:0:0:0:
248,369,103665,2,0,B|163:371|157:323|155:269|160:232|160:232|152:205|112:222,1,229.687508761883,4|0,1:3|3:0,0:0:0:0:
60,259,104297,5,0,1:0:0:0:
64,162,104455,1,8,3:3:0:0:
162,142,104613,1,0,3:0:0:0:
234,204,104771,2,0,B|267:193|305:208|305:208|345:157|345:157|376:208|422:227|471:192,1,262.500010013581,6|0,3:2|3:0,0:0:0:0:
239,222,105560,2,0,L|149:226,1,65.6250025033952,4|4,1:3|0:3,0:0:0:0:
79,240,105876,1,4,3:3:0:0:
210,187,106034,1,4,0:3:0:0:
165,368,106192,5,0,1:0:0:0:
90,280,106350,1,2,0:0:0:0:
173,224,106507,1,2,0:0:0:0:
122,62,106665,1,12,0:3:0:0:
122,62,106744,1,8,3:0:0:0:
122,62,106823,1,4,0:3:0:0:
261,118,106981,1,0,3:3:0:0:
173,224,107139,1,0,1:0:0:0:
305,56,107297,1,2,0:0:0:0:
472,110,107455,1,4,1:0:0:0:
477,138,107613,1,2,0:0:0:0:
422,251,107771,6,0,P|346:293|278:244,1,175,0|4,1:0|0:3,0:0:0:0:
406,360,108244,2,0,P|444:354|491:363,1,87.5,0|0,3:0|1:0,0:0:0:0:
447,163,108560,1,0,3:0:0:0:
280,248,108718,2,0,B|330:246|350:291|350:291|378:244|428:252,1,175,4|0,3:3|1:0,0:0:0:0:
350,145,109192,1,2,3:2:0:0:
187,249,109350,5,4,3:0:0:0:
159,130,109507,1,2,0:0:0:0:
122,316,109665,1,0,1:0:0:0:
281,280,109823,1,0,3:0:0:0:
161,49,109981,2,0,P|96:69|56:128,1,131.25,4|0,1:0|0:0,0:0:0:0:
159,130,110297,2,0,P|196:120|240:61,1,87.5,0|2,1:0|0:0,0:0:0:0:
380,75,110613,1,4,0:3:0:0:
281,280,110771,5,0,3:0:0:0:
230,86,110928,1,0,1:0:0:0:
302,307,111086,2,0,L|379:247,1,87.5,0|0,0:0|0:0,0:0:0:0:
486,94,111402,2,0,B|441:131|441:131|412:129|385:148,1,87.5,0|0,3:0|1:0,0:0:0:0:
229,264,111718,2,0,P|259:294|301:306,1,87.5,2|0,3:2|3:0,0:0:0:0:
332,103,112034,1,2,0:0:0:0:
381,317,112192,1,0,1:0:0:0:
152,250,112350,1,0,3:0:0:0:
332,103,112507,1,4,1:0:0:0:
323,134,112665,1,2,0:0:0:0:
152,250,112823,6,0,L|306:289,1,131.25,0|0,1:0|0:0,0:0:0:0:
341,349,113139,1,4,0:3:0:0:
471,234,113297,2,0,P|476:188|459:121,1,87.5,0|0,3:0|1:0,0:0:0:0:
350,32,113613,2,0,P|325:91|362:174,1,131.25,0|0,3:0|0:0,0:0:0:0:
419,91,113928,1,0,3:0:0:0:
234,177,114086,2,0,L|113:162,1,87.5,0|2,1:0|3:2,0:0:0:0:
273,110,114402,6,0,P|277:71|266:9,1,87.5,0|2,3:0|0:0,0:0:0:0:
147,166,114718,2,0,P|135:208|149:273,1,87.5,0|0,1:0|3:0,0:0:0:0:
300,332,115034,2,0,B|212:293|205:368|118:313,1,175,4|0,1:0|1:0,0:0:0:0:
12,213,115507,1,2,0:0:0:0:
183,166,115665,1,4,0:3:0:0:
109,335,115823,1,2,3:2:0:0:
91,156,115981,1,0,1:0:0:0:
265,213,116139,1,0,3:0:0:0:
377,80,116297,6,0,L|373:19,1,43.75,4|0,1:0|0:0,0:0:0:0:
281,190,116455,2,0,L|284:269,1,43.75,4|0,3:0|0:0,0:0:0:0:
393,97,116613,1,0,1:0:0:0:
297,275,116771,2,0,B|246:293|211:264|211:264|174:294|117:272,1,175,4|12,1:1|0:3,0:0:0:0:
367,338,117244,1,12,0:3:0:0:
229,89,117560,5,4,1:0:0:0:
135,282,117876,1,0,1:0:0:0:
398,201,118192,2,0,P|398:133|407:97,1,87.5,4|2,1:3|0:0,0:0:0:0:
427,91,118428,1,0,1:0:0:0:
427,91,118507,1,0,1:0:0:0:
291,358,118823,5,4,1:0:0:0:
186,318,118981,2,0,L|71:312,1,87.5,2|2,0:0|0:0,0:0:0:0:
58,209,119297,2,0,P|56:135|138:67,1,175,4|0,0:3|0:0,0:0:0:0:
269,145,119771,2,0,P|220:177|146:151,1,131.25,2|0,0:0|0:0,0:0:0:0:
58,209,120086,5,4,1:0:0:0:
269,145,120402,1,0,1:0:0:0:
470,32,120718,2,0,P|455:90|455:153,1,87.5,4|2,1:3|0:0,0:0:0:0:
489,148,120955,1,0,1:0:0:0:
489,148,121034,1,0,1:0:0:0:
311,49,121192,1,8,0:3:0:0:
355,252,121350,6,0,L|357:179,1,43.75,4|0,1:0|0:0,0:0:0:0:
430,263,121507,1,2,1:2:0:0:
351,117,121665,1,0,1:0:0:0:
229,283,121823,2,0,B|277:294|286:343|286:343|327:320|396:343,1,175,4|0,1:0|1:0,0:0:0:0:
402,363,122218,1,0,1:0:0:0:
402,363,122297,1,4,1:3:0:0:
229,283,122455,1,12,0:3:0:0:
430,263,122613,6,0,L|419:160,1,87.5,4|0,1:0|0:0,0:0:0:0:
283,30,122928,2,0,L|275:130,1,87.5,0|0,1:0|3:0,0:0:0:0:
130,255,123244,2,0,P|196:214|282:280,1,175,4|0,1:3|1:0,0:0:0:0:
22,300,123876,6,0,P|11:257|24:213,1,87.5,4|0,1:0|3:0,0:0:0:0:
149,77,124192,2,0,P|87:143|2:106,1,175,0|4,1:0|1:3,0:0:0:0:
152,7,124665,1,0,3:0:0:0:
222,112,124823,1,0,1:0:0:0:
90,113,124981,1,0,3:0:0:0:
370,26,125139,6,0,L|383:221,1,175,4|0,1:0|1:0,0:0:0:0:
39,173,125771,2,0,B|102:148|125:183|148:213|219:177,1,175,4|0,1:0|1:0,0:0:0:0:
479,323,126402,2,0,B|432:297|400:339|400:339|356:298|311:331,1,175,4|0,1:0|1:0,0:0:0:0:
378,63,126876,2,0,P|336:142|390:196,1,175,4|8,1:0|0:3,0:0:0:0:
116,91,127350,1,12,0:3:0:0:
151,81,127428,1,12,0:3:0:0:
193,96,127507,1,8,0:3:0:0:
206,136,127586,1,8,0:3:0:0:
198,166,127665,5,2,0:0:0:0:
433,301,127981,1,0,1:0:0:0:
402,37,128297,1,0,1:0:0:0:
198,166,128455,1,0,1:0:0:0:
198,166,128534,1,0,1:0:0:0:
198,166,128613,1,0,1:0:0:0:
380,164,128771,1,8,0:3:0:0:
413,355,128928,6,0,P|424:310|407:246,1,87.5,4|2,1:0|0:0,0:0:0:0:
493,153,129244,1,4,3:0:0:0:
329,280,129402,2,0,P|302:199|338:122,1,175,2|0,0:0|3:0,0:0:0:0:
464,49,129876,2,0,L|377:45,1,87.5,0|0,1:0|3:0,0:0:0:0:
272,182,130192,6,0,P|273:227|273:288,1,87.5,4|0,1:0|3:0,0:0:0:0:
391,136,130507,2,0,P|386:94|379:27,1,87.5,0|0,1:0|3:0,0:0:0:0:
321,199,130823,1,4,0:3:0:0:
391,136,130981,1,4,0:3:0:0:
336,351,131139,1,0,1:0:0:0:
168,176,131297,1,4,1:0:0:0:
321,199,131613,5,4,0:3:0:0:
432,88,131771,1,0,1:0:0:0:
206,182,131928,2,0,P|225:253|308:309,1,175,4|4,1:0|0:3,0:0:0:0:
234,107,132402,2,0,P|186:93|128:99,1,87.5,0|2,1:0|0:0,0:0:0:0:
316,67,132718,5,4,1:0:0:0:
236,188,132876,1,0,0:0:0:0:
172,62,133034,1,0,1:0:0:0:
316,216,133192,2,0,P|323:268|311:328,1,87.5,0|4,3:0|0:3,0:0:0:0:
236,188,133507,1,2,0:0:0:0:
396,236,133665,1,0,1:0:0:0:
258,86,133823,2,0,P|208:86|161:107,1,87.5,2|4,3:0|0:3,0:0:0:0:
386,45,134139,1,0,3:0:0:0:
262,88,134297,1,0,1:0:0:0:
466,100,134455,2,0,P|474:59|471:2,1,87.5,2|4,0:0|0:3,0:0:0:0:
505,209,134771,1,0,3:0:0:0:
386,45,134928,1,0,1:0:0:0:
422,280,135244,5,4,1:0:0:0:
345,179,135402,1,2,0:0:0:0:
259,289,135560,1,0,1:0:0:0:
219,170,135718,1,2,0:0:0:0:
350,263,135876,1,4,1:0:0:0:
213,373,136034,1,4,0:3:0:0:
213,373,136113,1,0,1:0:0:0:
213,373,136192,1,0,1:0:0:0:
127,191,136350,2,0,L|154:30,1,131.25,4|0,1:0|0:0,0:0:0:0:
77,84,136665,1,6,0:3:0:0:
176,263,136823,5,0,1:0:0:0:
77,84,136981,1,0,1:0:0:0:
77,84,137060,1,0,0:0:0:0:
77,84,137139,1,4,1:3:0:0:
234,88,137297,1,4,0:3:0:0:
127,191,137455,1,0,1:0:0:0:
298,19,137613,1,0,1:0:0:0:
436,246,137928,5,4,0:3:0:0:
370,77,138086,1,4,1:3:0:0:
290,251,138244,1,4,1:3:0:0:
290,251,138323,1,0,0:0:0:0:
290,251,138402,1,2,1:2:0:0:
403,158,138560,1,2,1:2:0:0:
478,354,138718,1,2,1:2:0:0:
201,260,138876,1,4,1:0:0:0:
464,95,139192,5,0,1:0:0:0:
196,42,139350,1,4,1:0:0:0:
33,312,139665,2,0,B|75:274|113:280|113:280|90:232|122:191,1,175,6|2,1:0|0:0,0:0:0:0:
131,214,141560,5,2,0:0:0:0:
131,214,141639,1,2,0:0:0:0:
131,214,141718,1,2,0:0:0:0:
131,214,141797,1,2,0:0:0:0:
131,214,141876,6,0,P|184:218|233:158,1,131.25,2|0,1:2|0:0,0:0:0:0:
299,44,142192,2,0,P|328:89|431:75,1,144.375004405975,2|0,1:2|0:0,0:0:0:0:
495,251,142507,2,0,B|465:219|463:182|463:182|435:191|367:165,1,157.499995193482,2|0,0:0|0:0,0:0:0:0:
211,291,142823,6,0,P|255:228|219:136,1,164.0625,4|0,1:0|0:0,0:0:0:0:
35,163,143139,2,0,P|88:219|175:194,1,164.0625,0|0,1:0|0:0,0:0:0:0:
285,75,143455,2,0,P|225:70|156:79,1,109.375,4|2,0:3|0:0,0:0:0:0:
133,74,143692,1,2,0:0:0:0:
133,74,143771,1,0,1:0:0:0:
334,109,143928,1,2,0:0:0:0:
180,260,144086,6,0,B|190:211|190:211|170:172|188:133,1,109.375,0|0,1:0|3:0,0:0:0:0:
250,274,144402,1,0,1:0:0:0:
124,363,144560,1,2,0:0:0:0:
291,243,144718,2,0,P|348:239|414:261,1,109.375,4|2,3:0|3:0,0:0:0:0:
501,369,145034,1,0,1:0:0:0:
397,252,145192,1,2,0:0:0:0:
477,67,145350,6,0,P|492:117|481:181,1,109.375,4|2,1:0|3:2,0:0:0:0:
340,317,145665,2,0,P|321:257|348:188,1,109.375,0|0,1:0|3:0,0:0:0:0:
484,247,145981,1,4,0:3:0:0:
305,345,146139,1,2,0:0:0:0:
305,345,146218,1,2,0:0:0:0:
285,365,146297,2,0,L|221:373,1,54.6875,0|0,1:0|0:0,0:0:0:0:
358,240,146455,2,0,L|440:227,1,54.6875,2|0,0:0|0:0,0:0:0:0:
213,176,146613,5,0,1:0:0:0:
312,351,146771,1,0,1:0:0:0:
312,351,146850,1,0,1:0:0:0:
312,351,146928,1,4,1:3:0:0:
395,141,147086,2,0,P|399:81|322:21,1,164.0625,0|0,1:0|0:0,0:0:0:0:
317,216,147402,2,0,P|343:254|418:263,1,109.375,0|4,1:0|0:3,0:0:0:0:
215,99,147718,1,0,1:0:0:0:
215,99,147797,1,0,1:0:0:0:
187,141,147876,6,0,P|142:171|133:274,1,164.0625,4|0,1:0|0:0,0:0:0:0:
317,216,148192,2,0,P|264:228|209:216,1,109.375,0|0,1:0|3:0,0:0:0:0:
381,277,148507,2,0,B|435:268|435:268|470:284|495:285,1,109.375,4|0,3:0|0:0,0:0:0:0:
502,249,148744,1,2,3:2:0:0:
502,249,148823,1,0,1:0:0:0:
388,109,148981,2,0,P|389:55|393:-11,1,109.375,2|0,0:0|1:0,0:0:0:0:
235,107,149297,2,0,P|251:166|230:228,1,109.375,0|0,3:0|1:0,0:0:0:0:
388,109,149613,1,2,0:0:0:0:
204,270,149771,2,0,P|145:276|91:261,1,109.375,4|2,3:0|3:0,0:0:0:0:
279,328,150086,2,0,P|329:315|408:338,1,109.375,0|2,1:0|0:0,0:0:0:0:
236,107,150402,6,0,B|251:148|251:148|226:172|246:227,1,109.375,4|2,1:0|0:0,0:0:0:0:
409,104,150718,1,0,1:0:0:0:
246,252,150876,1,0,3:0:0:0:
150,42,151034,2,0,L|220:55,1,54.6875,4|0,0:3|0:0,0:0:0:0:
397,106,151192,2,0,L|313:85,1,54.6875,2|2,0:0|0:0,0:0:0:0:
170,16,151350,1,0,1:0:0:0:
384,144,151507,1,2,0:0:0:0:
176,287,151665,6,0,P|185:238|167:178,1,109.375,6|0,1:0|3:0,0:0:0:0:
302,6,151981,2,0,B|290:56|290:56|305:81|305:136,1,109.375,0|2,1:0|0:0,0:0:0:0:
95,197,152297,1,4,3:0:0:0:
95,197,152376,1,0,0:0:0:0:
95,197,152455,1,2,3:0:0:0:
354,151,152613,1,0,1:0:0:0:
386,171,152692,1,0,1:0:0:0:
420,186,152771,1,0,1:0:0:0:
457,193,152850,1,0,2:0:0:0:
494,190,152928,6,0,B|452:255|524:282|487:372,1,164.0625,4|0,1:0|0:0,0:0:0:0:
405,306,153244,1,0,1:0:0:0:
512,135,153402,1,0,3:0:0:0:
280,115,153560,2,0,L|147:127,1,109.375,4|2,0:3|0:0,0:0:0:0:
337,55,153876,1,0,1:0:0:0:
95,175,154034,2,0,P|86:116|112:53,1,109.375,2|0,0:0|1:0,0:0:0:0:
185,240,154350,1,0,3:0:0:0:
100,69,154507,1,0,1:0:0:0:
294,72,154665,1,2,0:0:0:0:
183,264,154823,2,0,P|140:245|28:290,1,164.0625,4|0,3:0|0:0,0:0:0:0:
122,334,155139,1,0,1:0:0:0:
257,142,155297,1,2,0:0:0:0:
376,337,155455,6,0,L|240:331,1,109.375,4|0,1:0|3:0,0:0:0:0:
452,366,155771,1,0,1:0:0:0:
297,187,155928,1,0,3:0:0:0:
165,339,156086,1,4,0:3:0:0:
17,275,156244,1,2,0:0:0:0:
125,246,156402,1,0,1:0:0:0:
75,365,156560,1,2,0:0:0:0:
83,168,156718,6,0,P|140:147|220:232,1,164.0625,0|0,1:0|0:0,0:0:0:0:
339,129,157034,2,0,P|310:189|397:232,1,164.0625,0|0,1:0|0:0,0:0:0:0:
294,64,157350,2,0,B|241:87|185:50|185:50|141:92|68:56,1,218.75,4|0,1:3|1:0,0:0:0:0:
369,16,157823,6,0,P|381:76|370:132,1,109.375,2|4,0:0|1:0,0:0:0:0:
190,145,158139,1,0,0:0:0:0:
246,290,158297,1,0,1:0:0:0:
274,111,158455,1,0,0:0:0:0:
240,333,158613,2,0,B|240:252|240:252|265:180,1,109.375,4|2,0:3|0:0,0:0:0:0:
400,359,158928,1,0,1:0:0:0:
215,244,159086,6,0,P|161:245|85:243,1,109.375,2|0,0:0|1:0,0:0:0:0:
240,333,159402,1,0,3:0:0:0:
30,238,159560,1,0,1:0:0:0:
249,202,159718,1,2,0:0:0:0:
0,231,159876,2,0,L|133:231,1,109.375,4|2,3:0|3:0,0:0:0:0:
212,381,160192,1,0,1:0:0:0:
271,249,160350,1,4,0:3:0:0:
440,163,160507,6,0,P|374:168|306:153,1,109.375,4|0,1:0|0:0,0:0:0:0:
133,181,160823,1,0,1:0:0:0:
344,126,160981,1,4,3:0:0:0:
121,69,161139,1,4,1:3:0:0:
143,277,161297,1,2,0:0:0:0:
259,90,161455,1,0,1:0:0:0:
362,282,161613,1,2,0:0:0:0:
173,163,161771,6,0,B|119:173|78:142|78:142|-23:163,1,164.0625,0|0,1:0|0:0,0:0:0:0:
237,226,162086,2,0,L|382:220,1,109.375,0|2,1:0|0:0,0:0:0:0:
379,239,162323,1,0,0:0:0:0:
379,239,162402,1,4,3:0:0:0:
173,163,162560,1,2,3:0:0:0:
367,117,162718,1,0,1:0:0:0:
153,57,162876,1,2,1:2:0:0:
221,346,163034,5,4,1:0:0:0:
52,56,163665,1,4,1:0:0:0:
311,282,164297,1,4,1:0:0:0:
185,31,164455,1,0,1:0:0:0:
411,251,164613,1,0,1:0:0:0:
308,0,164771,1,0,1:0:0:0:
512,239,164928,1,0,1:0:0:0:
52,56,165244,5,6,1:0:0:0:
374,101,165402,1,0,0:0:0:0:
374,101,165481,1,0,0:0:0:0:
389,144,165560,6,0,P|355:206|254:209,1,164.0625,4|0,1:0|0:0,0:0:0:0:
362,283,165876,1,0,1:0:0:0:
179,256,166034,2,0,P|162:204|183:137,1,109.375,2|4,0:0|0:3,0:0:0:0:
151,336,166350,2,0,P|114:306|92:233,1,109.375,2|0,3:0|1:0,0:0:0:0:
109,65,166665,2,0,P|78:113|76:229,1,164.0625,0|0,3:0|0:0,0:0:0:0:
0,140,166981,1,4,3:0:0:0:
231,75,167139,1,0,1:0:0:0:
0,40,167297,1,2,3:2:0:0:
226,123,167455,2,0,P|222:156|225:208,1,54.6875,4|0,3:0|0:0,0:0:0:0:
330,62,167613,2,0,P|329:32|324:-4,1,54.6875,2|0,3:0|0:0,0:0:0:0:
415,90,167771,1,2,1:3:0:0:
162,54,167928,1,2,3:0:0:0:
284,271,168086,6,0,P|344:278|404:261,1,109.375,4|2,1:0|0:0,0:0:0:0:
186,320,168402,2,0,P|237:344|306:343,1,109.375,0|2,1:0|0:0,0:0:0:0:
335,335,168639,1,0,0:0:0:0:
391,266,168718,2,0,P|398:208|397:187,1,54.6875,4|0,1:0|0:0,0:0:0:0:
475,85,168876,2,0,P|479:122|480:168,1,54.6875,0|0,3:0|0:0,0:0:0:0:
387,23,169034,2,0,P|394:50|402:104,1,54.6875,2|0,1:2|0:0,0:0:0:0:
391,266,169192,2,0,P|285:282|221:248,1,164.0625,2|0,3:0|0:0,0:0:0:0:
250,351,169507,1,2,0:0:0:0:
250,351,169586,1,0,1:0:0:0:
199,352,169665,2,0,P|161:299|158:270,1,54.6875,0|0,1:0|0:0,0:0:0:0:
59,138,169823,2,0,P|65:198|92:258,1,109.375,2|6,1:2|0:3,0:0:0:0:
145,43,170139,2,0,P|138:72|139:138,1,54.6875,4|0,1:0|0:0,0:0:0:0:
221,36,170297,1,2,1:3:0:0:
393,172,170455,1,0,3:0:0:0:
83,243,170613,6,0,P|62:193|90:76,1,164.0625,4|0,1:0|0:0,0:0:0:0:
0,74,170928,1,0,1:0:0:0:
172,247,171086,2,0,P|152:197|171:86,1,164.0625,2|0,3:2|0:0,0:0:0:0:
69,147,171402,1,2,0:0:0:0:
283,306,171560,2,0,P|252:239|256:163,1,109.375,0|0,1:0|3:0,0:0:0:0:
424,72,171876,2,0,B|419:148|341:168|341:168|420:202|401:309,1,273.4375,4|0,0:3|0:0,0:0:0:0:
397,27,172350,2,0,P|325:75|344:214,1,218.75,2|0,0:0|3:0,0:0:0:0:
75,318,172823,2,0,P|149:293|261:319,1,164.0625,0|0,1:0|0:0,0:0:0:0:
457,292,173139,6,0,P|377:267|260:227,1,164.0625,4|0,1:0|0:0,0:0:0:0:
232,304,173455,1,0,1:0:0:0:
260,72,173613,1,4,0:3:0:0:
19,131,173771,2,0,P|115:132|200:118,1,164.0625,4|0,1:0|0:0,0:0:0:0:
259,194,174086,1,0,1:0:0:0:
373,31,174244,1,0,3:0:0:0:
298,306,174402,5,4,1:3:0:0:
160,195,174560,1,4,3:0:0:0:
160,195,174639,1,0,1:0:0:0:
160,195,174718,1,0,1:0:0:0:
393,189,174876,1,2,3:2:0:0:
154,60,175034,1,4,3:0:0:0:
116,67,175113,1,0,1:0:0:0:
86,90,175192,1,2,1:2:0:0:
65,122,175271,1,0,0:0:0:0:
56,160,175350,1,0,1:0:0:0:
58,196,175428,1,12,0:3:0:0:
78,228,175507,1,4,3:3:0:0:
109,250,175586,1,12,0:3:0:0:
161,279,175665,5,4,1:0:0:0:
214,124,175823,1,2,0:0:0:0:
369,199,175981,1,0,1:0:0:0:
136,67,176139,2,0,B|118:97|98:110|98:110|117:127|123:182,1,109.375,2|4,3:0|1:3,0:0:0:0:
363,115,176455,2,0,L|291:111,1,54.6875,0|0,3:0|0:0,0:0:0:0:
106,55,176613,2,0,L|191:52,1,54.6875,0|0,1:0|0:0,0:0:0:0:
333,137,176771,1,2,3:0:0:0:
156,258,176928,5,4,1:0:0:0:
85,86,177086,1,2,3:0:0:0:
106,55,177165,1,2,3:0:0:0:
157,32,177244,1,4,1:3:0:0:
156,258,177402,1,2,3:0:0:0:
113,278,177481,1,2,3:0:0:0:
42,272,177560,1,4,1:3:0:0:
263,184,177718,1,2,3:0:0:0:
303,188,177797,1,0,3:0:0:0:
354,237,177876,1,0,1:0:0:0:
422,255,177955,1,2,3:0:0:0:
491,234,178034,2,0,P|486:202|488:173,1,54.6875,2|0,3:0|0:0,0:0:0:0:
451,384,178192,6,0,B|397:395|367:373|367:373|329:398|275:377,1,164.0625,6|0,1:0|0:0,0:0:0:0:
337,333,178507,1,0,1:0:0:0:
117,231,178665,2,0,P|82:236|26:257,1,54.6875,2|0,3:2|0:0,0:0:0:0:
204,82,178823,2,0,B|212:126|215:164|215:164|254:181|313:231,1,164.0625,6|0,1:0|0:0,0:0:0:0:
155,114,179139,1,0,1:0:0:0:
367,230,179297,2,0,P|346:166|326:140,1,54.6875,0|0,3:0|1:0,0:0:0:0:
449,356,179455,2,0,B|451:304|423:275|423:275|458:259|456:191,1,164.0625,6|0,1:0|0:0,0:0:0:0:
429,372,179771,1,0,1:0:0:0:
397,143,179928,2,0,P|406:100|392:42,1,54.6875,2|0,0:0|0:0,0:0:0:0:
306,276,180086,2,0,B|272:301|116:328|85:105|-10:96,1,382.8125,6|0,1:0|0:0,0:0:0:0:
148,341,180718,6,0,P|226:368|338:353,1,164.0625,6|0,1:0|0:0,0:0:0:0:
418,384,181034,1,0,1:0:0:0:
131,263,181192,2,0,P|46:293|2:355,1,164.0625,2|0,0:0|0:0,0:0:0:0:
138,192,181507,2,0,P|93:188|61:194,1,54.6875,2|0,3:0|0:0,0:0:0:0:
277,160,181665,2,0,P|227:138|181:130,1,54.6875,0|2,1:0|0:0,0:0:0:0:
20,121,181823,2,0,P|54:112|120:119,1,54.6875,0|0,3:0|0:0,0:0:0:0:
222,227,181981,2,0,P|234:286|232:330,1,54.6875,4|0,1:3|0:0,0:0:0:0:
111,158,182139,2,0,P|112:137|142:62,1,54.6875,4|0,3:0|0:0,0:0:0:0:
54,266,182297,2,0,P|50:229|56:189,1,54.6875,0|0,1:0|0:0,0:0:0:0:
145,373,182455,2,0,P|109:360|71:331,1,54.6875,2|0,3:2|0:0,0:0:0:0:
273,384,182613,1,4,3:0:0:0:
159,102,182771,1,2,0:0:0:0:
129,125,182850,1,0,1:0:0:0:
111,158,182928,1,0,1:0:0:0:
103,195,183007,1,0,1:0:0:0:
105,233,183086,1,0,1:0:0:0:
115,269,183165,1,0,1:0:0:0:
136,305,183244,6,0,P|119:277|118:228,1,54.6875,4|0,1:0|0:0,0:0:0:0:
294,357,183402,2,0,L|224:325,1,54.6875,2|0,0:0|0:0,0:0:0:0:
467,317,183560,2,0,P|431:323|381:314,1,54.6875,0|0,1:0|0:0,0:0:0:0:
439,157,183718,2,0,P|435:185|444:229,1,54.6875,2|0,0:0|0:0,0:0:0:0:
510,108,183876,2,0,P|457:55|398:42,1,109.375,4|2,1:3|3:0,0:0:0:0:
321,97,184113,2,0,P|262:108|196:91,1,109.375,2|0,3:0|0:0,0:0:0:0:
349,54,184350,1,2,3:0:0:0:
107,134,184507,1,4,1:3:0:0:
122,151,184586,1,2,0:3:0:0:
148,179,184665,1,2,0:0:0:0:
164,195,184744,1,2,0:3:0:0:
183,214,184823,1,0,1:0:0:0:
192,224,184902,1,2,0:0:0:0:
197,228,184981,1,2,0:0:0:0:
206,234,185060,1,4,0:3:0:0:
211,237,185139,1,4,1:3:0:0:
224,246,185218,1,2,0:0:0:0:
233,252,185297,1,2,3:0:0:0:
244,258,185376,1,4,0:3:0:0:
263,266,185455,1,0,1:0:0:0:
275,272,185534,2,0,P|318:290|398:315,1,109.375,0|0,0:0|0:0,0:0:0:0:
493,339,185771,1,4,1:0:0:0:
238,297,185928,1,2,0:0:0:0:
190,281,186007,1,0,1:0:0:0:
114,312,186086,6,0,P|172:249|135:149,1,164.0625,0|0,1:0|0:0,0:0:0:0:
273,71,186402,2,0,P|177:119|157:151,1,109.375,4|2,1:3|3:0,0:0:0:0:
299,122,186639,2,0,P|355:100|308:64,1,109.375,0|0,1:0|0:0,0:0:0:0:
147,93,186876,1,4,1:0:0:0:
374,138,187034,1,2,0:0:0:0:
441,369,187192,1,2,1:0:0:0:
225,122,187350,5,12,1:3:0:0:
225,162,187428,1,8,3:0:0:0:
225,199,187507,1,2,0:0:0:0:
225,237,187586,1,0,1:0:0:0:
225,272,187665,1,4,1:3:0:0:
228,41,187823,1,4,1:3:0:0:
414,191,187981,1,6,1:0:0:0:
222,343,188297,6,0,L|98:342,1,98.4375037550928,4|0,1:0|0:0,0:0:0:0:
124,343,188612,2,0,L|35:342,1,65.6250025033952,2|0,0:0|1:0,0:0:0:0:
184,256,188928,2,0,L|264:256,1,65.6250025033952,2|0,0:0|3:0,0:0:0:0:
249,256,189244,2,0,L|330:256,1,65.6250025033952,6|0,3:0|0:0,0:0:0:0:
413,259,189560,1,4,0:3:0:0:
413,259,189875,1,0,1:0:0:0:
300,172,190191,2,0,L|180:172,1,98.4375037550928,4|0,1:0|0:0,0:0:0:0:
201,172,190507,2,0,L|117:172,1,65.6250025033952,2|0,0:0|1:0,0:0:0:0:
41,78,190823,2,0,L|121:78,1,65.6250025033952,2|0,0:0|3:0,0:0:0:0:
106,78,191139,2,0,L|179:78,1,65.6250025033952,6|4,3:0|0:3,0:0:0:0:
296,84,191454,1,4,0:3:0:0:
296,84,191770,1,0,1:0:0:0:
364,204,192086,6,0,L|364:312,1,98.4375037550928,4|0,1:0|0:0,0:0:0:0:
364,302,192402,2,0,L|280:304,1,65.6250025033952,2|0,0:0|1:0,0:0:0:0:
152,308,192718,2,0,L|152:232,1,65.6250025033952,2|0,0:0|3:0,0:0:0:0:
152,242,193033,2,0,L|228:242,1,65.6250025033952,6|0,3:0|0:0,0:0:0:0:
340,248,193349,1,4,0:3:0:0:
340,248,193665,1,0,1:0:0:0:
348,122,193981,6,0,L|348:14,1,98.4375037550928,4|0,1:0|0:0,0:0:0:0:
348,23,194297,2,0,L|264:21,1,65.6250025033952,2|0,0:0|1:0,0:0:0:0:
140,22,194612,2,0,L|140:98,1,65.6250025033952,2|0,0:0|3:0,0:0:0:0:
140,87,194928,2,0,L|216:87,1,65.6250025033952,14|12,3:0|0:3,0:0:0:0:
336,86,195244,1,12,0:3:0:0:
340,182,195402,1,12,0:3:0:0:
228,182,195560,1,8,1:3:0:0:
228,90,195718,1,0,3:0:0:0:
340,182,195875,1,4,1:0:0:0:
228,182,196191,5,0,3:0:0:0:
144,182,196349,1,0,1:0:0:0:
228,182,196507,1,2,0:0:0:0:
340,182,196823,2,0,L|340:266,1,65.6250025033952,6|0,3:0|0:0,0:0:0:0:
424,246,197139,2,0,L|424:178,1,65.6250025033952,4|0,0:3|0:0,0:0:0:0:
420,94,197454,2,0,L|346:94,1,65.6250025033952,0|0,1:0|0:0,0:0:0:0:
244,136,197770,2,0,L|169:136,1,65.6250025033952,4|0,1:0|0:0,0:0:0:0:
128,224,198086,1,4,0:3:0:0:
24,224,198244,1,0,1:0:0:0:
128,224,198402,1,2,0:0:0:0:
288,224,198718,1,6,1:0:0:0:
464,224,199033,1,4,0:3:0:0:
288,224,199191,1,4,0:3:0:0:
372,224,199349,1,4,3:0:0:0:
464,224,199507,1,0,1:0:0:0:
292,304,199665,6,0,L|152:304,1,124.687496670485,4|0,1:0|0:0,0:0:0:0:
272,320,199980,2,0,L|384:320,1,83.1249977803231,6|0,0:3|0:0,0:0:0:0:
272,208,200296,6,0,L|132:208,1,124.687496670485,4|0,0:3|0:0,0:0:0:0:
252,224,200612,2,0,L|364:224,1,83.1249977803231,6|4,3:0|1:0,0:0:0:0:
172,224,200928,5,4,0:3:0:0:
335,224,201086,1,2,0:0:0:0:
340,88,201243,1,0,1:0:0:0:
178,96,201401,1,12,3:0:0:0:
178,96,201480,1,12,3:0:0:0:
178,96,201559,1,0,1:0:0:0:
172,224,201717,2,0,L|170:328,1,83.1249977803231,8|4,0:3|1:1,0:0:0:0:
336,312,202033,1,4,0:3:0:0:
336,312,202112,1,8,0:3:0:0:
372,312,202191,6,0,L|372:172,1,124.687496670485,4|0,1:0|0:0,0:0:0:0:
356,292,202507,2,0,L|356:404,1,83.1249977803231,6|4,3:0|0:3,0:0:0:0:
468,292,202822,6,0,L|468:152,1,124.687496670485,4|0,1:0|0:0,0:0:0:0:
452,272,203138,2,0,L|452:384,1,83.1249977803231,6|0,3:0|1:0,0:0:0:0:
488,148,203454,5,4,1:0:0:0:
488,311,203612,1,4,0:3:0:0:
346,312,203770,1,4,0:3:0:0:
349,152,203928,1,4,0:3:0:0:
349,152,204007,1,0,0:0:0:0:
349,152,204086,1,12,0:3:0:0:
346,312,204243,2,0,L|203:313,1,124.687496670485,2|0,0:0|0:0,0:0:0:0:
88,344,204559,2,0,L|292:344,1,166.249995560646,4|4,1:0|0:3,0:0:0:0:
100,248,205033,6,0,L|16:248,1,83.1249977803231,0|2,1:0|0:0,0:0:0:0:
110,213,205270,2,0,L|206:213,1,83.1249977803231,0|0,1:0|0:0,0:0:0:0:
197,141,205507,1,4,3:0:0:0:
286,140,205665,1,0,1:0:0:0:
194,213,205822,1,4,1:0:0:0:
287,213,205980,1,2,0:0:0:0:
193,278,206138,1,4,0:3:0:0:
289,282,206296,1,0,1:0:0:0:
286,140,206454,1,2,0:0:0:0:
432,144,206612,1,4,0:3:0:0:
432,144,206691,1,0,0:0:0:0:
432,144,206770,1,4,0:3:0:0:
438,311,206928,1,0,1:0:0:0:
438,311,207007,1,0,0:0:0:0:
414,327,207086,2,0,L|314:327,1,83.1249977803231,4|0,1:0|0:0,0:0:0:0:
210,258,207401,1,0,1:0:0:0:
210,258,207480,1,0,3:0:0:0:
210,258,207559,1,0,1:0:0:0:
208,160,207717,1,2,0:0:0:0:
208,56,207875,2,0,L|208:168,1,83.1249977803231,4|4,3:0|3:0,0:0:0:0:
217,361,208191,1,0,1:0:0:0:
217,361,208270,1,0,1:0:0:0:
217,361,208349,2,0,L|216:270,1,83.1249977803231,4|0,1:0|0:0,0:0:0:0:
56,72,208665,5,0,1:0:0:0:
52,292,208822,1,0,1:0:0:0:
320,32,209138,1,0,1:0:0:0:
320,32,209217,1,0,1:0:0:0:
320,32,209296,1,0,1:0:0:0:
52,292,209454,1,4,1:0:0:0:
328,280,211033,6,0,L|328:56,2,218.75,2|2|0,0:1|0:1|0:0,0:0:0:0:
140,172,211822,2,0,L|140:244,1,54.6875,2|0,0:1|0:0,0:0:0:0:
100,288,211980,2,0,L|100:116,1,164.0625,2|0,0:1|0:0,0:0:0:0:
148,60,212296,5,6,0:0:0:0:
224,62,212612,1,2,0:0:0:0:
294,81,212928,1,2,0:0:0:0:
370,163,213559,1,2,0:0:0:0:
457,161,214033,1,2,0:0:0:0:
477,289,214665,5,2,0:0:0:0:
379,357,214980,1,2,0:0:0:0:
319,308,215138,1,2,0:0:0:0:
226,317,215296,1,2,0:0:0:0:
170,375,215454,1,2,0:0:0:0:
88,340,215612,1,2,0:0:0:0:
89,260,215770,1,2,0:0:0:0:
18,267,215928,1,2,0:0:0:0:
30,178,216086,1,2,0:0:0:0:
104,148,216243,1,0,0:0:0:0:
178,177,216401,1,2,0:0:0:0:
218,82,216559,1,2,0:0:0:0:
151,252,216875,1,2,0:0:0:0:
440,194,217349,5,2,0:0:0:0:
363,184,217665,1,2,0:0:0:0:
271,100,217980,1,2,0:0:0:0:
191,98,218296,1,2,0:0:0:0:
60,72,218612,1,2,0:0:0:0:
118,116,218770,1,2,0:0:0:0:
191,98,218928,1,2,0:0:0:0:
271,100,219086,1,2,0:0:0:0:
365,175,219243,1,2,0:0:0:0:
377,269,219717,5,2,0:0:0:0:
266,329,220191,1,2,0:0:0:0:
187,317,220349,1,2,0:0:0:0:
85,365,220507,1,2,0:0:0:0:
80,223,220822,1,2,0:0:0:0:
1,205,220980,1,2,0:0:0:0:
64,140,221138,2,0,P|144:108|484:164,1,437.5,2|2,0:0|0:0,0:0:0:0:
489,181,222086,1,2,0:0:0:0:
418,237,222243,1,0,0:0:0:0:
413,331,222401,6,0,P|343:363|270:254,1,218.75,6|6,0:0|0:0,0:0:0:0:
266,266,223191,2,0,P|222:222|164:209,2,109.375,2|6|0,0:0|0:0|0:0,0:0:0:0:
177,209,223980,6,0,L|287:249,1,109.375,2|0,0:0|0:0,0:0:0:0:
429,306,224296,1,2,0:0:0:0:
429,306,224375,1,2,0:0:0:0:
429,306,224454,1,2,0:0:0:0:
429,306,224533,1,2,0:0:0:0:
429,306,224612,1,2,0:0:0:0:
429,306,224691,1,2,0:0:0:0:
429,306,224770,1,2,0:0:0:0:
429,306,224849,1,2,0:0:0:0:
429,306,224928,6,0,P|381:254|460:186,1,177.187500675917,4|0,1:0|0:0,0:0:0:0:
255,142,225243,2,0,B|328:188|351:98|444:157,1,177.187500675917,0|0,1:0|0:0,0:0:0:0:
192,71,225559,2,0,P|176:131|191:216,1,118.125000450611,4|2,0:3|0:0,0:0:0:0:
282,59,225796,1,2,0:0:0:0:
282,59,225875,2,0,P|283:15|269:-28,1,59.0625002253056,0|0,1:0|0:0,0:0:0:0:
401,100,226033,1,2,0:0:0:0:
239,187,226191,6,0,P|199:188|163:181,1,59.0625002253056,2|0,1:0|0:0,0:0:0:0:
283,266,226349,1,0,3:0:0:0:
95,103,226507,2,0,P|54:101|-11:112,1,59.0625002253056,2|0,1:0|0:0,0:0:0:0:
192,71,226665,1,2,0:0:0:0:
31,290,226822,2,0,P|46:222|50:159,1,118.125000450611,4|2,1:3|3:0,0:0:0:0:
212,275,227138,1,0,1:0:0:0:
95,103,227296,6,0,P|81:151|96:249,1,118.125000450611,2|4,0:0|1:0,0:0:0:0:
286,306,227612,2,0,P|289:256|282:216,1,59.0625002253056,2|0,3:2|0:0,0:0:0:0:
366,305,227770,1,0,1:0:0:0:
212,175,227928,1,0,3:0:0:0:
366,53,228086,2,0,P|371:87|374:142,1,59.0625002253056,4|0,0:3|0:0,0:0:0:0:
458,78,228243,1,2,0:0:0:0:
212,175,228401,1,0,1:0:0:0:
432,226,228559,1,2,0:0:0:0:
295,293,228717,5,0,1:0:0:0:
219,83,228875,1,0,1:0:0:0:
219,83,228954,1,0,1:0:0:0:
219,83,229033,1,4,1:3:0:0:
60,286,229191,2,0,P|32:226|134:155,1,177.187500675917,4|0,1:0|0:0,0:0:0:0:
244,232,229507,2,0,P|194:242|110:219,1,118.125000450611,4|4,1:0|0:3,0:0:0:0:
334,118,229822,1,0,1:0:0:0:
334,118,229901,1,0,1:0:0:0:
365,145,229980,6,0,B|383:233|476:178|491:289,1,177.187500675917,4|0,1:0|0:0,0:0:0:0:
431,92,230296,2,0,P|369:51|309:54,1,118.125000450611,0|0,1:0|3:0,0:0:0:0:
214,226,230612,2,0,B|267:213|267:213|319:245|356:220,1,118.125000450611,4|0,3:0|0:0,0:0:0:0:
362,261,230849,1,2,3:2:0:0:
362,261,230928,1,0,1:0:0:0:
236,117,231086,2,0,P|243:48|251:-26,1,118.125000450611,2|2,0:0|1:0,0:0:0:0:
135,121,231401,2,0,L|53:113,1,59.0625002253056,0|0,3:0|0:0,0:0:0:0:
188,184,231559,1,0,1:0:0:0:
16,55,231717,1,2,0:0:0:0:
191,217,231875,2,0,P|198:273|183:348,1,118.125000450611,4|0,3:0|0:0,0:0:0:0:
221,358,232112,1,0,1:0:0:0:
221,358,232191,1,0,0:0:0:0:
12,170,232349,6,0,P|70:162|128:169,1,118.125000450611,4|4,0:3|1:0,0:0:0:0:
291,48,232665,1,2,0:0:0:0:
127,198,232822,1,0,1:0:0:0:
130,240,232980,2,0,P|151:213|186:190,1,59.0625002253056,4|0,3:0|0:0,0:0:0:0:
341,45,233138,2,0,P|313:67|280:101,1,59.0625002253056,4|0,1:3|0:0,0:0:0:0:
191,217,233296,1,4,0:3:0:0:
324,25,233454,1,0,1:0:0:0:
127,198,233612,1,4,0:3:0:0:
376,133,233770,6,0,L|391:1,1,118.125000450611,0|0,1:0|3:0,0:0:0:0:
427,235,234086,1,0,1:0:0:0:
233,40,234243,1,2,0:0:0:0:
233,40,234322,1,0,1:0:0:0:
233,40,234401,1,4,3:0:0:0:
233,40,234480,1,0,0:0:0:0:
233,40,234559,1,2,3:0:0:0:
53,301,234717,1,0,1:0:0:0:
78,273,234796,1,0,1:0:0:0:
94,238,234875,1,0,1:0:0:0:
100,200,234954,1,2,2:0:0:0:
92,157,235033,6,0,B|156:198|185:131|273:173,1,177.187500675917,4|0,1:0|0:0,0:0:0:0:
436,322,235349,1,0,1:0:0:0:
376,110,235507,1,0,3:0:0:0:
198,260,235665,2,0,P|260:269|345:221,1,118.125000450611,4|0,0:3|0:0,0:0:0:0:
152,339,235980,1,0,1:0:0:0:
114,103,236138,6,0,B|123:153|123:153|106:175|111:239,1,118.125000450611,2|4,0:0|0:3,0:0:0:0:
68,81,236454,1,2,3:0:0:0:
199,237,236612,1,0,1:0:0:0:
275,67,236770,1,2,0:0:0:0:
200,275,236928,2,0,B|289:301|298:234|390:280,1,177.187500675917,4|0,3:0|0:0,0:0:0:0:
335,357,237243,1,0,1:0:0:0:
455,169,237401,1,0,0:0:0:0:
243,142,237559,6,0,P|185:144|113:164,1,118.125000450611,4|0,1:0|0:0,0:0:0:0:
302,32,237875,1,0,1:0:0:0:
360,254,238033,1,4,3:0:0:0:
126,158,238191,1,4,3:0:0:0:
127,332,238349,1,2,0:0:0:0:
47,241,238507,1,0,1:0:0:0:
210,238,238665,1,2,0:0:0:0:
107,25,238822,6,0,P|102:80|-12:138,1,177.187500675917,0|0,1:0|0:0,0:0:0:0:
238,185,239138,2,0,P|185:160|119:257,1,177.187500675917,0|0,1:0|0:0,0:0:0:0:
401,305,239454,2,0,B|348:328|333:294|272:316,1,118.125000450611,4|0,1:3|0:0,0:0:0:0:
244,325,239691,1,0,1:0:0:0:
244,325,239770,1,4,1:3:0:0:
30,247,239928,5,12,0:3:0:0:
30,247,240007,1,0,1:0:0:0:
30,247,240086,1,4,1:0:0:0:
213,123,240243,1,2,0:0:0:0:
18,83,240401,1,0,1:0:0:0:
255,119,240559,2,0,B|138:140,1,118.125000450611,0|4,3:0|0:3,0:0:0:0:
347,226,240875,1,2,0:0:0:0:
241,36,241033,1,0,1:0:0:0:
133,236,241191,6,0,P|124:291|124:366,1,118.125000450611,2|0,0:0|1:0,0:0:0:0:
211,166,241507,1,0,3:0:0:0:
49,269,241665,1,0,1:0:0:0:
237,160,241822,1,2,0:0:0:0:
0,139,241980,2,0,L|134:139,1,118.125000450611,4|0,3:0|0:0,0:0:0:0:
154,115,242217,1,0,1:0:0:0:
154,115,242296,1,0,1:0:0:0:
247,271,242454,1,0,0:0:0:0:
400,113,242612,6,0,P|335:109|272:107,1,118.125000450611,4|2,1:0|0:0,0:0:0:0:
100,98,242928,1,0,1:0:0:0:
313,137,243086,1,2,3:0:0:0:
194,359,243243,1,4,1:0:0:0:
309,164,243401,1,4,3:0:0:0:
399,358,243559,1,0,1:0:0:0:
217,210,243717,1,2,0:0:0:0:
477,167,243875,6,0,B|423:177|386:147|386:147|353:169|308:163,1,177.187500675917,4|0,1:0|0:0,0:0:0:0:
217,210,244191,1,0,1:0:0:0:
34,89,244349,2,0,B|109:112|148:61|217:95,1,177.187500675917,4|0,1:0|0:0,0:0:0:0:
242,63,244665,1,0,1:0:0:0:
242,63,244743,1,0,1:0:0:0:
242,63,244822,1,0,1:0:0:0:
242,63,244901,1,0,1:0:0:0:
242,63,244980,1,2,1:2:0:0:
316,184,245138,6,0,P|319:136|324:56,1,118.125000450611,4|2,1:0|0:0,0:0:0:0:
410,272,245454,1,0,1:0:0:0:
323,66,245612,1,2,3:0:0:0:
193,259,245770,1,4,1:0:0:0:
316,184,245928,1,2,0:0:0:0:
77,84,246086,1,0,1:0:0:0:
120,338,246243,1,2,0:0:0:0:
326,163,246401,6,0,P|336:117|204:83,1,177.187500675917,4|0,1:0|0:0,0:0:0:0:
147,31,246717,1,0,1:0:0:0:
193,259,246875,2,0,B|308:299|332:215|445:271,1,236.250000901222,4|0,1:0|0:0,0:0:0:0:
123,342,247349,1,0,0:0:0:0:
123,342,247428,1,0,1:0:0:0:
123,342,247507,1,2,1:2:0:0:
71,266,247665,5,4,2:0:0:0:
46,189,247822,1,2,0:0:0:0:
36,119,247980,1,2,0:0:0:0:
58,44,248138,1,2,0:0:0:0:
21,105,248296,5,2,0:0:0:0:
30,180,248454,1,2,0:0:0:0:
66,246,248612,1,2,0:0:0:0:
127,293,248770,1,2,0:0:0:0:
193,326,248928,1,0,0:0:0:0:
226,335,249007,2,0,P|294:341|320:343,1,59.0625002253056,2|0,0:0|0:0,0:0:0:0:
81,21,251454,6,0,P|53:79|145:133,1,164.0625,4|0,1:0|0:0,0:0:0:0:
0,146,251770,1,0,1:0:0:0:
171,185,251928,1,2,0:0:0:0:
182,195,252007,1,2,0:0:0:0:
203,208,252086,2,0,L|323:167,1,109.375,4|0,0:3|0:0,0:0:0:0:
170,303,252401,2,0,L|281:267,1,109.375,0|2,1:0|0:0,0:0:0:0:
153,380,252717,1,4,1:3:0:0:
339,229,252875,6,0,P|339:174|321:123,1,109.375,2|0,3:0|1:0,0:0:0:0:
104,249,253191,2,0,P|90:298|102:367,1,109.375,2|4,3:0|3:0,0:0:0:0:
253,243,253507,1,2,3:2:0:0:
23,184,253665,1,0,1:0:0:0:
237,103,253822,1,0,0:0:0:0:
51,19,253980,6,0,B|68:72|68:72|29:140,1,109.375,4|0,1:0|0:0,0:0:0:0:
179,30,254296,1,0,1:0:0:0:
216,211,254454,1,2,0:0:0:0:
202,223,254533,1,2,0:0:0:0:
190,231,254612,2,0,L|63:205,1,109.375,4|0,0:3|0:0,0:0:0:0:
248,321,254928,2,0,L|113:300,1,109.375,0|0,1:0|0:0,0:0:0:0:
317,384,255243,1,4,1:3:0:0:
190,231,255401,6,0,P|188:184|220:107,1,109.375,2|0,3:0|1:0,0:0:0:0:
380,248,255717,2,0,P|391:315|380:362,1,109.375,2|4,3:0|3:0,0:0:0:0:
195,279,256033,1,2,3:2:0:0:
383,183,256191,1,0,1:0:0:0:
185,303,256349,1,0,0:0:0:0:
164,97,256507,6,0,P|216:108|289:86,1,109.375,4|0,1:0|0:0,0:0:0:0:
99,39,256822,1,0,1:0:0:0:
270,96,256980,1,2,0:0:0:0:
290,111,257059,1,2,0:0:0:0:
313,129,257138,2,0,L|295:254,1,109.375,4|2,0:3|3:0,0:0:0:0:
392,72,257454,2,0,L|376:218,1,109.375,0|2,1:0|0:0,0:0:0:0:
470,32,257770,1,4,1:3:0:0:
364,259,257928,2,0,P|309:258|257:242,1,109.375,2|0,3:0|1:0,0:0:0:0:
366,16,258243,2,0,B|415:7|415:7|476:34,1,109.375,2|4,3:0|3:0,0:0:0:0:
491,65,258480,1,0,1:3:0:0:
501,107,258559,1,2,3:2:0:0:
490,152,258638,1,0,1:0:0:0:
463,180,258717,2,0,P|412:198|348:176,1,109.375,0|2,1:0|0:0,0:0:0:0:
271,148,258954,1,0,1:0:0:0:
140,188,259033,6,0,L|158:373,1,164.0625,4|0,1:0|0:0,0:0:0:0:
274,220,259349,2,0,P|280:168|190:100,1,164.0625,4|0,1:0|0:0,0:0:0:0:
21,126,259665,2,0,B|22:184|-16:196|-16:196|17:216|2:274,1,164.0625,4|0,1:0|0:0,0:0:0:0:
155,351,259980,2,0,B|246:370|233:314|328:343,1,164.0625,4|0,1:0|0:0,0:0:0:0:
460,366,260296,5,4,1:0:0:0:
268,133,260612,1,4,1:0:0:0:
98,364,260770,1,0,1:0:0:0:
98,364,260849,1,0,1:0:0:0:
98,364,260928,1,4,1:0:0:0:
267,102,261086,1,0,1:0:0:0:
447,292,261243,1,4,1:3:0:0:
478,254,261322,1,0,1:0:0:0:
486,202,261401,1,0,1:0:0:0:
471,151,261480,1,0,1:0:0:0:
428,124,261559,6,0,B|376:156|311:93|255:143,1,164.0625,4|0,1:0|0:0,0:0:0:0:
373,58,261875,1,0,1:0:0:0:
134,125,262033,1,2,0:0:0:0:
147,139,262112,1,2,0:0:0:0:
158,166,262191,2,0,B|146:227|146:227|166:279,1,109.375,4|2,0:3|3:0,0:0:0:0:
105,95,262507,1,0,1:0:0:0:
182,295,262665,6,0,P|101:282|13:284,1,164.0625,2|0,0:0|0:0,0:0:0:0:
127,275,262980,2,0,P|185:278|241:268,1,109.375,2|0,3:0|1:0,0:0:0:0:
324,152,263296,1,2,3:0:0:0:
384,325,263454,1,4,0:3:0:0:
235,269,263612,1,2,0:0:0:0:
400,179,263770,1,0,1:0:0:0:
415,384,263928,1,2,0:0:0:0:
400,179,264086,6,0,B|333:179|333:179|287:206|213:191,1,164.0625,4|0,1:0|0:0,0:0:0:0:
325,150,264401,1,0,1:0:0:0:
452,251,264559,1,2,0:0:0:0:
466,261,264638,1,2,0:0:0:0:
476,270,264717,2,0,L|469:379,1,109.375,4|2,0:3|3:0,0:0:0:0:
400,179,265033,1,0,1:0:0:0:
241,328,265191,6,0,B|163:360|155:303|65:337,1,164.0625,2|0,0:0|0:0,0:0:0:0:
32,210,265507,2,0,P|62:269|55:333,1,109.375,2|0,3:0|1:0,0:0:0:0:
166,228,265822,1,2,3:0:0:0:
36,114,265980,1,4,0:3:0:0:
166,228,266138,1,2,0:0:0:0:
266,84,266296,1,0,1:0:0:0:
364,273,266454,1,2,0:0:0:0:
478,65,266612,6,0,L|338:78,1,109.375,4|0,1:0|1:0,0:0:0:0:
342,59,266849,1,0,1:0:0:0:
342,58,266928,1,2,1:2:0:0:
260,309,267086,1,0,1:0:0:0:
57,123,267401,1,4,0:3:0:0:
342,58,267559,1,12,0:3:0:0:
120,298,267717,1,4,1:0:0:0:
342,58,268033,5,12,1:3:0:0:
358,92,268112,1,0,1:0:0:0:
365,129,268191,1,4,1:3:0:0:
367,167,268270,1,0,1:0:0:0:
361,204,268349,1,0,1:0:0:0:
346,238,268428,1,0,1:0:0:0:
323,269,268507,1,12,1:3:0:0:
291,290,268586,1,4,1:3:0:0:
254,301,268665,1,4,0:3:0:0:
470,57,268822,1,4,1:0:0:0:
470,57,269296,5,2,0:0:0:0:
398,62,269454,1,2,0:0:0:0:
325,82,269612,1,2,0:0:0:0:
232,134,269928,5,2,3:0:0:0:
172,182,270086,1,2,3:2:0:0:
449,354,270559,5,4,1:0:0:0:
85,113,270875,1,0,1:0:0:0:
255,366,271033,5,4,1:0:0:0:
256,192,271112,12,0,277033,0:0:0:0:
