osu file format v14

[General]
AudioFilename: audio.mp3
AudioLeadIn: 0
PreviewTime: 230655
Countdown: 0
SampleSet: Soft
StackLeniency: 0.3
Mode: 0
LetterboxInBreaks: 0
WidescreenStoryboard: 1

[Editor]
DistanceSpacing: 1
BeatDivisor: 16
GridSize: 32
TimelineZoom: 5.799995

[Metadata]
Title:Muishiki Requiem
TitleUnicode:無意識レクイエム
Artist:ShinRa-Bansho
ArtistUnicode:森羅万象
Creator:Rumia-
Version:Lunatic
Source:東方地靈殿 ~ Subterranean Animism.
Tags:あよ Ayo kaztora シンクロ2 ハルトマンの妖怪少女 Hartmann's Youkai Girl Komeiji Koishi wuhua moemoekyunnn Unconscious Hey Lululu
BeatmapID:2042534
BeatmapSetID:975932

[Difficulty]
HPDrainRate:5
CircleSize:4
OverallDifficulty:8.5
ApproachRate:9
SliderMultiplier:1.58
SliderTickRate:1

[Events]
//Background and Video events
0,0,"brrg.jpg",0,0
Video,-4,"video.mp4"
//Break Periods
2,68916,72738
2,83462,92415
2,132231,134231
2,185117,189424
2,229852,234079
//Storyboard Layer 0 (Background)
//Storyboard Layer 1 (Fail)
//Storyboard Layer 2 (Pass)
//Storyboard Layer 3 (Foreground)
//Storyboard Layer 4 (Overlay)
//Storyboard Sound Samples

[TimingPoints]
1748,655.737704918033,3,2,0,20,1,0
16502,983.606557377049,3,2,0,20,1,0
16993,441.176470588235,3,2,1,20,1,0
17434,487.80487804878,3,2,1,20,1,0
17677,631.578947368421,3,2,1,20,1,0
18624,674.536256323777,4,2,1,20,1,0
21323,307.692307692308,4,2,2,30,1,0
21323,-133.333333333333,4,2,2,30,0,0
25477,-100,4,2,2,40,0,0
25939,-100,4,3,1,40,0,0
26170,-100,4,2,1,5,0,0
26255,307.692307692308,4,2,0,20,1,0
26255,-100,4,2,1,50,0,0
36100,-133.333333333333,4,3,1,40,0,0
37639,-133.333333333333,4,3,1,50,0,0
43407,-133.333333333333,4,2,1,5,0,0
43484,-83.3333333333333,4,2,1,50,0,0
44177,-83.3333333333333,4,2,1,5,0,0
44254,-83.3333333333333,4,2,1,50,0,0
45946,-100,4,2,1,50,0,0
46407,-100,4,2,1,50,0,0
50869,-100,4,2,1,50,0,0
53331,-83.3333333333333,4,2,1,50,0,0
53638,-83.3333333333333,4,2,1,50,0,0
53946,-83.3333333333333,4,2,1,50,0,0
54407,-100,4,2,1,50,0,0
55792,-133.333333333333,4,3,1,50,0,0
60407,-66.6666666666667,4,2,1,50,0,0
60715,-133.333333333333,4,3,1,50,0,0
63177,-133.333333333333,4,2,1,50,0,0
66254,-133.333333333333,4,3,1,50,0,0
66715,-66.6666666666667,4,2,1,50,0,0
66946,-66.6666666666667,4,2,1,5,0,0
67023,-66.6666666666667,4,2,1,60,0,0
67254,-66.6666666666667,4,2,1,5,0,0
67331,-66.6666666666667,4,2,1,70,0,0
67561,-66.6666666666667,4,2,1,5,0,0
67638,-66.6666666666667,4,2,1,80,0,0
67792,-66.6666666666667,4,2,1,50,0,0
68177,-66.6666666666667,4,2,1,5,0,0
68254,-66.6666666666667,4,2,1,50,0,0
73338,307.692307692308,4,1,1,70,1,1
73338,-66.6666666666667,4,1,1,70,0,1
80722,-100,4,1,1,70,0,1
83107,-57.1428571428571,4,1,1,5,0,1
83184,-133.333333333333,4,2,1,50,0,0
93015,307.692307692308,3,2,2,40,1,0
93015,-200,3,2,2,40,0,0
106861,-200,3,2,1,20,0,0
107168,-200,3,2,1,30,0,0
107476,-200,3,2,1,40,0,0
107784,307.692307692308,4,3,1,50,1,0
107784,-83.3333333333333,4,3,1,50,0,0
110245,-83.3333333333333,4,2,1,50,0,0
113014,-83.3333333333333,4,2,1,50,0,0
118860,-133.333333333333,4,3,1,50,0,0
121014,-133.333333333333,4,2,3,50,0,0
121322,-133.333333333333,4,3,1,50,0,0
123476,-133.333333333333,4,2,3,50,0,0
123784,-133.333333333333,4,3,1,50,0,0
125937,-66.6666666666667,4,3,1,50,0,0
126168,-66.6666666666667,4,2,1,5,0,0
126245,-117.647058823529,4,2,1,50,0,0
126937,-117.647058823529,4,2,1,5,0,0
127014,-117.647058823529,4,2,1,50,0,0
127553,-117.647058823529,4,2,1,5,0,0
127630,-117.647058823529,4,2,1,50,0,0
128245,-117.647058823529,4,2,1,50,0,0
131245,-117.647058823529,4,2,1,10,0,0
132399,-117.647058823529,4,2,1,20,0,0
134860,-66.6666666666667,4,1,1,70,0,1
137399,-66.6666666666667,4,1,1,5,0,1
137476,-66.6666666666667,4,1,1,70,0,1
144091,-83.3333333333333,4,2,1,80,0,0
145245,-100,4,2,1,5,0,0
145322,307.692307692308,4,2,2,30,1,0
145322,-133.333333333333,4,2,2,30,0,0
153937,-133.333333333333,4,2,1,30,0,0
155322,-133.333333333333,4,2,0,30,0,0
158860,-133.333333333333,4,2,1,30,0,0
159168,-133.333333333333,4,2,0,30,0,0
159475,-133.333333333333,4,2,0,30,0,0
161629,-133.333333333333,4,2,0,30,0,0
165014,-133.333333333333,4,2,0,40,0,0
165322,-133.333333333333,4,2,0,40,0,0
165629,-117.647058823529,4,2,0,50,0,0
165937,-117.647058823529,4,2,0,50,0,0
166245,-105.263157894737,4,2,0,60,0,0
166552,-105.263157894737,4,2,0,60,0,0
166860,-95.2380952380952,4,2,0,70,0,0
167168,-95.2380952380952,4,2,0,70,0,0
167475,317.460317460317,3,2,3,80,1,0
167791,-100,3,2,3,50,0,0
168107,-100,3,2,3,50,0,0
168744,-100,3,2,3,50,0,0
169379,310.880829015544,3,2,3,80,1,0
171244,304.568527918782,3,2,3,80,1,0
173071,301.507537688442,3,2,3,80,1,0
173975,-105.263157894737,3,2,3,50,0,0
174427,-100,3,2,1,50,0,0
174880,298.507462686567,3,2,3,80,1,0
174880,-101.010101010101,3,2,1,50,0,0
175178,-101.010101010101,3,2,3,50,0,0
175775,-103.092783505155,3,2,1,50,0,0
176074,-103.092783505155,3,2,3,50,0,0
176671,-105.263157894737,3,2,3,50,0,0
177566,-133.333333333333,3,2,3,50,0,0
178462,289.855072463768,3,2,3,50,1,0
179331,285.714285714286,3,2,3,50,1,0
179331,-100,3,2,0,50,0,0
179759,338.983050847458,3,2,3,50,1,0
179928,285.714285714286,3,2,3,50,1,0
179928,-100,3,2,0,55,0,0
180213,338.983050847458,3,2,3,60,1,0
180298,244.897959183673,3,2,3,60,1,0
180298,-133.333333333333,3,2,0,60,0,0
180605,285.714285714286,3,2,3,60,1,0
180605,-133.333333333333,3,2,0,60,0,0
180748,309.278350515464,3,2,3,60,1,0
180902,-133.333333333333,3,2,0,60,0,0
181057,389.61038961039,3,2,3,60,1,0
181154,295.566502463054,3,2,3,70,1,0
181154,-100,3,2,0,70,0,0
181597,370.828182941904,3,2,3,60,1,0
181967,379.746835443038,3,2,3,50,1,0
182346,422.535211267606,3,2,3,50,1,0
182769,395.256916996047,3,2,3,50,1,0
182769,-133.333333333333,3,1,1,50,0,0
183263,-142.857142857143,3,2,0,40,0,0
183691,-166.666666666667,3,2,0,35,0,0
184152,-200,3,2,0,30,0,0
184745,-333.333333333333,3,2,0,25,0,0
185141,307.692307692308,4,2,2,30,1,0
185141,-142.857142857143,4,2,2,30,0,0
186833,-142.857142857143,4,2,2,40,0,0
188833,-142.857142857143,4,2,2,30,0,0
189141,-142.857142857143,4,2,1,5,0,0
189371,-142.857142857143,4,2,2,30,0,0
189641,-142.857142857143,4,2,1,5,0,0
190064,-90.9090909090909,4,2,1,50,0,0
200987,-90.9090909090909,4,2,1,80,0,0
201064,-90.9090909090909,4,2,1,50,0,0
202217,-90.9090909090909,4,2,1,80,0,0
202294,-90.9090909090909,4,2,1,50,0,0
203448,-90.9090909090909,4,2,1,80,0,0
203525,-90.9090909090909,4,2,1,50,0,0
204833,-125,4,2,1,80,0,0
205448,-100,4,2,1,80,0,0
206064,-83.3333333333333,4,2,1,80,0,0
206679,-66.6666666666667,4,2,1,80,0,0
207294,-83.3333333333333,4,2,1,80,0,0
207371,-83.3333333333333,4,2,1,50,0,0
209756,-200,4,2,2,30,0,0
216833,-100,4,3,1,30,0,0
217064,-83.3333333333333,4,2,1,5,0,0
217141,-133.333333333333,4,3,1,50,0,0
222064,-100,4,2,1,50,0,0
224525,-100,4,2,1,80,0,0
224602,-100,4,2,1,50,0,0
225602,-83.3333333333333,4,2,1,80,0,0
226217,-83.3333333333333,4,2,1,80,0,0
226448,-83.3333333333333,4,2,1,5,0,0
226525,-83.3333333333333,4,2,1,50,0,0
226987,-83.3333333333333,4,2,1,70,0,0
228217,-166.666666666667,4,1,1,30,0,0
234679,-166.666666666667,4,3,1,90,0,0
234910,-166.666666666667,4,3,1,5,0,0
234987,307.692307692308,4,1,1,70,1,1
234987,-66.6666666666667,4,1,1,70,0,1
237525,-100,4,1,1,5,0,1
237602,-66.6666666666667,4,1,1,70,0,1
243602,-66.6666666666667,4,1,1,90,0,1
243833,-66.6666666666667,4,1,1,5,0,1
243910,-66.6666666666667,4,1,1,90,0,1
244140,-66.6666666666667,4,1,1,5,0,1
244217,-66.6666666666667,4,1,1,90,0,1
244525,-333.333333333333,4,2,1,70,0,0
244833,-333.333333333333,4,2,1,5,0,0
244987,-333.333333333333,4,2,1,70,0,0
245140,-66.6666666666667,4,1,1,70,0,1
252063,-66.6666666666667,4,1,1,90,0,1
252294,-66.6666666666667,4,1,1,5,0,1
252371,-66.6666666666667,4,1,1,70,0,1
254525,-100,4,2,1,70,0,0
256525,-66.6666666666667,4,2,2,100,0,0
256756,-40,4,2,2,100,0,0
257063,-40,4,2,1,5,0,0
257140,-100,4,2,1,70,0,0
261756,-66.6666666666667,4,2,1,70,0,0
265910,-100,4,2,1,70,0,0
266833,-66.6666666666667,4,2,1,70,0,0
274371,-66.6666666666667,4,2,1,20,0,0

[Colours]
Combo1 : 255,255,198
Combo2 : 128,0,0
Combo3 : 0,128,0
Combo4 : 199,199,199

[HitObjects]
34,114,1747,6,0,P|69:130|102:119,1,69.125,0|2,0:0|0:0,0:0:0:0:
181,64,2403,2,0,L|179:18,2,39.5,0|0|2,0:0|0:0|0:0,0:0:0:0:
282,162,3059,1,2,0:0:0:0:
349,84,3387,2,0,L|338:31,1,39.5
442,43,3715,2,0,L|432:149,1,79,2|0,0:0|0:0,0:0:0:0:
418,292,4370,1,2,0:0:0:0:
376,208,4698,1,2,0:0:0:0:
466,211,5026,1,0,0:0:0:0:
417,293,5354,1,2,0:0:0:0:
417,293,5682,6,0,P|388:305|331:306,1,79,0|2,0:0|0:0,0:0:0:0:
260,245,6338,2,0,L|264:198,1,39.5
229,112,6666,2,0,P|200:100|143:99,1,79,2|2,0:0|0:0,0:0:0:0:
60,140,7321,2,0,L|69:195,1,39.5
30,269,7649,6,0,P|69:252|113:254,1,79,2|0,0:0|0:0,0:0:0:0:
197,304,8305,1,2,0:0:0:0:
197,304,8633,2,0,P|240:314|279:303,1,79,2|0,0:0|0:0,0:0:0:0:
344,239,9288,1,0,0:0:0:0:
206,33,9616,5,0,0:0:0:0:
405,90,9944,1,2,0:0:0:0:
359,22,10272,1,0,0:0:0:0:
331,49,10436,1,0,0:0:0:0:
327,90,10600,1,2,0:0:0:0:
372,154,10928,1,2,0:0:0:0:
455,148,11256,1,0,0:0:0:0:
481,118,11420,1,0,0:0:0:0:
478,75,11584,1,2,0:0:0:0:
372,154,11911,1,2,0:0:0:0:
290,233,12239,6,0,L|232:216,2,39.5,2|0|0,0:0|0:0|0:0,0:0:0:0:
382,303,12895,1,0,0:0:0:0:
458,253,13223,1,0,0:0:0:0:
458,253,13551,6,0,P|409:218|375:218,1,79,0|2,0:0|0:0,0:0:0:0:
264,332,14207,2,0,P|237:340|212:338,1,39.5
223,243,14534,2,0,L|279:166,1,79,2|2,0:0|0:0,0:0:0:0:
266,81,15190,2,0,P|246:83|228:90,1,39.5,2|0,0:0|0:0,0:0:0:0:
269,179,15518,2,0,L|356:187,1,79,0|2,0:0|0:0,0:0:0:0:
448,224,16174,1,2,0:0:0:0:
486,243,16338,1,0,0:0:0:0:
450,267,16502,1,2,0:0:0:0:
256,192,16624,12,0,19804,0:0:0:0:
256,192,19973,12,0,21153,0:0:0:0:
467,200,21323,6,0,L|477:125,2,59.2500022602082,2|2|2,0:0|0:0|0:0,0:0:0:0:
505,307,21784,2,0,B|454:280|454:280|391:289,1,118.500004520416,2|2,0:0|0:0,0:0:0:0:
21,320,22399,1,2,0:0:0:0:
75,256,22553,6,0,L|68:177,1,59.2500022602082,2|0,0:0|0:0,0:0:0:0:
117,343,22861,1,2,0:0:0:0:
171,279,23015,2,0,L|164:200,1,59.2500022602082,2|2,0:0|0:0,0:0:0:0:
217,356,23323,1,0,0:0:0:0:
271,292,23476,1,2,0:0:0:0:
260,204,23630,1,2,0:0:0:0:
350,343,23784,6,0,L|416:326,2,59.2500022602082,2|0|2,0:0|0:0|0:0,0:0:0:0:
271,292,24246,2,0,P|219:269|157:292,2,118.500004520416,2|2|2,0:0|0:0|0:0,0:0:0:0:
103,349,25015,1,2,0:0:0:0:
103,349,25476,1,2,0:0:0:0:
103,349,25938,6,0,L|86:222,1,118.5,8|0,0:0|0:0,0:0:0:0:
17,179,26255,6,0,P|48:150|92:139,2,79,4|2|8,3:2|3:0|0:0,0:0:0:0:
158,169,26716,2,0,P|159:113|135:80,1,79,2|0,3:0|0:0,0:0:0:0:
20,33,27024,2,0,L|113:23,1,79,2|8,3:0|0:0,0:0:0:0:
206,17,27332,1,2,0:0:0:0:
325,70,27485,5,2,3:0:0:0:
411,60,27639,1,2,3:0:0:0:
497,50,27793,1,8,0:0:0:0:
440,158,27947,5,2,3:0:0:0:
369,152,28101,1,0,0:0:0:0:
298,143,28255,1,2,3:0:0:0:
445,234,28408,1,8,0:0:0:0:
511,209,28562,1,2,3:0:0:0:
299,307,28716,6,0,L|293:221,2,79,6|0|8,3:2|0:0|0:0,0:0:0:0:
492,241,29178,2,0,P|512:187|502:138,1,79,2|0,3:0|0:0,0:0:0:0:
428,85,29485,1,0,0:0:0:0:
428,85,29639,2,0,L|346:95,1,79,8|0,0:0|0:0,0:0:0:0:
218,35,29947,5,2,3:0:0:0:
176,162,30101,1,2,3:0:0:0:
133,78,30255,1,8,0:0:0:0:
261,119,30408,2,0,L|245:243,1,118.5,2|2,3:0|0:0,0:0:0:0:
258,292,30716,2,0,L|268:207,2,79,2|8|2,3:0|0:0|3:0,0:0:0:0:
148,328,31178,6,0,P|109:309|64:316,1,79,6|2,3:2|3:0,0:0:0:0:
29,214,31485,1,8,0:0:0:0:
29,214,31639,2,0,L|138:203,1,79,2|0,3:0|0:0,0:0:0:0:
94,95,31947,2,0,L|15:102,1,79,2|8,3:0|0:0,0:0:0:0:
150,32,32255,1,2,0:0:0:0:
238,106,32408,5,2,3:0:0:0:
218,262,32562,1,2,3:0:0:0:
228,184,32716,1,8,0:0:0:0:
333,207,32870,5,2,3:0:0:0:
338,154,33024,1,2,3:0:0:0:
330,256,33178,1,2,3:0:0:0:
420,194,33332,1,8,0:0:0:0:
417,225,33485,1,2,3:0:0:0:
472,341,33639,5,2,3:0:0:0:
472,341,33793,2,0,L|479:275,1,39.5,2|0,3:0|0:0,0:0:0:0:
349,339,33947,1,8,0:0:0:0:
349,339,34101,2,0,L|356:273,1,39.5,0|0,3:0|3:0,0:0:0:0:
264,214,34255,1,2,3:0:0:0:
264,214,34408,2,0,L|253:262,1,39.5,2|0,3:0|0:0,0:0:0:0:
150,349,34562,2,0,L|139:301,1,39.5,8|0,0:0|0:0,0:0:0:0:
28,256,34716,6,0,L|151:234,1,118.5,6|0,3:2|0:0,0:0:0:0:
177,224,35024,1,8,0:0:0:0:
71,168,35178,1,8,3:0:0:0:
162,79,35332,1,2,3:0:0:0:
162,79,35408,1,2,3:0:0:0:
162,79,35485,1,2,3:0:0:0:
296,156,35639,1,4,3:0:0:0:
384,99,35793,2,0,L|379:13,1,79,8|4,0:0|3:0,0:0:0:0:
458,278,36101,6,0,P|405:259|339:267,1,118.500004520416,4|2,2:0|3:0,0:0:0:0:
250,321,36562,1,0,0:0:0:0:
250,321,36716,2,0,P|197:340|131:332,1,118.500004520416,2|2,3:0|3:0,0:0:0:0:
57,266,37178,1,0,0:0:0:0:
57,266,37332,6,0,L|64:186,1,59.2500022602082,2|0,3:0|0:0,0:0:0:0:
203,97,37639,1,0,0:0:0:0:
121,128,37793,1,2,2:0:0:0:
189,196,37947,2,0,L|183:255,1,59.2500022602082,0|2,0:0|2:0,0:0:0:0:
255,315,38255,1,0,0:0:0:0:
319,252,38408,1,0,0:0:0:0:
319,252,38562,6,0,P|327:193|316:135,1,118.500004520416,2|0,2:0|0:0,0:0:0:0:
277,57,39024,1,2,2:0:0:0:
277,57,39178,2,0,L|417:52,1,118.500004520416,0|0,0:0|0:0,0:0:0:0:
477,101,39639,1,2,2:0:0:0:
477,101,39793,6,0,L|468:166,1,59.2500022602082,0|0,0:0|0:0,0:0:0:0:
394,228,40101,2,0,L|385:293,1,59.2500022602082,0|0,0:0|2:0,0:0:0:0:
495,342,40408,2,0,P|453:355|416:363,1,59.2500022602082,0|2,0:0|2:0,0:0:0:0:
318,353,40716,2,0,P|285:339|255:319,1,59.2500022602082,0|0,2:0|0:0,0:0:0:0:
116,193,41024,6,0,P|175:164|235:198,1,118.500004520416,0|0,0:0|0:0,0:0:0:0:
169,278,41485,1,2,2:0:0:0:
169,278,41639,2,0,L|94:271,2,59.2500022602082,0|0|0,0:0|0:0|0:0,0:0:0:0:
34,206,42101,1,2,2:0:0:0:
107,133,42255,6,0,P|102:70|51:36,1,118.500004520416,0|0,0:0|0:0,0:0:0:0:
60,38,42716,1,2,2:0:0:0:
166,34,42870,2,0,L|232:32,1,59.2500022602082,0|0,0:0|0:0,0:0:0:0:
419,191,43178,2,0,P|379:226|319:226,1,88.8750033903123,8|0,2:0|0:0,0:0:0:0:
349,151,43485,6,0,L|362:297,1,142.199995660401,6|0,3:2|0:0,0:0:0:0:
355,309,43793,1,8,0:0:0:0:
227,259,43947,2,0,P|154:247|97:285,1,142.199995660401,0|0,3:0|0:0,0:0:0:0:
95,302,44255,1,0,3:0:0:0:
16,204,44408,1,8,0:0:0:0:
178,352,44562,6,0,L|404:338,1,189.599994213867,6|2,0:2|3:2,0:0:0:0:
500,279,45024,1,8,0:0:0:0:
367,206,45178,1,2,3:0:0:0:
395,318,45332,1,8,3:0:0:0:
399,307,45408,1,2,3:0:0:0:
403,296,45485,1,8,3:0:0:0:
376,190,45639,1,6,3:2:0:0:
298,266,45793,1,0,0:0:0:0:
211,227,45947,6,0,L|207:147,2,79,6|2|8,3:2|3:0|0:0,0:0:0:0:
129,86,46408,2,0,P|80:71|34:82,1,79,0|0,3:0|0:0,0:0:0:0:
266,73,46716,2,0,P|315:58|361:69,1,79,0|8,3:0|0:0,0:0:0:0:
414,128,47024,1,0,0:0:0:0:
407,297,47178,5,4,3:0:0:0:
359,224,47332,1,2,3:0:0:0:
313,316,47485,1,8,0:0:0:0:
260,239,47639,1,2,3:0:0:0:
407,297,47793,1,0,0:0:0:0:
260,239,47947,1,2,3:0:0:0:
260,239,48101,2,0,L|177:252,1,79,8|8,0:0|0:0,0:0:0:0:
41,261,48408,6,0,B|26:299|26:299|46:351,2,79,4|0|8,3:0|0:0|0:0,0:0:0:0:
85,168,48870,2,0,L|61:74,1,79,8|0,0:0|3:0,0:0:0:0:
148,55,49178,2,0,L|168:132,1,79,0|8,3:0|0:0,0:0:0:0:
213,223,49485,1,0,0:0:0:0:
213,223,49639,5,2,3:0:0:0:
282,171,49793,1,2,3:0:0:0:
295,253,49947,1,8,0:0:0:0:
231,298,50101,5,0,3:0:0:0:
362,219,50255,1,0,0:0:0:0:
283,88,50408,1,4,3:0:0:0:
152,167,50562,1,8,0:0:0:0:
124,348,50716,1,0,0:0:0:0:
39,249,50870,6,0,P|21:195|29:161,2,79,0|2|8,3:0|3:0|0:0,0:0:0:0:
115,315,51332,2,0,L|41:344,1,79,8|2,0:0|3:0,0:0:0:0:
190,251,51639,2,0,L|263:280,1,79,2|8,3:0|0:0,0:0:0:0:
131,171,51947,1,0,0:0:0:0:
237,90,52101,5,2,3:0:0:0:
298,137,52255,1,2,3:0:0:0:
360,89,52408,1,8,0:0:0:0:
418,146,52562,1,2,3:0:0:0:
484,292,52716,5,2,3:0:0:0:
417,235,52870,1,2,3:0:0:0:
328,326,53024,1,8,0:0:0:0:
233,243,53178,1,0,3:0:0:0:
233,243,53332,6,0,L|331:233,1,94.7999971069337,4|0,3:0|0:0,0:0:0:0:
159,341,53639,2,0,L|61:331,1,94.7999971069337,8|0,0:0|0:0,0:0:0:0:
109,138,53947,1,6,3:2:0:0:
91,232,54101,1,2,3:0:0:0:
109,138,54255,1,8,0:0:0:0:
203,274,54408,6,0,L|365:262,1,158,6|0,3:2|3:0,0:0:0:0:
476,251,54870,5,8,2:0:0:0:
480,236,55024,1,8,3:0:0:0:
397,148,55178,5,8,2:0:0:0:
406,178,55332,1,8,1:0:0:0:
483,114,55485,5,2,3:0:0:0:
490,79,55639,1,2,3:0:0:0:
384,51,55793,6,0,L|260:64,1,118.500004520416,4|0,2:0|3:0,0:0:0:0:
184,73,56255,1,4,0:0:0:0:
184,73,56408,2,0,L|104:81,1,59.2500022602082,2|0,0:1|0:0,0:0:0:0:
41,174,56716,2,0,L|100:169,1,59.2500022602082,8|0,2:0|0:0,0:0:0:0:
209,155,57024,6,0,L|180:290,1,118.500004520416,2|2,0:0|0:1,0:0:0:0:
126,340,57485,1,2,0:0:0:0:
126,340,57639,2,0,L|202:361,1,59.2500022602082,0|0,0:0|0:0,0:0:0:0:
272,306,57947,5,8,2:0:0:0:
426,348,58255,1,2,0:1:0:0:
272,306,58562,1,2,0:1:0:0:
349,260,58716,1,0,0:0:0:0:
351,172,58870,1,0,0:0:0:0:
351,172,59178,1,8,2:0:0:0:
432,133,59332,6,0,P|384:86|317:93,1,118.500004520416,0|0,0:0|0:0,0:0:0:0:
246,93,59793,2,0,P|225:67|222:24,1,59.2500022602082,2|0,0:1|0:0,0:0:0:0:
187,163,60101,2,0,L|117:172,1,59.2500022602082,0|0,0:0|0:0,0:0:0:0:
42,111,60408,1,8,0:0:0:0:
103,349,60716,6,0,L|221:337,1,118.500004520416,0|2,0:0|0:1,0:0:0:0:
265,266,61178,1,0,0:0:0:0:
265,266,61332,2,0,P|300:280|320:306,1,59.2500022602082,0|0,0:0|0:0,0:0:0:0:
404,349,61639,2,0,P|439:335|459:309,1,59.2500022602082,8|0,2:0|0:0,0:0:0:0:
479,234,61947,6,0,L|462:88,1,118.500004520416,0|2,0:0|0:1,0:0:0:0:
395,54,62408,1,0,0:0:0:0:
309,62,62562,1,0,0:0:0:0:
199,129,62716,1,8,2:0:0:0:
274,145,62870,1,8,0:0:0:0:
315,210,63024,1,8,0:0:0:0:
246,337,63178,5,4,3:2:0:0:
303,285,63485,1,0,0:0:0:0:
379,285,63793,1,2,3:0:0:0:
436,336,64101,1,2,3:0:0:0:
379,285,64255,1,0,0:0:0:0:
246,337,64408,6,0,L|110:328,1,118.500004520416,4|0,0:0|0:0,0:0:0:0:
23,238,64870,1,0,0:0:0:0:
23,238,65024,2,0,L|33:306,1,59.2500022602082,2|0,3:0|0:0,0:0:0:0:
81,155,65332,1,0,0:0:0:0:
66,69,65485,1,0,0:0:0:0:
177,104,65639,6,0,L|154:284,1,177.750006780625,4|0,0:0|0:0,0:0:0:0:
354,321,66255,1,8,0:0:0:0:
234,298,66408,1,0,0:0:0:0:
354,321,66562,1,8,2:0:0:0:
233,211,66716,6,0,B|198:199|198:199|343:170,1,177.750006780625,6|0,3:2|0:0,0:0:0:0:
424,243,67024,6,0,B|430:278|430:278|333:168,1,177.750006780625,2|0,3:0|0:0,0:0:0:0:
354,61,67332,6,0,B|381:37|381:37|334:176,1,177.750006780625,6|0,3:2|0:0,0:0:0:0:
310,260,67639,5,2,3:0:0:0:
274,105,67793,1,8,0:0:0:0:
425,151,67947,2,0,L|226:198,1,177.750006780625,6|0,3:2|3:2,0:0:0:0:
179,209,68255,5,8,1:0:0:0:
144,217,68408,1,8,1:0:0:0:
109,225,68562,1,8,1:0:0:0:
74,233,68716,1,12,1:0:0:0:
50,66,73338,6,0,P|100:48|172:75,1,118.500004520416,6|0,3:2|0:0,0:0:0:0:
165,254,73645,2,0,P|109:271|54:253,1,118.500004520416,8|0,0:0|0:0,0:0:0:0:
213,161,73953,1,0,0:0:0:0:
323,102,74107,1,2,0:0:0:0:
272,272,74261,1,8,0:0:0:0:
382,213,74414,1,2,0:0:0:0:
255,44,74568,6,0,P|238:114|266:175,1,118.500004520416,0|0,3:0|3:0,0:0:0:0:
459,271,74876,2,0,P|473:214|456:158,1,118.500004520416,8|0,0:0|0:0,0:0:0:0:
203,219,75184,2,0,P|186:289|214:350,2,118.500004520416,0|2|8,0:0|0:0|0:0,0:0:0:0:
252,156,75645,1,2,0:0:0:0:
252,156,75799,6,0,L|383:165,1,118.500004520416,0|2,0:0|2:0,0:0:0:0:
225,65,76107,1,8,0:0:0:0:
172,140,76261,1,0,0:0:0:0:
119,215,76414,2,0,P|60:218|4:200,2,118.500004520416,0|2|8,0:0|0:0|0:0,0:0:0:0:
277,268,76876,1,2,0:0:0:0:
277,268,77030,6,0,P|229:302|172:314,1,118.500004520416,0|2,0:0|2:0,0:0:0:0:
326,200,77338,2,0,P|374:234|432:246,1,118.500004520416,8|0,0:0|0:0,0:0:0:0:
281,89,77645,1,0,0:0:0:0:
327,201,77799,1,2,0:0:0:0:
396,101,77953,1,8,0:0:0:0:
281,89,78107,1,2,0:0:0:0:
207,162,78261,6,0,P|147:173|74:120,2,118.500004520416,4|2|8,0:0|0:0|0:0,0:0:0:0:
69,62,78722,1,2,1:0:0:0:
69,62,78876,2,0,P|27:94|8:158,1,118.500004520416,0|0,0:0|0:0,0:0:0:0:
60,252,79184,2,0,L|180:242,1,118.500004520416,8|0,0:0|0:0,0:0:0:0:
246,298,79491,5,0,0:0:0:0:
318,258,79645,1,2,0:0:0:0:
318,258,79722,1,8,3:0:0:0:
318,258,79799,1,8,3:0:0:0:
400,270,79953,1,8,3:0:0:0:
465,321,80107,1,0,3:0:0:0:
465,321,80261,1,0,3:0:0:0:
498,193,80414,1,0,3:0:0:0:
498,193,80588,1,0,3:0:0:0:
443,103,80722,6,0,L|277:115,1,158,6|0,3:2|0:0,0:0:0:0:
119,341,81338,6,0,L|285:353,1,158,6|0,3:2|0:0,0:0:0:0:
416,184,81799,1,2,2:0:0:0:
416,184,81953,2,0,L|325:187,1,79,6|0,3:2|0:0,0:0:0:0:
166,267,82261,2,0,L|259:274,1,79,6|0,3:2|0:0,0:0:0:0:
261,73,82568,2,0,L|182:67,1,79,6|0,3:2|0:0,0:0:0:0:
51,54,82876,2,0,L|64:195,1,118.5,12|0,1:2|0:0,0:0:0:0:
66,204,83184,5,6,3:2:0:0:
100,205,93015,6,0,L|107:111,1,79,12|2,0:0|0:0,0:0:0:0:
44,45,93630,1,2,0:0:0:0:
251,341,93938,6,0,L|258:247,1,79,8|2,0:0|0:0,0:0:0:0:
195,181,94399,1,2,0:0:0:0:
195,181,94553,1,2,0:0:0:0:
412,221,94861,6,0,L|419:127,1,79,8|2,0:0|0:0,0:0:0:0:
356,61,95322,1,2,0:0:0:0:
356,61,95476,1,2,0:0:0:0:
251,115,95784,6,0,L|167:105,1,79,8|2,0:0|0:0,0:0:0:0:
117,39,96245,1,2,0:0:0:0:
85,116,96399,1,2,0:0:0:0:
85,116,96707,2,0,L|92:207,1,79,8|2,0:0|0:0,0:0:0:0:
81,280,97168,1,2,0:0:0:0:
170,258,97322,1,2,0:0:0:0:
170,258,97630,6,0,L|219:270,1,39.5,8|0,0:0|0:0,0:0:0:0:
282,289,97938,2,0,L|331:301,1,39.5,2|2,0:0|0:0,0:0:0:0:
401,321,98245,1,2,0:0:0:0:
492,167,98553,6,0,P|498:127|494:82,1,79,8|0,0:0|0:0,0:0:0:0:
436,31,99015,1,2,0:0:0:0:
436,31,99168,2,0,P|409:38|384:38,1,39.5,2|0,0:0|0:0,0:0:0:0:
278,102,99476,6,0,L|355:118,1,79,8|2,0:0|0:0,0:0:0:0:
442,140,99938,1,2,0:0:0:0:
406,212,100091,1,2,0:0:0:0:
468,340,100399,6,0,P|424:318|388:318,1,79,8|2,0:0|0:0,0:0:0:0:
319,347,101015,1,2,0:0:0:0:
211,292,101322,6,0,P|167:314|131:314,1,79,8|2,0:0|0:0,0:0:0:0:
62,285,101784,1,2,0:0:0:0:
62,285,101938,1,2,0:0:0:0:
28,95,102245,6,0,P|62:85|79:88,1,39.5,8|0,0:0|0:0,0:0:0:0:
139,189,102553,2,0,P|119:187|101:179,1,39.5,2|2,0:0|0:0,0:0:0:0:
197,89,102861,1,2,0:0:0:0:
197,89,103015,1,0,0:0:0:0:
267,156,103168,6,0,P|312:152|353:123,1,79,10|2,0:0|0:0,0:0:0:0:
390,67,103630,1,2,0:0:0:0:
437,133,103784,2,0,L|429:179,1,39.5,2|0,0:0|0:0,0:0:0:0:
468,267,104091,6,0,L|378:251,1,79,8|2,0:0|0:0,0:0:0:0:
305,261,104553,1,2,0:0:0:0:
283,337,104707,1,2,0:0:0:0:
125,324,105015,5,8,0:0:0:0:
145,168,105322,1,2,0:0:0:0:
303,180,105630,1,2,0:0:0:0:
283,337,105938,1,10,0:0:0:0:
209,254,106245,5,2,0:0:0:0:
181,258,106399,1,2,0:0:0:0:
154,264,106553,1,2,0:0:0:0:
127,270,106707,1,2,0:0:0:0:
44,253,106861,6,0,L|32:234,9,13.1666666666667
107,161,107476,6,0,L|93:94,1,59.25,0|0,0:0|0:0,0:0:0:0:
143,43,107784,6,0,P|98:57|52:48,2,94.7999971069337,0|0|8,0:0|0:0|1:0,0:0:0:0:
251,43,108245,2,0,L|234:150,1,94.7999971069337,2|0,1:0|0:0,0:0:0:0:
360,194,108553,1,2,1:0:0:0:
360,194,108707,2,0,L|374:100,1,94.7999971069337,8|0,1:0|0:0,0:0:0:0:
470,173,109014,5,0,0:0:0:0:
449,245,109168,1,2,1:0:0:0:
308,280,109322,1,8,1:0:0:0:
384,284,109476,1,2,1:0:0:0:
248,232,109630,5,0,0:0:0:0:
287,108,109784,1,2,1:0:0:0:
351,216,109937,1,8,1:0:0:0:
235,311,110091,1,0,0:0:0:0:
343,351,110245,6,0,P|389:324|430:323,2,94.7999971069337,2|2|8,3:0|2:0|1:0,0:0:0:0:
253,211,110707,2,0,L|303:216,2,47.3999985534668,2|8|0,1:0|1:0|3:0,0:0:0:0:
182,138,111014,1,0,3:0:0:0:
124,238,111168,2,0,L|118:332,1,94.7999971069337,8|0,1:0|0:0,0:0:0:0:
37,259,111476,5,0,0:0:0:0:
24,334,111630,1,2,1:0:0:0:
124,238,111784,1,8,1:0:0:0:
111,163,111937,1,2,1:0:0:0:
205,161,112091,1,2,1:3:0:0:
300,160,112245,5,2,1:0:0:0:
281,9,112399,1,8,1:0:0:0:
336,74,112553,1,2,3:0:0:0:
252,88,112707,6,0,L|142:92,2,94.7999971069337,6|0|8,3:2|3:0|1:0,0:0:0:0:
408,21,113168,2,0,P|422:73|412:124,1,94.7999971069337,2|0,1:0|0:0,0:0:0:0:
255,317,113476,2,0,P|249:270|263:225,1,94.7999971069337,2|8,1:0|1:0,0:0:0:0:
198,142,113784,1,2,1:0:0:0:
314,158,113937,6,0,L|217:165,1,94.7999971069337,0|0,3:0|0:0,0:0:0:0:
171,231,114245,1,8,1:0:0:0:
282,243,114399,2,0,L|185:250,1,94.7999971069337,2|0,1:0|0:0,0:0:0:0:
139,316,114707,1,0,3:0:0:0:
39,297,114860,2,0,P|18:226|68:141,1,142.199995660401,8|0,1:0|3:0,0:0:0:0:
72,148,115168,6,0,L|192:152,1,94.7999971069337,2|2,2:3|1:0,0:0:0:0:
235,49,115476,2,0,L|355:53,1,94.7999971069337,8|2,1:0|1:0,0:0:0:0:
393,119,115784,2,0,P|411:77|406:22,2,94.7999971069337,0|0|8,0:0|3:0|1:0,0:0:0:0:
297,143,116245,6,0,B|278:175|278:175|292:331,1,189.599994213867,6|2,3:2|3:0,0:0:0:0:
474,349,116707,2,0,L|462:240,1,94.7999971069337,8|0,1:0|3:0,0:0:0:0:
361,217,117014,2,0,L|370:311,2,94.7999971069337,0|2|8,0:0|1:0|1:0,0:0:0:0:
326,68,117476,6,0,P|264:60|153:152,1,189.599994213867,6|2,3:2|1:0,0:0:0:0:
140,252,117937,1,8,1:0:0:0:
77,173,118091,1,2,3:1:0:0:
77,173,118168,1,0,3:0:0:0:
77,173,118245,2,0,P|46:214|42:263,1,94.7999971069337,8|8,3:0|3:0,0:0:0:0:
135,350,118553,2,0,P|181:343|218:313,1,94.7999971069337,8|8,1:0|3:0,0:0:0:0:
249,220,118860,5,6,3:2:0:0:
249,220,119168,1,0,0:0:0:0:
249,141,119322,1,0,2:0:0:0:
249,220,119476,1,0,0:0:0:0:
249,220,119784,1,0,0:0:0:0:
298,291,119937,6,0,P|363:309|430:289,1,118.500004520416,0|0,2:0|0:0,0:0:0:0:
479,236,120399,1,0,2:0:0:0:
479,236,120707,2,0,L|492:171,1,59.2500022602082,0|2,0:0|2:0,0:0:0:0:
413,100,121014,2,0,L|408:62,3,29.6250011301041,8|8|8|8,2:0|2:0|2:0|2:0,0:0:0:0:
437,50,121322,6,0,L|305:69,1,118.500004520416,2|0,0:0|2:0,0:0:0:0:
104,102,121937,2,0,L|236:121,1,118.500004520416,0|0,0:0|2:0,0:0:0:0:
332,269,122399,2,0,P|359:238|292:213,1,118.500004520416
236,244,122860,2,0,L|247:327,1,59.2500022602082,0|0,2:0|0:0,0:0:0:0:
155,328,123168,2,0,L|148:270,1,59.2500022602082,0|0,0:0|3:0,0:0:0:0:
59,281,123476,2,0,L|55:245,3,29.6250011301041,8|8|8|8,2:0|2:0|2:0|2:0,0:0:0:0:
2,217,123784,6,0,P|58:211|104:154,1,118.500004520416,2|0,0:0|0:0,0:0:0:0:
163,73,124245,1,0,1:0:0:0:
163,73,124399,2,0,P|217:65|287:109,1,118.500004520416,0|0,2:0|0:0,0:0:0:0:
356,156,124860,2,0,P|423:114|441:69,1,118.500004520416,0|0,2:0|0:0,0:0:0:0:
438,80,125322,2,0,P|463:109|480:147,1,59.2500022602082,0|0,2:0|0:0,0:0:0:0:
476,246,125630,2,0,P|461:271|441:293,1,59.2500022602082,0|0,2:0|0:0,0:0:0:0:
357,334,125937,6,0,L|178:304,1,177.750006780625,8|0,0:0|0:0,0:0:0:0:
164,295,126245,6,0,L|163:204,2,67.1500012807846,6|0|8,3:2|1:0|0:0,0:0:0:0:
82,201,126707,2,0,P|118:158|180:147,1,100.725001921177,0|0,1:0|0:0,0:0:0:0:
194,147,127014,1,0,1:0:0:0:
241,238,127168,1,8,0:0:0:0:
176,64,127322,2,0,P|231:73|271:121,1,100.725001921177,4|0,1:0|0:0,0:0:0:0:
278,133,127630,1,0,1:0:0:0:
241,238,127784,1,8,0:0:0:0:
426,65,127937,2,0,L|427:217,1,134.300002561569,0|0,1:0|3:0,0:0:0:0:
426,199,128322,1,0,1:0:0:0:
426,199,128399,1,8,0:0:0:0:
127,351,128707,6,0,L|198:344,1,67.1500012807846,4|0,1:2|0:0,0:0:0:0:
334,271,129014,2,0,L|262:265,1,67.1500012807846,8|0,0:0|0:0,0:0:0:0:
61,190,129322,2,0,L|133:184,1,67.1500012807846,0|0,1:0|1:0,0:0:0:0:
334,87,129630,2,0,L|262:81,1,67.1500012807846,8|0,0:0|0:0,0:0:0:0:
44,40,129937,6,0,L|45:134,1,67.1500012807846,0|0,1:0|0:0,0:0:0:0:
61,190,130168,1,8,0:0:0:0:
61,190,130245,1,8,0:0:0:0:
162,261,130399,1,8,0:0:0:0:
265,192,130553,1,8,3:0:0:0:
265,192,130707,1,8,3:0:0:0:
367,261,130860,1,8,0:0:0:0:
265,331,131014,5,8,0:0:0:0:
47,42,134860,6,0,B|31:79|31:79|46:165,1,118.500004520416,4|0,0:0|0:0,0:0:0:0:
234,214,135168,2,0,B|250:177|250:177|235:91,1,118.500004520416,8|0,0:0|0:0,0:0:0:0:
113,89,135476,1,0,0:0:0:0:
167,167,135630,1,2,0:0:0:0:
47,307,135784,1,8,0:0:0:0:
99,228,135937,1,2,0:0:0:0:
181,274,136091,6,0,P|237:296|298:259,1,118.500004520416,0|0,3:0|0:0,0:0:0:0:
286,121,136399,2,0,P|238:158|240:229,1,118.500004520416,8|0,0:0|0:0,0:0:0:0:
366,287,136707,2,0,P|357:227|294:193,2,118.500004520416,2|2|8,0:0|1:0|0:0,0:0:0:0:
449,349,137168,1,2,1:0:0:0:
449,349,137322,6,0,L|473:222,1,118.500004520416,0|0,0:0|3:0,0:0:0:0:
472,75,137630,2,0,B|412:79|412:79|347:123,1,118.500004520416,8|0,0:0|0:0,0:0:0:0:
252,151,137937,2,0,B|192:147|192:147|127:103,1,118.500004520416,0|2,0:0|0:0,0:0:0:0:
37,139,138245,1,8,0:0:0:0:
78,38,138399,1,2,0:0:0:0:
106,206,138553,6,0,L|79:333,1,118.500004520416,0|0,0:0|0:0,0:0:0:0:
225,240,138860,2,0,L|198:367,1,118.500004520416,8|0,0:0|0:0,0:0:0:0:
358,269,139168,1,0,0:0:0:0:
303,189,139322,1,2,0:0:0:0:
296,335,139476,2,0,P|345:361|410:343,1,118.500004520416,8|2,0:0|0:0,0:0:0:0:
470,241,139784,5,0,0:0:0:0:
480,171,139937,1,0,0:0:0:0:
372,157,140091,1,8,0:0:0:0:
361,80,140245,1,0,0:0:0:0:
277,186,140399,1,0,0:0:0:0:
264,282,140553,1,2,0:0:0:0:
188,155,140707,1,8,0:0:0:0:
174,43,140860,1,0,0:0:0:0:
250,89,141014,5,0,0:0:0:0:
250,89,141168,1,2,0:0:0:0:
112,114,141322,1,8,0:0:0:0:
112,114,141476,1,2,0:0:0:0:
49,195,141630,2,0,P|113:173|163:189,2,118.500004520416,0|0|8,0:0|0:0|0:0,0:0:0:0:
239,213,142091,6,0,B|256:163|217:123|217:123|251:88|251:88|212:52|233:-7,1,237.000009040833,0|2,0:0|0:0,0:0:0:0:
435,44,142553,2,0,B|445:70|454:95|454:95|458:97|458:97|454:100|454:100|432:118|423:167,1,118.500004520416,8|0,0:0|0:0,0:0:0:0:
414,196,142784,1,0,0:0:0:0:
414,196,142860,1,0,0:0:0:0:
429,287,143014,1,2,0:0:0:0:
311,247,143168,1,8,0:0:0:0:
295,354,143322,1,0,0:0:0:0:
223,222,143476,6,0,P|253:172|309:155,1,118.500004520416,0|0,0:0|1:0,0:0:0:0:
154,331,143784,2,0,L|24:308,1,118.500004520416,0|0,0:0|0:0,0:0:0:0:
53,198,144091,6,0,B|132:197|132:197|160:159|160:159|192:238|192:238|239:118|239:118|291:257|291:257|343:165|343:165|372:212|372:212|448:212,1,710.999978302003,2|0,0:0|0:0,0:0:0:0:
511,212,145322,6,0,P|500:175|471:143,2,59.2500022602082,8|0|8,0:0|0:0|0:0,0:0:0:0:
475,291,145783,1,0,0:0:0:0:
475,291,145937,2,0,L|411:281,1,59.2500022602082,0|0,0:0|0:0,0:0:0:0:
309,328,146245,2,0,L|322:249,2,59.2500022602082,8|0|8,0:0|0:0|0:0,0:0:0:0:
232,368,146706,1,0,0:0:0:0:
232,368,146860,2,0,P|224:326|232:295,1,59.2500022602082
388,313,147168,2,0,P|390:342|383:371,1,59.2500022602082,8|0,0:0|0:0,0:0:0:0:
309,328,147475,1,8,0:0:0:0:
329,64,147783,6,0,L|197:52,1,118.500004520416,0|8,0:0|0:0,0:0:0:0:
274,101,148245,1,0,0:0:0:0:
188,128,148398,2,0,L|106:114,1,59.2500022602082,10|0,0:0|0:0,0:0:0:0:
53,54,148706,1,0,0:0:0:0:
56,131,148860,1,0,0:0:0:0:
17,197,149014,1,8,0:0:0:0:
33,272,149168,1,0,0:0:0:0:
80,338,149322,2,0,L|152:322,1,59.2500022602082,8|0,0:0|0:0,0:0:0:0:
213,289,149629,2,0,L|285:305,1,59.2500022602082,0|0,0:0|0:0,0:0:0:0:
346,351,149937,1,8,0:0:0:0:
346,351,150245,6,0,P|397:355|462:321,1,118.500004520416,8|0,0:0|0:0,0:0:0:0:
501,237,150706,1,0,0:0:0:0:
501,237,150860,2,0,P|497:178|464:118,1,118.500004520416,8|8,0:0|0:0,0:0:0:0:
395,66,151322,1,0,0:0:0:0:
395,66,151475,6,0,L|323:74,1,59.2500022602082,0|0,0:0|0:0,0:0:0:0:
266,161,151783,2,0,L|324:154,1,59.2500022602082,8|0,0:0|0:0,0:0:0:0:
399,76,152091,2,0,L|327:84,1,59.2500022602082,8|0,0:0|0:0,0:0:0:0:
270,171,152398,2,0,L|328:164,1,59.2500022602082,0|0,0:0|0:0,0:0:0:0:
231,84,152706,5,8,0:0:0:0:
231,84,152860,2,0,P|184:120|176:191,1,118.500004520416,0|0,0:0|0:0,0:0:0:0:
220,255,153322,2,0,L|286:249,2,59.2500022602082,0|0|8,0:0|0:0|0:0,0:0:0:0:
124,263,153783,1,0,0:0:0:0:
124,263,153937,2,0,P|94:251|67:224,1,59.2500022602082,8|0,0:0|0:0,0:0:0:0:
31,352,154245,2,0,L|99:341,1,59.2500022602082,2|0,0:0|0:0,0:0:0:0:
181,333,154552,1,2,0:0:0:0:
313,337,154860,1,0,0:0:0:0:
455,333,155168,1,0,0:0:0:0:
455,333,155322,5,2,0:0:0:0:
459,323,155475,1,2,0:0:0:0:
399,272,155629,1,2,0:0:0:0:
403,262,155783,1,2,0:0:0:0:
258,54,156245,5,2,0:0:0:0:
262,64,156398,1,2,0:0:0:0:
257,153,156552,1,2,0:0:0:0:
261,163,156706,1,2,0:0:0:0:
65,334,157168,5,2,0:0:0:0:
61,324,157322,1,2,0:0:0:0:
121,273,157475,1,2,0:0:0:0:
117,263,157629,1,2,0:0:0:0:
311,353,158091,5,2,0:0:0:0:
311,353,158245,2,0,P|327:320|333:283,1,59.2500022602082,2|2,0:0|0:0,0:0:0:0:
224,250,158552,2,0,P|208:217|202:180,1,59.2500022602082,2|0,0:0|0:0,0:0:0:0:
345,181,158860,2,0,P|320:196|291:201,1,59.2500022602082,8|0,0:0|0:0,0:0:0:0:
202,97,159168,2,0,P|227:112|257:117,1,59.2500022602082,2|0,0:0|0:0,0:0:0:0:
337,80,159475,1,2,0:0:0:0:
337,80,159783,1,2,0:0:0:0:
166,16,160091,5,2,0:0:0:0:
166,16,160398,2,0,P|130:67|129:133,1,118.500004520416,2|2,0:0|0:0,0:0:0:0:
326,352,161014,1,2,0:0:0:0:
326,352,161168,1,2,0:0:0:0:
160,329,161322,6,0,P|206:293|264:297,2,118.500004520416,2|2|2,0:0|0:0|0:0,0:0:0:0:
32,254,162245,1,2,0:0:0:0:
32,254,162552,6,0,P|68:223|85:153,1,118.500004520416,2|2,0:0|0:0,0:0:0:0:
60,79,163014,1,0,0:0:0:0:
154,86,163168,2,0,P|148:57|135:31,2,59.2500022602082,2|2|2,0:0|0:0|0:0,0:0:0:0:
203,149,163629,2,0,P|232:110|252:41,1,118.500004520416,2|0,0:0|0:0,0:0:0:0:
251,43,164091,2,0,L|329:58,1,59.2500022602082,2|0,0:0|0:0,0:0:0:0:
456,87,164398,2,0,L|378:101,1,59.2500022602082,2|0,0:0|0:0,0:0:0:0:
285,171,164706,2,0,L|362:185,1,59.2500022602082,2|0,0:0|0:0,0:0:0:0:
505,246,165014,6,0,L|377:266,1,118.500004520416,2|2,0:0|0:0,0:0:0:0:
255,285,165629,6,0,L|387:264,1,134.300002561569,2|2,0:0|0:0,0:0:0:0:
0,310,166245,6,0,L|148:286,1,150.099995991898,2|2,0:0|0:0,0:0:0:0:
312,260,166860,6,0,L|148:285,1,165.899994937134,2|2,0:0|0:0,0:0:0:0:
87,209,167475,5,8,0:0:0:0:
98,131,167792,1,8,0:0:0:0:
110,52,168109,1,8,0:0:0:0:
154,262,168427,5,8,0:0:0:0:
177,105,168744,1,8,0:0:0:0:
165,184,169062,1,8,0:0:0:0:
247,149,169379,5,8,0:0:0:0:
235,228,169689,1,8,0:0:0:0:
224,306,170000,1,8,0:0:0:0:
334,119,170311,5,8,0:0:0:0:
322,198,170622,1,8,0:0:0:0:
311,276,170933,1,8,0:0:0:0:
410,175,171244,5,8,0:0:0:0:
399,253,171548,1,8,0:0:0:0:
422,96,171853,1,8,0:0:0:0:
399,253,172157,5,8,0:0:0:0:
321,242,172462,1,8,0:0:0:0:
242,230,172766,1,8,0:0:0:0:
85,207,173071,5,8,0:0:0:0:
164,219,173372,1,8,0:0:0:0:
242,230,173674,1,8,0:0:0:0:
314,246,173975,5,0,3:0:0:0:
242,230,174277,1,8,0:0:0:0:
314,246,174427,1,8,3:0:0:0:
387,261,174578,1,2,3:0:0:0:
460,275,174729,1,0,3:0:0:0:
438,195,174880,6,0,B|464:154|447:89|447:89|450:65|478:41,2,156.419999522644,8|8|0,3:0|0:0|0:0,0:0:0:0:
87,193,175775,2,0,B|65:243|80:294|80:294|78:319|55:351,2,153.260003624771,8|8|0,3:0|0:0|0:0,0:0:0:0:
364,340,176671,2,0,L|193:344,2,150.099995991898,8|8|8,0:0|0:0|0:0,0:0:0:0:
195,40,177566,2,0,L|342:44,2,118.500004520416,8|8|8,0:0|0:0|3:0,0:0:0:0:
152,247,178462,5,2,0:0:0:0:
278,158,178751,1,2,0:0:0:0:
292,311,179041,1,2,0:0:0:0:
180,155,179331,5,2,0:0:0:0:
343,229,179616,1,2,0:0:0:0:
193,333,179928,1,2,0:0:0:0:
194,162,180297,5,2,0:0:0:0:
312,153,180605,1,2,0:0:0:0:
260,260,180902,1,2,0:0:0:0:
240,159,181154,5,2,0:0:0:0:
292,194,181597,5,2,0:0:0:0:
235,222,181967,5,2,0:0:0:0:
247,189,182346,5,2,0:0:0:0:
262,185,182768,5,10,0:0:0:0:
258,200,183263,5,2,0:0:0:0:
253,196,183691,5,2,0:0:0:0:
253,187,184152,5,2,0:0:0:0:
261,192,184745,5,2,0:0:0:0:
139,334,190064,6,0,P|94:325|49:328,2,86.9000026519776,6|0|8,3:2|3:0|0:0,0:0:0:0:
208,282,190525,1,0,3:0:0:0:
273,338,190679,2,0,P|318:329|363:332,2,86.9000026519776,0|0|8,3:0|3:0|0:0,0:0:0:0:
208,282,191141,1,0,3:0:0:0:
146,210,191294,6,0,P|136:165|144:111,2,86.9000026519776,0|0|8,3:0|3:0|0:0,0:0:0:0:
208,282,191756,1,0,3:0:0:0:
272,204,191910,2,0,P|282:161|279:118,2,86.9000026519776,0|0|8,3:0|3:0|0:0,0:0:0:0:
208,282,192371,1,0,3:0:0:0:
318,274,192525,6,0,L|421:292,1,86.9000026519776,0|0,3:0|3:0,0:0:0:0:
457,216,192833,1,8,0:0:0:0:
473,221,192910,1,0,3:0:0:0:
489,225,192987,1,0,3:0:0:0:
472,135,193141,2,0,L|376:152,1,86.9000026519776,0|0,3:0|3:0,0:0:0:0:
293,229,193448,2,0,L|197:212,1,86.9000026519776,8|0,0:0|3:0,0:0:0:0:
126,156,193756,5,0,3:0:0:0:
109,162,193833,1,0,3:0:0:0:
93,169,193910,1,0,3:0:0:0:
76,175,193987,1,0,3:0:0:0:
60,182,194064,1,8,0:0:0:0:
136,276,194217,1,0,3:0:0:0:
225,169,194371,1,0,3:0:0:0:
119,80,194525,1,0,3:0:0:0:
30,186,194679,1,8,0:0:0:0:
36,203,194756,1,8,0:0:0:0:
43,219,194833,1,8,0:0:0:0:
49,236,194910,1,8,0:0:0:0:
56,252,194987,5,8,0:0:0:0:
112,327,195141,1,8,3:0:0:0:
150,308,195217,1,8,3:0:0:0:
193,309,195294,1,8,0:0:0:0:
214,323,195371,1,0,0:0:0:0:
238,332,195448,1,0,3:0:0:0:
263,335,195525,1,0,0:0:0:0:
288,331,195602,2,0,P|302:298|310:269,3,43.4500013259888,8|8|8|8,3:0|3:0|3:0|3:0,0:0:0:0:
237,218,195910,2,0,P|223:185|215:156,3,43.4500013259888,8|8|8|8,3:0|3:0|3:0|3:0,0:0:0:0:
320,207,196217,6,0,P|361:226|384:271,1,86.9000026519776,8|0,0:0|3:0,0:0:0:0:
304,290,196525,1,8,0:0:0:0:
446,347,196679,1,0,3:0:0:0:
495,183,196833,1,8,0:0:0:0:
471,265,196987,1,0,3:0:0:0:
480,73,197141,1,8,0:0:0:0:
455,80,197217,1,8,0:0:0:0:
429,87,197294,1,8,0:0:0:0:
404,94,197371,1,8,0:0:0:0:
379,102,197448,6,0,L|276:87,2,86.9000026519776,0|0|8,3:0|3:0|0:0,0:0:0:0:
245,176,197910,1,0,3:0:0:0:
160,41,198064,2,0,L|263:26,2,86.9000026519776,0|0|8,3:0|3:0|0:0,0:0:0:0:
58,64,198525,5,0,3:0:0:0:
64,89,198602,1,0,3:0:0:0:
70,113,198679,1,8,0:0:0:0:
183,125,198833,1,0,3:0:0:0:
49,256,198987,5,8,0:0:0:0:
42,232,199064,1,0,3:0:0:0:
35,207,199141,1,0,3:0:0:0:
161,268,199294,1,8,0:0:0:0:
85,340,199448,1,0,3:0:0:0:
161,268,199602,1,8,0:0:0:0:
265,288,199756,1,0,3:0:0:0:
332,368,199910,5,0,3:0:0:0:
357,372,199987,1,0,3:0:0:0:
383,373,200064,2,0,P|413:362|431:344,1,43.4500013259888,0|0,3:0|3:0,0:0:0:0:
488,270,200217,2,0,L|478:175,1,86.9000026519776,8|0,0:0|3:0,0:0:0:0:
434,88,200525,1,0,3:0:0:0:
333,114,200679,1,0,3:0:0:0:
250,181,200833,1,8,0:0:0:0:
185,95,200987,6,0,P|243:67|337:123,1,173.800005303955,6|0,3:2|0:0,0:0:0:0:
328,226,201448,1,8,0:0:0:0:
257,312,201602,1,0,0:0:0:0:
146,300,201756,1,8,3:0:0:0:
328,226,201910,1,0,3:0:0:0:
257,312,202064,1,8,0:0:0:0:
146,300,202217,6,0,B|117:247|117:247|132:124,1,173.800005303955,6|0,3:2|3:0,0:0:0:0:
285,51,202679,2,0,L|270:140,1,86.9000026519776,8|0,0:0|3:0,0:0:0:0:
92,58,202987,1,8,0:0:0:0:
151,199,203141,1,0,3:0:0:0:
196,47,203294,1,8,0:0:0:0:
251,230,203448,6,0,P|302:226|351:115,1,173.800005303955,6|0,3:2|3:0,0:0:0:0:
336,40,203910,1,8,0:0:0:0:
420,60,204064,1,0,0:0:0:0:
503,84,204217,2,0,L|485:174,1,86.9000026519776,0|0,3:0|3:0,0:0:0:0:
389,315,204525,2,0,L|371:229,1,86.9000026519776,8|0,0:0|3:0,0:0:0:0:
267,13,204833,6,0,L|166:22,2,84.2666666666667,6|8|8,3:2|0:0|0:0,0:0:0:0:
171,115,205448,6,0,L|293:125,2,105.333333333333,6|8|8,3:2|0:0|0:0,0:0:0:0:
286,229,206064,6,0,L|146:240,2,126.399996142578,6|8|8,3:2|0:0|0:0,0:0:0:0:
143,342,206679,6,0,L|328:359,2,158.000006027222,6|8|8,3:2|0:0|0:0,0:0:0:0:
47,240,207294,6,0,P|38:192|54:129,2,94.7999971069337,6|0|8,3:2|3:0|0:0,0:0:0:0:
142,186,207756,2,0,L|337:168,1,189.599994213867,6|0,3:2|3:0,0:0:0:0:
401,76,208217,1,8,0:0:0:0:
401,76,208371,2,0,L|212:93,1,189.599994213867,4|8,3:2|0:0,0:0:0:0:
297,336,208833,1,8,0:0:0:0:
408,311,208987,1,8,0:0:0:0:
327,225,209141,1,8,0:0:0:0:
297,336,209448,5,8,3:3:0:0:
408,311,209756,6,0,L|426:223,2,79
297,336,210679,1,2,0:0:0:0:
280,204,210987,2,0,L|298:116,2,79
169,229,211910,1,2,0:0:0:0:
39,106,212217,5,0,0:0:0:0:
116,90,212525,1,0,0:0:0:0:
194,79,212833,1,0,0:0:0:0:
116,90,213141,1,2,0:0:0:0:
201,205,213448,5,0,0:0:0:0:
169,359,213756,1,0,0:0:0:0:
183,282,214064,1,0,0:0:0:0:
201,205,214371,1,2,0:0:0:0:
362,326,214679,6,0,P|403:335|445:307,2,79
391,252,215602,1,2,0:0:0:0:
72,319,215910,6,0,P|31:328|-11:300,2,79
43,245,216833,1,0,0:0:0:0:
43,245,217141,6,0,P|58:213|69:175,1,59.2500022602082,0|0,0:0|0:0,0:0:0:0:
70,102,217448,2,0,P|66:66|57:28,1,59.2500022602082,0|0,0:0|0:0,0:0:0:0:
83,217,217756,2,0,P|111:196|140:169,1,59.2500022602082,0|0,0:0|3:0,0:0:0:0:
177,106,218064,1,0,0:0:0:0:
177,106,218217,6,0,P|191:74|203:36,1,59.2500022602082,2|0,1:0|0:0,0:0:0:0:
295,54,218525,1,0,0:0:0:0:
295,54,218679,2,0,P|304:82|317:108,1,59.2500022602082,0|0,0:0|0:0,0:0:0:0:
395,157,218987,1,0,0:0:0:0:
395,157,219141,2,0,P|434:145|457:129,1,59.2500022602082,2|0,1:0|0:0,0:0:0:0:
291,190,219448,1,2,1:0:0:0:
291,190,219602,6,0,P|252:203|162:184,1,118.500004520416,0|0,0:0|0:0,0:0:0:0:
115,127,220064,2,0,L|126:52,1,59.2500022602082,0|0,0:0|0:0,0:0:0:0:
44,59,220371,2,0,L|35:117,1,59.2500022602082,0|0,0:0|0:0,0:0:0:0:
4,239,220679,6,0,P|51:223|135:254,1,118.500004520416,0|0,0:0|0:0,0:0:0:0:
192,279,221141,2,0,L|179:343,1,59.2500022602082,0|0,0:0|0:0,0:0:0:0:
275,296,221448,2,0,L|262:360,1,59.2500022602082,0|0,0:0|0:0,0:0:0:0:
354,257,221756,1,0,0:0:0:0:
354,257,221910,1,0,0:0:0:0:
483,229,222064,5,6,3:2:0:0:
471,79,222217,2,0,L|477:40,2,39.5,8|8|8,0:0|0:0|0:0,0:0:0:0:
374,145,222525,2,0,L|381:187,2,39.5,8|8|8,0:0|0:0|0:0,0:0:0:0:
265,51,222833,2,0,L|271:12,2,39.5,8|8|8,0:0|0:0|0:0,0:0:0:0:
216,132,223141,1,8,0:0:0:0:
43,114,223294,5,12,0:0:0:0:
97,57,223448,1,8,3:0:0:0:
175,65,223602,1,2,3:0:0:0:
97,57,223756,1,8,3:0:0:0:
59,207,223910,5,2,3:0:0:0:
53,201,224064,1,2,3:0:0:0:
59,195,224217,1,12,0:0:0:0:
65,201,224371,1,2,3:0:0:0:
59,207,224525,6,0,P|106:197|162:207,1,79,6|0,3:2|0:0,0:0:0:0:
214,262,224833,2,0,L|219:351,2,79,8|0|0,0:0|3:0|3:0,0:0:0:0:
210,175,225294,1,4,3:2:0:0:
210,175,225448,1,8,0:0:0:0:
284,215,225602,6,0,P|343:225|423:166,1,142.199995660401,6|0,3:2|0:0,0:0:0:0:
372,0,225910,2,0,P|333:46|344:144,1,142.199995660401,8|0,0:0|0:0,0:0:0:0:
509,182,226217,2,0,P|488:125|397:86,1,142.199995660401,6|0,3:2|0:0,0:0:0:0:
419,86,226525,1,8,0:0:0:0:
334,125,226679,1,8,2:0:0:0:
411,185,226833,1,0,3:0:0:0:
419,86,226987,5,8,0:0:0:0:
334,125,227141,1,8,0:0:0:0:
80,259,227448,5,8,0:0:0:0:
165,297,227602,1,8,0:0:0:0:
334,125,227910,1,8,0:0:0:0:
254,204,228217,6,0,L|247:182,28,15.7999995178223,2|2|2|2|2|2|2|2|2|2|2|2|2|2|2|2|2|2|2|2|2|2|2|2|2|2|2|2|2,0:0|0:0|0:0|0:0|0:0|0:0|0:0|0:0|0:0|0:0|0:0|0:0|0:0|0:0|0:0|0:0|0:0|0:0|0:0|0:0|0:0|0:0|0:0|0:0|0:0|0:0|0:0|0:0|0:0,0:0:0:0:
82,329,234679,6,0,L|65:247,1,71.0999978302003,8|0,0:0|0:0,0:0:0:0:
59,230,234987,6,0,B|134:207|134:207|205:236,1,118.500004520416,4|2,3:2|1:0,0:0:0:0:
453,272,235294,2,0,B|378:295|378:295|340:279,1,118.500004520416,8|0,0:0|0:0,0:0:0:0:
281,189,235602,1,0,0:0:0:0:
222,308,235756,1,2,1:0:0:0:
281,189,235910,1,8,0:0:0:0:
222,308,236063,1,2,1:0:0:0:
229,113,236217,6,0,P|279:102|345:123,1,118.500004520416,0|0,0:0|0:0,0:0:0:0:
222,308,236525,2,0,P|272:319|338:298,1,118.500004520416,8|0,0:0|0:0,0:0:0:0:
409,211,236833,1,0,0:0:0:0:
342,121,236987,1,2,1:0:0:0:
279,209,237140,1,8,0:0:0:0:
342,121,237294,1,2,1:0:0:0:
279,209,237448,6,0,P|200:193|162:133,1,118.500004520416,0|0,0:0|0:0,0:0:0:0:
249,10,237756,2,0,P|274:86|241:149,1,118.500004520416,8|0,0:0|0:0,0:0:0:0:
93,121,238063,1,0,0:0:0:0:
188,75,238217,1,2,1:0:0:0:
136,279,238371,1,8,0:0:0:0:
234,238,238525,1,2,1:0:0:0:
43,58,238679,6,0,B|15:97|15:97|29:194,1,118.500004520416,0|0,0:0|0:0,0:0:0:0:
294,299,238987,2,0,B|322:260|322:260|308:163,1,118.500004520416,8|0,0:0|0:0,0:0:0:0:
246,77,239294,2,0,L|123:61,2,118.500004520416,2|2|8,1:0|1:0|0:0,0:0:0:0:
351,28,239756,1,2,1:0:0:0:
458,96,239910,6,0,P|390:120|365:207,1,118.500004520416
463,307,240217,2,0,P|476:236|413:170,1,118.500004520416,8|0,0:0|0:0,0:0:0:0:
304,237,240525,1,0,0:0:0:0:
395,259,240679,1,2,1:0:0:0:
263,149,240833,1,8,0:0:0:0:
172,171,240987,1,2,1:0:0:0:
222,244,241140,5,0,0:0:0:0:
199,77,241294,1,2,1:0:0:0:
81,180,241448,1,8,0:0:0:0:
222,244,241602,1,2,1:0:0:0:
56,105,241756,2,0,P|10:140|3:211,1,118.500004520416,0|2,0:0|1:0,0:0:0:0:
169,311,242063,2,0,P|222:333|287:303,1,118.500004520416,8|2,0:0|1:0,0:0:0:0:
282,95,242371,6,0,P|274:37|216:-3,2,118.500004520416,0|0|8,0:0|0:0|0:0,0:0:0:0:
204,169,242833,1,0,3:0:0:0:
204,169,242910,1,0,3:0:0:0:
204,169,242987,1,0,3:0:0:0:
291,232,243140,1,0,0:0:0:0:
409,199,243294,1,2,1:0:0:0:
454,83,243448,1,0,0:0:0:0:
454,83,243602,6,0,P|390:106|338:201,1,177.750006780625,6|0,3:2|0:0,0:0:0:0:
233,159,243910,2,0,P|297:182|349:277,1,177.750006780625,6|0,3:2|0:0,0:0:0:0:
420,346,244217,2,0,P|442:284|427:224,1,118.500004520416,6|0,3:2|0:0,0:0:0:0:
354,281,244525,1,8,0:0:0:0:
352,281,244679,6,0,L|297:288,1,47.3999985534668,0|0,3:0|3:0,0:0:0:0:
226,334,245140,6,0,L|61:312,1,118.500004520416,8|0,0:0|0:0,0:0:0:0:
205,115,245448,2,0,L|322:130,1,118.500004520416,8|2,0:0|1:0,0:0:0:0:
173,224,245756,2,0,L|8:202,1,118.500004520416,8|2,0:0|1:0,0:0:0:0:
152,5,246063,2,0,L|269:20,1,118.500004520416,8|2,0:0|1:0,0:0:0:0:
442,232,246371,2,0,L|277:210,1,118.500004520416,8|2,0:0|1:0,0:0:0:0:
230,327,246679,1,8,0:0:0:0:
173,224,246833,1,2,1:0:0:0:
60,233,246987,1,8,0:0:0:0:
114,342,247140,1,2,1:0:0:0:
248,174,247294,6,0,P|201:135|129:136,1,118.500004520416,8|2,0:0|1:0,0:0:0:0:
315,111,247602,2,0,P|339:164|329:222,1,118.500004520416,8|2,0:0|1:0,0:0:0:0:
180,337,247910,1,8,0:0:0:0:
227,249,248063,1,2,1:0:0:0:
62,289,248217,1,8,0:0:0:0:
47,187,248371,1,2,0:0:0:0:
180,337,248525,6,0,L|320:323,1,118.500004520416,8|2,0:0|0:0,0:0:0:0:
356,76,248833,2,0,L|238:64,1,118.500004520416,8|0,0:0|3:0,0:0:0:0:
252,57,249063,1,0,3:0:0:0:
250,86,249140,1,8,0:0:0:0:
259,115,249217,1,8,3:0:0:0:
255,144,249294,1,8,3:0:0:0:
264,172,249371,1,8,3:0:0:0:
260,206,249448,2,0,P|324:190|388:195,1,118.500004520416,8|0,0:0|3:0,0:0:0:0:
231,354,249756,6,0,P|163:324|96:331,1,118.500004520416,8|2,0:0|1:0,0:0:0:0:
80,183,250063,2,0,P|129:151|161:102,1,118.500004520416,8|2,0:0|1:0,0:0:0:0:
268,34,250371,1,8,0:0:0:0:
257,128,250525,1,2,1:0:0:0:
340,173,250679,1,8,0:0:0:0:
329,267,250833,1,2,1:0:0:0:
416,230,250987,5,8,0:0:0:0:
252,212,251140,1,0,0:0:0:0:
350,87,251294,1,8,0:0:0:0:
323,354,251448,1,8,0:0:0:0:
323,354,251525,1,8,0:0:0:0:
323,354,251602,1,8,0:0:0:0:
133,345,251756,1,2,1:3:0:0:
228,350,251910,1,8,3:0:0:0:
39,336,252063,6,0,B|8:165|8:165|88:100,1,237.000009040833,6|0,3:2|0:0,0:0:0:0:
237,40,252525,2,0,B|185:61|185:61|191:142,1,118.500004520416,8|2,0:0|1:0,0:0:0:0:
257,240,252833,2,0,B|309:219|309:219|304:156,1,118.500004520416,0|0,0:0|0:0,0:0:0:0:
161,205,253140,1,8,0:0:0:0:
288,330,253294,1,2,1:0:0:0:
257,240,253448,5,0,0:0:0:0:
151,302,253602,1,8,0:0:0:0:
36,203,253756,1,8,0:0:0:0:
42,167,253833,1,8,0:0:0:0:
58,135,253910,1,8,0:0:0:0:
88,116,253987,1,8,0:0:0:0:
122,107,254063,2,0,P|155:108|181:115,1,59.2500022602082,0|0,3:0|3:0,0:0:0:0:
232,58,254217,2,0,P|260:75|279:94,1,59.2500022602082,0|0,3:0|3:0,0:0:0:0:
351,62,254371,2,0,P|366:91|373:117,1,59.2500022602082,0|0,3:0|3:0,0:0:0:0:
386,210,254525,5,2,0:0:0:0:
265,261,256525,6,0,P|386:173|417:320,1,355.500013561249,2|0,0:0|0:0,0:0:0:0:
252,348,257140,6,0,P|214:335|186:308,2,79,4|0|8,3:2|3:0|0:0,0:0:0:0:
330,270,257602,2,0,P|329:214|353:181,1,79,0|0,3:0|0:0,0:0:0:0:
416,332,257910,2,0,P|463:303|504:307,1,79,0|8,3:0|0:0,0:0:0:0:
486,208,258217,1,0,0:0:0:0:
369,101,258371,5,0,3:0:0:0:
339,195,258525,1,0,3:0:0:0:
313,287,258679,1,8,0:0:0:0:
239,231,258833,2,0,L|244:178,2,39.5,0|8|0,3:0|0:0|3:0,0:0:0:0:
174,291,259140,1,0,3:0:0:0:
84,330,259294,1,8,0:0:0:0:
20,241,259448,1,0,3:0:0:0:
91,176,259602,6,0,L|97:90,2,79,0|0|8,3:0|3:0|0:0,0:0:0:0:
20,241,260063,2,0,P|0:187|10:138,1,79,0|0,3:0|3:0,0:0:0:0:
162,241,260371,2,0,P|179:205|181:166,2,79,0|8|0,3:0|0:0|3:0,0:0:0:0:
91,176,260833,5,8,0:0:0:0:
154,85,260987,1,0,3:0:0:0:
259,105,261140,1,8,0:0:0:0:
154,85,261294,1,0,0:0:0:0:
259,105,261448,1,8,0:0:0:0:
289,112,261525,1,8,0:0:0:0:
319,119,261602,1,8,3:0:0:0:
349,126,261679,1,8,3:0:0:0:
383,136,261756,2,0,P|391:100|391:67,1,59.2500022602082,8|0,0:0|0:0,0:0:0:0:
462,228,261910,2,0,P|478:203|489:165,1,59.2500022602082,0|0,3:0|0:0,0:0:0:0:
460,321,262063,6,0,P|402:311|348:332,1,118.500004520416,12|0,0:0|3:0,0:0:0:0:
98,111,262371,2,0,L|229:98,1,118.500004520416,8|0,0:0|3:0,0:0:0:0:
217,331,262679,2,0,L|99:342,1,118.500004520416,8|0,0:0|3:0,0:0:0:0:
283,29,262987,2,0,L|414:16,1,118.500004520416,8|0,0:0|3:0,0:0:0:0:
400,240,263294,5,8,0:0:0:0:
312,277,263448,1,0,3:0:0:0:
226,236,263602,1,8,0:0:0:0:
27,148,263756,1,0,3:0:0:0:
27,148,263833,1,0,3:0:0:0:
27,148,263910,1,8,0:0:0:0:
117,99,264063,1,0,3:0:0:0:
201,144,264217,1,8,0:0:0:0:
114,220,264371,1,0,3:0:0:0:
231,46,264525,6,8,L|364:57,1,118.500004520416,8|0,0:0|3:0,0:0:0:0:
469,173,264833,1,8,0:0:0:0:
433,171,264910,1,0,3:0:0:0:
397,170,264987,1,8,3:0:0:0:
361,168,265063,1,0,3:0:0:0:
325,167,265140,2,0,L|310:237,1,59.2500022602082,8|0,0:0|3:0,0:0:0:0:
240,345,265294,2,0,L|227:287,1,59.2500022602082,0|0,3:0|3:0,0:0:0:0:
159,140,265448,2,8,L|144:210,1,59.2500022602082,8|0,0:0|3:0,0:0:0:0:
76,338,265602,5,0,0:0:0:0:
76,338,265910,2,0,P|64:272|69:251,1,79,0|0,0:0|0:0,0:0:0:0:
194,270,266217,2,0,P|196:309|183:346,1,79,0|2,0:0|0:0,0:0:0:0:
183,346,266679,1,8,0:0:0:0:
260,305,266833,6,0,L|501:331,1,237.000009040833,0|0,0:0|0:0,0:0:0:0:
485,234,267294,1,8,0:0:0:0:
390,223,267448,1,8,0:0:0:0:
390,223,267525,1,8,0:0:0:0:
390,223,267602,1,8,0:0:0:0:
295,213,267756,1,0,0:0:0:0:
350,135,267910,1,8,0:0:0:0:
408,61,268063,1,0,0:0:0:0:
454,149,268679,5,0,3:0:0:0:
454,149,268756,1,0,3:0:0:0:
454,149,268833,1,4,3:2:0:0:
256,192,268910,12,0,274371,0:0:0:0:
