osu file format v14

[General]
AudioFilename: audio.mp3
AudioLeadIn: 0
PreviewTime: 230655
Countdown: 0
SampleSet: Soft
StackLeniency: 0.2
Mode: 0
LetterboxInBreaks: 0
WidescreenStoryboard: 0

[Editor]
Bookmarks: 68693,68847,69001,69155,69309,69462,69616,69770,69924,70078,70232,70385,70539,70693,70847,71001,71155,71309,71462,71616,71770,71924,72078,72232,72385,72539,72693,72847,73001,73155,73309,83155,93001,107770,118846,131154,131308,131462,131616,131770,131923,132077,132231,132385,132539,132693,132846,133000,133154,133308,133462,133616,133770,133923,134077,134231,134385,134539,134693,134846,145308,167461,185117,209732,228193,228347,228501,228655,228809,228963,229117,229270,229424,229578,229732,229886,230040,230193,230347,230501,230655,230809,230963,231117,231270,231424,231578,231732,231886,232040,232193,232347,232501,232655,232809,232963,233117,233270,233424,233578,233732,233886,234040,234193,234347,244809,257116
DistanceSpacing: 0.9
BeatDivisor: 16
GridSize: 32
TimelineZoom: 5.199997

[Metadata]
Title:Muishiki Requiem
TitleUnicode:無意識レクイエム
Artist:ShinRa-Bansho
ArtistUnicode:森羅万象
Creator:Rumia-
Version:Hallucinatory World
Source:東方地靈殿 ~ Subterranean Animism.
Tags:あよ Ayo kaztora シンクロ2 ハルトマンの妖怪少女 Hartmann's Youkai Girl Komeiji Koishi wuhua moemoekyunnn Unconscious Hey Lululu
BeatmapID:2042533
BeatmapSetID:975932

[Difficulty]
HPDrainRate:5
CircleSize:4.4
OverallDifficulty:9.2
ApproachRate:9.5
SliderMultiplier:1.76
SliderTickRate:1

[Events]
//Background and Video events
0,0,"brrg.jpg",0,0
Video,-4,"video.mp4"
//Break Periods
2,69309,72693
2,132419,134231
2,230655,233732
2,254809,255886
//Storyboard Layer 0 (Background)
//Storyboard Layer 1 (Fail)
//Storyboard Layer 2 (Pass)
//Storyboard Layer 3 (Foreground)
//Storyboard Layer 4 (Overlay)
//Storyboard Sound Samples

[TimingPoints]
1748,655.737704918033,3,2,0,20,1,0
16502,983.606557377049,3,2,0,20,1,0
16993,441.176470588235,3,2,1,20,1,0
17434,487.80487804878,3,2,1,20,1,0
17677,631.578947368421,3,2,1,20,1,0
18624,674.536256323777,4,2,1,20,1,0
21323,307.692307692308,4,2,2,30,1,0
21323,-200,4,2,2,30,0,0
25015,-500,4,2,2,30,0,0
25438,-500,4,2,2,5,0,0
25476,-500,4,2,2,40,0,0
25899,-500,4,2,2,5,0,0
25938,-100,4,3,1,40,0,0
26169,-100,4,2,1,5,0,0
26255,307.692307692308,4,2,0,20,1,0
26255,-133.333333333333,4,2,1,50,0,0
30707,-100,4,2,1,50,0,0
31322,-100,4,2,1,50,0,0
36092,-133.333333333333,4,3,1,40,0,0
37630,-133.333333333333,4,3,1,50,0,0
43399,-133.333333333333,4,2,1,5,0,0
43476,-83.3333333333333,4,2,1,50,0,0
44169,-83.3333333333333,4,2,1,5,0,0
44246,-83.3333333333333,4,2,1,50,0,0
45630,-166.666666666667,4,2,1,50,0,0
45861,-166.666666666667,4,2,1,5,0,0
45938,-83.3333333333333,4,2,1,50,0,0
46246,-100,4,2,1,50,0,0
50553,-66.6666666666667,4,2,1,50,0,0
50784,-66.6666666666667,4,2,1,5,0,0
50861,-100,4,2,1,50,0,0
53323,-83.3333333333333,4,2,1,50,0,0
53553,-83.3333333333333,4,2,1,5,0,0
53630,-83.3333333333333,4,2,1,50,0,0
53861,-83.3333333333333,4,2,1,5,0,0
53938,-83.3333333333333,4,2,1,50,0,0
54399,-100,4,2,1,50,0,0
55784,-133.333333333333,4,3,1,50,0,0
60399,-66.6666666666667,4,2,1,50,0,0
60630,-66.6666666666667,4,2,1,5,0,0
60707,-133.333333333333,4,3,1,50,0,0
63169,-133.333333333333,4,2,1,50,0,0
66169,-133.333333333333,4,2,1,5,0,0
66246,-133.333333333333,4,3,1,50,0,0
66707,-66.6666666666667,4,2,1,50,0,0
66938,-66.6666666666667,4,2,1,5,0,0
67015,-66.6666666666667,4,2,1,60,0,0
67246,-66.6666666666667,4,2,1,5,0,0
67323,-66.6666666666667,4,2,1,70,0,0
67553,-66.6666666666667,4,2,1,5,0,0
67630,-66.6666666666667,4,2,1,80,0,0
67784,-66.6666666666667,4,2,1,50,0,0
68169,-66.6666666666667,4,2,1,5,0,0
68246,-66.6666666666667,4,2,1,50,0,0
73338,307.692307692308,4,2,1,70,1,0
73338,-66.6666666666667,4,1,1,70,0,1
82876,-57.1428571428571,4,1,1,70,0,1
83107,-57.1428571428571,4,1,1,5,0,1
83184,-133.333333333333,4,2,1,50,0,0
83645,-100,4,2,1,50,0,0
83876,-100,4,2,1,5,0,0
83953,-100,4,2,1,50,0,0
85645,-133.333333333333,4,2,1,50,0,0
86107,-100,4,2,1,50,0,0
86338,-100,4,2,1,5,0,0
86414,-100,4,2,1,50,0,0
87338,-83.3333333333333,4,2,1,50,0,0
90568,-125,4,2,1,50,0,0
93015,307.692307692308,3,2,1,40,1,0
93015,-200,3,2,2,40,0,0
106861,-200,3,2,1,20,0,0
107168,-200,3,2,1,30,0,0
107476,-200,3,2,1,40,0,0
107784,307.692307692308,4,2,1,50,1,0
107784,-83.3333333333333,4,3,1,50,0,0
110245,-66.6666666666667,4,2,1,50,0,0
110553,-83.3333333333333,4,2,1,50,0,0
112707,-66.6666666666667,4,2,1,50,0,0
113014,-83.3333333333333,4,2,1,50,0,0
118860,-133.333333333333,4,3,1,50,0,0
121014,-133.333333333333,4,2,3,50,0,0
121322,-133.333333333333,4,3,1,50,0,0
123476,-133.333333333333,4,2,3,50,0,0
123784,-133.333333333333,4,3,1,50,0,0
125937,-66.6666666666667,4,3,1,50,0,0
126168,-66.6666666666667,4,2,1,5,0,0
126245,-117.647058823529,4,2,1,50,0,0
126937,-117.647058823529,4,2,1,5,0,0
127014,-117.647058823529,4,2,1,50,0,0
127553,-117.647058823529,4,2,1,5,0,0
127630,-117.647058823529,4,2,1,50,0,0
128168,-117.647058823529,4,2,1,5,0,0
128245,-117.647058823529,4,2,1,50,0,0
128707,-200,4,2,1,50,0,0
129014,-142.857142857143,4,2,1,50,0,0
129322,-111.111111111111,4,2,1,50,0,0
129937,-100,4,2,1,50,0,0
131168,-1000,4,2,1,50,0,0
131245,-1000,4,2,1,10,0,0
132399,-1000,4,2,1,20,0,0
134860,-66.6666666666667,4,1,1,70,0,1
137399,-66.6666666666667,4,1,1,5,0,1
137476,-66.6666666666667,4,1,1,70,0,1
144091,-1000,4,2,1,80,0,0
145245,-1000,4,2,1,5,0,0
145322,307.692307692308,4,2,1,30,1,0
145322,-200,4,2,2,30,0,0
153937,-200,4,2,1,30,0,0
154245,-200,4,2,2,30,0,0
155322,-200,4,2,0,30,0,0
158860,-133.333333333333,4,2,1,30,0,0
159091,-133.333333333333,4,2,1,5,0,0
159168,-133.333333333333,4,2,0,30,0,0
159398,-133.333333333333,4,2,1,5,0,0
159475,-133.333333333333,4,2,0,30,0,0
161552,-133.333333333333,4,2,0,5,0,0
161629,-133.333333333333,4,2,0,30,0,0
165014,-133.333333333333,4,2,0,40,0,0
165245,-133.333333333333,4,2,0,5,0,0
165322,-133.333333333333,4,2,0,40,0,0
165629,-117.647058823529,4,2,0,50,0,0
165860,-117.647058823529,4,2,0,5,0,0
165937,-117.647058823529,4,2,0,50,0,0
166245,-105.263157894737,4,2,0,60,0,0
166475,-105.263157894737,4,2,0,5,0,0
166552,-105.263157894737,4,2,0,60,0,0
166860,-95.2380952380952,4,2,0,70,0,0
167091,-95.2380952380952,4,2,0,5,0,0
167168,-95.2380952380952,4,2,0,70,0,0
167475,317.460317460317,3,2,3,80,1,0
167475,-100,3,2,3,50,0,0
167713,-100,3,2,3,5,0,0
167792,-100,3,2,3,50,0,0
168027,-100,3,2,3,5,0,0
168109,-100,3,2,3,50,0,0
168665,-100,3,2,3,5,0,0
168744,-100,3,2,3,50,0,0
169300,-100,3,2,3,5,0,0
169379,310.880829015544,3,2,3,80,1,0
169379,-100,3,2,3,50,0,0
171244,304.568527918782,3,2,3,80,1,0
171244,-105.263157894737,3,2,3,50,0,0
173071,301.507537688442,3,2,3,80,1,0
173071,-100,3,2,3,50,0,0
173975,-105.263157894737,3,2,3,50,0,0
174427,-105.263157894737,3,2,1,50,0,0
174880,298.507462686567,3,2,3,80,1,0
174880,-101.010101010101,3,2,1,50,0,0
175178,-101.010101010101,3,2,3,50,0,0
175775,-103.092783505155,3,2,1,50,0,0
176074,-103.092783505155,3,2,3,50,0,0
176671,-105.263157894737,3,2,3,50,0,0
177566,-133.333333333333,3,2,1,50,0,0
178462,289.855072463768,3,2,3,80,1,0
179114,-133.333333333333,3,2,3,70,0,0
179331,285.714285714286,3,2,3,80,1,0
179331,-100,3,2,3,50,0,0
179759,338.983050847458,3,2,3,50,1,0
179928,285.714285714286,3,2,3,55,1,0
179928,-100,3,2,3,55,0,0
180142,-100,3,2,3,55,0,0
180213,338.983050847458,3,2,3,60,1,0
180298,244.897959183673,3,2,3,80,1,0
180298,-133.333333333333,3,2,3,60,0,0
180528,-133.333333333333,3,2,3,5,0,0
180605,285.714285714286,3,2,3,60,1,0
180605,-133.333333333333,3,2,3,60,0,0
180748,309.278350515464,3,2,3,60,1,0
180748,-133.333333333333,3,2,3,60,0,0
181057,389.61038961039,3,2,3,65,1,0
181154,295.566502463054,3,2,3,70,1,0
181154,-100,3,2,3,70,0,0
181597,370.828182941904,3,2,3,80,1,0
181967,379.746835443038,3,2,3,80,1,0
182346,422.535211267606,3,2,3,80,1,0
182769,395.256916996047,3,1,1,20,1,0
182769,-133.333333333333,3,2,1,50,0,0
183065,-133.333333333333,3,2,1,5,0,0
183263,-142.857142857143,3,2,0,40,0,0
183691,-166.666666666667,3,2,0,35,0,0
184152,-200,3,2,0,30,0,0
184745,-333.333333333333,3,2,0,25,0,0
185141,307.692307692308,4,2,1,30,1,0
185141,-142.857142857143,4,2,2,30,0,0
186833,-142.857142857143,4,2,2,40,0,0
188833,-200,4,2,2,30,0,0
189141,-200,4,2,1,5,0,0
189371,-333.333333333333,4,2,2,30,0,0
189641,-333.333333333333,4,2,1,5,0,0
190064,-90.9090909090909,4,2,1,50,0,0
190679,-76.9230769230769,4,2,1,50,0,0
191294,-66.6666666666667,4,2,1,50,0,0
194064,-66.6666666666667,4,2,1,50,0,0
196833,-55.5555555555556,4,2,1,50,0,0
197064,-66.6666666666667,4,2,1,50,0,0
200987,-55.5555555555556,4,2,1,80,0,0
201064,-55.5555555555556,4,2,1,50,0,0
201448,-66.6666666666667,4,2,1,50,0,0
202217,-66.6666666666667,4,2,1,80,0,0
202294,-66.6666666666667,4,2,1,50,0,0
203448,-66.6666666666667,4,2,1,80,0,0
203525,-66.6666666666667,4,2,1,50,0,0
204833,-125,4,2,1,80,0,0
205448,-100,4,2,1,80,0,0
206064,-83.3333333333333,4,2,1,80,0,0
206679,-66.6666666666667,4,2,1,80,0,0
207294,-66.6666666666667,4,2,1,80,0,0
207371,-66.6666666666667,4,2,1,50,0,0
209756,-200,4,2,2,30,0,0
214064,-100,4,2,2,30,0,0
214371,-100,4,2,2,5,0,0
214525,-100,4,2,2,30,0,0
214679,-200,4,2,2,30,0,0
216833,-83.3333333333333,4,3,1,30,0,0
217064,-83.3333333333333,4,2,1,5,0,0
217141,-133.333333333333,4,3,1,40,0,0
222064,-100,4,2,1,50,0,0
224525,-100,4,2,1,80,0,0
224602,-100,4,2,1,50,0,0
225602,-83.3333333333333,4,2,1,80,0,0
226217,-83.3333333333333,4,2,1,80,0,0
226448,-83.3333333333333,4,2,1,5,0,0
226525,-83.3333333333333,4,2,1,50,0,0
226987,-83.3333333333333,4,2,1,70,0,0
228217,-166.666666666667,4,2,2,30,0,0
234679,-333.333333333333,4,3,1,90,0,0
234910,-333.333333333333,4,3,1,5,0,0
234987,307.692307692308,4,1,1,70,1,1
234987,-66.6666666666667,4,1,1,70,0,1
237525,-66.6666666666667,4,1,1,5,0,1
237602,-66.6666666666667,4,1,1,70,0,1
243602,-66.6666666666667,4,1,1,90,0,1
243833,-66.6666666666667,4,1,1,5,0,1
243910,-66.6666666666667,4,1,1,90,0,1
244140,-66.6666666666667,4,1,1,5,0,1
244217,-66.6666666666667,4,1,1,90,0,1
244525,-333.333333333333,4,2,1,70,0,0
244833,-333.333333333333,4,2,1,5,0,0
244987,-333.333333333333,4,2,1,70,0,0
245140,-66.6666666666667,4,1,1,70,0,1
252063,-66.6666666666667,4,1,1,90,0,1
252294,-66.6666666666667,4,1,1,5,0,1
252371,-66.6666666666667,4,1,1,70,0,1
254525,-100,4,2,1,70,0,0
256525,-66.6666666666667,4,2,2,100,0,0
257063,-66.6666666666667,4,2,1,5,0,0
257140,-100,4,2,1,70,0,0
262063,-83.3333333333333,4,2,1,70,0,0
266371,-83.3333333333333,4,2,1,70,0,0
266679,-83.3333333333333,4,2,1,70,0,0
274371,-83.3333333333333,4,2,1,20,0,0

[Colours]
Combo1 : 255,128,128
Combo2 : 0,64,128
Combo3 : 0,128,0
Combo4 : 199,199,199
Combo5 : 255,255,198
Combo6 : 255,0,0

[HitObjects]
53,60,1747,6,0,L|69:145,1,77,0|2,0:0|0:0,0:0:0:0:
109,235,2403,2,0,B|91:247|91:247|69:246,2,44,0|0|2,0:0|0:0|0:0,0:0:0:0:
235,98,3059,1,2,0:0:0:0:
235,98,3387,2,0,B|227:54,1,44
211,176,3715,6,0,P|253:177|298:152,1,88,2|0,0:0|0:0,0:0:0:0:
448,53,4370,1,0,0:0:0:0:
448,53,4698,2,0,L|439:149,1,88,2|0,0:0|0:0,0:0:0:0:
428,274,5354,1,2,0:0:0:0:
428,274,5682,5,0,0:0:0:0:
293,340,6010,1,2,0:0:0:0:
205,219,6338,2,0,L|211:172,2,44,0|0|2,0:0|0:0|0:0,0:0:0:0:
163,113,6993,2,0,P|194:97|248:105,1,88,2|0,0:0|0:0,0:0:0:0:
355,141,7485,1,0,0:0:0:0:
355,141,7649,6,0,L|361:52,1,88,2|0,0:0|0:0,0:0:0:0:
165,113,8305,1,0,0:0:0:0:
165,113,8633,2,0,L|171:205,1,88,2|0,0:0|0:0,0:0:0:0:
180,310,9288,1,0,0:0:0:0:
35,268,9616,53,0,0:0:0:0:
110,214,9944,1,2,0:0:0:0:
201,225,10272,1,0,0:0:0:0:
208,230,10436,1,0,0:0:0:0:
215,234,10600,1,2,0:0:0:0:
291,278,10928,1,2,0:0:0:0:
291,278,11256,2,0,P|311:268|339:263,1,44
450,318,11584,6,0,P|434:274|445:221,2,88,2|2|0,0:0|0:0|0:0,0:0:0:0:
481,169,12403,1,0,0:0:0:0:
481,169,12567,2,0,P|440:159|390:178,1,88,2|0,0:0|0:0,0:0:0:0:
328,219,13223,1,2,0:0:0:0:
328,219,13551,5,0,0:0:0:0:
252,265,13879,1,2,0:0:0:0:
169,233,14207,1,0,0:0:0:0:
129,213,14370,1,0,0:0:0:0:
86,224,14534,1,2,0:0:0:0:
34,295,14862,53,2,0:0:0:0:
86,224,15190,1,0,0:0:0:0:
129,213,15354,1,0,0:0:0:0:
169,233,15518,1,2,0:0:0:0:
252,265,15846,1,2,0:0:0:0:
328,219,16174,2,0,L|324:172,2,44,0|0|2,0:0|0:0|0:0,0:0:0:0:
256,192,16624,12,0,19804,0:0:0:0:
256,192,19973,12,0,21153,0:0:0:0:
172,156,21323,70,0,B|178:103,2,44,2|0|2,0:0|0:0|0:0,0:0:0:0:
107,217,21784,2,0,B|62:225|62:225|24:205,2,88,2|2|2,0:0|0:0|0:0,0:0:0:0:
407,83,22553,5,2,0:0:0:0:
346,124,22707,1,0,0:0:0:0:
412,158,22861,1,2,0:0:0:0:
374,43,23015,5,2,0:0:0:0:
313,129,23169,1,2,0:0:0:0:
412,158,23323,1,0,0:0:0:0:
476,70,23476,1,2,0:0:0:0:
365,26,23630,1,2,0:0:0:0:
362,212,23784,6,0,P|385:227|419:234,2,44,2|0|2,0:0|0:0|0:0,0:0:0:0:
448,293,24246,2,0,P|469:256|468:202,2,88,2|2|2,0:0|0:0|0:0,0:0:0:0:
382,339,25015,38,0,L|332:331,1,48.4,2|0,0:0|0:0,0:0:0:0:
277,330,25476,2,0,L|324:337,1,48.4,2|0,0:0|0:0,0:0:0:0:
226,229,25938,6,0,L|235:365,1,132,8|0,0:0|0:0,0:0:0:0:
140,333,26255,6,0,B|154:305|154:305|181:283,1,66.0000025177003,4|2,3:2|3:0,0:0:0:0:
234,360,26562,1,8,0:0:0:0:
60,350,26716,2,0,B|33:332|33:332|0:326,1,66.0000025177003,2|0,3:0|0:0,0:0:0:0:
136,192,27024,2,0,P|147:156|137:115,2,66.0000025177003,2|8|2,3:0|0:0|0:0,0:0:0:0:
61,89,27485,5,2,3:0:0:0:
222,107,27639,1,2,3:0:0:0:
149,49,27793,1,8,0:0:0:0:
240,2,27947,37,2,3:0:0:0:
329,35,28101,1,0,0:0:0:0:
145,43,28255,1,2,3:0:0:0:
232,114,28408,1,8,0:0:0:0:
342,44,28562,1,2,3:0:0:0:
470,106,28716,6,0,P|455:150|452:173,2,66.0000025177003,6|0|8,3:2|0:0|0:0,0:0:0:0:
367,337,29178,2,0,P|334:336|302:327,1,66.0000025177003,2|0,3:0|0:0,0:0:0:0:
348,263,29485,1,0,0:0:0:0:
452,169,29639,2,0,P|415:170|373:193,1,66.0000025177003,8|0,0:0|0:0,0:0:0:0:
141,285,29947,5,2,3:0:0:0:
216,234,30101,1,2,3:0:0:0:
222,317,30255,1,8,0:0:0:0:
57,285,30408,6,0,P|72:230|123:206,1,99.0000037765504,2|2,3:0|0:0,0:0:0:0:
125,194,30716,38,0,L|132:151,1,44,2|0,3:0|0:0,0:0:0:0:
279,51,30870,1,8,0:0:0:0:
279,51,31024,2,0,L|272:100,1,44,2|0,3:0|0:0,0:0:0:0:
258,170,31178,5,6,3:2:0:0:
398,217,31332,2,0,L|302:248,1,88,2|8,3:0|0:0,0:0:0:0:
372,146,31639,2,0,P|415:140|457:168,1,88,2|0,3:0|0:0,0:0:0:0:
199,310,31947,2,0,P|197:258|222:215,1,88,2|8,3:0|0:0,0:0:0:0:
357,341,32255,2,0,L|299:338,1,44,2|0,0:0|0:0,0:0:0:0:
461,246,32408,5,2,3:0:0:0:
436,311,32562,1,2,3:0:0:0:
470,372,32716,1,8,0:0:0:0:
410,302,32870,5,2,3:0:0:0:
456,218,33024,1,2,3:0:0:0:
390,138,33178,1,2,3:0:0:0:
361,232,33332,1,8,0:0:0:0:
484,133,33485,1,2,3:0:0:0:
311,99,33639,37,2,3:0:0:0:
311,99,33793,2,0,P|325:82|349:67,1,44,2|0,3:0|0:0,0:0:0:0:
409,38,33947,1,8,0:0:0:0:
227,25,34101,1,0,3:0:0:0:
227,25,34178,1,0,3:0:0:0:
227,25,34255,2,0,B|220:52|220:52|223:79,1,44,2|0,3:0|0:0,0:0:0:0:
284,170,34408,2,0,B|311:176|311:176|338:174,1,44,2|0,3:0|0:0,0:0:0:0:
190,152,34562,1,8,0:0:0:0:
386,239,34716,6,0,B|405:177|405:177|387:111,1,132,6|0,3:2|0:0,0:0:0:0:
376,89,35024,1,8,0:0:0:0:
478,213,35178,2,0,L|455:283,1,44,8|0,3:0|0:0,0:0:0:0:
414,327,35332,1,2,3:0:0:0:
413,329,35408,1,2,3:0:0:0:
412,331,35485,1,2,3:0:0:0:
252,287,35639,5,4,3:0:0:0:
111,296,35793,1,8,0:0:0:0:
184,328,35947,1,4,3:0:0:0:
39,330,36101,5,4,2:0:0:0:
39,330,36408,1,2,3:0:0:0:
63,242,36716,1,2,3:0:0:0:
63,242,37024,1,2,3:0:0:0:
23,159,37332,1,2,3:0:0:0:
23,159,37639,37,0,0:0:0:0:
88,101,37793,1,2,2:0:0:0:
120,196,37947,2,0,L|106:266,2,66.0000025177003,0|2|0,0:0|2:0|0:0,0:0:0:0:
182,56,38408,1,0,0:0:0:0:
183,57,38485,1,0,0:0:0:0:
184,58,38562,6,0,P|235:64|256:55,1,66.0000025177003,2|0,2:0|2:0,2:0:0:0:
318,20,38870,1,0,0:0:0:0:
470,99,39024,1,2,2:0:0:0:
423,167,39178,2,0,P|416:244|431:310,1,132.000005035401
490,343,39639,1,2,2:0:0:0:
259,352,39793,6,0,B|279:306|279:306|270:219,1,132.000005035401
244,153,40255,1,0,2:0:0:0:
188,208,40408,1,0,0:0:0:0:
325,162,40562,1,2,2:0:0:0:
151,69,40716,2,0,L|85:77,1,66.0000025177003,0|0,2:0|0:0,0:0:0:0:
32,285,41024,6,0,P|84:265|99:188,1,132.000005035401,2|0,0:2|0:0,0:0:0:0:
29,210,41485,1,2,2:0:0:0:
160,362,41639,2,0,B|160:324|151:297|151:297|178:262|177:221,1,132.000005035401
238,308,42101,1,2,2:0:0:0:
445,339,42255,38,0,L|314:322,1,132.000005035401
299,238,42716,1,2,2:0:0:0:
438,111,42870,2,0,L|426:188,1,66.0000025177003
354,182,43101,1,4,0:0:0:0:
354,182,43178,2,0,L|373:77,1,99.0000037765504,8|0,2:0|0:0,0:0:0:0:
300,86,43485,6,0,B|280:196|280:196|300:240,1,158.399995166016,6|0,3:2|0:0,0:0:0:0:
314,262,43793,1,8,0:0:0:0:
117,356,43947,2,0,B|55:344|55:344|172:313,1,158.399995166016,0|0,3:0|0:0,0:0:0:0:
179,317,44255,1,0,3:0:0:0:
298,345,44408,1,8,0:0:0:0:
477,158,44562,6,0,B|455:252|455:252|459:275|459:275|436:379,1,211.199993554688,6|2,0:2|3:2,3:2:0:0:
297,208,45024,1,8,0:0:0:0:
375,129,45178,1,2,3:0:0:0:
260,306,45332,1,8,3:0:0:0:
221,290,45408,1,2,3:0:0:0:
179,298,45485,1,8,3:0:0:0:
140,280,45562,1,2,3:0:0:0:
72,290,45639,6,0,B|103:283|103:283|111:275|111:275|146:266,1,79.1999975830079,6|0,3:2|0:0,0:0:0:0:
44,216,45947,38,0,P|8:237|3:306,1,105.599996777344,6|2,3:2|3:0,0:0:0:0:
46,364,46255,1,8,0:0:0:0:
209,221,46408,2,0,B|218:259|218:259|205:323,1,88,0|0,3:0|0:0,0:0:0:0:
287,366,46716,2,0,B|276:327|276:327|286:280,1,88,0|8,3:0|0:0,0:0:0:0:
304,211,47024,1,0,0:0:0:0:
460,345,47178,5,4,3:0:0:0:
497,269,47332,1,2,3:0:0:0:
357,318,47485,1,8,0:0:0:0:
453,196,47639,5,2,3:0:0:0:
456,193,47716,1,0,0:0:0:0:
459,190,47793,1,0,0:0:0:0:
304,211,47947,1,2,3:0:0:0:
369,53,48101,1,8,0:0:0:0:
376,68,48178,1,8,1:0:0:0:
377,85,48255,1,8,0:0:0:0:
375,102,48332,1,2,3:0:0:0:
350,124,48408,6,0,L|262:113,1,88,4|0,3:0|0:0,0:0:0:0:
218,45,48716,1,8,0:0:0:0:
23,141,48870,1,8,0:0:0:0:
35,130,48947,2,0,P|39:109|39:83,1,44,2|0,3:0|3:0,0:0:0:0:
90,191,49101,1,2,3:0:0:0:
105,187,49178,2,0,P|118:170|131:148,1,44,0|0,3:0|0:0,0:0:0:0:
129,284,49332,2,0,L|41:292,1,88,8|0,0:0|0:0,0:0:0:0:
264,355,49639,37,2,3:0:0:0:
402,276,49793,1,2,3:0:0:0:
470,365,49947,1,8,0:0:0:0:
323,246,50101,5,0,3:0:0:0:
476,238,50255,2,0,P|446:207|400:198,1,88,0|4,0:0|3:0,0:0:0:0:
323,246,50485,1,0,3:0:0:0:
338,229,50562,2,0,B|355:199|299:181|269:209|278:260|278:260|334:268|345:324,1,198.000007553101,8|0,0:0|0:0,0:0:0:0:
181,357,50870,5,2,3:0:0:0:
267,333,51024,1,2,3:0:0:0:
94,378,51178,1,8,0:0:0:0:
162,246,51332,1,8,0:0:0:0:
176,227,51408,1,0,3:0:0:0:
189,208,51485,2,0,L|176:148,1,44,2|0,3:0|0:0,0:0:0:0:
114,60,51639,2,0,L|104:183,2,88,2|8|0,3:0|0:0|0:0,0:0:0:0:
267,31,52101,5,2,3:0:0:0:
343,50,52255,1,2,3:0:0:0:
385,118,52408,1,8,0:0:0:0:
303,150,52562,37,2,3:0:0:0:
385,118,52716,1,2,3:0:0:0:
465,153,52870,1,2,3:0:0:0:
483,239,53024,1,8,0:0:0:0:
403,323,53178,1,0,3:0:0:0:
405,320,53255,1,0,3:0:0:0:
407,317,53332,6,0,B|361:303|310:323|336:332|286:354|230:326,1,158.399995166016,4|0,3:0|0:0,0:0:0:0:
104,302,53639,2,0,B|136:282|186:304|161:313|211:333|257:319,1,158.399995166016,8|0,0:0|0:0,0:0:0:0:
242,204,53947,2,0,P|233:248|249:233,2,105.599996777344,6|2|8,3:2|3:0|0:0,3:0:0:0:
288,126,54408,6,0,P|208:104|124:142,1,176,6|0,3:2|3:0,0:0:0:0:
24,217,54870,1,8,2:0:0:0:
167,211,55024,1,8,3:0:0:0:
19,310,55178,1,8,1:0:0:0:
122,290,55332,1,8,2:0:0:0:
212,354,55485,1,2,3:0:0:0:
19,310,55639,1,2,3:0:0:0:
212,354,55793,6,0,P|275:339|355:354,1,132.000005035401,4|0,2:0|3:0,0:0:0:0:
361,136,56255,1,4,0:0:0:0:
405,36,56408,2,0,P|425:74|456:103,1,66.0000025177003,2|0,0:1|0:0,0:0:0:0:
284,95,56716,2,0,P|305:63|315:34,1,66.0000025177003,8|0,2:0|0:0,0:0:0:0:
435,171,57024,38,0,P|364:159|302:188,1,132.000005035401,2|2,0:0|0:1,0:0:0:0:
243,245,57485,1,2,0:0:0:0:
173,305,57639,2,0,P|131:310|92:290,1,66.0000025177003
52,90,57947,2,0,P|83:81|115:87,1,66.0000025177003,8|0,2:0|0:0,0:0:0:0:
178,145,58255,1,2,0:1:0:0:
178,145,58562,2,0,L|172:218,1,66.0000025177003,2|0,0:1|0:0,0:0:0:0:
105,307,58870,1,0,0:0:0:0:
105,307,59178,1,8,2:0:0:0:
269,270,59332,6,0,B|308:250|343:279|340:288|372:300|416:281,1,132.000005035401
461,236,59793,2,0,P|476:274|475:304,1,66.0000025177003,2|0,0:1|0:0,0:0:0:0:
401,148,60101,2,0,P|382:184|380:215,1,66.0000025177003
449,86,60408,6,0,B|407:27|339:21|339:21|308:57|253:57,1,198.000007553101,8|0,0:0|0:0,0:0:0:0:
214,89,60716,6,0,P|207:54|216:15,1,66.0000025177003
280,134,61024,1,2,0:1:0:0:
155,144,61178,1,0,0:0:0:0:
155,144,61332,2,0,P|136:104|136:72,1,66.0000025177003
213,25,61639,1,8,2:0:0:0:
169,215,61793,1,0,0:0:0:0:
164,219,61870,1,0,0:0:0:0:
158,220,61947,38,0,B|127:223|103:203|103:203|66:193|24:214,1,132.000005035401,0|2,0:0|0:1,0:0:0:0:
239,104,62408,1,0,0:0:0:0:
155,144,62562,1,0,0:0:0:0:
327,223,62716,1,8,2:0:0:0:
320,358,62870,1,8,0:0:0:0:
292,290,63024,1,8,0:0:0:0:
504,294,63178,6,0,B|455:284|432:293|443:300|408:311|372:297,2,132.000005035401,4|0|2,3:2|0:0|3:0,3:0:0:0:
393,169,64101,2,0,P|409:209|405:243,1,66.0000025177003
242,306,64408,6,0,P|186:321|120:293,1,132.000005035401,6|0,3:2|0:0,0:0:0:0:
64,206,64870,1,0,0:0:0:0:
64,205,65024,2,0,P|31:201|0:209,1,66.0000025177003,2|0,3:0|0:0,0:0:0:0:
124,63,65332,1,0,0:0:0:0:
138,153,65485,1,0,0:0:0:0:
386,80,65639,6,0,P|336:59|233:175,1,231.000008811951,6|0,3:2|0:0,0:0:0:0:
335,247,66255,1,8,0:0:0:0:
237,191,66408,1,0,0:0:0:0:
409,164,66562,1,8,2:0:0:0:
245,331,66716,38,0,B|301:320|301:320|336:330|336:330|371:317|371:317|437:327,1,198.000007553101,6|0,3:2|0:0,0:0:0:0:
296,90,67024,2,0,B|266:114|218:113|218:113|206:108|206:108|212:119|212:119|188:162|201:205,1,198.000007553101,2|0,3:0|0:0,0:0:0:0:
423,196,67332,2,0,P|492:167|421:159,1,198.000007553101,6|0,3:2|0:0,0:0:0:0:
424,174,67639,1,2,3:0:0:0:
204,215,67793,1,8,0:0:0:0:
223,35,67947,2,0,B|207:26|207:26|266:22|266:22|236:163,1,198.000007553101,6|0,3:2|3:2,3:2:0:0:
238,150,68255,5,8,1:0:0:0:
328,280,68408,1,8,1:0:0:0:
494,277,68562,1,8,1:0:0:0:
458,27,68716,1,12,1:0:0:0:
41,353,73338,6,0,B|29:305|29:305|36:270|36:270|25:219,1,132.000005035401,6|0,3:2|0:0,0:0:0:0:
262,220,73645,2,0,B|252:265|252:265|262:291|262:291|247:349,1,132.000005035401,8|0,0:0|0:0,0:0:0:0:
178,290,73953,1,0,0:0:0:0:
331,257,74107,1,2,0:0:0:0:
194,151,74261,1,8,0:0:0:0:
247,347,74414,1,2,0:0:0:0:
463,209,74568,6,0,B|495:236|495:236|409:211,1,132.000005035401,0|0,3:0|3:0,0:0:0:0:
226,71,74876,2,0,B|140:46|140:46|183:82,1,132.000005035401,8|0,0:0|0:0,0:0:0:0:
351,89,75184,1,0,0:0:0:0:
399,25,75338,1,2,0:0:0:0:
306,153,75491,1,8,0:0:0:0:
76,207,75645,38,0,P|145:192|195:224,1,132.000005035401,2|0,0:0|3:0,0:0:0:0:
264,334,75953,1,2,1:0:0:0:
194,222,76107,1,8,0:0:0:0:
306,153,76261,1,0,0:0:0:0:
376,264,76414,1,8,0:0:0:0:
176,307,76568,1,2,0:0:0:0:
397,170,76722,1,8,0:0:0:0:
187,70,76876,1,2,0:0:0:0:
187,70,77030,6,0,B|141:66|116:70|116:70|129:35|129:35|180:68,1,132.000005035401,0|2,0:0|1:0,0:0:0:0:
404,330,77338,2,0,B|449:326|475:329|475:329|461:295|461:295|410:327,1,132.000005035401,8|0,0:0|0:0,0:0:0:0:
123,221,77645,1,0,0:0:0:0:
365,242,77799,1,2,0:0:0:0:
230,355,77953,1,8,0:0:0:0:
265,260,78107,1,2,0:0:0:0:
64,317,78261,6,0,P|46:274|54:186,2,132.000005035401,4|2|8,0:0|0:0|0:0,0:0:0:0:
270,244,78722,1,2,1:0:0:0:
235,342,78876,1,0,0:0:0:0:
192,146,79030,1,0,0:0:0:0:
157,255,79184,1,8,0:0:0:0:
321,350,79338,1,0,0:0:0:0:
512,182,79491,6,0,P|448:168|389:195,1,132.000005035401,0|2,0:0|0:0,0:0:0:0:
335,255,79722,1,8,3:0:0:0:
335,255,79799,1,8,3:0:0:0:
401,322,79953,1,8,3:0:0:0:
250,79,80107,2,0,B|217:72|217:72|159:86,1,66.0000025177003,0|0,3:0|0:0,0:0:0:0:
152,176,80261,2,0,B|185:183|185:183|243:169,1,66.0000025177003,0|0,3:0|0:0,0:0:0:0:
256,87,80414,2,0,B|223:80|223:80|165:94,1,66.0000025177003,0|0,3:0|0:0,0:0:0:0:
158,184,80568,2,0,B|191:191|191:191|249:177,1,66.0000025177003,0|0,3:0|0:0,0:0:0:0:
70,123,80722,37,6,3:2:0:0:
487,283,81338,1,6,3:2:0:0:
271,10,81953,1,6,3:2:0:0:
221,168,82261,1,6,3:2:0:0:
166,312,82568,1,0,0:0:0:0:
191,306,82645,1,0,0:0:0:0:
217,307,82722,1,0,0:0:0:0:
238,322,82799,1,0,0:0:0:0:
275,302,82876,6,0,B|330:280|389:301|354:318|414:328|474:322|474:322|458:312|448:297,1,231.000002202988,8|0,0:0|0:0,0:0:0:0:
496,246,83184,6,0,L|503:171,2,66.0000025177003,6|2|8,3:2|3:0|0:0,0:0:0:0:
338,104,83645,2,0,B|309:81|309:81|188:98,1,132,2|0,3:0|0:0,0:0:0:0:
199,173,83953,2,0,L|302:156,1,88,2|8,3:0|0:0,0:0:0:0:
142,108,84261,1,0,0:0:0:0:
47,232,84414,5,4,3:0:0:0:
121,276,84568,1,2,3:0:0:0:
48,327,84722,1,8,0:0:0:0:
203,341,84876,1,8,0:0:0:0:
205,339,84953,1,0,3:0:0:0:
207,337,85030,2,0,P|209:298|211:262,1,44,2|0,3:0|0:0,0:0:0:0:
320,283,85184,2,0,P|318:304|317:326,1,44,2|0,3:0|0:0,0:0:0:0:
243,221,85338,1,8,0:0:0:0:
441,278,85491,1,4,3:0:0:0:
277,145,85645,38,0,P|223:138|197:153,1,66.0000025177003,6|2,3:2|3:0,0:0:0:0:
171,207,85953,1,8,0:0:0:0:
153,77,86107,2,0,L|176:239,1,132,2|0,3:0|0:0,0:0:0:0:
107,251,86414,2,0,L|90:141,1,88,2|8,3:0|0:0,0:0:0:0:
78,89,86722,1,4,3:0:0:0:
243,26,86876,5,6,3:2:0:0:
445,96,87030,1,2,3:0:0:0:
445,96,87107,1,2,3:0:0:0:
445,96,87184,1,8,0:0:0:0:
471,26,87338,2,0,P|402:32|375:77,1,105.599996777344,2|0,3:0|0:0,0:0:0:0:
378,146,87568,1,0,3:0:0:0:
378,146,87645,2,0,L|387:212,1,52.7999983886719,2|0,3:0|0:0,0:0:0:0:
476,267,87799,1,8,0:0:0:0:
379,329,87953,1,2,3:0:0:0:
268,206,88107,70,0,L|275:93,2,105.599996777344,6|0|8,3:2|0:0|0:0,0:0:0:0:
66,264,88568,2,0,B|121:244|177:250|177:250|207:302|265:306,2,211.199993554688,6|2|4,3:2|1:0|0:0,0:0:0:0:
30,179,89338,5,4,2:0:0:0:
181,104,89491,1,8,1:0:0:0:
183,93,89568,1,8,1:0:0:0:
183,82,89645,2,0,P|171:58|156:33,3,52.7999983886719,8|0|8|2,3:0|0:0|2:0|0:0,0:0:0:0:
300,171,89953,1,4,3:0:0:0:
294,179,90030,1,4,3:0:0:0:
288,187,90107,1,2,3:0:0:0:
282,195,90184,1,2,3:0:0:0:
241,219,90261,5,8,0:0:0:0:
307,277,90414,1,2,3:0:0:0:
223,327,90568,6,0,P|165:337|73:302,1,140.8,6|0,3:2|0:0,0:0:0:0:
35,242,91030,1,2,1:0:0:0:
73,123,91184,1,2,3:0:0:0:
118,234,91338,1,2,1:0:0:0:
73,123,91491,1,2,3:0:0:0:
35,242,91645,1,2,1:0:0:0:
118,234,91799,37,6,3:2:0:0:
74,45,92107,1,6,3:2:0:0:
35,242,92414,1,6,3:2:0:0:
73,123,92722,1,2,3:2:0:0:
165,334,93015,6,0,P|129:346|79:338,2,88,12|2|2,0:0|0:0|0:0,0:0:0:0:
275,224,93938,1,8,0:0:0:0:
286,216,94245,2,0,L|277:273,2,44,2|2|2,0:0|0:0|0:0,0:0:0:0:
214,37,94861,5,8,0:0:0:0:
297,101,95168,1,2,0:0:0:0:
313,102,95322,1,2,0:0:0:0:
326,103,95476,1,2,0:0:0:0:
405,52,95784,5,8,0:0:0:0:
326,187,96091,1,2,0:0:0:0:
313,188,96245,1,2,0:0:0:0:
297,189,96399,1,2,0:0:0:0:
226,112,96707,38,0,L|233:61,2,44,8|0|2,0:0|0:0|0:0,0:0:0:0:
207,183,97168,1,2,0:0:0:0:
136,199,97322,2,0,P|108:203|77:197,1,44,2|0,0:0|0:0,0:0:0:0:
32,142,97630,5,8,0:0:0:0:
32,142,97784,1,0,0:0:0:0:
117,132,97938,1,2,0:0:0:0:
28,227,98091,1,2,0:0:0:0:
92,64,98245,2,0,P|118:59|145:68,1,44,2|0,0:0|0:0,0:0:0:0:
252,21,98553,6,0,L|239:122,1,88,8|0,0:0|0:0,0:0:0:0:
344,175,99015,1,2,0:0:0:0:
344,175,99168,2,0,P|383:163|402:155,1,44,2|0,0:0|0:0,0:0:0:0:
491,258,99476,6,0,L|394:250,1,88,8|2,0:0|0:0,0:0:0:0:
342,299,99938,1,2,0:0:0:0:
342,299,100091,1,2,0:0:0:0:
216,25,100399,38,0,P|205:65|175:117,1,88,8|2,0:0|0:0,0:0:0:0:
108,133,100861,1,2,0:0:0:0:
170,182,101015,1,2,0:0:0:0:
420,284,101322,6,0,L|323:286,1,88,8|2,0:0|0:0,0:0:0:0:
283,349,101784,1,2,0:0:0:0:
217,303,101938,1,2,0:0:0:0:
422,63,102245,5,8,0:0:0:0:
441,139,102399,1,0,0:0:0:0:
312,68,102553,1,2,0:0:0:0:
293,144,102707,1,2,0:0:0:0:
431,71,102861,1,2,0:0:0:0:
450,147,103015,1,0,0:0:0:0:
312,58,103168,5,10,0:0:0:0:
321,252,103476,1,2,0:0:0:0:
396,227,103630,1,2,0:0:0:0:
455,279,103784,1,2,0:0:0:0:
148,368,104091,38,0,L|129:329,1,44,8|0,0:0|0:0,0:0:0:0:
43,312,104399,1,2,0:0:0:0:
90,248,104553,1,2,0:0:0:0:
169,254,104707,1,2,0:0:0:0:
16,230,105015,5,8,0:0:0:0:
148,368,105322,1,2,0:0:0:0:
207,316,105476,1,2,0:0:0:0:
214,239,105630,1,2,0:0:0:0:
150,186,105784,1,0,0:0:0:0:
316,345,105938,6,0,L|345:272,1,66,10|0,0:0|0:0,0:0:0:0:
343,274,106245,2,0,L|347:319,1,44,2|2,0:0|0:0,0:0:0:0:
290,214,106553,1,2,0:0:0:0:
214,239,106707,1,2,0:0:0:0:
148,192,106861,6,4,L|150:172,22,11
85,234,107784,38,0,P|74:312|88:374,1,105.599996777344
216,218,108091,1,8,1:0:0:0:
131,89,108245,2,0,B|77:82|77:82|16:129,1,105.599996777344,2|0,1:0|0:0,0:0:0:0:
216,217,108553,2,0,B|259:242|259:242|313:226,1,105.599996777344,2|8,1:0|1:0,0:0:0:0:
272,71,108860,2,0,L|283:133,1,52.7999983886719
314,325,109014,5,0,0:0:0:0:
449,214,109168,1,2,1:0:0:0:
260,207,109322,1,8,1:0:0:0:
431,347,109476,1,2,1:0:0:0:
214,303,109630,5,0,0:0:0:0:
344,219,109784,1,2,1:0:0:0:
184,183,109937,1,8,1:0:0:0:
334,232,110091,2,0,L|347:283,1,52.7999983886719
404,369,110245,6,2,B|344:388|344:388|276:366,1,132.000005035401,2|2,3:0|2:0,2:0:0:0:
459,263,110553,1,8,1:0:0:0:
408,66,110707,2,0,B|392:119|403:175|403:175|367:131|306:116,1,211.199993554688,2|0,1:0|0:0,0:0:0:0:
181,46,111168,2,0,P|226:35|251:35,1,52.7999983886719,8|0,1:0|0:0,0:0:0:0:
326,44,111322,1,0,0:0:0:0:
174,181,111476,37,0,0:0:0:0:
55,30,111630,1,2,1:0:0:0:
0,208,111784,1,8,1:0:0:0:
122,101,111937,1,2,1:0:0:0:
112,341,112091,5,2,1:3:0:0:
164,173,112245,1,8,1:0:0:0:
278,345,112399,1,0,3:0:0:0:
180,191,112553,2,0,L|190:260,1,52.7999983886719,8|0,0:0|3:0,0:0:0:0:
360,101,112707,6,0,B|307:67|307:67|247:100,1,132.000005035401,6|0,3:2|0:0,0:0:0:0:
329,235,113014,1,8,1:0:0:0:
437,40,113168,2,0,B|441:111|441:111|414:164|414:164|422:244,1,211.199993554688,2|2,1:0|1:0,0:0:0:0:
352,358,113630,6,0,P|312:352|288:341,1,52.7999983886719,8|0,1:0|0:0,0:0:0:0:
241,233,113784,1,2,1:0:0:0:
464,331,113937,37,2,1:0:0:0:
367,168,114091,1,0,0:0:0:0:
215,308,114245,1,8,1:0:0:0:
423,245,114399,1,2,1:0:0:0:
279,162,114553,5,0,0:0:0:0:
435,110,114707,1,0,0:0:0:0:
262,54,114860,1,8,1:0:0:0:
186,181,115014,2,0,L|198:245,1,52.7999983886719,2|0,3:0|3:0,0:0:0:0:
75,42,115168,6,0,P|45:88|46:158,1,105.599996777344,2|2,2:3|1:0,0:0:0:0:
95,283,115476,2,0,P|43:243|-4:243,1,105.599996777344,8|2,1:0|1:0,0:0:0:0:
121,368,115784,5,0,0:0:0:0:
107,185,115937,1,0,3:0:0:0:
116,154,116014,1,0,3:0:0:0:
132,126,116091,1,8,1:0:0:0:
234,300,116245,38,0,P|334:313|417:230,1,211.199993554688,6|2,3:2|3:0,0:0:0:0:
352,68,116707,1,8,1:0:0:0:
305,227,116860,1,0,3:0:0:0:
451,134,117014,1,0,0:0:0:0:
258,26,117168,1,2,1:0:0:0:
258,26,117245,1,0,3:0:0:0:
258,26,117322,1,8,1:0:0:0:
176,231,117476,6,0,B|135:194|153:129|153:129|99:151|106:235,1,211.199993554688,6|2,2:0|1:0,0:0:0:0:
178,335,117937,1,8,1:0:0:0:
232,168,118091,1,2,1:0:0:0:
357,351,118245,5,8,3:0:0:0:
317,118,118399,1,8,3:0:0:0:
448,371,118553,1,8,1:0:0:0:
487,126,118707,1,8,3:0:0:0:
294,281,118860,5,6,3:2:0:0:
290,287,119168,1,0,0:0:0:0:
220,240,119322,1,0,2:0:0:0:
286,293,119476,1,0,0:0:0:0:
283,298,119784,1,0,0:0:0:0:
220,240,119937,38,0,P|159:229|92:269,1,132.000005035401,0|0,2:0|0:0,2:0:0:0:
45,321,120399,2,0,P|28:291|20:252,1,66.0000025177003,0|0,2:0|0:0,0:0:0:0:
146,194,120707,2,0,P|146:159|158:121,1,66.0000025177003,0|0,2:0|0:0,0:0:0:0:
236,50,121014,1,8,2:0:0:0:
251,55,121091,1,8,2:0:0:0:
266,60,121168,1,8,2:0:0:0:
281,65,121245,1,8,2:0:0:0:
296,70,121322,6,0,L|362:62,1,66.0000025177003,2|0,0:0|2:0,0:0:0:0:
469,178,121630,2,0,L|403:186,1,66.0000025177003,0|0,0:0|2:0,0:0:0:0:
295,319,121937,2,0,P|303:271|292:186,1,132.000005035401
224,108,122399,6,0,P|223:78|230:40,2,66.0000025177003,0|0|0,2:0|0:0|0:0,0:0:0:0:
121,215,122860,2,0,P|107:164|83:137,1,66.0000025177003,0|0,2:0|0:0,0:0:0:0:
236,257,123168,2,0,P|263:211|294:192,1,66.0000025177003,0|0,2:0|0:0,0:0:0:0:
229,342,123476,1,8,2:0:0:0:
212,340,123553,1,8,2:0:0:0:
195,337,123630,1,8,2:0:0:0:
178,335,123707,1,8,2:0:0:0:
161,332,123784,6,0,L|28:352,1,132.000005035401,2|0,0:0|0:0,0:0:0:0:
30,193,124245,1,0,1:0:0:0:
30,193,124399,2,0,L|35:277,1,66.0000025177003,0|0,2:0|0:0,0:0:0:0:
116,239,124707,1,0,0:0:0:0:
116,239,124860,38,0,L|113:174,2,66.0000025177003,0|0|0,2:0|0:0|0:0,0:0:0:0:
195,323,125322,6,0,P|231:316|269:314,1,66.0000025177003,0|0,2:0|0:0,0:0:0:0:
414,327,125630,2,0,P|378:320|340:318,1,66.0000025177003,0|0,2:0|0:0,0:0:0:0:
274,231,125937,6,0,P|265:181|317:240,1,198.000007553101,8|0,0:0|0:0,0:0:0:0:
196,234,126245,6,0,P|191:184|206:148,1,74.8000014266968,6|0,3:2|1:0,0:0:0:0:
234,51,126553,1,8,0:0:0:0:
161,95,126707,2,0,L|44:81,1,112.200002140045,0|0,1:0|0:0,0:0:0:0:
19,75,127014,1,0,1:0:0:0:
101,11,127168,1,8,0:0:0:0:
142,197,127322,38,0,L|25:183,1,112.200002140045,4|0,0:0|0:0,0:0:0:0:
0,177,127630,1,0,1:0:0:0:
188,276,127784,1,8,0:0:0:0:
28,337,127937,2,0,P|83:313|135:334,1,112.200002140045,4|0,0:0|0:0,0:0:0:0:
188,276,128245,1,0,1:0:0:0:
188,276,128322,1,0,1:0:0:0:
188,276,128399,2,0,L|185:199,1,74.8000014266968,8|0,0:0|0:0,0:0:0:0:
411,351,128707,6,0,L|470:346,1,44,4|0,1:2|0:0,0:0:0:0:
466,258,129014,6,0,L|375:253,1,61.5999981201172,12|0,0:0|0:0,0:0:0:0:
383,169,129322,6,0,L|448:162,1,39.5999987915039,4|0,1:2|0:0,0:0:0:0:
490,154,129476,1,0,1:0:0:0:
322,100,129630,2,0,P|300:135|301:186,1,79.1999975830079,12|0,0:2|0:0,0:0:0:0:
312,279,129937,38,0,P|274:257|201:255,1,88,4|0,1:2|0:0,0:0:0:0:
170,306,130168,1,8,0:0:0:0:
170,306,130245,1,12,0:2:0:0:
19,186,130399,5,8,0:0:0:0:
73,141,130553,1,8,3:0:0:0:
215,205,130707,1,8,3:0:0:0:
357,143,130860,1,8,0:0:0:0:
418,177,131014,1,8,0:0:0:0:
357,143,131168,6,0,L|351:203,1,60.1333333333333,2|2,1:0|1:0,0:0:0:0:
94,158,134860,6,0,B|98:211|76:255|76:255|92:310,1,132.000005035401,4|0,0:0|0:0,0:0:0:0:
279,181,135168,2,0,B|274:133|297:84|297:84|281:29,1,132.000005035401,8|0,0:0|0:0,0:0:0:0:
196,216,135476,37,0,0:0:0:0:
362,149,135630,1,2,0:0:0:0:
393,345,135784,1,8,0:0:0:0:
254,283,135937,1,2,0:0:0:0:
380,245,136091,6,0,B|443:261|443:261|495:322,1,132.000005035401,0|0,3:0|0:0,0:0:0:0:
484,51,136399,2,0,B|490:115|490:115|450:185,1,132.000005035401,8|0,0:0|0:0,0:0:0:0:
231,46,136707,5,2,0:0:0:0:
367,114,136860,1,2,1:0:0:0:
170,148,137014,1,8,0:0:0:0:
35,30,137168,6,0,B|72:119|72:119|28:268,1,198.000007553101,2|0,1:0|0:0,0:0:0:0:
36,237,137476,1,0,3:0:0:0:
212,214,137630,1,8,0:0:0:0:
176,324,137784,1,0,0:0:0:0:
298,143,137937,37,0,0:0:0:0:
355,330,138091,1,2,0:0:0:0:
214,86,138245,1,8,0:0:0:0:
119,267,138399,1,2,0:0:0:0:
394,109,138553,6,0,B|408:199|408:199|365:185,1,132.000005035401
101,36,138860,2,0,B|87:126|87:126|131:118,1,132.000005035401,8|0,0:0|0:0,0:0:0:0:
40,238,139168,5,0,0:0:0:0:
205,112,139322,1,2,0:0:0:0:
168,334,139476,2,0,P|156:268|158:187,1,132.000005035401,8|2,0:0|0:0,0:0:0:0:
299,46,139784,6,0,B|292:113|292:113|336:191,1,132.000005035401
499,92,140091,2,0,B|434:73|434:73|349:103,1,132.000005035401,8|0,0:0|0:0,0:0:0:0:
209,155,140399,37,0,0:0:0:0:
323,169,140553,1,2,0:0:0:0:
151,70,140707,2,0,B|118:125|118:125|122:214,1,132.000005035401,8|0,0:0|0:0,0:0:0:0:
48,49,141014,5,0,0:0:0:0:
70,267,141168,1,2,0:0:0:0:
209,155,141322,1,8,0:0:0:0:
22,155,141476,1,2,0:0:0:0:
208,259,141630,1,0,0:0:0:0:
350,103,141784,1,0,0:0:0:0:
356,71,141860,1,0,0:0:0:0:
344,39,141937,1,8,0:0:0:0:
134,162,142091,6,0,B|137:235|92:320|92:320|149:314|195:348,1,264.000010070801,0|2,0:0|0:0,0:0:0:0:
265,151,142553,1,8,0:0:0:0:
315,341,142707,1,0,0:0:0:0:
315,341,142784,1,0,0:0:0:0:
315,341,142860,1,0,0:0:0:0:
443,184,143014,1,2,0:0:0:0:
407,373,143168,1,8,0:0:0:0:
279,244,143322,1,0,0:0:0:0:
432,80,143476,5,0,0:0:0:0:
343,151,143630,37,0,1:0:0:0:
251,132,143784,5,0,0:0:0:0:
219,107,143937,5,0,0:0:0:0:
212,85,144091,6,0,L|201:153,1,66,2|0,0:0|0:0,0:0:0:0:
111,148,145322,69,8,0:0:0:0:
76,140,145475,1,0,0:0:0:0:
41,132,145629,1,8,0:0:0:0:
7,122,145783,1,0,0:0:0:0:
7,130,145937,1,0,0:0:0:0:
7,130,146245,53,8,0:0:0:0:
27,193,146398,1,0,0:0:0:0:
46,257,146552,1,8,0:0:0:0:
62,322,146706,1,0,0:0:0:0:
69,314,146860,1,0,0:0:0:0:
62,322,147168,21,8,0:0:0:0:
69,314,147475,1,8,0:0:0:0:
152,328,147783,54,0,P|190:314|243:322,1,88,0|8,0:0|0:0,0:0:0:0:
302,354,148245,1,0,0:0:0:0:
302,354,148398,2,0,P|327:358|362:354,1,44,8|0,0:0|0:0,0:0:0:0:
412,323,148706,1,0,0:0:0:0:
444,251,148860,1,0,0:0:0:0:
489,317,149014,21,8,0:0:0:0:
412,323,149168,1,0,0:0:0:0:
362,261,149322,1,8,0:0:0:0:
489,317,149629,5,0,0:0:0:0:
472,185,149937,1,8,0:0:0:0:
472,185,150245,38,0,L|379:189,1,88,8|0,0:0|0:0,0:0:0:0:
280,113,150706,1,0,0:0:0:0:
290,107,150860,2,0,L|278:203,1,88,8|8,0:0|0:0,0:0:0:0:
224,241,151322,1,0,0:0:0:0:
216,235,151475,38,0,L|221:284,1,44
307,293,151783,2,0,L|298:340,1,44,8|0,0:0|0:0,0:0:0:0:
163,180,152091,2,0,P|198:163|212:161,1,44,8|0,0:0|0:0,0:0:0:0:
355,238,152398,2,0,P|320:221|306:219,1,44
377,350,152706,69,8,0:0:0:0:
443,321,152860,2,0,P|480:291|499:252,1,88
467,188,153322,1,0,0:0:0:0:
471,116,153475,1,0,0:0:0:0:
476,44,153629,1,8,0:0:0:0:
471,116,153783,1,0,0:0:0:0:
467,188,153937,53,8,0:0:0:0:
298,105,154245,1,10,0:0:0:0:
298,105,154552,1,10,0:0:0:0:
298,105,154860,1,10,0:0:0:0:
298,105,155168,1,8,0:0:0:0:
221,68,155322,22,0,L|220:13,2,44,2|2|2,0:0|0:0|0:0,0:0:0:0:
151,121,155783,2,0,P|113:131|52:112,1,88,2|0,0:0|0:0,0:0:0:0:
108,53,156245,53,2,0:0:0:0:
108,53,156398,1,2,0:0:0:0:
70,202,156552,1,2,0:0:0:0:
70,202,156706,2,0,L|53:290,1,88,2|0,0:0|0:0,0:0:0:0:
113,334,157168,21,2,0:0:0:0:
181,319,157322,1,2,0:0:0:0:
249,305,157475,1,2,0:0:0:0:
304,349,157629,2,0,L|394:363,1,88,2|0,0:0|0:0,0:0:0:0:
475,297,158091,54,0,L|487:237,2,44,2|2|2,0:0|0:0|0:0,0:0:0:0:
421,216,158552,2,0,P|442:187|466:174,1,44,2|0,0:0|0:0,0:0:0:0:
503,151,158860,22,0,L|380:130,1,99.0000037765504,8|0,0:0|0:0,0:0:0:0:
393,124,159168,2,0,L|491:141,1,99.0000037765504,2|0,0:0|0:0,0:0:0:0:
400,51,159475,2,0,L|328:65,1,66.0000025177003,2|0,0:0|0:0,0:0:0:0:
254,90,159783,1,2,0:0:0:0:
256,78,159937,1,2,0:0:0:0:
243,183,160091,53,2,0:0:0:0:
243,183,160398,2,0,L|231:272,1,66.0000025177003,2|0,0:0|0:0,0:0:0:0:
143,329,160706,2,0,L|70:312,1,66.0000025177003,2|0,0:0|0:0,0:0:0:0:
23,240,161014,1,2,0:0:0:0:
23,240,161168,1,2,0:0:0:0:
112,98,161322,22,0,P|152:81|227:105,1,99.0000037765504,2|0,0:0|0:0,0:0:0:0:
202,76,161629,2,0,P|154:66|108:84,1,99.0000037765504,2|0,0:0|0:0,0:0:0:0:
88,104,161937,1,2,0:0:0:0:
160,179,162245,1,2,0:0:0:0:
160,179,162398,1,2,0:0:0:0:
160,179,162552,54,0,L|146:275,1,66.0000025177003,2|0,0:0|0:0,0:0:0:0:
242,341,162860,2,0,L|251:275,1,66.0000025177003,2|0,0:0|0:0,0:0:0:0:
287,210,163168,1,2,0:0:0:0:
350,174,163322,1,2,0:0:0:0:
421,186,163475,1,2,0:0:0:0:
468,241,163629,2,0,P|471:290|467:325,2,66.0000025177003,2|0|0,0:0|0:0|0:0,0:0:0:0:
313,45,164091,22,0,P|287:75|287:111,1,66.0000025177003,2|0,0:0|0:0,0:0:0:0:
328,163,164398,2,0,P|367:169|398:151,1,66.0000025177003,2|0,0:0|0:0,0:0:0:0:
426,91,164706,2,0,P|412:53|380:35,1,66.0000025177003,2|0,0:0|0:0,0:0:0:0:
252,178,165014,6,0,L|154:167,1,99.0000037765504,2|0,0:0|0:0,0:0:0:0:
141,165,165322,1,2,0:0:0:0:
16,282,165629,6,0,L|128:269,1,112.200002140045,2|0,0:0|0:0,0:0:0:0:
150,267,165937,1,2,0:0:0:0:
274,79,166245,70,0,L|126:69,1,125.399996651459,2|0,0:0|0:0,0:0:0:0:
112,67,166552,1,2,0:0:0:0:
296,207,166860,6,0,L|445:184,1,138.599995770264,2|0,0:0|0:0,0:0:0:0:
489,178,167168,1,2,0:0:0:0:
446,350,167475,54,0,B|395:311|395:311|322:316,1,132,8|0,0:0|0:0,0:0:0:0:
240,230,167792,2,0,B|298:254|298:254|330:320,1,132,8|0,0:0|0:0,0:0:0:0:
328,315,168109,1,8,0:0:0:0:
159,250,168427,70,0,P|160:193|229:152,1,132,8|0,0:0|0:0,0:0:0:0:
265,155,168744,1,8,0:0:0:0:
303,165,168824,1,8,0:0:0:0:
341,172,168903,1,8,0:0:0:0:
379,181,168982,1,8,0:0:0:0:
429,128,169062,2,0,P|422:75|388:117,1,132,8|0,0:0|0:0,0:0:0:0:
462,217,169379,6,0,B|519:228|519:228|483:235,1,88,8|0,0:0|0:0,0:0:0:0:
355,250,169689,2,0,B|298:261|298:261|334:268,1,88,8|0,0:0|0:0,0:0:0:0:
426,316,170000,1,8,0:0:0:0:
176,339,170311,70,0,L|263:356,1,88,8|0,0:0|0:0,0:0:0:0:
95,284,170622,1,8,0:0:0:0:
54,291,170700,1,8,0:0:0:0:
14,301,170777,1,8,0:0:0:0:
18,292,170855,1,8,0:0:0:0:
22,283,170933,1,8,0:0:0:0:
60,207,171088,1,8,0:0:0:0:
205,263,171244,6,0,P|222:224|213:183,1,83.5999977676392,8|0,0:0|0:0,0:0:0:0:
144,129,171548,2,0,L|50:138,1,83.5999977676392,8|0,0:0|0:0,0:0:0:0:
57,58,171853,2,0,L|140:50,1,83.5999977676392,8|0,0:0|0:0,0:0:0:0:
230,90,172157,5,8,0:0:0:0:
230,90,172462,1,8,0:0:0:0:
264,107,172538,1,8,0:0:0:0:
303,110,172614,1,8,0:0:0:0:
339,96,172690,1,8,0:0:0:0:
364,68,172766,1,8,0:0:0:0:
364,68,173071,5,8,0:0:0:0:
476,41,173372,1,8,0:0:0:0:
440,158,173674,1,8,0:0:0:0:
277,334,173975,21,0,3:0:0:0:
470,229,174126,1,8,0:0:0:0:
441,336,174277,1,8,0:0:0:0:
280,218,174427,1,8,3:0:0:0:
364,280,174578,1,2,3:0:0:0:
255,361,174729,1,0,3:0:0:0:
137,268,174880,5,8,3:0:0:0:
137,268,174954,1,0,3:0:0:0:
126,169,175178,1,8,0:0:0:0:
60,276,175477,2,8,P|65:299|82:323,3,43.5599998670654
42,137,175775,6,0,P|63:75|83:43,1,85.3600020188599,8|0,3:0|3:0,0:0:0:0:
161,55,175999,1,0,3:0:0:0:
161,55,176074,2,0,P|194:98|210:154,2,85.3600020188599,8|0|0,0:0|0:0|0:0,0:0:0:0:
348,34,176671,70,0,P|331:72|298:127,1,83.5999977676392,8|0,3:0|0:0,0:0:0:0:
472,103,176969,2,0,P|443:68|416:13,1,83.5999977676392,8|0,0:0|0:0,0:0:0:0:
433,181,177193,1,0,0:0:0:0:
434,181,177268,2,0,P|392:181|351:187,1,83.5999977676392,8|8,0:0|3:0,0:0:0:0:
244,200,177566,6,0,P|233:236|238:301,1,99.0000037765504,0|8,3:0|3:0,0:0:0:0:
237,319,177865,1,8,0:0:0:0:
126,294,178014,1,2,1:0:0:0:
34,355,178163,1,0,3:0:0:0:
113,210,178312,1,0,3:0:0:0:
111,199,178387,1,0,3:0:0:0:
109,189,178462,69,8,3:0:0:0:
277,225,178751,1,2,1:0:0:0:
448,268,178969,1,0,3:0:0:0:
448,268,179041,1,0,3:0:0:0:
448,268,179114,2,0,P|451:230|443:196,1,66.0000025177003,12|0,0:0|0:0,0:0:0:0:
207,258,179331,6,0,P|201:227|204:182,2,44,8|8|8,0:0|0:0|0:0,0:0:0:0:
347,257,179545,1,0,0:0:0:0:
347,257,179616,6,0,P|353:226|344:184,2,44,12|8|8,0:0|0:0|0:0,0:0:0:0:
342,348,179871,69,8,0:0:0:0:
342,348,179928,2,0,L|385:336,3,44
259,329,180213,21,12,0:0:0:0:
259,329,180298,2,0,P|182:313|134:343,1,132.000005035401,8|8,0:0|0:0,0:0:0:0:
73,337,180605,2,0,P|108:343|152:331,1,66.0000025177003,8|12,0:0|0:0,0:0:0:0:
166,184,180902,70,0,L|172:148,2,33.0000012588501,8|8|8,0:0|0:0|0:0,0:0:0:0:
91,221,181154,6,0,L|100:265,5,44,12|8|8|8|8|12,0:0|0:0|0:0|0:0|0:0|0:0,0:0:0:0:
93,98,181597,54,0,L|81:48,2,44,8|8|8,0:0|0:0|0:0,0:0:0:0:
174,161,181875,1,8,0:0:0:0:
177,166,181967,22,0,L|166:213,3,29.3333333333333,12|8|8|8,0:0|0:0|0:0|0:0,0:0:0:0:
239,106,182220,1,8,0:0:0:0:
254,113,182283,1,8,0:0:0:0:
269,106,182346,1,8,0:0:0:0:
313,124,182416,1,8,0:0:0:0:
340,110,182486,1,8,0:0:0:0:
368,121,182557,1,8,0:0:0:0:
415,145,182627,1,8,0:0:0:0:
465,130,182698,1,8,0:0:0:0:
512,155,182769,6,0,L|506:46,1,99.0000037765504,12|0,0:0|0:0,0:0:0:0:
511,166,183263,70,0,L|503:279,1,92.3999971801759
510,335,183691,6,0,P|467:320|415:335,1,96.7999970458985,2|0,0:0|0:0,0:0:0:0:
349,356,184152,70,0,P|318:367|237:343,1,110,2|0,0:0|0:0,0:0:0:0:
183,311,184745,6,0,P|171:310|138:316,1,39.5999987915039,2|0,0:0|0:0,0:0:0:0:
75,339,185141,5,8,0:0:0:0:
32,279,185294,1,2,0:0:0:0:
31,205,185448,1,0,0:0:0:0:
78,144,185602,5,2,0:0:0:0:
166,267,185910,1,2,0:0:0:0:
195,118,186217,1,2,0:0:0:0:
175,247,186371,5,8,0:0:0:0:
198,153,186525,1,2,0:0:0:0:
256,231,186679,1,2,0:0:0:0:
315,50,186833,5,8,0:0:0:0:
367,159,186987,1,2,0:0:0:0:
398,37,187141,1,2,0:0:0:0:
357,188,187294,2,0,P|338:221|327:268,1,61.5999981201172,2|2,0:0|0:0,0:0:0:0:
249,96,187602,37,8,0:0:0:0:
325,153,187756,1,0,0:0:0:0:
245,200,187910,1,0,0:0:0:0:
302,38,188064,2,0,P|245:16|190:46,1,123.199996240234,2|2,0:0|0:0,0:0:0:0:
232,241,188679,1,2,0:0:0:0:
271,301,188833,6,0,P|332:279|398:287,1,132,10|0,0:0|0:0,0:0:0:0:
275,145,189371,6,0,L|231:241,1,105.599996777344,8|0,0:0|0:0,0:0:0:0:
157,251,190064,6,0,P|114:212|63:209,1,96.8000029541017,6|0,3:2|3:0,0:0:0:0:
33,145,190294,1,0,3:0:0:0:
22,157,190371,2,0,P|5:179|1:206,1,48.4000014770508,8|0,0:0|0:0,0:0:0:0:
57,299,190525,1,0,3:0:0:0:
261,228,190679,38,0,P|251:265|247:299,1,57.1999973815919,0|0,3:0|0:0,0:0:0:0:
396,274,190833,2,0,P|391:245|383:218,1,57.1999973815919,0|0,3:0|0:0,0:0:0:0:
315,167,190987,1,8,0:0:0:0:
327,353,191141,1,0,3:0:0:0:
186,345,191294,6,0,P|151:291|147:226,1,132.000005035401,0|0,3:0|3:0,0:0:0:0:
198,122,191602,1,8,0:0:0:0:
394,185,191756,1,0,3:0:0:0:
256,243,191910,6,0,P|313:244|336:235,1,66.0000025177003,0|0,3:0|3:0,0:0:0:0:
328,104,192064,2,0,P|289:163|284:181,1,66.0000025177003,0|0,3:0|3:0,3:0:0:0:
374,328,192217,2,0,P|413:269|418:251,1,66.0000025177003,8|0,0:0|0:0,0:0:0:0:
394,185,192371,1,0,3:0:0:0:
198,122,192525,6,0,B|163:198,1,66.0000025177003,0|0,3:0|0:0,0:0:0:0:
247,343,192679,2,0,L|219:262,1,66.0000025177003,0|0,3:0|0:0,0:0:0:0:
89,246,192833,37,8,0:0:0:0:
57,235,192910,1,0,3:0:0:0:
44,244,192987,1,0,3:0:0:0:
189,262,193141,1,0,3:0:0:0:
228,69,193294,1,0,3:0:0:0:
335,197,193448,1,8,0:0:0:0:
181,167,193602,2,0,P|217:169|262:183,1,66.0000025177003,0|0,3:0|0:0,0:0:0:0:
406,299,193756,5,0,3:0:0:0:
398,253,193833,1,0,3:0:0:0:
420,208,193910,1,0,3:0:0:0:
408,167,193987,1,0,3:0:0:0:
424,116,194064,1,8,0:0:0:0:
501,230,194217,1,0,3:0:0:0:
288,349,194371,6,0,P|222:336|205:324,1,66.0000025177003,0|0,3:0|0:0,0:0:0:0:
129,198,194525,2,0,P|192:176|213:178,1,66.0000025177003,0|0,3:0|0:0,0:0:0:0:
341,75,194679,5,8,0:0:0:0:
345,113,194756,1,8,0:0:0:0:
342,151,194833,1,8,0:0:0:0:
331,188,194910,1,8,0:0:0:0:
356,234,194987,38,0,P|346:278|351:329,1,66.0000025177003,8|0,0:0|0:0,0:0:0:0:
93,196,195141,1,8,3:0:0:0:
105,207,195217,1,8,3:0:0:0:
116,213,195294,2,0,P|147:219|210:219,1,66.0000025177003,8|0,0:0|0:0,0:0:0:0:
248,37,195448,2,0,P|217:31|154:31,1,66.0000025177003,0|0,3:0|0:0,0:0:0:0:
84,103,195602,5,8,3:0:0:0:
115,127,195679,1,8,3:0:0:0:
167,117,195756,1,8,3:0:0:0:
198,140,195833,1,8,3:0:0:0:
248,125,195910,1,8,3:0:0:0:
280,147,195987,1,8,3:0:0:0:
332,139,196064,1,8,3:0:0:0:
370,174,196141,1,8,3:0:0:0:
430,168,196217,6,0,P|460:147|484:106,1,66.0000025177003,8|0,0:0|0:0,0:0:0:0:
284,293,196371,2,0,P|283:325|277:358,1,66.0000025177003,0|0,3:0|0:0,0:0:0:0:
198,140,196525,2,0,P|195:105|203:64,1,66.0000025177003,8|0,0:0|0:0,0:0:0:0:
82,323,196679,1,0,0:0:0:0:
20,172,196833,2,0,P|52:84|93:168,1,237.599992749024,8|0,0:0|3:0,0:0:0:0:
57,241,197141,1,8,0:0:0:0:
102,238,197217,1,8,0:0:0:0:
139,265,197294,1,8,0:0:0:0:
185,267,197371,1,8,0:0:0:0:
227,231,197448,54,0,P|239:189|230:137,1,66.0000025177003,0|0,3:0|0:0,0:0:0:0:
154,41,197602,2,0,P|226:65|251:68,1,66.0000025177003,0|0,3:0|0:0,0:0:0:0:
405,94,197756,1,8,0:0:0:0:
302,268,197910,6,0,L|312:183,1,66.0000025177003,0|0,3:0|0:0,0:0:0:0:
324,9,198064,2,0,P|315:76|317:96,1,66.0000025177003,0|0,3:0|0:0,0:0:0:0:
436,222,198217,2,0,P|382:180|364:172,1,66.0000025177003,0|0,3:0|0:3,0:3:0:0:
177,192,198371,2,0,P|239:166|255:154,1,66.0000025177003,8|0,0:0|0:0,0:0:0:0:
131,40,198525,5,0,3:0:0:0:
104,77,198602,1,0,3:0:0:0:
84,118,198679,2,0,P|72:155|69:210,1,66.0000025177003,8|0,0:0|0:0,0:0:0:0:
157,341,198833,2,0,P|169:304|172:249,1,66.0000025177003,0|0,3:0|0:0,0:0:0:0:
347,52,198987,1,8,0:0:0:0:
357,78,199064,1,0,3:0:0:0:
366,100,199141,2,0,L|390:161,1,66.0000025177003,0|0,3:0|0:0,0:0:0:0:
481,117,199294,6,0,P|483:148|475:191,1,66.0000025177003,8|0,0:0|0:0,0:0:0:0:
295,224,199448,2,0,P|363:239|375:239,1,66.0000025177003,0|0,3:0|0:0,0:0:0:0:
437,253,199602,1,8,0:0:0:0:
427,46,199756,1,0,3:0:0:0:
283,139,199910,2,0,P|250:150|218:150,1,66.0000025177003,0|0,3:0|3:0,0:0:0:0:
174,94,200064,1,0,3:0:0:0:
165,78,200141,1,0,3:0:0:0:
155,55,200217,37,8,0:0:0:0:
121,255,200371,1,0,3:0:0:0:
27,73,200525,1,0,3:0:0:0:
122,273,200679,1,0,3:0:0:0:
160,33,200833,1,8,0:0:0:0:
33,305,200987,6,0,B|47:269|47:269|41:243|53:208|53:208|96:169|162:187|162:187|188:210|190:241|190:241|225:267,1,316.799990332032,6|0,3:2|0:0,0:0:0:0:
375,269,201448,2,0,P|376:301|363:332,1,66.0000025177003,8|0,0:0|0:0,0:0:0:0:
298,281,201602,1,0,0:0:0:0:
448,348,201756,2,0,P|459:308|448:256,1,66.0000025177003,8|0,3:0|0:0,0:0:0:0:
286,161,201910,2,0,P|305:182|369:183,1,66.0000025177003,0|0,3:0|0:0,0:0:0:0:
483,179,202064,2,0,P|449:153|399:153,1,66.0000025177003,8|0,0:0|0:0,0:0:0:0:
229,46,202217,6,0,B|264:72|317:46|317:46|343:64|347:109|347:109|378:54|452:68,1,264.000010070801,6|0,3:2|3:0,0:0:0:0:
502,55,202602,1,0,3:0:0:0:
502,55,202679,1,8,0:0:0:0:
428,224,202833,1,0,3:0:0:0:
230,252,202987,1,8,0:0:0:0:
347,109,203141,1,0,3:0:0:0:
140,92,203294,1,8,0:0:0:0:
123,369,203448,6,0,B|134:332|98:309|98:309|121:266|154:248|154:248|142:193,1,198.000007553101,6|0,3:2|0:0,0:0:0:0:
141,184,203756,53,0,3:0:0:0:
225,335,203910,1,8,0:0:0:0:
273,180,204064,1,0,0:0:0:0:
383,340,204217,5,0,3:0:0:0:
455,130,204371,1,0,3:0:0:0:
499,344,204525,1,8,0:0:0:0:
301,273,204679,1,0,3:0:0:0:
406,43,204833,69,6,3:2:0:0:
258,139,205064,5,8,0:0:0:0:
420,208,205256,69,8,0:0:0:0:
255,30,205448,69,6,3:2:0:0:
191,256,205679,5,8,0:0:0:0:
420,208,205871,69,8,0:0:0:0:
157,45,206064,5,6,3:2:0:0:
146,353,206294,5,8,0:0:0:0:
420,208,206487,69,8,0:0:0:0:
64,170,206679,69,6,3:2:0:0:
355,64,206910,5,8,0:0:0:0:
301,369,207102,69,8,0:0:0:0:
266,150,207294,38,0,P|201:134|133:171,1,132.000005035401,6|0,3:2|3:0,0:0:0:0:
212,255,207602,1,8,0:0:0:0:
386,63,207756,2,0,B|360:103|352:118|352:118|376:182|417:225|417:225|364:221|333:284,1,264.000010070801,4|0,3:2|3:0,0:0:0:0:
447,127,208217,37,8,0:0:0:0:
212,255,208371,2,0,B|175:275|137:252|137:252|72:205|9:252|9:252|58:286,1,264.000010070801,4|8,3:2|0:0,0:0:0:0:
183,181,208833,5,8,0:0:0:0:
102,346,208987,1,8,0:0:0:0:
47,55,209141,1,8,0:0:0:0:
262,190,209467,5,8,3:3:0:0:
477,125,209756,6,0,L|468:174,1,44,10|0,0:0|0:0,0:0:0:0:
455,242,210064,2,0,L|446:291,1,44,10|0,0:0|0:0,0:0:0:0:
361,351,210371,1,10,0:0:0:0:
317,346,210525,1,2,0:0:0:0:
273,340,210679,1,8,0:0:0:0:
229,334,210833,1,2,0:0:0:0:
128,350,210987,37,10,0:0:0:0:
279,213,211294,1,10,0:0:0:0:
409,355,211602,1,10,0:0:0:0:
281,198,211910,1,10,0:0:0:0:
208,228,212217,6,0,P|199:201|206:170,1,44,10|0,0:0|0:0,0:0:0:0:
366,213,212525,2,0,P|362:234|351:253,1,44,10|0,0:0|0:0,0:0:0:0:
272,289,212833,1,10,0:0:0:0:
281,198,212987,1,2,0:0:0:0:
293,107,213141,1,10,0:0:0:0:
272,289,213294,1,0,0:0:0:0:
200,185,213448,38,0,P|188:207|176:233,1,44,10|0,0:0|0:0,0:0:0:0:
414,213,213756,2,0,L|430:262,1,44,10|0,0:0|0:0,0:0:0:0:
281,198,214064,2,0,B|263:258|265:310|265:310|311:329|365:318|365:318|355:265,1,264,10|0,0:0|0:0,0:0:0:0:
335,124,214679,70,0,P|359:139|390:150,2,44,10|2|8,0:0|0:0|0:0,0:0:0:0:
299,52,215141,1,0,0:0:0:0:
248,118,215294,70,0,P|224:133|193:144,2,44,10|2|8,0:0|0:0|0:0,0:0:0:0:
299,52,215756,1,0,0:0:0:0:
335,124,215910,54,0,L|324:175,1,44,10|2,0:0|0:0,0:0:0:0:
306,318,216217,1,8,0:0:0:0:
340,241,216371,1,0,0:0:0:0:
256,247,216525,2,0,P|229:225|224:208,1,44,10|2,0:0|0:0,0:0:0:0:
132,192,216833,6,0,L|293:178,1,158.399995166016,8|0,0:0|0:0,0:0:0:0:
365,183,217141,6,0,P|358:221|330:248,1,66.0000025177003,4|0,0:2|0:0,0:0:0:0:
251,109,217448,2,0,P|287:96|324:106,1,66.0000025177003
250,252,217756,2,0,P|220:226|211:189,1,66.0000025177003,0|0,0:0|3:0,3:0:0:0:
289,178,218064,1,0,0:0:0:0:
331,354,218217,6,0,L|446:281,1,132.000005035401,2|0,1:0|0:0,0:0:0:0:
486,222,218679,2,0,P|442:206|403:221,1,66.0000025177003
442,283,218987,1,0,0:0:0:0:
326,208,219141,1,2,1:0:0:0:
339,126,219294,1,0,0:0:0:0:
314,205,219448,1,2,1:0:0:0:
323,122,219602,38,0,L|188:96,1,132.000005035401
43,169,220064,2,0,P|91:158|116:167,1,66.0000025177003
174,226,220371,2,0,L|159:294,1,66.0000025177003
352,324,220679,1,0,0:0:0:0:
352,324,220756,1,0,0:0:0:0:
352,324,220833,6,0,L|367:244,1,66.0000025177003,2|0,0:0|0:0,0:0:0:0:
438,127,221141,2,0,P|449:158|474:186,1,66.0000025177003
342,110,221448,2,0,P|321:136|289:155,1,66.0000025177003
188,112,221756,1,0,0:0:0:0:
273,237,221910,1,0,0:0:0:0:
116,363,222064,6,0,L|103:258,1,88,6|8,3:2|0:0,0:0:0:0:
97,208,222294,1,8,0:0:0:0:
95,194,222371,1,8,0:0:0:0:
259,50,222525,1,8,0:0:0:0:
263,76,222602,1,8,0:0:0:0:
267,101,222679,1,8,0:0:0:0:
447,208,222833,1,8,0:0:0:0:
443,183,222910,1,8,0:0:0:0:
439,157,222987,1,8,0:0:0:0:
275,253,223141,5,8,0:0:0:0:
382,83,223294,1,8,0:0:0:0:
279,332,223448,1,8,3:0:0:0:
186,89,223602,69,2,3:0:0:0:
181,74,223756,1,8,3:0:0:0:
177,57,223910,1,2,3:0:0:0:
213,118,224064,1,2,3:0:0:0:
166,187,224217,1,8,3:0:0:0:
233,243,224371,1,2,3:0:0:0:
36,325,224525,54,0,P|91:307|177:351,1,132,6|0,3:2|0:0,0:0:0:0:
182,347,224833,2,0,P|192:311|204:293,1,44,8|0,0:0|0:0,0:0:0:0:
267,158,224987,1,0,3:0:0:0:
334,350,225141,1,0,3:0:0:0:
267,158,225294,1,0,3:0:0:0:
481,125,225448,1,2,3:0:0:0:
201,17,225602,6,0,P|191:83|194:145,1,105.599996777344,6|0,3:2|0:0,0:0:0:0:
335,19,225910,2,0,P|345:85|343:135,1,105.599996777344,8|0,0:0|0:0,0:0:0:0:
108,319,226217,2,0,P|63:267|148:267,1,158.399995166016,6|0,3:2|0:0,0:0:0:0:
178,290,226525,1,8,0:0:0:0:
16,194,226679,1,8,2:0:0:0:
16,194,226833,1,2,3:0:0:0:
285,32,226987,5,8,0:0:0:0:
248,351,227141,1,8,0:0:0:0:
251,339,227448,5,8,0:0:0:0:
495,197,227602,1,8,0:0:0:0:
231,102,227910,1,8,0:0:0:0:
346,249,228217,70,8,L|354:223,27,17.5999994628906
176,39,234679,6,0,L|172:80,1,39.5999987915039,8|0,0:0|0:0,0:0:0:0:
107,180,234987,38,0,B|199:166|199:166|263:231,1,132.000005035401,4|2,3:2|1:0,0:0:0:0:
132,346,235294,2,0,B|40:360|40:360|7:331,1,132.000005035401,8|0,0:0|0:0,0:0:0:0:
163,263,235602,5,0,0:0:0:0:
224,384,235756,1,2,1:0:0:0:
382,181,235910,1,8,0:0:0:0:
364,342,236063,1,2,1:0:0:0:
266,148,236217,6,0,B|269:213|269:213|323:284,1,132.000005035401
306,56,236525,2,0,B|241:63|241:63|181:99,1,132.000005035401,8|0,0:0|0:0,0:0:0:0:
54,229,236833,5,0,0:0:0:0:
185,190,236987,1,2,1:0:0:0:
9,91,237140,1,8,0:0:0:0:
17,368,237294,38,0,B|69:339|96:336|96:336|156:388|237:334,1,198.000007553101,2|0,1:0|0:0,0:0:0:0:
218,343,237602,1,0,0:0:0:0:
52,268,237756,1,8,0:0:0:0:
237,199,237910,1,0,0:0:0:0:
92,85,238063,5,0,0:0:0:0:
157,281,238217,1,2,1:0:0:0:
343,42,238371,1,8,0:0:0:0:
305,244,238525,1,2,1:0:0:0:
118,174,238679,6,0,P|57:193|29:273,1,132.000005035401
146,362,238987,2,0,P|207:343|235:263,1,132.000005035401,8|0,0:0|0:0,0:0:0:0:
184,91,239294,5,2,1:0:0:0:
305,244,239448,1,2,1:0:0:0:
401,46,239602,1,8,0:0:0:0:
236,194,239756,38,0,L|171:208,1,66.0000025177003,2|0,1:0|0:0,0:0:0:0:
79,86,239910,2,0,P|68:172|75:233,1,132.000005035401
305,244,240217,2,0,P|316:158|309:97,1,132.000005035401,8|0,0:0|0:0,0:0:0:0:
157,26,240525,5,0,0:0:0:0:
399,115,240679,1,2,1:0:0:0:
157,269,240833,1,8,0:0:0:0:
252,26,240987,1,2,1:0:0:0:
239,312,241140,5,0,0:0:0:0:
128,150,241294,1,2,1:0:0:0:
339,269,241448,1,8,0:0:0:0:
123,338,241602,1,2,1:0:0:0:
314,163,241756,5,0,0:0:0:0:
255,384,241910,1,2,1:0:0:0:
186,91,242063,1,8,0:0:0:0:
341,335,242217,1,2,1:0:0:0:
457,62,242371,38,0,P|318:42|286:48,1,132.000005035401
153,229,242679,2,0,P|292:249|324:243,1,132.000005035401,8|0,0:0|3:0,0:0:0:0:
326,236,242910,1,0,3:0:0:0:
363,209,242987,1,0,3:0:0:0:
122,132,243140,5,0,0:0:0:0:
195,366,243294,1,2,1:0:0:0:
328,111,243448,1,0,0:0:0:0:
55,48,243602,6,0,P|19:164|92:237,1,198.000007553101,6|0,3:2|0:0,0:0:0:0:
143,258,243910,6,0,P|265:230|379:262,1,198.000007553101,6|0,3:2|0:0,0:0:0:0:
413,279,244217,38,0,B|423:338|384:381|384:381|351:359|314:364,1,132.000005035401,6|0,3:2|0:0,0:0:0:0:
335,242,244525,1,8,0:0:0:0:
212,125,244679,6,0,L|152:136,1,52.7999983886719,0|0,3:0|3:0,0:0:0:0:
107,62,245063,1,0,3:0:0:0:
107,62,245140,6,0,B|82:101|82:101|89:191,1,132.000005035401,12|0,0:2|0:0,0:0:0:0:
367,345,245448,1,8,0:0:0:0:
183,291,245602,1,2,1:0:0:0:
386,203,245756,1,8,0:0:0:0:
161,135,245910,1,2,1:0:0:0:
431,124,246063,6,0,B|470:159|470:159|458:247,1,132.000005035401,8|2,0:0|1:0,0:0:0:0:
84,170,246371,2,0,B|73:91|73:91|112:56,1,132.000005035401,8|2,0:0|1:0,0:0:0:0:
359,240,246679,1,8,0:0:0:0:
161,135,246833,1,2,1:0:0:0:
211,347,246987,1,8,0:0:0:0:
315,38,247140,1,2,1:0:0:0:
343,332,247294,37,8,0:0:0:0:
227,90,247448,1,2,1:0:0:0:
347,344,247602,1,8,0:0:0:0:
450,47,247756,1,2,1:0:0:0:
351,357,247910,1,8,0:0:0:0:
219,78,248063,1,2,1:0:0:0:
411,285,248217,2,0,P|362:260|281:282,1,132.000005035401,8|2,0:0|0:0,0:0:0:0:
158,25,248525,6,0,P|216:-2|287:27,1,132.000005035401,8|2,0:0|0:0,0:0:0:0:
91,335,248833,2,0,P|84:261|70:198,1,132.000005035401,8|0,0:0|3:0,0:0:0:0:
17,149,249063,1,0,3:0:0:0:
69,122,249140,1,8,0:0:0:0:
124,142,249217,1,8,3:0:0:0:
178,166,249294,1,8,3:0:0:0:
235,152,249371,1,8,3:0:0:0:
286,122,249448,2,0,P|329:179|355:240,1,132.000005035401,12|0,0:0|3:0,0:0:0:0:
429,102,249756,5,8,0:0:0:0:
255,309,249910,1,2,1:0:0:0:
229,72,250063,1,8,0:0:0:0:
447,187,250217,1,2,1:0:0:0:
151,320,250371,5,8,0:0:0:0:
138,51,250525,1,2,1:0:0:0:
373,332,250679,1,8,0:0:0:0:
401,55,250833,1,2,1:0:0:0:
256,349,250987,37,8,0:0:0:0:
267,15,251140,1,0,0:0:0:0:
439,173,251294,1,8,0:0:0:0:
88,224,251448,1,8,0:0:0:0:
106,205,251525,1,8,0:0:0:0:
123,183,251602,1,8,0:0:0:0:
191,237,251756,1,8,3:0:0:0:
28,180,251910,1,2,1:3:0:0:
256,53,252063,6,6,B|218:68|199:112|199:112|151:58|81:84,1,198.000007553101,6|6,3:2|3:2,3:2:0:0:
66,92,252371,1,0,0:0:0:0:
136,341,252525,1,8,0:0:0:0:
385,255,252679,1,2,1:0:0:0:
313,13,252833,5,0,0:0:0:0:
296,261,252987,1,0,0:0:0:0:
116,197,253140,1,8,0:0:0:0:
348,352,253294,1,2,1:0:0:0:
470,76,253448,5,0,0:0:0:0:
87,113,253602,1,8,0:0:0:0:
354,302,253756,1,8,0:0:0:0:
361,256,253833,1,8,0:0:0:0:
369,210,253910,1,8,0:0:0:0:
379,163,253987,1,8,0:0:0:0:
386,120,254063,37,0,3:0:0:0:
392,131,254140,1,0,3:0:0:0:
400,141,254217,1,0,3:0:0:0:
408,150,254294,1,0,3:0:0:0:
415,161,254371,2,0,L|353:227,1,66.0000025177003,0|0,3:0|3:0,3:0:0:0:
457,325,254525,5,2,0:0:0:0:
261,269,256525,6,0,P|304:253|242:268,1,462.000017623902,2|0,0:0|0:0,0:0:0:0:
256,190,257140,69,4,3:2:0:0:
141,75,257294,2,0,P|86:69|26:86,1,88,0|8,3:0|0:0,0:0:0:0:
68,246,257602,2,0,P|90:193|94:152,1,88,0|0,3:0|0:0,0:0:0:0:
0,183,257910,5,0,3:0:0:0:
11,345,258063,1,8,0:0:0:0:
171,309,258217,1,0,0:0:0:0:
272,371,258371,2,0,P|334:373|372:368,1,88,0|0,3:0|3:0,0:0:0:0:
246,221,258679,1,8,0:0:0:0:
102,369,258833,5,0,3:0:0:0:
85,332,258910,1,8,0:0:0:0:
89,292,258987,1,0,3:0:0:0:
95,253,259063,1,2,3:0:0:0:
81,215,259140,1,0,3:0:0:0:
13,344,259294,1,8,0:0:0:0:
172,208,259448,1,0,3:0:0:0:
32,69,259602,38,0,P|19:118|14:160,1,88,0|0,3:0|3:0,0:0:0:0:
168,40,259910,1,8,0:0:0:0:
225,139,260063,1,0,3:0:0:0:
350,83,260217,1,0,3:0:0:0:
344,104,260294,1,0,3:0:0:0:
339,125,260371,5,2,3:0:0:0:
443,30,260525,1,8,0:0:0:0:
477,236,260679,1,0,3:0:0:0:
331,215,260833,5,0,3:0:0:0:
512,140,260987,1,0,3:0:0:0:
468,333,261140,1,8,0:0:0:0:
304,287,261294,6,0,L|256:305,1,44,0|0,0:0|3:0,0:0:0:0:
135,354,261448,1,8,0:0:0:0:
115,314,261525,1,8,0:0:0:0:
115,269,261602,1,8,3:0:0:0:
138,231,261679,1,8,3:0:0:0:
175,207,261756,1,8,0:0:0:0:
354,368,261910,38,0,L|375:291,1,44,0|0,3:0|0:0,0:0:0:0:
404,168,262063,5,12,0:0:0:0:
229,46,262217,1,0,3:0:0:0:
418,178,262371,1,8,0:0:0:0:
194,293,262525,1,0,3:0:0:0:
429,186,262679,5,8,0:0:0:0:
200,30,262833,1,0,3:0:0:0:
317,281,262987,1,8,0:0:0:0:
418,24,263140,1,0,3:0:0:0:
465,276,263294,5,8,0:0:0:0:
195,356,263448,1,0,3:0:0:0:
448,384,263602,1,8,0:0:0:0:
199,207,263756,2,0,P|221:224|241:246,1,52.7999983886719,0|0,3:0|3:0,0:0:0:0:
339,384,263910,37,8,0:0:0:0:
262,115,264063,1,0,3:0:0:0:
97,339,264217,1,8,0:0:0:0:
375,282,264371,1,0,3:0:0:0:
123,187,264525,6,0,P|70:193|10:211,1,105.599996777344,12|0,0:0|3:0,0:0:0:0:
97,339,264833,5,8,0:0:0:0:
135,360,264910,1,0,3:0:0:0:
178,368,264987,1,8,3:0:0:0:
221,363,265063,1,0,3:0:0:0:
258,339,265140,2,0,P|265:310|265:281,1,52.7999983886719,8|0,0:0|3:0,3:0:0:0:
210,138,265294,1,0,3:0:0:0:
201,156,265371,1,0,3:0:0:0:
197,179,265448,1,8,0:0:0:0:
385,347,265602,5,0,0:0:0:0:
385,347,266371,1,2,0:0:0:0:
385,347,266679,37,8,0:0:0:0:
272,215,266833,2,0,B|138:166|138:166|180:228,1,211.199993554688,4|0,0:0|0:0,0:0:0:0:
364,122,267294,5,8,0:0:0:0:
228,302,267448,1,8,0:0:0:0:
197,310,267525,1,8,0:0:0:0:
165,314,267602,1,8,0:0:0:0:
267,78,267756,5,0,3:0:0:0:
385,347,267910,1,8,0:0:0:0:
471,41,268063,1,2,0:0:0:0:
110,304,268679,6,0,L|92:236,1,52.7999983886719,0|0,3:0|3:0,3:0:0:0:
46,173,268833,1,6,3:2:0:0:
256,192,268987,12,0,274371,0:0:0:0:
