osu file format v14

[General]
AudioFilename: audio.mp3
AudioLeadIn: 0
PreviewTime: 47272
Countdown: 0
SampleSet: Soft
StackLeniency: 0.3
Mode: 0
LetterboxInBreaks: 0
WidescreenStoryboard: 0

[Editor]
DistanceSpacing: 0.5
BeatDivisor: 4
GridSize: 4
TimelineZoom: 4.099998

[Metadata]
Title:Itazura Sensation
TitleUnicode:悪戯センセーション
Artist:Shinra-bansho
ArtistUnicode:森羅万象
Creator:Hailie
Version:Shira's Lunatic
Source:東方紅魔郷 ~ the Embodiment of Scarlet Devil.
Tags:Ayaponzu* Ayo Remilia Flandre Scarlet Shiro ticat kaztora Kafuu Doujin Septette for the Dead Princess U.N. Owen was her? ZUN Touhou AJ Mischievous funkot Shanipika Shiratoi RVMathew Nao Tomori Naotoshi
BeatmapID:1618099
BeatmapSetID:745460

[Difficulty]
HPDrainRate:7
CircleSize:4
OverallDifficulty:8
ApproachRate:9.2
SliderMultiplier:2.2
SliderTickRate:1

[Events]
//Background and Video events
0,0,"maxresdefault.jpg",0,0
Video,0,"vid.avi"
//Break Periods
2,47785,57585
2,94660,98890
2,129660,138265
2,185285,188835
//Storyboard Layer 0 (Background)
//Storyboard Layer 1 (Fail)
//Storyboard Layer 2 (Pass)
//Storyboard Layer 3 (Foreground)
//Storyboard Sound Samples

[TimingPoints]
1335,312.5,4,2,0,50,1,0
1335,-142.857142857143,4,2,0,50,0,0
10085,-100,4,2,0,60,0,0
11491,-100,4,2,0,50,0,0
12272,-83.3333333333333,4,2,0,50,0,0
12585,-111.111111111111,4,2,0,60,0,0
23835,-125,4,2,0,60,0,0
25085,-166.666666666667,4,2,0,50,0,0
36335,-142.857142857143,4,2,0,60,0,0
47272,-200,4,2,0,45,0,0
58210,-500.000000000003,4,2,0,60,0,0
60710,312.5,4,2,0,50,1,0
60710,-125,4,2,0,50,0,0
65710,-100,4,2,0,60,0,0
66022,-200,4,2,0,40,0,0
66335,-100,4,2,0,60,0,0
66647,-200,4,2,0,40,0,0
66960,-100,4,2,0,60,0,0
67272,-200,4,2,0,40,0,0
67585,-100,4,2,0,60,0,0
67897,-200,4,2,0,40,0,0
68210,-111.111111111111,4,2,0,65,0,0
69460,-500.000000000003,4,2,0,65,0,0
69772,-200,4,2,0,65,0,0
71647,-83.3333333333333,4,2,0,65,0,0
71960,-100,4,2,0,80,0,1
81960,-83.3333333333333,4,2,0,80,0,1
82272,-100,4,2,0,80,0,1
91960,-142.857142857143,4,2,0,80,0,0
92038,-142.857142857143,4,2,0,30,0,0
99460,-142.857142857143,4,2,0,80,0,0
100710,-125,4,2,0,80,0,0
101960,-200,4,2,0,80,0,0
103210,-142.857142857143,4,2,0,60,0,0
113210,-166.666666666667,4,2,0,60,0,0
115710,-83.3333333333333,4,2,0,50,0,0
116022,-66.6666666666667,4,2,0,50,0,0
116335,-83.3333333333333,4,2,0,50,0,0
116960,-200,4,2,0,40,0,0
117741,-200,4,2,0,50,0,0
117897,-83.3333333333333,4,2,0,50,0,0
118210,-142.857142857143,4,2,0,50,0,0
129147,-200,4,2,0,50,0,0
129460,-200,4,2,0,40,0,0
138835,312.5,4,2,0,50,1,0
138835,-125,4,2,0,50,0,0
143835,-100,4,2,0,60,0,0
144147,-200,4,2,0,40,0,0
144460,-100,4,2,0,60,0,0
144772,-200,4,2,0,40,0,0
145085,-100,4,2,0,60,0,0
145397,-200,4,2,0,40,0,0
145710,-100,4,2,0,60,0,0
146022,-200,4,2,0,40,0,0
146335,-111.111111111111,4,2,0,65,0,0
147585,-500.000000000003,4,2,0,65,0,0
147897,-200,4,2,0,65,0,0
149772,-83.3333333333333,4,2,0,65,0,0
150085,-100,4,2,0,80,0,1
160085,-83.3333333333333,4,2,0,80,0,1
160397,-100,4,2,0,80,0,1
170085,-142.857142857143,4,2,0,55,0,0
172585,-142.857142857143,4,2,0,60,0,0
175085,-142.857142857143,4,2,0,55,0,0
177585,-142.857142857143,4,2,0,60,0,0
180163,-142.857142857143,4,2,0,30,0,0
188835,-142.857142857143,4,2,0,50,0,0
190085,-125,4,2,0,60,0,0
198835,-125,4,2,0,65,0,0
199460,-125,4,2,0,55,0,0
200085,-125,4,2,0,65,0,0
200710,-125,4,2,0,55,0,0
201335,-125,4,2,0,65,0,0
201960,-125,4,2,0,60,0,0
202585,-166.666666666667,4,2,0,45,0,0
207585,-166.666666666667,4,2,0,55,0,0
210085,-125,4,2,0,65,0,0
211335,-500.000000000003,4,2,0,65,0,0
211647,-200,4,2,0,65,0,0
213913,-200,4,2,0,30,0,0
215085,-166.666666666667,4,2,0,45,0,0
216335,-142.857142857143,4,2,0,70,0,0
217272,-83.3333333333333,4,2,0,70,0,0
217585,-100,4,2,0,80,0,1
227585,-83.3333333333333,4,2,0,80,0,1
227897,-100,4,2,0,80,0,1
237585,-142.857142857143,4,2,0,40,0,0
238835,-100,4,2,0,80,0,1
246960,-100,4,2,0,80,0,0
247585,-100,4,2,0,80,0,1
258835,-100,4,2,0,80,0,0
258913,-100,4,2,0,25,0,0

[Colours]
Combo1 : 174,174,255
Combo2 : 0,128,128
Combo3 : 165,0,82
Combo4 : 255,13,13

[HitObjects]
339,304,1335,5,4,1:0:0:0:
423,364,1491,2,0,L|430:279,2,76.9999976501465,0|0|0,0:0|0:0|0:0,0:0:0:0:
421,194,1960,1,8,0:1:0:0:
339,304,2116,2,0,L|332:227,2,76.9999976501465,2|0|0,0:0|0:0|0:3,0:0:0:0:
255,164,2585,5,8,0:1:0:0:
181,159,2741,2,0,P|235:170|269:153,1,76.9999976501465,0|0,0:0|0:0,0:0:0:0:
373,89,3053,2,0,B|286:117|312:49|205:86,1,153.999995300293,2|0,0:0|0:0,0:0:0:0:
176,232,3522,2,0,P|187:178|170:144,1,76.9999976501465,8|0,0:1|0:0,0:0:0:0:
79,282,3835,5,4,0:3:0:0:
96,189,3991,2,0,L|18:195,2,76.9999976501465,0|0|0,0:0|0:0|0:0,0:0:0:0:
175,328,4460,1,8,2:0:0:0:
176,232,4616,2,0,L|254:238,2,76.9999976501465,0|0|0,0:0|0:0|0:0,0:0:0:0:
334,309,5085,5,2,0:0:0:0:
331,175,5241,1,0,0:0:0:0:
334,309,5397,1,4,0:3:0:0:
424,190,5553,2,0,B|386:282|461:247|417:361,1,153.999995300293,2|0,1:2|0:0,0:0:0:0:
496,197,6022,2,0,P|456:183|407:200,1,76.9999976501465,8|0,0:0|0:0,0:0:0:0:
334,309,6335,5,4,0:3:0:0:
252,237,6491,2,0,L|243:145,2,76.9999976501466,0|0|0,0:0|0:0|0:0,0:0:0:0:
149,163,6960,1,8,0:0:0:0:
162,265,7116,2,0,L|154:341,2,76.9999976501466,0|0|0,0:0|0:0|0:0,0:0:0:0:
249,368,7585,5,0,1:0:0:0:
162,265,7741,2,0,P|126:252|88:258,1,76.9999976501466,0|0,0:0|0:0,0:0:0:0:
149,163,8053,2,0,L|159:67,1,76.9999976501466,0|0,1:0|0:0,0:0:0:0:
252,237,8366,1,2,0:0:0:0:
348,118,8522,2,0,L|251:126,1,76.9999976501466,0|0,1:0|0:0,0:0:0:0:
441,210,8835,5,0,1:0:0:0:
441,210,9147,1,0,1:0:0:0:
441,210,9460,1,0,1:0:0:0:
441,210,9772,1,0,1:1:0:0:
457,36,10085,5,4,0:1:0:0:
441,210,10241,1,4,0:1:0:0:
512,32,10397,2,0,L|445:38,1,55,4|0,0:1|0:0,0:0:0:0:
402,123,10553,2,0,L|347:117,1,55,4|4,0:3|0:3,0:0:0:0:
201,28,10710,5,4,0:3:0:0:
235,50,10788,1,4,0:3:0:0:
251,90,10866,1,4,0:3:0:0:
244,126,10944,1,4,0:3:0:0:
219,155,11022,1,4,0:3:0:0:
203,194,11100,1,4,0:3:0:0:
207,236,11178,1,4,0:3:0:0:
238,271,11256,5,4,0:3:0:0:
238,271,12272,6,0,B|94:264|94:264|155:307,1,197.99999395752,2|0,1:2|0:0,0:0:0:0:
315,331,12585,6,0,P|336:279|309:215,1,98.9999969787599,4|0,1:0|3:0,0:0:0:0:
148,102,12897,1,8,1:0:0:0:
230,369,13053,2,0,L|239:247,1,98.9999969787599,4|2,3:0|0:0,0:0:0:0:
386,121,13366,1,4,0:3:0:0:
315,331,13522,1,8,1:0:0:0:
260,179,13678,1,2,3:2:0:0:
455,326,13835,6,0,B|376:286|392:377|289:318,1,148.49999546814,4|2,1:3|0:0,0:0:0:0:
238,271,14147,1,8,1:0:0:0:
485,247,14303,2,0,P|424:228|367:244,1,98.9999969787599,4|2,3:0|0:0,0:0:0:0:
230,369,14616,1,4,0:3:0:0:
390,233,14772,1,8,1:0:0:0:
314,330,14928,1,2,3:2:0:0:
247,30,15085,6,0,L|259:178,1,148.49999546814,4|0,1:3|0:0,0:0:0:0:
238,271,15397,1,8,1:0:0:0:
386,121,15553,2,0,L|512:132,1,98.9999969787599,4|2,3:0|0:0,0:0:0:0:
259,178,15866,1,4,0:3:0:0:
390,14,16022,1,8,1:0:0:0:
484,129,16178,1,2,3:2:0:0:
247,30,16335,6,0,B|153:16|153:16|100:43,1,148.49999546814,4|2,1:3|0:0,0:0:0:0:
43,106,16647,1,8,1:0:0:0:
247,30,16803,1,4,3:0:0:0:
126,197,16960,1,2,0:0:0:0:
105,40,17116,1,4,0:3:0:0:
156,318,17272,2,0,P|106:238|135:187,1,148.49999546814,8|0,1:0|0:0,0:0:0:0:
342,248,17585,6,0,B|290:238|290:238|246:259|246:259|185:240,1,148.49999546814,4|0,1:3|0:0,0:0:0:0:
125,196,17897,1,8,1:0:0:0:
335,346,18053,2,0,L|342:233,1,98.9999969787599,4|2,3:0|0:0,0:0:0:0:
428,95,18366,1,4,0:3:0:0:
425,293,18522,1,8,1:0:0:0:
329,151,18678,1,2,3:2:0:0:
476,368,18835,6,0,P|511:301|465:217,1,148.49999546814,4|2,1:3|0:0,0:0:0:0:
416,187,19147,1,8,1:0:0:0:
335,346,19303,2,0,L|236:337,1,98.9999969787599,4|2,3:0|0:0,0:0:0:0:
94,154,19616,1,4,0:3:0:0:
110,344,19772,1,8,1:0:0:0:
212,213,19928,1,2,3:2:0:0:
10,367,20085,6,0,L|25:209,1,148.49999546814,4|0,1:3|0:0,0:0:0:0:
94,154,20397,1,8,1:0:0:0:
236,337,20553,1,4,3:0:0:0:
202,114,20710,2,0,L|211:212,1,98.9999969787599,2|4,0:0|0:3,0:0:0:0:
290,18,21022,1,8,1:0:0:0:
78,45,21178,1,2,3:2:0:0:
211,212,21335,6,0,L|257:202,1,24.74999924469,4|0,1:0|0:0,0:0:0:0:
312,149,21491,2,0,L|336:154,1,24.74999924469,4|0,1:3|0:0,0:0:0:0:
409,206,21647,2,0,L|455:196,1,24.74999924469,4|0,1:3|0:0,0:0:0:0:
409,206,21960,5,4,1:3:0:0:
512,64,22116,1,2,3:2:0:0:
478,91,22194,1,2,0:0:0:0:
486,134,22272,1,8,0:3:0:0:
429,287,22428,2,0,L|355:279,1,49.4999984893799,4|4,0:3|0:3,0:0:0:0:
164,344,22585,6,0,B|265:320|265:320|332:339,1,148.49999546814,4|0,1:3|0:0,0:0:0:0:
390,372,22897,1,8,1:0:0:0:
272,181,23053,1,12,3:0:0:0:
307,332,23210,1,2,0:0:0:0:
378,117,23366,1,12,0:3:0:0:
180,171,23522,2,0,P|227:159|271:180,1,98.9999969787599,8|2,1:0|3:2,0:0:0:0:
164,344,23835,6,0,L|20:332,1,132,4|0,1:3|0:0,0:0:0:0:
15,247,24147,1,4,0:3:0:0:
166,355,24303,2,0,L|22:343,1,132,4|0,1:3|0:0,0:0:0:0:
17,258,24615,1,0,3:0:0:0:
170,367,24772,1,8,0:3:0:0:
83,165,24928,1,4,0:3:0:0:
88,152,25006,1,4,0:3:0:0:
96,138,25085,6,0,P|61:108|59:15,1,131.99999597168,4|8,0:3|0:1,0:0:0:0:
286,90,25553,2,0,L|147:75,1,131.99999597168,0|4,1:0|0:3,0:0:0:0:
144,66,25944,1,0,0:0:0:0:
136,54,26022,1,8,0:1:0:0:
326,177,26178,6,0,P|361:147|363:54,1,131.99999597168,2|0,0:0|0:0,0:0:0:0:
238,187,26647,1,8,0:1:0:0:
368,65,26803,1,4,0:3:0:0:
326,177,26960,1,2,0:0:0:0:
154,75,27116,1,0,0:0:0:0:
238,187,27272,2,0,L|227:272,1,65.9999979858399,8|0,0:1|0:0,0:0:0:0:
390,354,27585,6,0,P|352:330|256:354,1,131.99999597168,4|8,0:3|0:1,0:0:0:0:
72,314,28053,2,0,L|197:325,1,98.9999969787599,4|0,0:3|0:0,0:0:0:0:
186,318,28366,1,0,0:0:0:0:
95,185,28522,1,8,0:1:0:0:
72,314,28678,1,0,0:0:0:0:
197,124,28835,5,4,0:3:0:0:
229,252,28991,1,2,0:0:0:0:
262,118,29147,2,0,L|179:125,1,65.9999979858399,8|4,0:1|0:3,0:0:0:0:
95,185,29460,1,2,0:0:0:0:
163,14,29616,1,4,0:3:0:0:
262,118,29772,2,0,P|246:84|254:33,1,65.9999979858399,8|2,0:1|0:0,0:0:0:0:
445,103,30085,5,4,1:0:0:0:
354,111,30241,1,4,0:3:0:0:
262,118,30397,1,4,0:3:0:0:
262,118,31335,5,4,0:1:0:0:
354,111,31491,1,4,0:3:0:0:
445,103,31647,1,4,0:3:0:0:
445,103,32272,1,0,3:0:0:0:
390,23,32428,1,0,3:0:0:0:
347,242,32585,6,0,L|354:100,1,131.99999597168,4|8,0:1|0:1,0:0:0:0:
444,201,33053,2,0,L|450:332,1,131.99999597168,4|4,0:3|0:3,0:0:0:0:
347,242,33522,1,8,0:1:0:0:
450,332,33678,1,2,0:0:0:0:
234,349,33835,6,0,P|295:325|370:359,1,131.99999597168,4|8,0:3|0:1,0:0:0:0:
240,236,34303,2,0,L|149:241,1,65.9999979858399,4|0,0:3|0:0,0:0:0:0:
39,326,34616,1,4,0:3:0:0:
76,173,34772,1,8,0:1:0:0:
137,346,34928,5,2,0:3:0:0:
76,173,36335,6,0,B|58:70|58:70|89:10,1,153.999995300293,4|8,1:0|0:1,0:0:0:0:
323,116,36803,2,0,L|158:102,1,153.999995300293,4|4,1:3|1:3,0:0:0:0:
159,94,37194,1,0,0:0:0:0:
147,85,37272,1,8,1:0:0:0:
236,201,37428,1,0,0:0:0:0:
266,18,37585,5,4,1:3:0:0:
323,116,37741,1,0,0:0:0:0:
373,17,37897,1,4,1:3:0:0:
435,180,38053,2,0,L|421:86,1,76.9999976501466,4|0,0:3|0:0,0:0:0:0:
339,232,38366,1,0,0:3:0:0:
423,103,38522,1,8,1:1:0:0:
511,242,38678,1,0,0:0:0:0:
334,367,38835,6,0,P|367:300|338:231,1,153.999995300293,4|8,1:3|1:0,0:0:0:0:
108,300,39303,2,0,L|268:287,1,153.999995300293,2|4,1:3|1:3,0:0:0:0:
274,292,39694,1,0,0:0:0:0:
287,298,39772,1,8,1:0:0:0:
176,185,39928,1,0,0:0:0:0:
104,376,40085,6,0,L|108:280,1,76.9999976501466,4|0,1:3|0:0,0:0:0:0:
13,199,40397,1,8,1:0:0:0:
24,329,40553,1,0,0:0:0:0:
94,151,40710,1,4,3:0:0:0:
107,299,40866,1,4,1:3:0:0:
252,179,41022,2,0,L|168:185,1,76.9999976501466,8|0,1:0|0:0,0:0:0:0:
323,117,41335,6,0,P|347:159|338:207,1,76.9999976501466,4|0,1:3|0:0,0:0:0:0:
227,72,41647,1,8,1:0:0:0:
376,37,41803,1,4,1:3:0:0:
227,72,41960,2,0,L|150:66,1,76.9999976501466,0|4,3:3|1:3,0:0:0:0:
139,59,42194,1,0,0:0:0:0:
130,52,42272,1,8,1:0:0:0:
175,184,42428,1,0,3:0:0:0:
33,30,42585,6,0,L|43:187,1,153.999995300293,4|8,1:3|1:0,0:0:0:0:
134,300,43053,1,4,0:3:0:0:
42,183,43210,1,0,3:0:0:0:
13,332,43366,1,2,3:0:0:0:
175,184,43522,2,0,L|252:179,1,76.9999976501466,8|0,1:0|3:0,0:0:0:0:
268,187,43756,1,0,0:0:0:0:
280,198,43835,6,0,P|245:132|286:62,1,153.999995300293,4|8,1:3|1:0,0:0:0:0:
371,214,44303,1,4,1:3:0:0:
490,130,44460,2,0,L|336:128,1,153.999995300293,0|8,3:0|1:0,0:0:0:0:
366,252,44928,2,0,L|372:200,1,38.4999988250733,0|0,3:0|0:0,0:0:0:0:
490,130,45085,6,0,P|474:164|477:202,1,76.9999976501466,4|0,1:3|0:0,0:0:0:0:
479,359,45397,1,8,1:0:0:0:
366,252,45553,1,4,1:3:0:0:
238,363,45710,2,0,L|337:352,1,76.9999976501466,0|4,3:0|0:3,0:0:0:0:
136,297,46022,5,8,1:0:0:0:
238,363,46178,1,0,3:0:0:0:
136,297,47272,6,0,P|150:257|132:203,1,82.5,2|0,0:0|0:0,0:0:0:0:
70,252,47585,5,6,0:0:0:0:
295,371,58210,6,0,P|346:344|212:295,1,341,4|0,1:0|0:0,0:0:0:0:
289,294,60710,6,0,L|442:282,1,132,4|0,0:0|0:0,0:0:0:0:
438,273,61022,1,0,0:0:0:0:
493,373,61178,1,0,0:0:0:0:
444,185,61335,2,0,L|437:278,1,88,8|0,0:0|0:0,0:0:0:0:
443,282,61569,1,0,0:0:0:0:
449,291,61647,1,2,0:0:0:0:
504,123,61803,6,0,P|458:100|406:111,1,88,0|2,0:0|0:0,0:0:0:0:
356,193,62116,2,0,L|457:183,1,88,0|2,0:0|0:0,0:0:0:0:
293,117,62428,1,0,0:0:0:0:
288,269,62585,2,0,P|253:200|311:105,1,176,8|2,0:0|0:0,0:0:0:0:
292,116,63210,6,0,L|139:126,1,132,4|0,0:0|0:0,0:0:0:0:
146,117,63522,1,0,0:0:0:0:
77,217,63678,1,0,0:0:0:0:
134,29,63835,2,0,L|147:130,1,88,8|0,0:0|0:0,0:0:0:0:
140,125,64069,1,0,0:0:0:0:
134,135,64147,1,2,0:0:0:0:
127,295,64303,6,0,P|163:242|150:192,1,88,0|2,0:0|0:0,0:0:0:0:
245,315,64616,2,0,L|342:307,1,88,0|2,0:0|0:0,0:0:0:0:
411,364,64928,1,0,0:0:0:0:
363,223,65085,2,0,P|424:280|406:371,1,176,6|2,0:0|0:0,0:0:0:0:
363,223,65710,6,0,P|383:164|300:87,1,165,4|0,1:0|0:0,0:0:0:0:
373,95,66022,6,0,L|431:88,1,55,2|0,0:0|0:0,0:0:0:0:
287,171,66335,6,0,L|120:163,1,165,4|0,1:0|0:0,0:0:0:0:
155,187,66647,6,0,P|169:228|161:263,1,55,2|0,0:0|0:0,0:0:0:0:
5,354,66960,6,0,P|105:321|177:361,1,165,4|0,1:0|0:0,0:0:0:0:
85,292,67272,6,0,L|89:231,1,55,2|0,0:0|0:0,0:0:0:0:
268,292,67585,6,0,L|442:284,1,165,4|0,1:0|0:0,0:0:0:0:
363,323,67897,6,0,P|357:350|370:395,1,55,2|0,0:0|0:0,0:0:0:0:
497,202,68210,5,0,1:0:0:0:
490,365,68366,1,0,1:0:0:0:
396,151,68522,5,0,1:0:0:0:
432,284,68678,1,0,1:0:0:0:
287,109,68835,5,0,1:0:0:0:
335,234,68991,1,0,1:0:0:0:
196,71,69147,5,0,1:0:0:0:
238,200,69303,1,0,1:0:0:0:
115,152,69460,6,0,L|153:150,1,33,2|0,1:2|0:0,0:0:0:0:
88,311,69772,6,0,P|136:286|8:245,1,330,6|2,1:0|0:2,0:0:0:0:
81,238,71022,1,2,0:0:0:0:
81,238,71335,1,2,0:0:0:0:
249,348,71647,6,0,B|360:288|347:407|472:318,1,197.99999395752,2|0,1:0|0:0,0:0:0:0:
492,260,71960,6,0,B|510:202|510:202|487:134,1,110,4|0,1:0|0:0,0:0:0:0:
345,64,72272,1,8,1:0:0:0:
390,245,72428,1,0,1:0:0:0:
441,34,72585,1,2,0:0:0:0:
340,216,72741,1,4,1:3:0:0:
366,230,72819,1,2,0:0:0:0:
390,245,72897,1,8,1:0:0:0:
345,64,73053,6,0,L|221:72,1,110,2|4,0:0|1:3,0:0:0:0:
104,200,73366,1,2,0:0:0:0:
142,19,73522,1,8,0:1:0:0:
217,249,73678,1,6,1:3:0:0:
32,11,73835,2,0,L|156:19,1,110,2|4,0:0|1:3,0:0:0:0:
345,64,74147,1,8,1:0:0:0:
98,103,74303,1,0,0:0:0:0:
282,313,74460,6,0,P|306:241|283:197,1,110,0|0,1:0|0:0,0:0:0:0:
99,372,74772,1,8,1:0:0:0:
193,141,74928,1,4,1:3:0:0:
391,326,75085,2,0,L|266:311,1,110,2|4,0:0|1:3,0:0:0:0:
438,127,75397,1,8,1:0:0:0:
500,312,75553,6,0,L|390:325,1,110,0|4,0:0|1:3,0:0:0:0:
309,196,75866,1,2,0:0:0:0:
438,127,76022,1,8,1:0:0:0:
390,325,76178,1,4,1:3:0:0:
110,144,76335,2,0,P|171:163|230:133,1,110,2|4,0:0|1:3,0:0:0:0:
30,197,76647,2,0,L|39:275,1,55,12|0,1:0|0:0,0:0:0:0:
63,370,76803,1,4,1:3:0:0:
79,353,76882,1,0,1:3:0:0:
95,335,76960,6,0,B|192:287|170:385|275:318,1,165,4|0,1:0|0:0,0:0:0:0:
213,149,77272,2,0,P|195:200|225:256,1,110,8|4,1:0|1:3,0:0:0:0:
322,87,77585,1,0,3:0:0:0:
300,337,77741,1,4,1:3:0:0:
275,334,77819,1,2,0:0:0:0:
251,331,77897,1,8,1:0:0:0:
322,87,78053,6,0,L|308:208,1,110,2|4,0:0|1:3,0:0:0:0:
479,41,78366,1,2,0:0:0:0:
448,241,78522,1,8,1:0:0:0:
386,6,78678,1,4,1:3:0:0:
213,149,78835,2,0,P|168:133|95:162,1,110,2|4,0:0|3:0,0:0:0:0:
300,337,79147,1,8,1:0:0:0:
322,87,79303,1,4,3:0:0:0:
171,340,79460,6,0,L|157:197,1,110,4|0,1:3|0:0,0:0:0:0:
26,60,79772,1,8,1:0:0:0:
72,289,79928,1,4,1:3:0:0:
119,40,80085,1,0,3:0:0:0:
24,254,80241,1,2,1:3:0:0:
52,271,80319,1,2,0:0:0:0:
72,289,80397,1,8,1:0:0:0:
213,149,80553,1,0,3:0:0:0:
409,344,80710,6,0,L|295:336,1,110,4|0,1:3|3:0,0:0:0:0:
92,377,81022,1,8,1:0:0:0:
305,239,81178,1,4,1:3:0:0:
38,154,81335,5,2,1:3:0:0:
200,377,81491,1,0,1:0:0:0:
299,102,81647,1,8,1:0:0:0:
72,289,81803,1,4,0:3:0:0:
93,263,81881,1,4,0:3:0:0:
75,230,81960,6,0,P|121:175|60:70,1,197.99999395752,4|0,1:0|0:0,0:0:0:0:
193,99,82272,6,0,B|249:85|249:85|312:106,1,110,8|4,1:0|1:3,0:0:0:0:
421,327,82585,1,0,3:0:0:0:
484,108,82741,1,4,1:3:0:0:
476,134,82819,1,2,0:0:0:0:
467,160,82897,1,8,1:0:0:0:
340,364,83053,6,0,P|326:305|370:249,1,110,2|4,0:0|1:3,0:0:0:0:
484,108,83366,1,0,3:0:0:0:
421,327,83522,1,8,1:0:0:0:
393,65,83678,1,4,1:3:0:0:
238,269,83835,2,0,L|378:262,1,110,2|4,0:0|1:3,0:0:0:0:
152,139,84147,1,8,1:0:0:0:
348,263,84303,1,0,0:0:0:0:
195,53,84460,6,0,P|128:44|75:81,1,110,6|0,1:3|0:0,0:0:0:0:
47,280,84772,1,8,1:0:0:0:
91,62,84928,1,4,1:3:0:0:
161,298,85085,1,0,3:0:0:0:
31,68,85241,1,4,1:3:0:0:
64,64,85319,1,2,0:0:0:0:
91,62,85397,1,8,1:0:0:0:
263,161,85553,1,2,0:0:0:0:
403,11,85710,6,0,L|391:139,1,110,4|2,1:3|0:0,0:0:0:0:
388,307,86022,1,8,1:1:0:0:
300,70,86178,1,4,1:3:0:0:
273,270,86335,2,0,L|262:160,1,110,0|0,1:3|0:0,0:0:0:0:
106,301,86647,2,0,L|164:297,1,55,8|0,1:0|0:0,0:0:0:0:
212,377,86803,1,4,1:3:0:0:
236,356,86881,1,4,1:3:0:0:
266,357,86960,2,0,P|207:330|200:218,1,165,4|0,1:0|0:0,0:0:0:0:
382,275,87272,6,0,L|253:268,1,110,8|4,1:0|1:3,0:0:0:0:
110,79,87585,1,0,3:0:0:0:
272,269,87741,1,4,1:3:0:0:
281,242,87819,1,0,0:0:0:0:
290,213,87897,1,8,1:0:0:0:
224,24,88053,1,0,1:3:0:0:
79,247,88210,6,0,L|188:238,1,110,4|0,1:3|3:0,0:0:0:0:
333,59,88522,1,8,1:1:0:0:
188,238,88678,1,4,1:3:0:0:
412,118,88835,2,0,P|434:54|410:3,1,110,0|4,3:0|1:3,0:0:0:0:
290,213,89147,1,12,1:2:0:0:
224,24,89303,1,4,1:3:0:0:
210,13,89381,1,4,1:3:0:0:
196,3,89460,5,4,1:0:0:0:
188,238,89616,1,0,3:0:0:0:
0,70,89772,2,0,L|132:80,1,110,8|2,1:0|0:0,0:0:0:0:
290,213,90085,5,4,1:0:0:0:
109,78,90241,1,4,1:3:0:0:
78,246,90397,2,0,L|187:237,1,110,8|0,1:0|3:0,0:0:0:0:
450,310,90710,5,4,1:0:0:0:
394,381,90866,1,4,1:3:0:0:
290,213,91022,5,12,1:0:0:0:
346,284,91178,1,4,1:3:0:0:
440,117,91335,5,12,1:0:0:0:
384,188,91491,1,4,1:3:0:0:
296,24,91647,5,12,1:0:0:0:
352,95,91803,1,4,1:3:0:0:
188,238,91960,5,12,1:0:0:0:
256,192,92038,12,0,94460,0:0:0:0:
43,341,99460,5,4,1:0:0:0:
118,288,99772,1,0,1:0:0:0:
209,298,100085,1,4,1:0:0:0:
280,356,100397,1,0,1:0:0:0:
43,341,100710,5,4,1:0:0:0:
131,380,100866,1,4,3:3:0:0:
167,213,101022,5,4,3:3:0:0:
118,288,101178,1,4,3:3:0:0:
66,137,101335,6,0,L|77:204,1,44,4|4,1:0|2:3,0:0:0:0:
169,72,101491,2,0,L|161:115,1,44,4|4,2:3|2:3,0:0:0:0:
58,93,101647,2,0,L|69:160,1,44,4|4,2:3|2:3,0:0:0:0:
176,28,101803,2,0,L|168:71,1,44,4|4,2:3|2:3,0:0:0:0:
167,213,101960,6,0,P|216:192|277:213,2,110,2|2|2,2:0|0:0|0:0,0:0:0:0:
268,206,102897,2,0,P|300:202|345:213,1,55,2|0,0:0|0:0,0:0:0:0:
401,366,103210,6,0,B|381:265|381:265|419:202,1,153.999995300293,4|8,1:0|1:0,0:0:0:0:
401,366,103678,2,0,L|231:348,1,153.999995300293,4|4,1:3|1:3,0:0:0:0:
230,353,104069,1,2,0:0:0:0:
217,353,104147,1,8,1:0:0:0:
125,220,104303,1,0,0:0:0:0:
115,381,104460,5,4,1:3:0:0:
227,252,104616,1,0,3:0:0:0:
38,314,104772,1,8,1:0:0:0:
125,220,104928,2,0,P|146:165|80:81,1,153.999995300293,4|2,1:3|0:0,0:0:0:0:
11,227,105397,1,8,1:0:0:0:
100,88,105553,1,0,3:0:0:0:
226,253,105710,6,0,L|382:246,1,153.999995300293,4|8,1:3|1:0,0:0:0:0:
446,157,106178,2,0,L|292:150,1,153.999995300293,4|4,1:3|1:3,0:0:0:0:
226,253,106647,1,8,1:0:0:0:
292,150,106803,1,0,3:3:0:0:
379,246,106960,6,0,L|374:335,1,76.9999976501466,4|0,1:3|0:0,0:0:0:0:
292,150,107272,2,0,L|287:73,1,76.9999976501466,8|4,1:0|1:3,0:0:0:0:
226,253,107585,2,0,L|221:342,1,76.9999976501466,2|6,3:0|1:3,0:0:0:0:
131,172,107897,1,8,1:0:0:0:
292,150,108053,1,0,0:0:0:0:
98,262,108210,6,0,P|46:216|63:113,1,153.999995300293,4|8,1:3|1:0,0:0:0:0:
142,18,108678,2,0,L|130:183,1,153.999995300293,4|4,1:3|1:3,0:0:0:0:
226,253,109147,1,8,1:0:0:0:
130,171,109303,1,0,3:0:0:0:
188,370,109460,5,6,1:3:0:0:
257,253,109616,1,0,3:0:0:0:
240,254,109694,1,2,0:0:0:0:
226,253,109772,1,8,1:0:0:0:
345,286,109928,2,0,P|353:256|336:204,1,76.9999976501466,4|0,3:0|3:0,0:0:0:0:
277,358,110241,1,4,1:3:0:0:
218,176,110397,2,0,L|227:268,1,76.9999976501466,8|0,1:0|3:0,0:0:0:0:
379,69,110710,6,0,L|246:75,1,115.49999647522,4|0,1:3|0:0,0:0:0:0:
246,57,111022,1,8,1:0:0:0:
102,170,111178,2,0,L|235:176,1,115.49999647522,4|0,1:3|0:0,0:0:0:0:
235,158,111490,1,4,1:3:0:0:
96,93,111647,2,0,L|103:198,1,76.9999976501466,8|0,1:0|3:0,0:0:0:0:
41,315,111960,5,0,1:3:0:0:
108,263,112116,1,0,1:3:0:0:
192,264,112272,1,8,1:0:0:0:
247,327,112428,1,0,1:3:0:0:
361,231,112585,2,0,L|267:238,1,76.9999976501466,0|0,1:3|0:0,0:0:0:0:
397,352,112897,2,0,L|491:359,1,76.9999976501466,0|0,1:3|0:0,0:0:0:0:
361,231,113210,6,0,P|337:190|368:105,1,131.99999597168,8|8,3:0|3:0,0:0:0:0:
358,112,113835,2,0,P|334:172|361:231,1,131.99999597168,8|8,3:0|3:0,0:0:0:0:
361,231,114460,5,8,0:3:0:0:
439,168,114616,1,8,0:3:0:0:
358,112,114772,1,8,0:3:0:0:
244,241,114928,2,0,P|303:209|372:244,1,131.99999597168,12|0,0:3|0:0,0:0:0:0:
201,145,115397,2,0,L|120:152,1,65.9999979858399,2|0,0:0|0:0,0:0:0:0:
69,283,115710,6,0,L|13:275,4,32.99999899292,4|4|4|4|4,1:3|1:3|1:3|1:3|1:3,0:0:0:0:
131,367,116022,6,0,L|160:363,8,20.6250007867813,2|2|2|2|2|2|2|2|2,1:3|1:3|1:3|1:3|1:3|1:3|1:3|1:3|1:3,0:0:0:0:
236,287,116335,6,0,L|157:271,3,65.9999979858399,4|4|4|4,1:3|1:3|1:3|1:3,0:0:0:0:
267,372,116647,2,0,L|347:357,3,65.9999979858399,4|4|4|4,1:3|1:3|1:3|1:3,0:0:0:0:
375,283,116960,6,0,P|419:334|406:395,2,110,2|2|2,0:0|0:0|0:0,0:0:0:0:
375,283,117897,6,0,P|426:237|363:118,1,197.99999395752,4|0,0:1|0:0,0:0:0:0:
352,201,118210,6,0,B|253:215|253:215|190:183,1,153.999995300293,4|8,0:1|0:1,0:0:0:0:
102,96,118678,2,0,L|279:106,1,153.999995300293,4|4,0:3|0:3,0:0:0:0:
266,99,119069,1,0,0:0:0:0:
277,92,119147,1,8,0:1:0:0:
204,190,119303,6,0,L|209:281,1,76.9999976501466,2|4,0:0|1:3,0:0:0:0:
89,369,119616,1,2,3:0:0:0:
109,220,119772,1,8,0:1:0:0:
196,370,119928,1,4,0:3:0:0:
33,232,120085,2,0,L|116:218,1,76.9999976501466,0|4,3:0|0:3,0:0:0:0:
187,36,120397,1,8,0:1:0:0:
203,189,120553,1,0,3:0:0:0:
187,36,120710,6,0,L|205:201,1,153.999995300293,4|8,0:3|0:1,0:0:0:0:
296,292,121178,2,0,L|312:138,1,153.999995300293,4|4,0:3|0:3,0:0:0:0:
399,23,121647,1,8,0:1:0:0:
311,138,121803,6,0,L|408:135,1,76.9999976501466,2|4,0:0|0:3,0:0:0:0:
507,213,122116,1,0,3:0:0:0:
485,66,122272,1,8,0:1:0:0:
410,225,122428,1,4,0:3:0:0:
399,23,122585,1,0,0:0:0:0:
311,138,122741,1,4,0:3:0:0:
207,24,122897,2,0,L|312:15,1,76.9999976501466,8|0,0:1|3:0,0:0:0:0:
131,203,123210,5,4,1:0:0:0:
124,111,123366,1,4,0:3:0:0:
116,20,123522,1,4,0:3:0:0:
116,20,124460,5,4,1:0:0:0:
124,111,124616,1,4,0:3:0:0:
131,203,124772,1,4,1:0:0:0:
131,203,125397,1,4,1:3:0:0:
34,161,125553,1,0,3:0:0:0:
277,117,125710,6,0,L|101:109,1,153.999995300293,4|8,1:1|1:0,0:0:0:0:
227,218,126178,2,0,L|403:210,1,153.999995300293,4|4,0:3|0:3,0:0:0:0:
466,103,126647,1,8,0:1:0:0:
380,211,126803,1,2,0:0:0:0:
456,26,126960,6,0,L|467:113,1,76.9999976501466,4|2,1:3|0:0,0:0:0:0:
370,287,127272,2,0,L|379:210,1,76.9999976501466,8|4,1:0|0:3,0:0:0:0:
456,26,127585,1,0,3:0:0:0:
277,117,127741,1,4,0:3:0:0:
335,10,127897,1,8,0:1:0:0:
238,21,128053,5,0,3:0:0:0:
467,195,129147,6,0,P|488:229|488:270,1,82.5,4|0,0:0|0:0,0:0:0:0:
411,251,129460,5,2,0:0:0:0:
83,356,138835,6,0,L|94:210,1,132,4|0,1:0|0:0,0:0:0:0:
103,210,139147,1,0,0:0:0:0:
183,304,139303,1,2,0:0:0:0:
103,210,139460,2,0,L|212:205,1,88,8|2,0:0|0:0,0:0:0:0:
203,203,139694,1,0,0:0:0:0:
213,195,139772,1,2,0:0:0:0:
260,351,139928,6,0,P|272:299|258:258,1,88,2|0,0:0|0:0,0:0:0:0:
210,115,140241,2,0,L|201:222,1,88,0|2,0:0|0:0,0:0:0:0:
183,304,140553,1,0,0:0:0:0:
412,357,140710,2,0,P|337:316|259:350,1,176,2|2,0:0|3:0,0:0:0:0:
412,357,141335,6,0,L|419:201,1,132,4|0,1:0|0:0,0:0:0:0:
406,209,141647,1,0,0:0:0:0:
507,293,141803,1,0,0:0:0:0:
406,209,141960,2,0,L|294:220,1,88,10|2,0:0|0:0,0:0:0:0:
304,210,142194,1,0,0:0:0:0:
294,199,142272,1,0,0:0:0:0:
447,133,142428,6,0,P|485:165|490:225,1,88,2|0,0:0|0:0,0:0:0:0:
357,126,142741,2,0,L|363:10,1,88,0|2,0:0|0:0,0:0:0:0:
248,105,143053,1,2,0:0:0:0:
99,99,143210,2,0,P|193:140|259:84,1,176,0|10,0:0|3:0,0:0:0:0:
99,99,143835,6,0,P|124:174|85:244,1,165,4|0,1:1|0:0,0:0:0:0:
148,221,144147,6,0,L|220:217,1,55,2|0,0:0|0:0,0:0:0:0:
371,317,144460,6,0,L|169:304,1,165,4|0,1:0|0:0,0:0:0:0:
278,274,144772,6,0,P|293:238|289:205,1,55,2|0,0:0|0:0,0:0:0:0:
404,78,145085,6,0,P|373:144|419:236,1,165,4|0,1:0|0:0,0:0:0:0:
334,140,145397,6,0,L|258:137,1,55,2|0,0:0|0:0,0:0:0:0:
156,5,145710,6,0,L|165:200,1,165,4|0,1:0|0:0,0:0:0:0:
118,87,146022,6,0,P|81:79|48:90,1,55,2|0,0:0|0:0,0:0:0:0:
91,290,146335,5,0,1:3:0:0:
163,169,146491,1,0,1:3:0:0:
220,353,146647,5,0,1:3:0:0:
239,217,146803,1,0,1:3:0:0:
363,330,146960,5,0,1:3:0:0:
327,196,147116,1,0,1:3:0:0:
480,237,147272,5,0,1:3:0:0:
380,122,147428,1,0,1:3:0:0:
363,330,147585,6,0,L|325:326,1,33,4|0,1:3|0:0,0:0:0:0:
480,237,147897,6,0,P|405:200|446:339,1,330,4|2,1:1|3:2,0:0:0:0:
417,272,149147,1,2,3:2:0:0:
417,272,149460,1,2,3:2:0:0:
163,169,149772,6,0,B|96:96|151:27|151:27|209:76,1,197.99999395752,6|0,1:0|0:0,0:0:0:0:
222,228,150085,6,0,P|172:255|108:232,1,110,4|0,1:1|0:0,0:0:0:0:
342,92,150397,1,8,1:0:0:0:
417,272,150553,1,4,1:3:0:0:
455,59,150710,1,0,3:0:0:0:
344,265,150866,1,4,1:3:0:0:
378,268,150944,1,2,0:0:0:0:
417,272,151022,1,8,1:0:0:0:
234,337,151178,6,0,L|221:227,1,110,2|4,0:0|1:3,0:0:0:0:
49,363,151491,1,0,3:0:0:0:
163,169,151647,1,8,1:0:0:0:
159,379,151803,1,4,1:3:0:0:
263,157,151960,2,0,P|210:144|162:168,1,110,0|0,1:0|3:0,0:0:0:0:
417,272,152272,1,8,1:0:0:0:
342,92,152428,1,0,0:0:0:0:
359,335,152585,6,0,P|430:359|476:335,1,110,4|0,1:0|0:0,0:0:0:0:
506,98,152897,1,8,1:0:0:0:
417,272,153053,1,4,1:3:0:0:
425,21,153210,1,0,3:0:0:0:
312,248,153366,1,0,1:3:0:0:
287,252,153444,1,2,0:0:0:0:
266,257,153522,1,8,1:0:0:0:
104,133,153678,1,2,0:0:0:0:
153,361,153835,6,0,L|164:242,1,110,4|0,1:3|3:0,0:0:0:0:
265,33,154147,1,8,1:0:0:0:
266,257,154303,1,4,1:3:0:0:
38,75,154460,2,0,P|84:46|137:52,1,110,2|4,3:2|1:3,0:0:0:0:
269,202,154772,2,0,L|265:272,1,55,12|0,1:0|0:0,0:0:0:0:
193,153,154928,1,4,0:3:0:0:
216,117,155006,1,4,0:3:0:0:
261,115,155085,6,0,B|363:95|313:193|451:142,1,165,4|0,1:0|0:0,0:0:0:0:
504,262,155397,2,0,P|433:240|393:257,1,110,8|4,1:0|1:3,0:0:0:0:
274,366,155710,1,0,3:0:0:0:
412,153,155866,1,4,1:3:0:0:
399,134,155944,1,2,0:0:0:0:
387,116,156022,1,8,1:0:0:0:
156,265,156178,6,0,L|271:256,1,110,2|4,0:0|1:3,0:0:0:0:
26,144,156491,1,0,3:0:0:0:
67,340,156647,1,8,1:0:0:0:
136,129,156803,1,4,1:3:0:0:
176,364,156960,2,0,P|179:296|137:253,1,110,0|4,3:0|1:3,0:0:0:0:
245,67,157272,1,8,1:0:0:0:
155,264,157428,1,4,1:3:0:0:
354,54,157585,6,0,L|220:69,1,110,6|0,1:3|0:0,0:0:0:0:
499,204,157897,1,8,1:0:0:0:
458,12,158053,1,4,1:3:0:0:
414,246,158210,1,2,0:0:0:0:
244,66,158366,1,4,1:3:0:0:
512,102,158522,1,8,1:0:0:0:
280,268,158678,1,2,3:2:0:0:
176,12,158835,6,0,P|153:61|169:112,1,110,4|0,1:3|3:0,0:0:0:0:
338,195,159147,1,8,1:0:0:0:
244,66,159303,1,4,1:3:0:0:
177,289,159460,5,6,1:3:0:0:
354,54,159616,1,2,3:0:0:0:
414,246,159772,1,8,1:0:0:0:
169,112,159928,1,4,1:3:0:0:
139,100,160006,1,4,1:3:0:0:
101,108,160085,6,0,P|136:202|26:258,1,197.99999395752,4|0,1:0|0:0,0:0:0:0:
177,289,160397,6,0,B|231:270|231:270|295:288,1,110,8|6,1:0|1:3,0:0:0:0:
48,369,160710,1,0,3:0:0:0:
281,284,160866,1,4,1:3:0:0:
52,173,161022,1,8,1:0:0:0:
170,384,161178,6,0,L|302:379,1,110,2|4,0:0|1:3,0:0:0:0:
442,178,161491,1,0,3:0:0:0:
371,372,161647,1,8,1:0:0:0:
329,165,161803,1,4,1:3:0:0:
480,376,161960,2,0,L|348:371,1,110,0|4,3:0|1:3,0:0:0:0:
177,289,162272,1,8,1:0:0:0:
370,371,162428,1,0,0:0:0:0:
258,105,162585,6,0,P|231:151|243:204,1,110,6|0,1:3|0:0,0:0:0:0:
365,17,162897,1,8,1:0:0:0:
442,178,163053,1,4,1:3:0:0:
268,7,163210,1,0,3:0:0:0:
472,133,163366,1,4,1:3:0:0:
456,155,163444,1,0,0:0:0:0:
442,178,163522,1,8,1:0:0:0:
469,15,163678,1,2,0:0:0:0:
429,281,163835,6,0,B|454:223|454:223|439:167,1,110,4|0,1:3|3:0,0:0:0:0:
258,105,164147,1,8,1:0:0:0:
317,316,164303,1,4,1:3:0:0:
367,101,164460,2,0,L|241:105,1,110,2|2,3:2|1:3,0:0:0:0:
172,314,164772,2,0,P|187:279|187:244,1,55,8|0,1:0|0:0,0:0:0:0:
104,134,164928,1,4,1:3:0:0:
131,142,165006,1,4,1:3:0:0:
154,149,165085,6,0,L|175:345,1,165,4|0,1:0|0:0,0:0:0:0:
56,360,165397,2,0,L|71:233,1,110,8|4,1:0|1:3,0:0:0:0:
257,104,165710,1,0,3:0:0:0:
237,317,165866,1,4,1:3:0:0:
204,315,165944,1,0,0:0:0:0:
171,313,166022,1,8,1:0:0:0:
380,137,166178,1,4,1:3:0:0:
298,389,166335,6,0,P|335:316|318:265,1,110,4|0,1:3|3:0,0:0:0:0:
154,149,166647,1,8,1:0:0:0:
237,317,166803,1,4,1:3:0:0:
380,137,166960,2,0,L|369:11,1,110,0|4,3:0|1:3,0:0:0:0:
228,214,167272,1,12,1:2:0:0:
370,27,167428,1,4,1:3:0:0:
391,31,167506,1,4,1:3:0:0:
417,37,167585,5,4,1:0:0:0:
493,181,167741,1,4,1:3:0:0:
260,40,167897,2,0,L|378:25,1,110,8|0,1:0|3:0,0:0:0:0:
228,214,168210,5,4,1:1:0:0:
111,75,168366,1,4,1:3:0:0:
102,102,168444,1,2,0:0:0:0:
95,131,168522,1,8,1:1:0:0:
260,40,168678,1,0,3:0:0:0:
106,249,168834,5,4,1:0:0:0:
118,45,168991,1,4,1:3:0:0:
336,167,169147,5,8,1:0:0:0:
95,131,169303,1,0,1:3:0:0:
68,129,169381,1,0,0:0:0:0:
39,128,169460,5,8,1:0:0:0:
171,312,169616,1,4,1:3:0:0:
206,309,169694,1,0,0:0:0:0:
243,308,169772,5,8,1:0:0:0:
411,172,169928,1,4,1:3:0:0:
374,168,170006,1,4,1:3:0:0:
336,167,170085,6,0,L|331:325,1,153.999995300293,4|2,0:0|0:0,0:0:0:0:
331,320,170710,1,2,0:0:0:0:
439,279,171022,1,2,0:0:0:0:
416,369,171335,5,2,0:0:0:0:
337,174,171647,1,2,0:0:0:0:
250,206,171960,1,2,0:0:0:0:
261,114,172272,6,0,L|265:97,12,9.62499970626832,2|0|0|0|0|0|0|0|0|0|0|0|0,0:0|0:0|0:0|0:0|0:0|0:0|0:0|0:0|0:0|0:0|0:0|0:0|0:0,0:0:0:0:
250,206,172585,6,0,P|182:174|114:206,1,153.999995300293,2|2,0:0|0:0,0:0:0:0:
114,205,173210,2,0,L|124:117,1,76.9999976501466,4|0,0:0|0:0,0:0:0:0:
29,63,173444,2,0,L|41:135,1,38.4999988250733,4|0,0:0|0:0,0:0:0:0:
25,188,173600,2,0,L|20:226,1,38.4999988250733,4|0,0:0|0:0,0:0:0:0:
122,35,173835,5,8,0:3:0:0:
114,205,174147,1,8,0:3:0:0:
263,104,174460,1,6,0:0:0:0:
252,244,174772,2,0,L|249:188,1,38.4999988250733,2|0,0:0|0:0,0:0:0:0:
265,65,174928,2,0,L|262:103,1,38.4999988250733,2|0,0:0|0:0,0:0:0:0:
387,244,175085,6,0,P|319:212|251:244,1,153.999995300293,2|0,0:0|0:0,0:0:0:0:
251,243,175710,1,2,0:0:0:0:
322,301,176022,1,2,0:0:0:0:
387,244,176335,5,2,0:0:0:0:
265,65,176647,1,2,0:0:0:0:
336,7,176959,1,2,0:0:0:0:
401,64,177272,1,2,0:0:0:0:
335,127,177585,6,0,L|334:142,28,9.62499970626832,2|2|2|2|2|2|2|2|2|2|2|2|2|2|2|2|2|2|2|2|2|2|2|2|2|2|2|2|0,0:0|0:0|0:0|0:0|0:0|0:0|0:0|0:0|0:0|0:0|0:0|0:0|0:0|0:0|0:0|0:0|0:0|0:0|0:0|0:0|0:0|0:0|0:0|0:0|0:0|0:0|0:0|0:0|0:0,0:0:0:0:
265,65,178210,2,0,L|211:78,1,38.4999988250733,4|0,0:0|0:0,0:0:0:0:
175,145,178366,2,0,L|137:135,1,38.4999988250733,0|4,0:0|0:0,0:0:0:0:
91,63,178522,2,0,L|37:76,1,38.4999988250733,0|4,0:0|0:0,0:0:0:0:
12,156,178678,1,0,0:0:0:0:
175,145,178835,5,12,0:3:0:0:
107,227,179147,1,12,0:3:0:0:
187,313,179460,2,0,L|290:306,1,76.9999976501466,6|0,0:0|0:0,0:0:0:0:
357,259,179772,2,0,L|405:273,1,38.4999988250733,2|0,0:0|0:0,0:0:0:0:
424,363,179928,2,0,L|460:352,1,38.4999988250733,2|0,0:0|0:0,0:0:0:0:
501,246,180085,5,4,1:1:0:0:
256,192,180163,12,0,185085,0:0:0:0:
147,55,190085,6,0,L|139:173,1,88,4|0,1:0|0:0,0:0:0:0:
256,273,190397,1,2,0:0:0:0:
242,150,190553,1,0,3:0:0:0:
167,271,190710,2,0,P|180:323|233:351,1,88,0|0,0:0|3:0,0:0:0:0:
343,262,191022,1,2,0:0:0:0:
321,368,191178,1,2,0:0:0:0:
256,273,191335,6,0,L|375:259,1,88,2|2,0:0|0:0,0:0:0:0:
384,169,191647,1,2,3:2:0:0:
442,304,191803,2,0,P|450:220|383:168,1,176,0|0,3:0|3:0,0:0:0:0:
343,262,192272,1,2,0:0:0:0:
383,168,192428,6,0,L|365:60,1,88,2|2,0:0|3:2,0:0:0:0:
280,12,192741,1,0,0:0:0:0:
233,120,192897,1,2,3:2:0:0:
179,26,193053,1,0,0:0:0:0:
145,126,193210,2,0,L|239:119,1,88,0|2,0:0|0:0,0:0:0:0:
132,219,193522,2,0,L|38:212,1,88,2|2,3:2|0:0,0:0:0:0:
137,337,193835,6,0,P|177:269|145:203,1,132,2|0,3:2|0:0,0:0:0:0:
132,219,194147,1,2,3:2:0:0:
298,343,194303,2,0,P|258:275|290:209,1,132,0|0,3:2|0:0,0:0:0:0:
303,225,194615,1,2,3:2:0:0:
137,337,194772,1,2,3:2:0:0:
303,225,194928,6,0,L|400:232,1,88,2|8,0:0|0:0,0:0:0:0:
496,284,195241,1,0,0:0:0:0:
476,169,195397,1,2,3:2:0:0:
496,284,195553,2,0,P|511:343|492:382,2,88,0|8|2,0:0|0:0|0:0,0:0:0:0:
423,334,196022,1,8,0:0:0:0:
390,231,196178,1,2,0:0:0:0:
247,346,196335,6,0,L|440:332,1,176,10|2,0:0|3:2,0:0:0:0:
291,244,196803,2,0,L|98:230,1,176,0|0,0:0|0:0,0:0:0:0:
20,283,197272,1,8,0:0:0:0:
109,143,197428,6,0,L|115:239,1,88,2|10,0:0|3:2,0:0:0:0:
214,131,197741,1,2,0:0:0:0:
103,55,197897,2,0,L|109:151,1,88,2|0,3:2|0:0,0:0:0:0:
300,147,198210,2,0,P|264:58|172:55,1,176,8|8,0:0|0:0,0:0:0:0:
108,142,198678,1,2,0:0:0:0:
319,274,198835,5,4,1:0:0:0:
381,199,198991,1,4,1:3:0:0:
300,147,199147,1,4,1:3:0:0:
300,147,199460,5,2,0:0:0:0:
300,147,199772,1,2,0:0:0:0:
324,306,200085,5,4,1:0:0:0:
417,193,200241,1,4,1:3:0:0:
295,115,200397,1,4,1:3:0:0:
295,115,200710,5,2,0:0:0:0:
295,115,201022,1,2,0:0:0:0:
333,354,201335,5,4,1:0:0:0:
472,184,201491,1,4,1:3:0:0:
289,67,201647,1,4,1:3:0:0:
289,67,201960,5,2,1:0:0:0:
289,67,202272,1,2,1:0:0:0:
333,354,202585,6,0,L|249:346,1,65.9999979858399,6|0,0:0|0:0,0:0:0:0:
235,263,202897,2,0,L|169:269,1,65.9999979858399,2|0,0:0|0:0,0:0:0:0:
125,348,203210,2,0,L|41:340,2,65.9999979858399,2|0|2,0:0|0:0|0:0,0:0:0:0:
235,263,203678,2,0,L|226:187,1,65.9999979858399,2|0,0:0|0:0,0:0:0:0:
141,174,203991,2,0,L|148:108,1,65.9999979858399,2|0,0:0|0:0,0:0:0:0:
219,36,204303,1,0,0:0:0:0:
278,103,204460,2,0,P|300:79|308:47,2,65.9999979858399,2|0|2,0:0|0:0|0:0,0:0:0:0:
278,103,205085,6,0,L|363:97,1,65.9999979858399,2|0,0:0|0:0,0:0:0:0:
364,184,205397,2,0,L|429:188,1,65.9999979858399,2|0,0:0|0:0,0:0:0:0:
431,100,205710,2,0,L|496:95,2,65.9999979858399,2|0|2,0:0|0:0|0:0,0:0:0:0:
364,184,206178,6,0,L|373:274,1,65.9999979858399,2|0,0:0|0:0,0:0:0:0:
275,263,206491,2,0,L|268:328,1,65.9999979858399,0|0,0:0|0:0,0:0:0:0:
171,199,206803,2,0,L|177:264,1,65.9999979858399,2|0,0:0|0:0,0:0:0:0:
92,323,207116,1,0,0:0:0:0:
105,205,207272,2,0,L|200:195,1,65.9999979858399,0|2,0:0|0:0,0:0:0:0:
364,184,207585,5,4,0:0:0:0:
311,108,207741,1,0,0:0:0:0:
311,108,208053,1,2,3:0:0:0:
275,263,208210,5,8,0:3:0:0:
225,170,208366,1,0,3:0:0:0:
225,170,208678,1,0,3:0:0:0:
420,270,208835,5,8,0:3:0:0:
468,164,208991,1,2,0:0:0:0:
468,164,209303,1,0,3:0:0:0:
354,11,209460,5,8,0:3:0:0:
311,108,209616,1,0,3:0:0:0:
311,108,209928,1,2,3:0:0:0:
158,7,210085,5,0,1:0:0:0:
122,226,210241,1,0,1:0:0:0:
311,108,210397,5,0,1:0:0:0:
61,149,210553,1,0,1:0:0:0:
312,207,210710,5,0,1:0:0:0:
158,7,210866,1,0,1:0:0:0:
217,251,211022,5,0,1:0:0:0:
259,23,211178,1,0,1:0:0:0:
212,218,211335,6,0,L|217:255,1,33,2|0,0:0|0:0,0:0:0:0:
390,347,211647,6,2,P|253:308|391:273,2,385,6|2|0,0:1|0:0|0:1,1:0:0:0:
256,192,213913,12,0,214928,0:0:0:0:
56,101,215085,6,0,L|125:92,1,65.9999979858399,4|0,0:3|0:0,0:0:0:0:
194,39,215397,1,2,0:0:0:0:
170,163,215553,2,0,L|239:154,1,65.9999979858399,2|2,0:0|0:0,0:0:0:0:
308,101,215865,1,4,0:3:0:0:
313,236,216022,1,0,0:0:0:0:
377,167,216178,1,0,0:0:0:0:
339,335,216335,6,0,P|304:292|313:233,1,115.49999647522,0|0,0:0|0:0,0:0:0:0:
494,276,216647,2,0,L|363:270,1,115.49999647522,0|0,0:0|0:0,0:0:0:0:
223,339,216960,2,0,L|351:333,1,115.49999647522,0|0,0:0|0:0,0:0:0:0:
214,151,217272,6,0,B|271:252|167:238|226:344,1,197.99999395752,6|0,1:0|0:0,0:0:0:0:
109,154,217585,6,0,B|161:136|161:136|237:157,1,110,4|0,1:0|0:0,0:0:0:0:
21,248,217897,1,8,1:0:0:0:
78,21,218053,1,4,1:3:0:0:
213,150,218210,1,0,3:0:0:0:
23,28,218366,1,4,1:3:0:0:
51,24,218444,1,2,0:0:0:0:
78,21,218522,1,8,1:0:0:0:
321,169,218678,6,0,L|198:147,1,110,2|4,0:0|1:3,0:0:0:0:
380,38,218991,1,0,3:0:0:0:
470,248,219147,1,8,1:0:0:0:
478,30,219303,1,4,1:3:0:0:
361,267,219460,2,0,L|484:245,1,110,0|4,3:0|1:3,0:0:0:0:
212,149,219772,1,8,1:0:0:0:
469,247,219928,1,0,0:0:0:0:
225,48,220085,6,0,P|200:96|211:148,1,110,4|0,1:3|0:0,0:0:0:0:
361,267,220397,1,8,1:0:0:0:
380,38,220553,1,4,1:3:0:0:
251,253,220710,2,0,L|361:267,1,110,0|4,3:0|1:3,0:0:0:0:
139,342,221022,1,8,1:0:0:0:
99,145,221178,1,2,0:0:0:0:
29,355,221335,6,0,L|154:340,1,110,4|0,1:3|3:0,0:0:0:0:
361,267,221647,1,8,1:0:0:0:
211,148,221803,1,4,1:3:0:0:
433,326,221960,2,0,P|452:265|422:206,1,110,2|4,3:2|1:3,0:0:0:0:
204,93,222272,2,0,L|213:171,1,55,8|0,1:0|0:0,0:0:0:0:
60,270,222428,1,4,1:3:0:0:
76,253,222507,1,4,1:3:0:0:
92,235,222585,6,0,B|189:187|167:285|272:218,1,165,4|0,1:0|0:0,0:0:0:0:
88,135,222897,2,0,P|70:186|100:242,1,110,8|4,1:0|1:3,0:0:0:0:
293,318,223210,1,0,3:0:0:0:
253,99,223366,1,4,1:3:0:0:
228,96,223444,1,2,0:0:0:0:
204,93,223522,1,8,1:0:0:0:
293,318,223678,6,0,L|305:208,1,110,2|4,0:0|1:3,0:0:0:0:
473,51,223991,1,0,3:0:0:0:
401,227,224147,1,8,1:0:0:0:
354,25,224303,1,4,1:3:0:0:
505,227,224460,2,0,P|460:211|387:240,1,110,0|4,3:0|1:3,0:0:0:0:
211,369,224772,1,8,1:0:0:0:
305,208,224928,1,0,0:0:0:0:
72,265,225085,6,0,L|82:374,1,110,4|0,1:3|3:0,0:0:0:0:
187,160,225397,1,8,1:1:0:0:
293,318,225553,1,4,1:3:0:0:
72,265,225710,1,0,3:0:0:0:
341,283,225866,1,4,1:3:0:0:
313,300,225944,1,2,0:0:0:0:
293,318,226022,1,8,1:0:0:0:
288,96,226178,1,2,0:0:0:0:
77,152,226335,6,0,L|186:159,1,110,4|0,1:3|3:0,0:0:0:0:
435,225,226647,1,8,1:0:0:0:
394,51,226803,1,4,1:3:0:0:
341,283,226960,5,4,1:3:0:0:
288,96,227116,1,0,3:0:0:0:
512,158,227272,1,8,1:0:0:0:
404,340,227428,1,4,1:3:0:0:
357,324,227506,1,4,1:3:0:0:
341,283,227585,6,0,B|294:242|294:242|194:233|155:330,1,197.99999395752,4|0,1:0|0:0,0:0:0:0:
172,172,227897,6,0,B|197:121|197:121|177:42,1,110,8|4,1:0|1:3,0:0:0:0:
29,263,228210,1,0,3:0:0:0:
183,69,228366,1,4,1:3:0:0:
208,70,228444,1,2,0:0:0:0:
237,75,228522,1,8,1:0:0:0:
29,263,228678,6,0,P|13:211|36:162,1,110,2|4,0:0|1:3,0:0:0:0:
197,363,228991,1,0,3:0:0:0:
172,172,229147,1,8,1:0:0:0:
54,370,229303,1,4,1:3:0:0:
281,165,229460,2,0,L|172:171,1,110,0|4,3:0|1:3,0:0:0:0:
359,291,229772,1,8,1:0:0:0:
396,89,229928,1,0,0:0:0:0:
440,338,230085,6,0,P|456:274|412:218,1,110,4|0,1:3|0:0,0:0:0:0:
172,172,230397,1,8,1:0:0:0:
359,291,230553,1,4,1:3:0:0:
195,367,230710,1,0,3:0:0:0:
281,165,230866,1,4,1:3:0:0:
279,138,230944,1,2,0:0:0:0:
275,105,231022,1,8,1:0:0:0:
437,236,231178,1,2,0:0:0:0:
269,77,231335,6,0,L|378:84,1,110,4|2,1:3|3:2,0:0:0:0:
359,291,231647,1,8,1:0:0:0:
378,84,231803,1,4,1:3:0:0:
249,301,231960,2,0,L|359:290,1,110,2|4,0:0|1:3,0:0:0:0:
269,77,232272,2,0,L|214:73,1,55,8|0,1:0|0:0,0:0:0:0:
191,211,232428,1,4,1:3:0:0:
167,190,232506,1,4,1:3:0:0:
137,191,232585,6,0,P|196:164|203:52,1,165,4|0,1:0|0:0,0:0:0:0:
24,101,232897,2,0,L|133:106,1,110,8|4,1:0|1:3,0:0:0:0:
249,301,233210,1,0,3:0:0:0:
378,84,233366,1,4,1:3:0:0:
379,114,233444,1,0,0:0:0:0:
381,142,233522,1,8,1:0:0:0:
490,10,233678,1,4,1:3:0:0:
510,255,233835,6,0,L|401:264,1,110,4|0,1:3|3:0,0:0:0:0:
269,77,234147,1,8,1:0:0:0:
400,264,234303,1,4,1:3:0:0:
164,224,234460,2,0,P|205:189|261:186,1,110,0|4,3:0|1:3,0:0:0:0:
78,319,234772,1,8,1:0:0:0:
72,98,234928,1,4,1:3:0:0:
92,112,235007,1,4,1:3:0:0:
112,128,235085,5,4,1:0:0:0:
249,301,235241,1,4,1:3:0:0:
378,85,235397,2,0,L|268:76,1,110,8|2,1:0|3:2,0:0:0:0:
488,222,235710,5,4,1:3:0:0:
471,16,235866,1,4,1:0:0:0:
378,231,236022,2,0,L|487:222,1,110,8|2,1:0|3:2,0:0:0:0:
268,76,236335,5,4,1:0:0:0:
249,301,236491,1,0,0:0:0:0:
378,85,236647,5,12,1:0:0:0:
97,236,236803,1,0,0:0:0:0:
378,231,236960,5,12,1:0:0:0:
150,86,237116,1,0,0:0:0:0:
169,344,237272,5,12,1:0:0:0:
268,76,237428,1,0,0:0:0:0:
346,322,237585,6,0,L|431:325,2,76.9999976501466,2|0|0,0:0|0:0|0:0,0:0:0:0:
249,301,238053,1,0,0:0:0:0:
378,231,238210,2,0,L|463:234,2,76.9999976501466,2|2|0,0:0|0:0|0:0,0:0:0:0:
281,210,238678,1,0,0:0:0:0:
80,28,238835,6,0,B|55:84|55:84|72:129,1,110,4|0,1:1|0:0,0:0:0:0:
281,210,239147,1,8,1:0:0:0:
72,129,239303,1,0,0:2:0:0:
288,319,239460,2,0,L|280:200,1,110,6|0,1:3|0:0,0:0:0:0:
414,51,239772,1,14,1:0:0:0:
418,227,239928,1,0,0:0:0:0:
208,109,240085,6,0,P|256:83|312:91,1,110,4|0,1:2|0:0,0:0:0:0:
144,274,240397,1,8,1:0:0:0:
309,90,240553,1,2,3:2:0:0:
397,322,240710,2,0,L|266:318,1,110,4|0,1:3|3:0,0:0:0:0:
129,171,241022,1,8,1:0:0:0:
287,318,241178,1,2,0:0:0:0:
424,126,241335,6,0,P|401:175|417:226,1,110,4|2,1:3|3:2,0:0:0:0:
510,18,241647,1,8,1:0:0:0:
309,90,241803,1,0,3:0:0:0:
509,183,241960,5,4,1:3:0:0:
421,9,242116,1,2,3:2:0:0:
307,234,242272,2,0,L|441:225,1,110,8|0,1:0|3:0,0:0:0:0:
106,347,242585,5,4,1:3:0:0:
223,146,242741,1,2,0:0:0:0:
201,378,242897,2,0,P|208:325|167:265,1,110,8|0,1:0|0:0,0:0:0:0:
18,152,243210,5,4,1:3:0:0:
106,347,243366,1,0,3:0:0:0:
145,82,243522,2,0,P|119:129|126:183,1,110,8|2,1:0|0:0,0:0:0:0:
310,373,243835,6,0,L|186:378,1,110,4|2,1:3|3:2,0:0:0:0:
415,173,244147,1,8,1:0:0:0:
463,367,244303,1,0,3:0:0:0:
305,168,244460,2,0,L|429:173,1,110,4|0,1:3|3:0,0:0:0:0:
223,13,244772,1,14,1:0:0:0:
414,172,244928,1,0,0:0:0:0:
188,218,245085,6,0,P|171:149|198:101,1,110,4|0,1:3|0:0,0:0:0:0:
328,302,245397,1,8,1:0:0:0:
185,115,245553,1,0,3:0:0:0:
208,357,245710,1,4,1:3:0:0:
305,168,245866,1,2,3:2:0:0:
439,365,246022,1,8,1:0:0:0:
188,218,246178,1,2,0:0:0:0:
436,282,246335,6,0,L|317:303,1,110,4|2,1:3|3:2,0:0:0:0:
74,239,246647,1,8,1:0:0:0:
327,301,246803,1,2,0:0:0:0:
85,133,246960,5,4,1:3:0:0:
208,356,247116,1,2,3:2:0:0:
265,97,247272,1,8,1:0:0:0:
114,328,247428,1,2,3:0:0:0:
166,42,247585,5,4,1:0:0:0:
374,84,247741,2,0,L|256:98,1,110,2|8,3:2|1:0,0:0:0:0:
505,204,248053,1,0,3:0:0:0:
469,3,248210,5,4,1:3:0:0:
395,191,248366,2,0,L|513:205,1,110,0|8,3:0|1:0,0:0:0:0:
264,96,248678,1,2,0:0:0:0:
407,292,248835,6,0,P|418:239|394:190,1,110,4|0,1:3|3:0,0:0:0:0:
208,356,249147,1,8,1:0:0:0:
394,190,249303,1,0,3:0:0:0:
189,243,249460,2,0,L|309:255,1,110,4|0,1:0|0:0,0:0:0:0:
37,119,249772,1,14,1:0:0:0:
77,325,249928,1,0,0:0:0:0:
150,115,250085,6,0,P|136:50|84:10,1,110,4|0,1:3|0:0,0:0:0:0:
61,238,250397,1,8,1:0:0:0:
285,133,250553,1,2,3:2:0:0:
208,356,250710,1,4,1:3:0:0:
150,115,250866,1,2,3:2:0:0:
173,117,250944,1,2,0:0:0:0:
201,118,251022,1,8,1:0:0:0:
61,238,251178,1,2,3:2:0:0:
277,23,251335,6,0,L|285:138,1,110,4|0,1:3|3:0,0:0:0:0:
406,292,251647,1,8,1:0:0:0:
438,60,251803,1,2,3:2:0:0:
498,321,251960,2,0,P|505:267|477:220,1,110,4|0,1:3|0:0,0:0:0:0:
284,132,252272,1,12,1:0:0:0:
406,292,252428,1,2,3:2:0:0:
150,239,252585,6,0,B|253:195|215:285|342:225,1,165,4|0,1:0|0:0,0:0:0:0:
91,303,252897,2,0,P|62:257|71:204,1,110,8|2,1:0|3:2,0:0:0:0:
188,18,253210,1,4,1:3:0:0:
150,239,253366,1,2,3:2:0:0:
72,38,253522,1,8,1:0:0:0:
284,132,253678,1,2,0:0:0:0:
91,303,253835,6,0,P|62:257|71:204,1,110,4|2,1:3|3:2,0:0:0:0:
286,332,254147,1,8,1:0:0:0:
188,129,254303,1,4,1:3:0:0:
176,346,254460,2,0,L|299:330,1,110,4|0,1:0|0:0,0:0:0:0:
464,138,254772,1,14,1:0:0:0:
407,375,254928,1,0,0:0:0:0:
284,132,255085,5,4,1:0:0:0:
505,299,255241,1,2,3:2:0:0:
285,331,255397,1,8,1:0:0:0:
285,331,255710,5,4,1:0:0:0:
383,73,255866,1,4,1:3:0:0:
505,299,256022,2,0,L|381:286,1,110,8|2,1:0|3:2,0:0:0:0:
188,129,256335,5,4,1:0:0:0:
395,287,256491,1,4,1:3:0:0:
383,73,256647,5,12,1:0:0:0:
183,243,256803,1,4,1:3:0:0:
465,210,256960,5,4,1:0:0:0:
269,48,257116,1,4,1:3:0:0:
285,331,257272,5,12,1:0:0:0:
466,103,257428,1,4,1:3:0:0:
183,243,257585,6,0,L|111:234,1,55,14|4,1:0|1:3,0:0:0:0:
230,337,257741,2,0,L|302:328,1,55,4|4,1:3|1:3,0:0:0:0:
128,236,257897,6,0,L|56:227,1,55,14|4,1:0|1:3,0:0:0:0:
284,330,258053,2,0,L|356:321,1,55,4|4,1:3|1:3,0:0:0:0:
73,229,258210,6,0,L|1:220,1,55,14|4,1:0|1:3,0:0:0:0:
338,323,258366,2,0,L|410:314,1,55,4|4,1:3|1:3,0:0:0:0:
344,156,258522,5,14,1:0:0:0:
299,187,258600,1,6,1:3:0:0:
281,237,258678,1,6,1:3:0:0:
295,289,258756,1,6,1:3:0:0:
338,323,258834,5,4,1:0:0:0:
256,192,258913,12,2,260710,0:0:0:0:
