osu file format v14

[General]
AudioFilename: audio.mp3
AudioLeadIn: 0
PreviewTime: 47272
Countdown: 0
SampleSet: Soft
StackLeniency: 0.7
Mode: 0
LetterboxInBreaks: 0
WidescreenStoryboard: 1

[Editor]
DistanceSpacing: 0.8
BeatDivisor: 4
GridSize: 8
TimelineZoom: 1

[Metadata]
Title:Itazura Sensation
TitleUnicode:悪戯センセーション
Artist:Shinra-bansho
ArtistUnicode:森羅万象
Creator:Hailie
Version:Nao's Hard
Source:東方紅魔郷 ~ the Embodiment of Scarlet Devil.
Tags:Ayaponzu* Ayo Remilia Flandre Scarlet Shiro ticat kaztora Kafuu Doujin Septette for the Dead Princess U.N. Owen was her? ZUN Touhou AJ Mischievous funkot Shanipika Shiratoi RVMathew Nao Tomori Naotoshi
BeatmapID:1606035
BeatmapSetID:745460

[Difficulty]
HPDrainRate:5.4
CircleSize:3.5
OverallDifficulty:6.5
ApproachRate:8
SliderMultiplier:1.45
SliderTickRate:1

[Events]
//Background and Video events
0,0,"maxresdefault.jpg",0,0
Video,0,"vid.avi"
//Break Periods
2,12785,23791
2,94660,98635
2,129460,137147
2,172785,179260
//Storyboard Layer 0 (Background)
//Storyboard Layer 1 (Fail)
//Storyboard Layer 2 (Pass)
//Storyboard Layer 3 (Foreground)
//Storyboard Sound Samples

[TimingPoints]
1335,312.5,4,2,0,50,1,0
1335,-100,4,2,0,50,0,0
9147,-100,4,2,0,50,0,0
10085,-100,4,2,0,60,0,0
11491,-100,4,2,0,50,0,0
12585,-100,4,2,0,60,0,0
25085,-125,4,2,0,50,0,0
36335,-99.9999999999999,4,2,0,60,0,0
47272,-166.666666666667,4,2,0,45,0,0
47585,-166.666666666667,4,2,0,45,0,0
58210,-133.333333333333,4,2,0,60,0,0
60710,312.5,4,2,0,50,1,0
60710,-100,4,2,0,50,0,0
65710,-100,4,2,0,60,0,0
66022,-100,4,2,0,40,0,0
66335,-100,4,2,0,60,0,0
66647,-100,4,2,0,40,0,0
66960,-100,4,2,0,60,0,0
67272,-100,4,2,0,40,0,0
67585,-100,4,2,0,60,0,0
67897,-100,4,2,0,40,0,0
68210,-100,4,2,0,65,0,0
71960,-83.3333333333333,4,2,0,80,0,1
90710,-100,4,2,0,80,0,0
103210,-100,4,2,0,60,0,0
115710,-100,4,2,0,50,0,0
116960,-100,4,2,0,40,0,0
117741,-100,4,2,0,50,0,0
129460,-100,4,2,0,40,0,0
138835,312.5,4,2,0,50,1,0
138835,-100,4,2,0,50,0,0
143835,-100,4,2,0,60,0,0
144147,-100,4,2,0,40,0,0
144460,-100,4,2,0,60,0,0
144772,-100,4,2,0,40,0,0
145085,-100,4,2,0,60,0,0
145397,-100,4,2,0,40,0,0
145710,-100,4,2,0,60,0,0
146022,-100,4,2,0,40,0,0
146335,-100,4,2,0,65,0,0
150085,-83.3333333333333,4,2,0,80,0,1
168835,-83.3333333333333,4,2,0,80,0,1
170085,-100,4,2,0,55,0,0
170397,-100,4,2,0,55,0,0
172585,-100,4,2,0,60,0,0
175085,-100,4,2,0,55,0,0
177585,-100,4,2,0,60,0,0
185085,-133.333333333333,4,2,0,60,0,0
188835,-100,4,2,0,50,0,0
190085,-100,4,2,0,60,0,0
198835,-100,4,2,0,65,0,0
199460,-100,4,2,0,55,0,0
200085,-100,4,2,0,65,0,0
200710,-100,4,2,0,55,0,0
201335,-100,4,2,0,65,0,0
201960,-100,4,2,0,60,0,0
202585,-100,4,2,0,45,0,0
207585,-100,4,2,0,55,0,0
210085,-100,4,2,0,65,0,0
211647,-100,4,2,0,65,0,0
213835,-133.333333333333,4,2,0,65,0,0
215085,-100,4,2,0,45,0,0
216335,-100,4,2,0,70,0,0
217585,-83.3333333333333,4,2,0,80,0,1
236335,-83.3333333333333,4,2,0,80,0,1
237585,-83.3333333333333,4,2,0,40,0,0
238835,-83.3333333333333,4,2,0,80,0,1
239772,-83.3333333333333,4,2,0,80,0,1
240085,-83.3333333333333,4,2,0,80,0,1
256335,-83.3333333333333,4,2,0,80,0,1
258835,-100,4,2,0,80,0,0
258913,-100,4,2,0,25,0,0

[Colours]
Combo1 : 174,174,255
Combo2 : 0,128,128
Combo3 : 165,0,82
Combo4 : 255,13,13

[HitObjects]
253,88,1335,5,4,1:0:0:0:
319,151,1491,2,0,L|418:153,2,72.5,0|0|0,0:0|0:0|0:0,0:0:0:0:
232,103,1960,5,8,0:1:0:0:
159,174,2116,2,0,L|60:176,2,72.5,2|0|0,0:0|0:0|0:3,0:0:0:0:
262,117,2585,5,8,0:1:0:0:
315,207,2741,2,0,P|317:260|317:307,1,72.5,0|0,0:0|0:0,0:0:0:0:
239,332,3053,1,2,0:0:0:0:
158,276,3210,2,0,P|162:224|164:195,2,72.5,0|0|8,0:0|0:0|0:1,0:0:0:0:
366,201,3835,5,4,0:3:0:0:
430,134,3991,2,0,P|436:66|436:48,2,72.5,0|0|0,0:0|0:0|0:0,0:0:0:0:
370,216,4460,5,8,2:0:0:0:
300,280,4616,2,0,P|294:348|294:366,2,72.5,0|0|0,0:0|0:0|0:0,0:0:0:0:
405,206,5085,5,2,0:0:0:0:
328,156,5241,1,0,0:0:0:0:
247,191,5397,1,4,0:3:0:0:
167,151,5553,2,0,L|184:69,2,72.5,2|0|0,1:2|0:0|0:0,0:0:0:0:
88,203,6022,1,8,0:0:0:0:
76,52,6335,5,4,0:3:0:0:
174,119,6491,2,0,L|253:116,2,72.5,0|0|0,0:0|0:0|0:0,0:0:0:0:
69,68,6960,5,8,0:0:0:0:
21,158,7116,2,0,L|24:237,2,72.5,0|0|0,0:0|0:0|0:0,0:0:0:0:
151,238,7585,5,0,1:0:0:0:
240,196,7741,1,0,0:0:0:0:
240,196,7897,1,0,0:0:0:0:
308,250,8053,2,0,L|380:261,1,72.5,0|0,1:0|0:0,0:0:0:0:
467,199,8366,1,2,0:0:0:0:
377,85,8522,2,0,L|363:170,1,72.5,0|0,1:0|0:0,0:0:0:0:
275,62,8835,6,0,B|217:57|217:57|186:75|186:75|130:71,1,145,0|0,1:0|1:0,0:0:0:0:
305,172,9460,2,0,B|363:177|363:177|394:159|394:159|450:163,1,145,0|0,1:0|1:1,0:0:0:0:
241,258,10085,5,4,0:1:0:0:
121,201,10241,1,4,0:1:0:0:
212,165,10397,1,4,0:1:0:0:
151,299,10553,1,4,0:3:0:0:
151,299,10631,1,4,0:3:0:0:
151,299,10710,2,0,L|152:355,5,36.25,4|4|4|4|4|4,0:3|0:3|0:3|0:3|0:3|0:3,0:0:0:0:
226,265,11178,2,0,P|233:230|237:209,1,36.25,4|4,0:3|0:3,0:0:0:0:
256,192,11491,12,4,12585,1:0:0:0:
176,138,24616,5,0,3:0:0:0:
176,138,24772,1,8,0:3:0:0:
269,101,24928,1,4,0:3:0:0:
269,101,25006,1,4,0:3:0:0:
269,101,25085,6,0,P|331:110|393:99,1,116,4|8,0:3|0:1,0:0:0:0:
481,57,25553,2,0,L|498:137,1,58,0|0,1:0|0:0,0:0:0:0:
444,196,25866,1,4,0:3:0:0:
444,196,26022,1,8,0:1:0:0:
494,294,26178,2,0,L|503:358,1,58,2|4,0:0|0:3,0:0:0:0:
391,289,26491,5,0,0:0:0:0:
315,323,26647,1,8,0:1:0:0:
412,268,26803,2,0,P|402:224|390:195,1,58,4|2,0:3|0:0,0:0:0:0:
302,211,27116,1,0,0:0:0:0:
394,192,27272,2,0,P|446:183|473:176,1,58,8|0,0:1|0:0,0:0:0:0:
317,99,27585,6,0,B|256:101|276:150|190:113,1,116,4|8,0:3|0:1,0:0:0:0:
120,64,28053,2,0,P|90:108|109:187,1,116,4|0,0:3|0:0,0:0:0:0:
181,236,28522,1,8,0:1:0:0:
93,304,28678,2,0,L|9:299,1,58,0|4,0:0|0:3,0:0:0:0:
200,346,28991,6,0,L|272:335,1,58,2|8,0:0|0:1,0:0:0:0:
365,263,29303,1,4,0:3:0:0:
365,263,29381,1,0,0:0:0:0:
365,263,29460,2,0,L|441:274,1,58,2|4,0:0|0:3,0:0:0:0:
305,186,29772,2,0,L|318:113,1,58,8|2,0:1|0:0,0:0:0:0:
430,58,30085,5,4,1:0:0:0:
430,58,30241,1,4,0:3:0:0:
430,58,30397,2,0,P|363:90|306:86,1,116,4|0,0:3|3:0,0:0:0:0:
231,41,30866,1,0,3:0:0:0:
231,41,31178,1,0,3:0:0:0:
165,147,31335,5,4,0:1:0:0:
165,147,31491,1,4,0:3:0:0:
165,147,31647,2,0,P|228:133|291:156,1,116,4|0,0:3|3:0,0:0:0:0:
357,213,32116,1,0,3:0:0:0:
447,141,32272,2,0,L|454:57,1,58,0|0,3:0|3:0,0:0:0:0:
356,230,32585,6,0,P|309:241|236:235,1,116,4|8,0:1|0:1,0:0:0:0:
163,177,33053,1,4,0:3:0:0:
41,319,33366,1,4,0:3:0:0:
8,218,33522,2,0,L|19:144,1,58,8|2,0:1|0:0,0:0:0:0:
110,90,33835,6,0,P|131:142|123:224,1,116,4|8,0:3|0:1,0:0:0:0:
243,279,34303,2,0,L|375:259,1,116,4|4,0:3|0:3,0:0:0:0:
474,176,34772,1,8,0:1:0:0:
345,133,34928,5,2,0:3:0:0:
339,155,36335,6,0,P|261:181|200:152,1,145,4|8,1:0|0:1,0:0:0:0:
124,59,36803,2,0,L|93:227,1,145,4|4,1:3|1:3,0:0:0:0:
93,227,37194,1,0,0:0:0:0:
93,227,37272,1,8,1:0:0:0:
176,281,37428,1,0,0:0:0:0:
280,203,37585,6,0,B|363:180|363:180|386:240,1,145,4|4,1:3|1:3,0:0:0:0:
489,190,38053,2,0,P|475:253|478:348,1,145,4|0,0:3|0:3,0:0:0:0:
363,325,38522,1,8,1:1:0:0:
363,325,38678,1,0,0:0:0:0:
256,365,38835,6,0,B|191:342|187:375|92:347,1,145,4|8,1:3|1:0,0:0:0:0:
8,269,39303,2,0,P|71:219|148:246,1,145,2|4,1:3|1:3,0:0:0:0:
153,250,39694,1,0,0:0:0:0:
153,250,39772,1,8,1:0:0:0:
263,211,39928,1,0,0:0:0:0:
170,126,40085,6,0,L|147:-12,1,108.75,4|0,1:3|0:0,0:0:0:0:
203,3,40397,2,0,L|276:21,1,72.5,8|0,1:0|0:0,0:0:0:0:
368,91,40710,1,4,3:0:0:0:
486,46,40866,2,0,L|501:127,2,72.5,4|8|0,1:3|1:0|0:0,0:0:0:0:
367,116,41335,1,4,1:3:0:0:
445,205,41491,6,0,L|461:293,1,72.5,0|8,0:0|1:0,0:0:0:0:
352,240,41803,1,4,1:3:0:0:
271,300,41960,1,0,3:3:0:0:
190,222,42116,1,4,1:3:0:0:
190,222,42194,2,0,L|195:105,1,108.75,0|0,0:0|3:0,0:0:0:0:
91,35,42585,5,4,1:3:0:0:
9,124,42741,1,0,3:0:0:0:
9,124,42819,1,0,0:0:0:0:
9,124,42897,2,0,L|12:222,1,72.5,8|4,1:0|0:3,0:0:0:0:
104,246,43210,2,0,L|92:335,1,72.5,0|2,3:0|3:0,0:0:0:0:
194,195,43522,2,0,P|207:243|254:297,1,108.75,8|0,1:0|0:0,0:0:0:0:
294,313,43835,6,0,L|315:145,1,145,4|8,1:3|1:0,0:0:0:0:
259,90,44303,1,4,1:3:0:0:
184,156,44460,2,0,L|91:147,2,72.5,0|4|8,3:0|1:3|1:0,0:0:0:0:
149,42,44928,1,0,3:0:0:0:
149,42,45006,1,0,0:0:0:0:
149,42,45085,6,0,P|60:74|-6:45,1,145,4|8,1:3|1:0,0:0:0:0:
230,123,45553,2,0,P|319:155|385:126,1,145,4|4,1:3|0:3,0:0:0:0:
476,27,46022,2,0,L|492:114,1,72.5,8|0,1:0|3:0,0:0:0:0:
462,203,47272,6,0,L|454:283,1,65.2499980087281,2|0,0:0|0:0,0:0:0:0:
426,303,47585,6,0,P|365:282|292:315,2,130.499996017456,6|2|8,0:0|0:0|0:0,0:0:0:0:
493,202,48835,2,0,L|497:59,1,130.499996017456,2|0,0:0|0:0,0:0:0:0:
426,26,49460,2,0,P|372:17|334:30,1,86.9999973449708,2|8,0:0|0:0,0:0:0:0:
244,100,50085,1,2,0:0:0:0:
152,53,50397,1,8,0:0:0:0:
42,121,50710,6,0,L|29:257,1,130.499996017456,2|0,0:0|0:0,0:0:0:0:
96,313,51335,2,0,B|139:326|189:312|190:313,1,86.9999973449708,2|10,0:0|0:0,0:0:0:0:
260,278,51803,1,0,0:0:0:0:
260,278,51960,1,2,0:0:0:0:
363,313,52272,1,8,0:0:0:0:
470,265,52585,6,0,L|475:131,1,130.499996017456,2|0,0:0|0:0,0:0:0:0:
431,58,53210,1,2,0:0:0:0:
342,138,53522,2,0,L|351:196,2,43.4999986724854,8|2|8,0:0|0:0|0:0,0:0:0:0:
253,77,54147,1,8,0:0:0:0:
183,147,54460,2,0,L|176:208,2,43.4999986724854,2|2|8,0:0|0:0|0:0,0:0:0:0:
100,60,55085,5,6,0:0:0:0:
210,14,55397,2,0,P|258:6|305:31,1,86.9999973449708,10|2,0:0|0:0,0:0:0:0:
392,95,56022,1,8,0:0:0:0:
480,25,56335,2,0,P|506:61|486:154,1,130.499996017456,2|0,0:0|0:0,0:0:0:0:
441,202,56960,2,0,L|444:294,2,86.9999973449708,2|8|2,0:0|0:0|0:0,0:0:0:0:
343,132,57897,1,8,0:0:0:0:
87,286,58210,6,0,B|94:194|94:194|186:255|186:255|299:208|299:208|404:232|456:166|426:67|363:53|363:53|304:37|254:117|254:117|196:139|196:139|128:88,1,870.000033187867,4|4,1:0|0:0,0:0:0:0:
256,192,60788,12,8,62585,0:0:0:0:
164,111,62897,6,0,P|209:137|305:147,1,145,2|4,0:0|0:0,0:0:0:0:
256,192,63288,12,6,65085,0:0:0:0:
166,169,65397,6,0,P|228:132|300:148,1,145,2|4,0:0|1:0,0:0:0:0:
481,81,66022,2,0,L|375:186,1,145,2|4,0:0|1:0,0:0:0:0:
319,368,66647,2,0,B|292:310|292:310|313:215,1,145,2|4,0:0|1:0,0:0:0:0:
296,8,67272,2,0,B|330:83|272:94|298:166,2,145,2|4|2,0:0|1:0|0:0,0:0:0:0:
223,52,68210,5,0,1:0:0:0:
223,52,68366,1,0,1:0:0:0:
147,18,68522,1,0,1:0:0:0:
147,18,68678,1,0,1:0:0:0:
82,84,68835,6,0,L|78:165,1,72.5,0|0,1:0|1:0,0:0:0:0:
141,220,69147,2,0,L|152:297,1,72.5,0|0,1:0|1:0,0:0:0:0:
226,200,69460,2,0,P|291:168|350:222,1,145,2|6,1:2|1:0,0:0:0:0:
256,192,69850,12,2,71647,1:0:0:0:
120,203,71960,6,0,B|212:182|173:227|294:232,1,173.999994689942,4|8,1:0|1:0,0:0:0:0:
400,176,72428,1,0,1:0:0:0:
400,176,72585,2,0,P|394:105|315:57,1,130.499996017456,2|2,0:0|0:0,0:0:0:0:
321,62,72897,2,0,L|222:76,1,86.9999973449708,8|2,1:0|0:0,0:0:0:0:
126,72,73210,6,0,P|111:127|123:181,1,86.9999973449708,4|2,1:3|0:0,0:0:0:0:
197,227,73522,1,8,0:1:0:0:
197,227,73678,1,6,1:3:0:0:
144,310,73835,2,0,P|66:350|-7:284,1,173.999994689942,2|8,0:0|1:0,0:0:0:0:
52,120,74460,6,0,P|108:128|228:57,1,173.999994689942,0|8,1:0|1:0,0:0:0:0:
322,129,74928,1,4,1:3:0:0:
431,83,75085,2,0,P|457:153|457:197,1,86.9999973449708,2|4,0:0|1:3,0:0:0:0:
384,254,75397,1,8,1:0:0:0:
274,208,75553,6,0,P|215:208|156:224,1,86.9999973449708,0|4,0:0|1:3,0:0:0:0:
137,318,75866,1,2,0:0:0:0:
220,374,76022,2,0,L|311:360,1,86.9999973449708,8|4,1:0|1:3,0:0:0:0:
407,289,76335,2,0,P|441:334|456:396,2,86.9999973449708,2|4|12,0:0|1:3|1:0,0:0:0:0:
450,181,76803,1,4,1:3:0:0:
450,181,76881,1,0,1:3:0:0:
450,181,76960,6,0,B|316:149|365:214|268:174,1,173.999994689942,4|8,1:0|1:0,0:0:0:0:
188,111,77428,1,4,1:3:0:0:
97,166,77585,2,0,L|111:269,1,86.9999973449708,0|4,3:0|1:3,0:0:0:0:
11,99,77897,1,8,1:0:0:0:
135,62,78053,6,0,B|168:72|190:102|190:102|206:222,1,173.999994689942,2|2,0:0|0:0,0:0:0:0:
123,307,78522,1,8,1:0:0:0:
86,202,78678,1,4,1:3:0:0:
194,237,78835,2,0,L|295:251,1,86.9999973449708,2|4,0:0|3:0,0:0:0:0:
395,175,79147,2,0,L|482:166,1,86.9999973449708,8|4,1:0|3:0,0:0:0:0:
343,65,79460,6,0,P|304:90|292:230,1,173.999994689942,4|8,1:3|1:0,0:0:0:0:
401,271,79928,1,4,1:3:0:0:
384,169,80085,1,0,3:0:0:0:
283,247,80241,2,0,L|287:298,2,43.4999986724854,2|2|8,1:3|0:0|1:0,0:0:0:0:
182,170,80553,6,0,P|129:200|23:154,1,173.999994689942,0|0,3:0|3:0,0:0:0:0:
111,74,81022,1,8,1:0:0:0:
111,74,81178,1,4,1:3:0:0:
214,156,81335,2,0,L|212:242,1,86.9999973449708,2|0,1:3|1:0,0:0:0:0:
357,312,81647,2,0,L|354:226,1,86.9999973449708,8|4,1:0|0:3,0:0:0:0:
354,181,81881,1,4,0:3:0:0:
354,181,81960,6,0,B|385:156|413:120|413:120|454:116|503:138,1,173.999994689942,4|8,1:0|1:0,0:0:0:0:
451,242,82428,1,4,1:3:0:0:
319,186,82585,2,0,P|306:133|315:66,2,86.9999973449708,0|4|8,3:0|1:3|1:0,0:0:0:0:
253,270,83053,6,0,B|178:238|189:305|80:276,1,173.999994689942,2|0,0:0|3:0,0:0:0:0:
2,173,83522,1,8,1:0:0:0:
131,172,83678,1,4,1:3:0:0:
57,286,83835,2,0,L|41:372,2,86.9999973449708,2|4|8,0:0|1:3|1:0,0:0:0:0:
247,358,84460,6,0,B|309:326|322:374|422:326,1,173.999994689942,6|8,1:3|1:0,0:0:0:0:
461,222,84928,1,4,1:3:0:0:
339,177,85085,2,0,L|233:157,1,86.9999973449708,0|4,3:0|1:3,0:0:0:0:
222,152,85319,1,2,0:0:0:0:
222,152,85397,1,8,1:0:0:0:
119,238,85553,6,0,P|62:179|81:75,1,173.999994689942,2|2,0:0|0:0,0:0:0:0:
175,43,86022,1,8,1:1:0:0:
275,94,86178,1,4,1:3:0:0:
380,48,86335,2,0,L|472:45,1,86.9999973449708,0|0,1:3|0:0,0:0:0:0:
329,146,86647,6,0,L|236:147,1,86.9999973449708,8|4,1:0|1:3,0:0:0:0:
208,144,86881,1,4,1:3:0:0:
208,144,86960,2,0,B|148:199|235:257|197:342,1,173.999994689942,4|8,1:0|1:0,0:0:0:0:
324,329,87428,1,4,1:3:0:0:
409,236,87585,2,0,P|491:228|507:272,1,130.499996017456,0|0,3:0|0:0,0:0:0:0:
510,302,87897,2,0,L|407:330,1,86.9999973449708,8|0,1:0|1:3,0:0:0:0:
301,220,88210,6,0,P|294:174|302:134,1,86.9999973449708,4|0,1:3|3:0,0:0:0:0:
405,49,88522,1,8,1:1:0:0:
405,49,88678,1,4,1:3:0:0:
265,22,88835,2,0,L|162:19,1,86.9999973449708,0|4,3:0|1:3,0:0:0:0:
55,127,89147,2,0,L|158:124,1,86.9999973449708,12|4,1:2|1:3,0:0:0:0:
174,144,89381,1,4,1:3:0:0:
174,144,89460,6,0,P|200:207|178:266,1,130.499996017456,4|0,1:0|0:0,0:0:0:0:
152,291,89772,2,0,L|41:280,1,86.9999973449708,8|2,1:0|0:0,0:0:0:0:
237,367,90085,2,0,L|352:359,1,86.9999973449708,4|4,1:0|1:3,0:0:0:0:
430,290,90397,1,8,1:0:0:0:
338,218,90553,1,0,3:0:0:0:
442,167,90710,5,4,1:0:0:0:
204,104,91022,1,12,1:0:0:0:
213,355,91335,1,12,1:0:0:0:
339,114,91647,1,12,1:0:0:0:
162,240,91960,1,12,1:0:0:0:
256,192,92038,12,0,94460,0:0:0:0:
156,167,99460,6,0,B|220:158|220:158|288:222,1,145,4|0,1:0|1:0,0:0:0:0:
484,266,100085,2,0,B|420:257|420:257|352:321,1,145,4|0,1:0|1:0,0:0:0:0:
200,283,100710,2,0,L|116:278,1,72.5,4|4,1:0|3:3,0:0:0:0:
24,207,101022,2,0,L|110:191,1,72.5,4|4,3:3|3:3,0:0:0:0:
180,128,101335,1,4,1:0:0:0:
180,128,101413,1,4,2:3:0:0:
180,128,101491,2,0,L|180:77,3,36.25,4|4|4|4,2:3|2:3|2:3|2:3,0:0:0:0:
264,62,101803,2,0,L|275:20,1,36.25,4|4,2:3|2:3,0:0:0:0:
324,86,103210,6,0,P|356:146|330:229,1,145,4|8,1:0|1:0,0:0:0:0:
249,282,103678,2,0,B|183:258|209:315|89:281,1,145,4|4,1:3|1:3,0:0:0:0:
72,268,104069,1,2,0:0:0:0:
72,268,104147,1,8,1:0:0:0:
151,198,104303,1,0,0:0:0:0:
66,136,104460,6,0,P|47:81|120:43,1,145,4|8,1:3|1:0,0:0:0:0:
216,17,104928,2,0,P|248:44|349:52,1,145,4|2,1:3|0:0,0:0:0:0:
444,15,105397,1,8,1:0:0:0:
350,181,105710,6,0,P|329:264|363:324,1,145,4|8,1:3|1:0,0:0:0:0:
425,246,106178,2,0,L|268:248,1,145,4|4,1:3|1:3,0:0:0:0:
207,325,106647,2,0,L|112:322,1,72.5,8|0,1:0|3:3,0:0:0:0:
52,266,106960,6,0,P|74:190|149:156,2,145,4|8|2,1:3|1:0|3:0,0:0:0:0:
153,257,107741,1,6,1:3:0:0:
86,359,107897,1,8,1:0:0:0:
265,294,108210,6,0,B|346:280|316:329|429:315,1,145,4|8,1:3|1:0,0:0:0:0:
506,264,108678,2,0,P|471:182|465:128,1,145,4|4,1:3|1:3,0:0:0:0:
361,128,109147,2,0,P|333:175|307:207,1,72.5,8|0,1:0|3:0,0:0:0:0:
214,133,109460,6,0,P|162:133|121:143,1,72.5,6|0,1:3|3:0,0:0:0:0:
112,156,109694,1,2,0:0:0:0:
112,156,109772,2,0,L|106:261,1,72.5,8|4,1:0|3:0,0:0:0:0:
195,290,110085,2,0,P|189:358|187:375,1,72.5,0|4,3:0|1:3,0:0:0:0:
294,256,110397,2,0,P|335:246|408:337,1,145,8|4,1:0|1:3,0:0:0:0:
467,147,111022,5,8,1:0:0:0:
388,84,111178,2,0,P|358:121|250:136,1,145,4|4,1:3|1:3,0:0:0:0:
193,79,111647,2,0,L|189:3,2,72.5,8|0|0,1:0|3:0|1:3,0:0:0:0:
124,150,112116,5,0,1:3:0:0:
25,114,112272,1,8,1:0:0:0:
31,218,112428,1,0,1:3:0:0:
151,174,112585,2,0,B|230:159|197:195|307:185,2,145,0|0|8,1:3|1:3|3:0,0:0:0:0:
256,192,113288,12,4,115710,1:3:0:0:
202,189,116960,6,0,L|357:198,2,145,2|2|2,0:0|0:0|0:0,0:0:0:0:
180,186,117897,6,0,P|147:226|145:300,1,108.75,4|0,0:1|0:0,0:0:0:0:
171,324,118210,2,0,P|248:304|306:339,1,145,4|8,0:1|0:1,0:0:0:0:
417,308,118678,2,0,B|439:253|439:253|408:153,1,145,4|4,0:3|0:3,0:0:0:0:
407,153,119069,1,0,0:0:0:0:
400,135,119147,1,8,0:1:0:0:
304,211,119303,6,0,P|235:211|175:164,1,145,2|2,0:0|3:0,0:0:0:0:
265,99,119772,2,0,L|255:12,1,72.5,8|4,0:1|0:3,0:0:0:0:
381,70,120085,2,0,L|368:158,2,72.5,0|4|8,3:0|0:3|0:1,0:0:0:0:
483,25,120553,1,0,3:0:0:0:
510,134,120710,6,0,P|493:196|518:271,1,145,4|8,0:3|0:1,0:0:0:0:
420,342,121178,2,0,B|338:314|348:368|263:328,1,145,4|4,0:3|0:3,0:0:0:0:
208,243,121647,1,8,0:1:0:0:
119,316,121803,2,0,L|31:314,1,72.5,2|4,0:0|0:3,0:0:0:0:
215,367,122116,5,0,3:0:0:0:
177,241,122272,2,0,L|162:152,1,72.5,8|4,0:1|0:3,0:0:0:0:
272,100,122585,2,0,L|289:24,1,72.5,0|4,0:0|0:3,0:0:0:0:
401,124,122897,2,0,L|419:197,1,72.5,8|0,0:1|3:0,0:0:0:0:
354,288,123210,5,4,1:0:0:0:
266,267,123366,1,4,0:3:0:0:
177,247,123522,1,4,0:3:0:0:
161,235,123991,6,0,P|155:194|164:155,1,72.5,0|4,3:0|3:0,0:0:0:0:
215,68,124303,1,0,3:0:0:0:
318,120,124460,5,4,1:0:0:0:
408,128,124616,2,0,L|442:110,1,36.25,4|2,0:3|0:0,0:0:0:0:
478,38,124772,1,4,1:0:0:0:
498,51,125397,6,0,P|436:41|401:56,1,72.5,4|0,1:3|3:0,0:0:0:0:
338,104,125710,2,0,B|279:74|260:137|174:95,1,145,4|8,1:1|1:0,0:0:0:0:
118,46,126178,2,0,L|81:187,1,145,4|4,0:3|0:3,0:0:0:0:
154,271,126647,1,8,0:1:0:0:
154,271,126803,6,0,P|109:304|20:276,1,145,2|2,0:0|0:0,0:0:0:0:
7,187,127272,2,0,L|25:105,1,72.5,8|4,1:0|0:3,0:0:0:0:
128,95,127585,2,0,P|173:104|221:91,1,72.5,0|4,3:0|0:3,0:0:0:0:
301,45,127897,1,8,0:1:0:0:
344,158,128053,2,0,L|346:244,1,72.5,0|8,3:0|1:3,0:0:0:0:
285,225,137897,6,0,P|238:302|170:123,1,398.75,2|0,0:0|0:0,0:0:0:0:
256,192,138913,12,2,140710,0:0:0:0:
135,160,141022,6,0,L|285:185,1,145,2|4,3:0|1:0,0:0:0:0:
256,192,141413,12,0,143210,0:0:0:0:
311,223,143522,6,0,P|269:164|199:154,1,145,10|4,3:0|1:1,0:0:0:0:
84,274,144147,2,0,B|155:283|155:283|218:246,1,145,2|4,0:0|1:0,0:0:0:0:
54,202,144772,2,0,L|62:358,1,145,2|4,0:0|1:0,0:0:0:0:
138,164,145397,2,0,P|105:124|3:121,2,145,2|4|2,0:0|1:0|0:0,0:0:0:0:
315,116,146335,6,0,P|377:144|423:141,1,108.75,0|0,1:3|0:0,0:0:0:0:
446,115,146647,2,0,L|449:42,1,72.5,0|0,1:3|1:3,0:0:0:0:
242,59,146960,2,0,B|208:100|208:100|246:176,1,108.75,0|0,1:3|0:0,0:0:0:0:
249,186,147272,2,0,L|242:278,1,72.5,0|0,1:3|1:3,0:0:0:0:
149,357,147585,6,0,B|102:336|102:336|214:322,1,145,4|4,1:3|1:1,0:0:0:0:
256,192,147975,12,6,149772,1:0:0:0:
243,187,150085,6,0,P|301:225|415:183,1,173.999994689942,4|8,1:1|1:0,0:0:0:0:
451,99,150553,1,4,1:3:0:0:
326,125,150710,2,0,L|250:57,1,86.9999973449708,0|4,3:0|1:3,0:0:0:0:
158,89,151022,1,8,1:0:0:0:
158,89,151100,1,0,0:0:0:0:
158,89,151178,6,0,B|125:120|125:120|140:251,1,173.999994689942,2|0,0:0|3:0,0:0:0:0:
237,328,151647,1,8,1:0:0:0:
323,269,151803,1,4,1:3:0:0:
252,191,151960,2,0,B|172:181|189:230|75:202,1,173.999994689942,0|8,1:0|1:0,0:0:0:0:
205,56,152585,6,0,P|257:26|375:74,1,173.999994689942,4|8,1:0|1:0,0:0:0:0:
335,166,153053,1,4,1:3:0:0:
439,163,153210,2,0,P|434:207|447:251,1,86.9999973449708,0|0,3:0|1:3,0:0:0:0:
465,276,153444,1,2,0:0:0:0:
465,276,153522,1,8,1:0:0:0:
375,351,153678,2,0,L|276:342,1,86.9999973449708,2|4,0:0|1:3,0:0:0:0:
190,279,153991,5,0,3:0:0:0:
109,360,154147,2,0,P|53:360|13:335,1,86.9999973449708,8|4,1:0|1:3,0:0:0:0:
17,235,154460,2,0,B|63:170|63:170|85:269,1,173.999994689942,2|12,3:2|1:0,0:0:0:0:
182,217,154928,1,4,0:3:0:0:
182,217,155006,1,4,0:3:0:0:
182,217,155085,6,0,P|237:256|354:233,1,173.999994689942,4|8,1:0|1:0,0:0:0:0:
418,172,155553,1,4,1:3:0:0:
504,231,155710,2,0,L|512:326,1,86.9999973449708,0|4,3:0|1:3,0:0:0:0:
492,343,155944,1,2,0:0:0:0:
492,343,156022,1,8,1:0:0:0:
388,297,156178,6,0,P|331:273|236:324,1,173.999994689942,2|0,0:0|3:0,0:0:0:0:
144,282,156647,1,8,1:0:0:0:
56,340,156803,1,4,1:3:0:0:
8,240,156960,2,0,P|-1:180|23:43,1,173.999994689942,0|8,3:0|1:0,0:0:0:0:
249,32,157585,6,0,P|260:89|248:222,1,173.999994689942,6|8,1:3|1:0,0:0:0:0:
160,155,158053,1,4,1:3:0:0:
93,238,158210,2,0,P|87:287|94:339,1,86.9999973449708,2|4,0:0|1:3,0:0:0:0:
181,384,158522,1,8,1:0:0:0:
247,304,158678,6,0,P|299:295|355:306,1,86.9999973449708,2|4,3:2|1:3,0:0:0:0:
428,360,158991,1,0,3:0:0:0:
505,286,159147,2,0,L|513:189,1,86.9999973449708,8|4,1:0|1:3,0:0:0:0:
399,135,159460,2,0,L|395:227,2,86.9999973449708,6|2|8,1:3|3:0|1:0,0:0:0:0:
311,69,159928,1,4,1:3:0:0:
311,69,160006,1,4,1:3:0:0:
311,69,160085,6,0,B|238:107|238:107|119:74,1,173.999994689942,4|8,1:0|1:0,0:0:0:0:
72,16,160553,1,6,1:3:0:0:
10,108,160710,2,0,L|-2:216,2,86.9999973449708,0|4|8,3:0|1:3|1:0,0:0:0:0:
107,186,161178,6,0,P|118:241|109:282,1,86.9999973449708,2|4,0:0|1:3,0:0:0:0:
41,357,161491,1,0,3:0:0:0:
124,294,161647,2,0,L|231:287,1,86.9999973449708,8|4,1:0|1:3,0:0:0:0:
329,252,161960,2,0,P|370:310|480:303,1,173.999994689942,0|8,3:0|1:0,0:0:0:0:
487,85,162585,6,0,B|451:48|451:48|407:112|428:186,1,173.999994689942,6|8,1:3|1:0,0:0:0:0:
505,243,163053,1,4,1:3:0:0:
428,331,163210,2,0,L|329:340,1,86.9999973449708,0|4,3:0|1:3,0:0:0:0:
251,271,163522,1,8,1:0:0:0:
148,336,163678,6,0,P|121:279|171:172,1,173.999994689942,2|0,0:0|3:0,0:0:0:0:
258,121,164147,1,8,1:0:0:0:
170,52,164303,1,4,1:3:0:0:
280,101,164460,2,0,B|334:113|334:113|391:78,2,86.9999973449708,2|2|8,3:2|1:3|1:0,0:0:0:0:
206,170,164928,1,4,1:3:0:0:
206,170,165006,1,4,1:3:0:0:
206,170,165085,6,0,P|187:223|250:322,1,173.999994689942,4|8,1:0|1:0,0:0:0:0:
286,228,165553,1,4,1:3:0:0:
146,363,165710,2,0,L|54:353,1,86.9999973449708,0|4,3:0|1:3,0:0:0:0:
234,320,166022,5,8,1:0:0:0:
326,362,166178,2,0,B|383:359|418:374|418:374|460:360|477:278,1,173.999994689942,4|0,1:3|3:0,0:0:0:0:
415,205,166647,2,0,L|428:101,1,86.9999973449708,8|4,1:0|1:3,0:0:0:0:
495,32,166960,2,0,P|427:5|340:51,1,173.999994689942,0|12,3:0|1:2,0:0:0:0:
281,148,167428,1,4,1:3:0:0:
281,148,167506,1,4,1:3:0:0:
281,148,167585,6,0,P|285:221|270:262,1,86.9999973449708,4|4,1:0|1:3,0:0:0:0:
179,268,167897,1,8,1:0:0:0:
34,84,168210,1,4,1:1:0:0:
118,32,168366,1,4,1:3:0:0:
118,32,168444,1,2,0:0:0:0:
118,32,168522,2,0,L|145:144,1,86.9999973449708,8|0,1:1|3:0,0:0:0:0:
62,224,168835,6,0,B|38:292|38:292|76:361|76:361|34:392,2,173.999994689942,4|8|8,1:0|1:0|1:0,0:0:0:0:
148,277,169616,1,4,1:3:0:0:
244,215,169772,2,0,B|305:201|305:201|306:202|340:246|350:275|350:275|400:284,1,173.999994689942,8|4,1:0|0:0,0:0:0:0:
256,192,170163,12,2,172585,0:0:0:0:
131,165,180085,6,0,B|241:142|241:142|270:176,1,145,4|0,1:1|0:0,0:0:0:0:
339,118,180553,2,0,P|352:165|296:248,1,145,0|0,0:0|0:0,0:0:0:0:
231,308,181022,2,0,L|152:300,1,72.5,0|0,0:0|0:0,0:0:0:0:
80,224,181335,5,0,0:0:0:0:
11,291,181491,2,0,L|6:334,2,36.25,0|0|0,0:0|0:0|0:0,0:0:0:0:
77,207,181803,2,0,L|67:127,2,72.5,0|0|0,0:0|0:0|0:0,0:0:0:0:
171,149,182272,1,0,0:0:0:0:
171,149,182585,6,0,P|216:178|322:150,1,145,0|0,0:0|0:0,0:0:0:0:
247,88,183053,2,0,P|307:74|396:138,2,145,0|0|0,0:0|0:0|0:0,0:0:0:0:
147,53,183835,1,0,0:0:0:0:
58,117,183991,2,0,L|43:65,2,36.25,0|0|0,0:0|0:0|0:0,0:0:0:0:
9,202,184303,1,0,0:0:0:0:
67,286,184460,2,0,L|227:266,1,145,0|0,0:0|0:0,0:0:0:0:
315,330,185085,6,0,L|441:340,1,108.750004148483,0|0,0:0|0:0,0:0:0:0:
461,312,185553,2,0,L|487:186,1,108.750004148483,0|0,0:0|0:0,0:0:0:0:
375,122,186178,1,0,0:0:0:0:
300,174,186335,2,0,L|170:165,2,108.750004148483,0|0|0,0:0|0:0|0:0,0:0:0:0:
226,79,187272,1,0,0:0:0:0:
93,169,187585,6,0,P|73:216|93:283,1,108.750004148483,0|0,0:0|0:0,0:0:0:0:
157,330,188053,2,0,L|286:322,2,108.750004148483,0|0|0,0:0|0:0|0:0,0:0:0:0:
149,213,188835,6,0,L|163:123,1,72.5,2|0,0:0|0:0,0:0:0:0:
264,154,189147,2,0,L|247:48,1,72.5,2|0,0:0|0:0,0:0:0:0:
345,91,189460,2,0,L|359:8,1,72.5,2|0,0:0|0:0,0:0:0:0:
440,117,189772,2,0,P|455:189|411:254,1,145,2|4,0:0|1:0,0:0:0:0:
327,320,190241,6,0,P|278:302|175:318,1,145,0|0,0:0|3:0,0:0:0:0:
90,287,190710,2,0,L|58:139,1,145,0|2,0:0|0:0,0:0:0:0:
130,72,191178,2,0,L|139:-4,1,72.5,2|2,0:0|0:0,0:0:0:0:
225,112,191491,1,2,0:0:0:0:
225,112,191647,1,2,3:2:0:0:
318,56,191803,6,0,P|369:57|388:153,1,145,0|0,3:0|3:0,0:0:0:0:
324,208,192272,1,2,0:0:0:0:
324,208,192428,2,0,L|332:300,1,72.5,2|2,0:0|3:2,0:0:0:0:
243,363,192741,1,0,0:0:0:0:
243,363,192897,2,0,L|235:284,1,72.5,2|0,3:2|0:0,0:0:0:0:
142,214,193210,2,0,P|88:209|43:223,2,72.5,0|2|2,0:0|0:0|3:2,0:0:0:0:
247,220,193678,1,2,0:0:0:0:
257,113,193835,6,0,L|410:127,1,145,2|2,3:2|3:2,0:0:0:0:
314,24,194303,2,0,L|461:39,1,145,0|2,3:2|3:2,0:0:0:0:
382,140,194772,2,0,L|298:129,1,72.5,2|2,3:2|0:0,0:0:0:0:
226,208,195085,6,0,B|206:273|206:273|242:355,1,145,8|2,0:0|3:2,0:0:0:0:
435,287,195553,2,0,P|391:258|294:278,1,145,0|2,0:0|0:0,0:0:0:0:
210,342,196022,2,0,L|124:334,1,72.5,8|2,0:0|0:0,0:0:0:0:
47,239,196335,6,0,P|22:189|56:92,1,145,10|2,0:0|3:2,0:0:0:0:
146,44,196803,1,0,0:0:0:0:
226,110,196960,2,0,L|299:106,1,72.5,8|0,0:0|0:0,0:0:0:0:
158,182,197272,1,8,0:0:0:0:
329,13,197585,6,0,P|374:41|390:141,1,145,10|2,3:2|3:2,0:0:0:0:
320,209,198053,2,0,P|314:250|321:367,1,145,0|0,0:0|0:0,0:0:0:0:
432,316,198522,2,0,P|432:264|423:218,1,72.5,8|2,0:0|0:0,0:0:0:0:
354,161,198835,5,4,1:0:0:0:
260,178,198991,1,4,1:3:0:0:
171,199,199147,1,4,1:3:0:0:
175,172,199460,6,0,L|321:142,1,145,2|2,0:0|0:0,0:0:0:0:
131,55,200085,5,4,1:3:0:0:
92,150,200241,1,4,1:3:0:0:
54,238,200397,1,4,1:3:0:0:
104,237,200710,6,0,L|163:96,1,145,2|2,0:0|0:0,0:0:0:0:
307,117,201335,5,4,1:0:0:0:
351,211,201491,1,4,1:3:0:0:
407,301,201647,1,4,1:3:0:0:
416,262,201960,6,0,L|338:129,1,145,2|2,1:0|1:0,0:0:0:0:
227,298,202585,5,6,0:0:0:0:
227,298,202741,2,0,P|169:324|92:292,1,145,0|0,0:0|0:0,0:0:0:0:
44,214,203210,1,2,0:0:0:0:
44,214,203366,2,0,L|67:58,2,145,0|2|2,0:0|0:0|0:0,0:0:0:0:
222,230,204303,1,0,0:0:0:0:
304,185,204460,1,2,0:0:0:0:
379,252,204616,2,0,L|531:244,1,145,0|0,0:0|0:0,0:0:0:0:
481,157,205085,5,2,0:0:0:0:
481,157,205241,2,0,B|460:124|436:104|436:104|436:73|468:24,1,145,0|0,0:0|0:0,0:0:0:0:
353,46,205710,1,2,0:0:0:0:
353,46,205866,2,0,P|315:73|268:80,1,72.5,0|2,0:0|0:0,0:0:0:0:
190,38,206178,6,0,B|133:32|133:32|117:110|158:138,1,145,2|0,0:0|0:0,0:0:0:0:
212,183,206647,2,0,L|209:269,1,72.5,0|2,0:0|0:0,0:0:0:0:
124,316,206960,1,0,0:0:0:0:
124,316,207116,2,0,P|76:329|12:259,1,145,0|2,0:0|0:0,0:0:0:0:
128,197,207585,5,4,0:0:0:0:
256,192,207741,12,2,211335,0:0:0:0:
93,239,211647,6,0,B|57:179|113:112|180:119|180:119|229:238|348:244|384:196|384:196|338:107|392:41,1,580,6|0,0:1|0:0,0:0:0:0:
385,58,213835,6,2,P|435:79|306:239,1,380.625014519692,0|0,0:1|0:0,0:0:0:0:
234,176,215085,6,0,P|168:170|104:240,1,145,4|2,0:3|0:0,0:0:0:0:
16,202,215553,2,0,L|41:352,1,145,2|4,0:0|0:3,0:0:0:0:
133,365,216022,1,0,0:0:0:0:
133,365,216178,1,0,0:0:0:0:
232,300,216335,6,0,B|304:280|304:280|392:330,2,145,0|0|0,0:0|0:0|0:0,0:0:0:0:
455,355,217272,2,0,P|464:306|436:238,1,108.75,6|0,1:0|0:0,0:0:0:0:
407,229,217585,6,0,B|340:209|340:209|295:266|233:260,1,173.999994689942,4|8,1:0|1:0,0:0:0:0:
162,204,218053,1,4,1:3:0:0:
162,204,218210,1,0,3:0:0:0:
75,261,218366,2,0,L|27:254,2,43.4999986724854,4|2|8,1:3|0:0|1:0,0:0:0:0:
133,353,218678,6,0,P|175:297|153:182,1,173.999994689942,2|0,0:0|3:0,0:0:0:0:
88,116,219147,1,8,1:0:0:0:
179,44,219303,1,4,1:3:0:0:
264,127,219460,2,0,L|450:131,1,173.999994689942,0|8,3:0|1:0,0:0:0:0:
314,261,220085,6,0,P|260:277|171:209,1,173.999994689942,4|8,1:3|1:0,0:0:0:0:
263,180,220553,1,4,1:3:0:0:
211,91,220710,2,0,P|204:35|202:4,1,86.9999973449708,0|4,3:0|1:3,0:0:0:0:
328,87,221022,1,8,1:0:0:0:
416,35,221178,6,0,P|482:26|480:118,1,173.999994689942,2|0,0:0|3:0,0:0:0:0:
413,189,221647,2,0,L|310:177,1,86.9999973449708,8|4,1:0|1:3,0:0:0:0:
194,277,221960,2,0,L|291:262,2,86.9999973449708,2|4|8,3:2|1:3|1:0,0:0:0:0:
127,211,222428,1,4,1:3:0:0:
127,211,222506,1,4,1:3:0:0:
127,211,222585,6,0,B|91:270|118:320|118:320|113:352|98:383,1,173.999994689942,4|8,1:0|1:0,0:0:0:0:
16,324,223053,1,4,1:3:0:0:
18,318,223210,2,0,P|3:267|13:194,1,86.9999973449708,0|4,3:0|1:3,0:0:0:0:
53,133,223522,1,8,1:0:0:0:
156,189,223678,6,0,P|223:196|285:97,1,173.999994689942,2|0,0:0|3:0,0:0:0:0:
229,24,224147,1,8,1:0:0:0:
131,59,224303,1,4,1:3:0:0:
148,182,224460,2,0,B|163:232|163:232|142:296|168:354,1,173.999994689942,0|8,3:0|1:0,0:0:0:0:
373,357,225085,6,0,B|388:306|388:306|371:278|346:267|346:267|321:244|346:198,1,173.999994689942,4|8,1:3|1:1,0:0:0:0:
417,124,225553,1,4,1:3:0:0:
417,124,225710,1,0,3:0:0:0:
493,201,225866,2,0,L|499:248,2,43.4999986724854,4|2|8,1:3|0:0|1:0,0:0:0:0:
504,65,226178,6,0,B|493:34|473:15|473:15|408:46|347:36,1,173.999994689942,2|0,0:0|3:0,0:0:0:0:
281,106,226647,2,0,P|262:160|260:208,1,86.9999973449708,8|4,1:0|1:3,0:0:0:0:
168,98,226960,2,0,L|155:7,2,86.9999973449708,4|0|8,1:3|3:0|1:0,0:0:0:0:
105,172,227428,1,4,1:3:0:0:
105,172,227506,1,4,1:3:0:0:
105,172,227585,6,0,P|147:197|264:153,1,173.999994689942,4|8,1:0|1:0,0:0:0:0:
359,219,228053,1,4,1:3:0:0:
450,151,228210,2,0,P|472:197|464:241,1,86.9999973449708,0|4,3:0|1:3,0:0:0:0:
464,268,228444,1,2,0:0:0:0:
464,268,228522,1,8,1:0:0:0:
512,335,228678,6,0,P|443:298|347:324,1,173.999994689942,2|0,0:0|3:0,0:0:0:0:
256,268,229147,1,8,1:0:0:0:
185,344,229303,1,4,1:3:0:0:
100,280,229460,2,0,B|91:164|91:164|150:213,1,173.999994689942,0|8,3:0|1:0,0:0:0:0:
355,212,230085,6,0,P|381:147|311:59,1,173.999994689942,4|8,1:3|1:0,0:0:0:0:
241,127,230553,1,4,1:3:0:0:
143,75,230710,2,0,P|96:103|51:114,1,86.9999973449708,0|4,3:0|1:3,0:0:0:0:
12,208,231022,2,0,L|1:302,1,86.9999973449708,8|2,1:0|0:0,0:0:0:0:
98,356,231335,6,0,B|168:328|148:359|286:345,1,173.999994689942,4|8,1:3|1:0,0:0:0:0:
364,267,231803,1,4,1:3:0:0:
465,298,231960,2,0,L|490:385,2,86.9999973449708,2|4|8,0:0|1:3|1:0,0:0:0:0:
489,202,232428,1,4,1:3:0:0:
489,202,232506,1,4,1:3:0:0:
489,202,232585,6,0,B|426:228|426:228|386:157|413:105,1,173.999994689942,4|8,1:0|1:0,0:0:0:0:
470,35,233053,1,4,1:3:0:0:
340,58,233210,2,0,P|284:58|217:17,1,130.499996017456,0|0,3:0|0:0,0:0:0:0:
189,42,233522,1,8,1:0:0:0:
242,159,233678,6,0,L|250:253,1,86.9999973449708,4|4,1:3|1:3,0:0:0:0:
353,190,233991,1,0,3:0:0:0:
442,269,234147,2,0,P|441:319|413:359,1,86.9999973449708,8|4,1:0|1:3,0:0:0:0:
308,332,234460,2,0,B|252:312|196:337|196:337|158:342|121:321,1,173.999994689942,0|8,3:0|1:0,0:0:0:0:
64,256,234928,1,4,1:3:0:0:
64,256,235006,1,4,1:3:0:0:
64,256,235085,6,0,L|74:200,2,43.4999986724854,4|0|4,1:0|0:0|1:3,0:0:0:0:
163,171,235397,2,0,L|152:61,1,86.9999973449708,8|2,1:0|3:2,0:0:0:0:
252,22,235710,1,4,1:3:0:0:
336,100,235866,1,4,1:0:0:0:
428,40,236022,2,0,P|440:91|435:143,1,86.9999973449708,8|2,1:0|3:2,0:0:0:0:
357,225,236335,6,0,B|261:198|261:198|201:255,2,173.999994689942,4|12|12,1:0|1:0|1:0,0:0:0:0:
292,309,237116,1,0,0:0:0:0:
167,261,237272,2,0,P|102:245|60:253,1,86.9999973449708,12|0,1:0|0:0,0:0:0:0:
60,260,237506,1,0,0:0:0:0:
43,280,237585,5,2,0:0:0:0:
43,280,238835,6,0,P|52:232|41:177,1,86.9999973449708,4|0,1:1|0:0,0:0:0:0:
140,95,239147,1,8,1:0:0:0:
140,95,239303,1,0,0:2:0:0:
233,173,239460,2,0,P|285:198|327:133,1,130.499996017456,6|0,1:3|0:0,0:0:0:0:
375,145,239772,2,0,L|353:58,1,86.9999973449708,14|0,1:0|0:0,0:0:0:0:
470,120,240085,6,0,P|469:170|366:246,1,173.999994689942,4|8,1:2|1:0,0:0:0:0:
269,203,240553,1,2,3:2:0:0:
197,292,240710,2,0,L|57:274,1,130.499996017456,4|0,1:3|0:0,0:0:0:0:
25,274,241022,1,8,1:0:0:0:
95,366,241178,6,0,P|135:332|115:193,1,173.999994689942,2|2,0:0|3:2,0:0:0:0:
217,137,241647,2,0,L|224:35,1,86.9999973449708,8|0,1:0|3:0,0:0:0:0:
281,238,241960,5,4,1:3:0:0:
395,211,242116,1,2,3:2:0:0:
502,184,242272,1,8,1:0:0:0:
512,218,242585,5,4,1:3:0:0:
432,281,242741,2,0,P|390:294|247:272,1,173.999994689942,2|0,0:0|0:0,0:0:0:0:
331,191,243210,5,4,1:3:0:0:
247,270,243366,2,0,P|215:329|204:352,2,86.9999973449708,0|8|2,3:0|1:0|0:0,0:0:0:0:
185,170,243835,6,0,L|173:76,1,86.9999973449708,4|2,1:3|3:2,0:0:0:0:
289,142,244147,2,0,P|283:206|252:247,1,86.9999973449708,8|0,1:0|3:0,0:0:0:0:
189,285,244460,2,0,P|120:263|84:154,1,173.999994689942,4|14,1:3|1:0,0:0:0:0:
227,32,245085,6,0,B|323:15|280:89|399:70,1,173.999994689942,4|8,1:3|1:0,0:0:0:0:
488,27,245553,1,0,3:0:0:0:
401,112,245710,2,0,P|393:159|406:213,1,86.9999973449708,4|2,1:3|3:2,0:0:0:0:
474,286,246022,1,8,1:0:0:0:
377,346,246178,6,0,B|326:326|326:326|299:358|299:358|206:361,1,173.999994689942,2|2,0:0|3:2,0:0:0:0:
151,284,246647,2,0,P|105:312|82:353,1,86.9999973449708,8|2,1:0|0:0,0:0:0:0:
67,212,246960,5,4,1:3:0:0:
93,116,247116,1,2,3:2:0:0:
122,21,247272,1,8,1:0:0:0:
123,58,247585,5,4,1:0:0:0:
206,122,247741,2,0,P|205:165|118:254,1,173.999994689942,2|0,3:2|3:0,0:0:0:0:
78,164,248210,5,4,1:3:0:0:
27,267,248366,2,0,L|9:362,2,86.9999973449708,0|8|2,3:0|1:0|0:0,0:0:0:0:
147,324,248835,6,0,P|219:339|259:328,1,86.9999973449708,4|0,1:3|3:0,0:0:0:0:
318,249,249147,2,0,L|344:156,1,86.9999973449708,8|0,1:0|3:0,0:0:0:0:
419,286,249460,2,0,L|431:379,1,86.9999973449708,4|0,1:0|0:0,0:0:0:0:
509,240,249772,1,14,1:0:0:0:
355,112,250085,6,0,B|276:94|266:158|183:133,1,173.999994689942,4|8,1:3|1:0,0:0:0:0:
105,60,250553,1,2,3:2:0:0:
27,143,250710,2,0,P|11:184|34:251,1,86.9999973449708,4|2,1:3|3:2,0:0:0:0:
92,311,251022,1,8,1:0:0:0:
188,262,251178,6,0,B|249:252|296:284|296:284|323:273|379:291,1,173.999994689942,2|0,3:2|3:0,0:0:0:0:
445,363,251647,1,8,1:0:0:0:
329,378,251803,1,2,3:2:0:0:
374,259,251960,2,0,P|393:192|374:125,1,130.499996017456,4|0,1:3|0:0,0:0:0:0:
346,117,252272,2,0,L|370:17,1,86.9999973449708,12|2,1:0|3:2,0:0:0:0:
242,133,252585,6,0,P|201:157|87:124,1,173.999994689942,4|8,1:0|1:0,0:0:0:0:
163,53,253053,1,2,3:2:0:0:
260,134,253210,2,0,P|266:190|234:256,1,130.499996017456,4|2,1:3|0:0,0:0:0:0:
201,280,253522,1,8,1:0:0:0:
305,355,253678,6,0,P|360:368|438:279,1,173.999994689942,2|2,0:0|3:2,0:0:0:0:
342,248,254147,1,8,1:0:0:0:
268,339,254303,1,4,1:3:0:0:
171,267,254460,2,0,L|71:270,1,86.9999973449708,4|0,1:0|0:0,0:0:0:0:
253,195,254772,2,0,L|278:107,1,86.9999973449708,14|0,1:0|0:0,0:0:0:0:
153,134,255085,5,4,1:0:0:0:
73,86,255241,2,0,P|131:47|235:88,1,173.999994689942,2|2,3:2|0:0,0:0:0:0:
342,30,255710,5,4,1:0:0:0:
439,97,255866,2,0,P|384:136|391:248,1,173.999994689942,4|2,1:3|3:2,0:0:0:0:
465,317,256335,6,0,B|499:312|498:312|503:310|503:310|532:264,1,86.9999973449708,4|4,1:0|1:3,0:0:0:0:
372,270,256647,2,0,B|306:264|306:264|269:261,1,86.9999973449708,12|4,1:0|1:3,0:0:0:0:
444,207,256960,2,0,B|427:166|427:166|438:115|438:115,1,86.9999973449708,4|4,1:0|1:3,0:0:0:0:
294,108,257272,2,0,B|322:155|322:155|313:206,1,86.9999973449708,12|4,1:0|1:3,0:0:0:0:
214,264,257585,5,14,1:0:0:0:
214,264,257741,1,4,1:3:0:0:
136,190,257897,2,0,L|48:184,1,86.9999973449708,14|4,1:0|1:3,0:0:0:0:
216,112,258210,1,14,1:0:0:0:
216,112,258366,1,4,1:3:0:0:
117,48,258522,2,0,L|101:122,1,43.4999986724854,14|6,1:0|1:3,0:0:0:0:
66,105,258678,2,0,L|82:185,1,43.4999986724854,6|6,1:3|1:3,0:0:0:0:
49,185,258835,5,4,1:0:0:0:
256,192,258913,12,2,260710,0:0:0:0:
