osu file format v14

[General]
AudioFilename: audio.mp3
AudioLeadIn: 0
PreviewTime: 47272
Countdown: 0
SampleSet: Soft
StackLeniency: 0.4
Mode: 0
LetterboxInBreaks: 0
WidescreenStoryboard: 1

[Editor]
Bookmarks: 17272,17428,92272,175085
DistanceSpacing: 1.1
BeatDivisor: 4
GridSize: 8
TimelineZoom: 1.1

[Metadata]
Title:Itazura Sensation
TitleUnicode:悪戯センセーション
Artist:Shinra-bansho
ArtistUnicode:森羅万象
Creator:Hailie
Version:Mathew's Insane
Source:東方紅魔郷 ~ the Embodiment of Scarlet Devil.
Tags:Ayaponzu* Ayo Remilia Flandre Scarlet Shiro ticat kaztora Kafuu Doujin Septette for the Dead Princess U.N. Owen was her? ZUN Touhou AJ Mischievous funkot Shanipika Shiratoi RVMathew Nao Tomori Naotoshi
BeatmapID:1616716
BeatmapSetID:745460

[Difficulty]
HPDrainRate:6
CircleSize:5
OverallDifficulty:7
ApproachRate:9
SliderMultiplier:1.6
SliderTickRate:1

[Events]
//Background and Video events
0,0,"maxresdefault.jpg",0,0
Video,0,"vid.avi"
//Break Periods
2,92160,102460
2,115710,116960
2,180397,188210
//Storyboard Layer 0 (Background)
//Storyboard Layer 1 (Fail)
//Storyboard Layer 2 (Pass)
//Storyboard Layer 3 (Foreground)
//Storyboard Sound Samples

[TimingPoints]
1335,312.5,4,2,0,50,1,0
1335,-125,4,2,0,50,0,0
8835,-117.647058823529,4,2,0,50,0,0
9147,-111.111111111111,4,2,0,50,0,0
9460,-105.263157894737,4,2,0,50,0,0
9772,-100,4,2,0,50,0,0
10085,-100,4,2,0,60,0,0
11491,-100,4,2,0,50,0,0
12585,-100,4,2,0,60,0,0
25085,-100,4,2,0,50,0,0
36335,-99.9999999999999,4,2,0,60,0,0
47272,-125,4,2,0,45,0,0
47585,-133.333333333333,4,2,0,45,0,0
58210,-133.333333333333,4,2,0,60,0,0
60710,312.5,4,2,0,50,1,0
60710,-111.111111111111,4,2,0,50,0,0
65710,-100,4,2,0,60,0,0
66022,-100,4,2,0,40,0,0
66335,-100,4,2,0,60,0,0
66647,-100,4,2,0,40,0,0
66960,-100,4,2,0,60,0,0
67272,-100,4,2,0,40,0,0
67585,-100,4,2,0,60,0,0
67897,-100,4,2,0,40,0,0
68210,-100,4,2,0,65,0,0
71960,-90.9090909090909,4,2,0,80,0,1
90710,-90.9090909090909,4,2,0,80,0,0
103210,-100,4,2,0,60,0,0
113210,-125,4,2,0,60,0,0
115710,-100,4,2,0,50,0,0
116960,-100,4,2,0,40,0,0
117741,-100,4,2,0,50,0,0
128210,-142.857142857143,4,2,0,50,0,0
129460,-133.333333333333,4,2,0,40,0,0
138835,312.5,4,2,0,50,1,0
138835,-111.111111111111,4,2,0,50,0,0
143835,-100,4,2,0,60,0,0
144147,-100,4,2,0,40,0,0
144460,-100,4,2,0,60,0,0
144772,-100,4,2,0,40,0,0
145085,-100,4,2,0,60,0,0
145397,-100,4,2,0,40,0,0
145710,-100,4,2,0,60,0,0
146022,-100,4,2,0,40,0,0
146335,-100,4,2,0,65,0,0
150085,-90.9090909090909,4,2,0,80,0,1
168835,-90.9090909090909,4,2,0,80,0,1
170085,-113.636363636364,4,2,0,55,0,0
172585,-153.846153846154,4,2,0,60,0,0
173210,-86.9565217391304,4,2,0,60,0,0
173835,-117.647058823529,4,2,0,60,0,0
174772,-80,4,2,0,60,0,0
175085,-111.111111111111,4,2,0,55,0,0
177585,-153.846153846154,4,2,0,60,0,0
178210,-86.9565217391304,4,2,0,60,0,0
178835,-117.647058823529,4,2,0,60,0,0
179772,-80,4,2,0,60,0,0
188835,-100,4,2,0,50,0,0
190085,-100,4,2,0,60,0,0
198835,-100,4,2,0,65,0,0
199460,-100,4,2,0,55,0,0
200085,-90.9090909090909,4,2,0,65,0,0
200710,-90.9090909090909,4,2,0,55,0,0
201335,-83.3333333333333,4,2,0,65,0,0
201960,-83.3333333333333,4,2,0,60,0,0
202585,-100,4,2,0,45,0,0
207585,-100,4,2,0,55,0,0
210085,-100,4,2,0,65,0,0
211647,-100,4,2,0,65,0,0
215085,-100,4,2,0,45,0,0
216335,-100,4,2,0,70,0,0
217585,-86.9565217391304,4,2,0,80,0,1
236335,-86.9565217391304,4,2,0,80,0,1
237585,-100,4,2,0,40,0,0
238835,-83.3333333333333,4,2,0,80,0,1
257585,-71.4285714285714,4,2,0,80,0,1
258835,-100,4,2,0,80,0,0
258913,-100,4,2,0,25,0,0

[Colours]
Combo1 : 174,174,255
Combo2 : 0,128,128
Combo3 : 165,0,82
Combo4 : 255,13,13

[HitObjects]
167,87,1335,6,0,L|167:162,1,64,4|0,1:0|0:0,0:0:0:0:
345,297,1960,2,0,L|345:222,1,64,8|2,0:1|0:0,0:0:0:0:
256,20,2585,5,8,0:1:0:0:
256,97,2741,2,0,L|256:250,2,128,0|2|0,0:0|0:0|0:0,0:0:0:0:
256,20,3522,1,8,0:1:0:0:
417,96,3835,6,0,L|353:96,1,64,4|0,0:3|0:0,0:0:0:0:
95,288,4460,2,0,L|159:288,1,64,8|0,2:0|0:0,0:0:0:0:
294,102,5085,5,2,0:0:0:0:
256,36,5241,1,0,0:0:0:0:
218,102,5397,1,4,0:3:0:0:
256,169,5553,2,0,B|272:217|240:257|256:305,1,128,2|0,1:2|0:0,0:0:0:0:
256,373,6022,1,8,0:0:0:0:
417,288,6335,6,0,L|353:288,1,64,4|0,0:3|0:0,0:0:0:0:
95,96,6960,2,0,L|159:96,1,64,8|0,0:0|0:0,0:0:0:0:
389,96,7585,5,0,1:0:0:0:
323,55,7741,1,0,0:0:0:0:
391,22,7897,1,0,0:0:0:0:
389,96,8053,2,0,B|339:94|339:94|314:108|314:108|241:106,1,128,0|2,1:0|0:0,0:0:0:0:
187,102,8522,1,0,1:0:0:0:
245,254,8835,6,0,P|293:248|358:283,1,102.000001945496,0|0,1:0|0:0,0:0:0:0:
363,286,9147,2,0,P|349:229|382:177,1,107.999996704102,0|0,1:0|0:0,0:0:0:0:
390,163,9460,2,0,P|410:119|356:66,1,113.999996955872,0|0,1:0|0:0,0:0:0:0:
343,62,9772,2,0,P|286:70|205:45,1,120,0|0,1:1|0:0,0:0:0:0:
194,47,10085,5,4,0:1:0:0:
122,83,10241,1,4,0:1:0:0:
196,130,10397,1,4,0:1:0:0:
107,167,10553,1,4,0:3:0:0:
107,167,10631,1,4,0:3:0:0:
107,167,10710,2,0,L|111:222,3,40,4|4|4|4,0:3|0:3|0:3|0:3,0:0:0:0:
162,248,11022,2,0,L|158:303,3,40,4|4|4|4,0:3|0:3|0:3|0:3,0:0:0:0:
118,42,12585,6,0,L|112:134,1,80,4|0,1:0|0:0,0:0:0:0:
155,198,12897,2,0,P|194:181|243:198,1,80,8|4,1:0|3:0,0:0:0:0:
367,211,13210,2,0,P|286:231|220:167,1,160,2|8,0:0|1:0,0:0:0:0:
187,110,13678,1,2,3:2:0:0:
265,68,13835,6,0,P|299:76|346:54,1,80,4|0,1:3|3:0,0:0:0:0:
400,24,14069,1,2,0:0:0:0:
400,24,14147,2,0,P|380:57|396:108,1,80,8|4,1:0|3:0,0:0:0:0:
479,159,14460,2,0,P|411:132|328:187,1,160,2|8,0:0|1:0,0:0:0:0:
272,228,14928,1,0,0:0:0:0:
191,192,15085,5,4,1:3:0:0:
272,228,15241,1,0,0:0:0:0:
338,169,15397,2,0,P|355:131|340:86,1,80,8|4,1:0|3:0,0:0:0:0:
217,57,15710,2,0,P|269:110|355:86,1,160,2|8,0:0|1:0,0:0:0:0:
418,43,16178,1,2,3:2:0:0:
495,102,16335,5,4,1:3:0:0:
432,164,16491,1,0,3:0:0:0:
432,164,16569,1,2,0:0:0:0:
432,164,16647,1,8,1:0:0:0:
489,254,16803,1,4,3:0:0:0:
489,254,16960,2,0,L|396:245,1,80,2|4,0:0|0:3,0:0:0:0:
264,194,17272,2,0,L|344:187,1,80,8|0,1:0|0:0,0:0:0:0:
384,49,17585,6,0,P|406:81|403:121,1,80,4|0,1:3|0:0,0:0:0:0:
344,187,17897,2,0,P|339:226|350:266,1,80,8|4,1:0|3:0,0:0:0:0:
488,300,18210,2,0,P|437:256|336:274,1,160,0|8,0:0|1:0,0:0:0:0:
273,309,18678,1,2,3:2:0:0:
192,271,18835,6,0,P|175:237|189:189,1,80,4|0,1:3|3:0,0:0:0:0:
230,147,19069,1,2,0:0:0:0:
230,147,19147,2,0,P|238:108|221:73,1,80,8|4,1:0|3:0,0:0:0:0:
82,37,19460,2,0,P|133:81|234:63,1,160,2|8,0:0|1:0,0:0:0:0:
291,20,19928,1,0,0:0:0:0:
358,76,20085,6,0,P|376:117|359:164,1,80,4|0,1:3|0:0,0:0:0:0:
302,207,20397,1,8,1:0:0:0:
359,273,20553,1,4,3:0:0:0:
219,279,20710,2,0,P|262:247|360:274,1,160,2|8,0:0|1:0,0:0:0:0:
426,329,21178,1,2,3:2:0:0:
508,296,21335,5,4,1:0:0:0:
486,202,21491,1,4,1:3:0:0:
465,108,21647,1,4,1:3:0:0:
465,108,21960,1,4,1:3:0:0:
401,168,22116,1,2,3:2:0:0:
415,197,22194,1,2,0:0:0:0:
413,228,22272,1,8,0:3:0:0:
338,274,22428,1,4,0:3:0:0:
324,245,22506,1,4,0:3:0:0:
326,214,22584,5,4,1:3:0:0:
401,168,22741,1,8,3:0:0:0:
310,135,22897,1,8,1:0:0:0:
410,84,23053,1,12,3:0:0:0:
310,135,23210,5,2,0:0:0:0:
410,186,23366,1,12,0:3:0:0:
319,219,23522,1,8,1:0:0:0:
394,265,23679,1,2,3:2:0:0:
332,315,23835,5,4,1:3:0:0:
335,318,24147,1,4,0:3:0:0:
335,318,24303,2,0,P|286:261|183:261,1,160,4|0,1:3|0:0,0:0:0:0:
120,275,24772,2,0,P|99:240|120:183,1,80,0|4,0:0|0:3,0:0:0:0:
143,146,25006,1,4,0:3:0:0:
143,146,25085,6,0,P|185:148|234:114,1,80,4|0,0:3|0:0,0:0:0:0:
280,69,25397,1,8,0:1:0:0:
350,122,25553,2,0,L|344:208,1,80,0|0,1:0|0:0,0:0:0:0:
267,314,25866,1,4,0:3:0:0:
267,314,26022,2,0,L|262:235,1,80,8|2,0:1|0:0,0:0:0:0:
179,143,26335,5,4,0:3:0:0:
111,199,26491,1,0,0:0:0:0:
111,199,26647,2,0,P|99:237|121:285,1,80,8|4,0:1|0:3,0:0:0:0:
250,273,26960,2,0,P|209:302|106:267,1,160,2|8,0:0|0:1,0:0:0:0:
62,199,27428,1,0,0:0:0:0:
140,143,27585,6,0,P|148:105|127:60,1,80,4|0,0:3|0:0,0:0:0:0:
54,29,27897,1,8,0:1:0:0:
54,29,28053,2,0,P|25:82|91:166,1,160,4|0,0:3|0:0,0:0:0:0:
145,209,28522,1,8,0:1:0:0:
225,173,28678,6,0,P|300:163|347:223,2,160,0|2|4,0:0|0:0|0:3,0:0:0:0:
145,209,29460,1,2,0:0:0:0:
100,133,29616,1,4,0:3:0:0:
100,133,29772,2,0,P|141:139|198:104,1,80,8|2,0:1|0:0,0:0:0:0:
255,71,30085,5,4,1:0:0:0:
324,136,30241,1,4,0:3:0:0:
391,204,30397,1,4,0:3:0:0:
100,251,30866,1,0,0:0:0:0:
100,251,31022,2,0,P|141:245|198:280,1,80,0|0,3:0|0:0,0:0:0:0:
255,313,31335,5,4,0:1:0:0:
324,248,31491,1,4,0:3:0:0:
391,180,31647,1,4,0:3:0:0:
72,29,32272,1,0,3:0:0:0:
17,97,32428,1,0,0:0:0:0:
92,169,32585,6,0,P|153:227|128:297,1,160,4|8,0:1|0:1,0:0:0:0:
61,342,33053,2,0,P|140:309|222:348,1,160,4|4,0:3|0:3,0:0:0:0:
284,289,33522,1,8,0:1:0:0:
430,280,33678,6,0,P|351:313|269:274,1,160,2|0,0:0|0:0,0:0:0:0:
219,229,34147,1,8,0:1:0:0:
206,203,34225,1,2,0:0:0:0:
209,175,34303,1,4,0:3:0:0:
224,151,34381,1,2,0:0:0:0:
242,130,34460,2,0,P|250:109|251:76,3,40,0|0|4|2,0:0|0:0|0:3|0:0,0:0:0:0:
230,73,34772,2,0,P|224:51|205:24,3,40,8|2|2|0,0:1|0:0|0:3|0:0,0:0:0:0:
188,27,35085,1,0,0:0:0:0:
345,32,36335,6,0,P|331:68|353:133,1,80,4|0,1:0|0:0,0:0:0:0:
402,173,36647,1,8,0:1:0:0:
402,173,36803,2,0,P|344:138|253:166,1,160,4|4,1:3|1:3,0:0:0:0:
209,210,37194,1,0,0:0:0:0:
209,210,37272,2,0,P|201:248|229:296,1,80,8|0,1:0|0:0,0:0:0:0:
259,160,37585,6,0,P|266:121|251:85,1,80,4|0,1:3|0:0,0:0:0:0:
118,46,37897,1,4,1:3:0:0:
118,46,38053,2,0,P|169:96|262:75,1,160,4|0,0:3|0:3,0:0:0:0:
328,42,38522,1,8,1:1:0:0:
409,75,38678,1,0,0:0:0:0:
328,42,38835,6,0,P|323:88|346:132,1,80,4|0,1:3|0:0,0:0:0:0:
388,194,39147,1,8,1:0:0:0:
388,194,39303,2,0,P|426:177|481:190,2,80,2|0|4,1:3|3:0|1:3,0:0:0:0:
339,242,39694,1,0,0:0:0:0:
339,242,39772,2,0,P|301:259|246:246,1,80,8|0,1:0|0:0,0:0:0:0:
186,212,40085,6,0,P|184:178|150:142,1,80,4|0,1:3|0:0,0:0:0:0:
0,104,40397,2,0,P|34:120|72:111,1,80,8|0,1:0|0:0,0:0:0:0:
188,0,40710,2,0,P|156:21|145:59,2,80,4|4|8,3:0|1:3|1:0,0:0:0:0:
258,51,41178,1,0,0:0:0:0:
324,0,41335,5,4,1:3:0:0:
400,96,41491,1,0,0:0:0:0:
306,179,41647,2,0,L|289:273,1,80,8|4,1:0|1:3,0:0:0:0:
224,371,41960,2,0,L|210:293,1,80,0|4,3:3|1:3,0:0:0:0:
210,293,42194,1,0,0:0:0:0:
210,293,42272,1,8,1:0:0:0:
135,227,42428,6,0,P|66:215|82:123,1,160,0|0,3:0|3:0,0:0:0:0:
101,81,42819,1,0,0:0:0:0:
101,81,42897,2,0,P|141:93|192:82,1,80,8|4,1:0|0:3,0:0:0:0:
256,46,43210,1,0,3:0:0:0:
333,88,43366,1,2,3:0:0:0:
295,167,43522,2,0,P|291:207|322:248,1,80,8|0,1:0|3:0,0:0:0:0:
370,281,43756,1,0,0:0:0:0:
370,281,43835,6,0,P|422:235|390:155,1,160,4|8,1:3|1:0,0:0:0:0:
218,45,44303,1,4,1:3:0:0:
218,45,44381,1,0,0:0:0:0:
218,45,44460,2,0,P|237:118|312:129,1,160,0|8,3:0|1:0,0:0:0:0:
498,32,44928,1,0,3:0:0:0:
498,32,45006,1,0,0:0:0:0:
498,32,45085,6,0,P|426:12|380:72,1,160,4|8,1:3|1:0,0:0:0:0:
357,156,45553,1,4,1:3:0:0:
427,209,45710,2,0,L|433:324,1,80,0|4,3:0|0:3,0:0:0:0:
339,384,46022,2,0,L|344:304,1,80,8|0,1:0|3:0,0:0:0:0:
141,159,47272,6,0,P|165:203|141:247,1,96,2|0,0:0|0:0,0:0:0:0:
133,272,47585,6,0,P|171:245|247:262,1,120.000004577637,6|8,0:0|0:0,0:0:0:0:
284,304,48053,2,0,L|263:173,1,120.000004577637,2|0,0:0|0:0,0:0:0:0:
213,143,48522,2,0,L|231:24,2,120.000004577637,8|2|8,0:0|0:0|0:0,0:0:0:0:
157,178,49303,1,0,0:0:0:0:
157,178,49460,2,0,P|141:235|198:278,1,120.000004577637,2|8,0:0|0:0,0:0:0:0:
242,257,49928,1,2,0:0:0:0:
242,257,50085,6,0,P|297:234|363:279,2,120.000004577637,2|8|2,0:0|0:0|0:0,0:0:0:0:
51,312,51178,1,0,0:0:0:0:
51,312,51335,2,0,P|85:262|58:193,1,120.000004577637,2|10,0:0|0:0,0:0:0:0:
24,161,51803,1,0,0:0:0:0:
24,161,51960,2,0,P|11:104|44:56,2,120.000004577637,2|8|2,0:0|0:0|0:0,0:0:0:0:
133,325,53053,1,0,0:0:0:0:
133,325,53210,2,0,L|258:319,1,120.000004577637,2|8,0:0|0:0,0:0:0:0:
307,282,53678,1,2,0:0:0:0:
307,282,53835,5,8,0:0:0:0:
360,161,54147,1,8,0:0:0:0:
285,52,54460,1,2,0:0:0:0:
285,52,54616,1,2,0:0:0:0:
285,52,54772,1,8,0:0:0:0:
408,99,55085,2,0,P|407:42|473:10,2,120.000004577637,6|10|2,0:0|0:0|0:0,0:0:0:0:
498,195,56022,6,0,P|499:252|433:284,2,120.000004577637,8|2|8,0:0|0:0|0:0,0:0:0:0:
465,137,56803,1,0,0:0:0:0:
465,137,56960,2,0,P|406:154|341:131,1,120.000004577637,2|8,0:0|0:0,0:0:0:0:
234,76,57585,2,0,P|176:60|120:77,2,120.000004577637,2|8|4,0:0|0:0|1:0,0:0:0:0:
256,192,58366,12,2,60397,0:0:0:0:
359,48,60710,6,0,P|385:114|337:163,1,143.999995605469,4|0,0:0|0:0,0:0:0:0:
265,189,61178,1,0,0:0:0:0:
265,189,61335,2,0,P|246:220|266:272,1,71.9999978027344,8|0,0:0|0:0,0:0:0:0:
276,328,61647,1,2,0:0:0:0:
276,328,61803,6,0,P|343:310|424:340,1,143.999995605469,0|0,0:0|0:0,0:0:0:0:
489,352,62272,2,0,L|471:262,1,71.9999978027344,2|0,0:0|0:0,0:0:0:0:
413,231,62585,2,0,P|387:166|426:109,1,143.999995605469,8|2,0:0|0:0,0:0:0:0:
290,26,63210,6,0,P|315:90|276:147,1,143.999995605469,4|0,0:0|0:0,0:0:0:0:
205,181,63678,1,0,0:0:0:0:
205,181,63835,2,0,P|167:183|126:155,1,71.9999978027344,8|0,0:0|0:0,0:0:0:0:
67,131,64147,1,2,0:0:0:0:
10,185,64303,6,0,P|-8:251|61:306,1,143.999995605469,0|0,0:0|0:0,0:0:0:0:
112,271,64772,2,0,P|155:267|189:286,1,71.9999978027344,2|0,0:0|0:0,0:0:0:0:
247,322,65085,2,0,P|194:278|211:209,1,143.999995605469,6|2,0:0|0:0,0:0:0:0:
327,80,65710,5,4,1:0:0:0:
327,80,66022,1,2,0:0:0:0:
368,263,66335,1,4,1:0:0:0:
368,263,66647,1,2,0:0:0:0:
144,121,66960,1,4,1:0:0:0:
144,121,67272,1,2,0:0:0:0:
185,304,67585,1,4,1:0:0:0:
185,304,67897,1,2,0:0:0:0:
304,127,68210,5,0,1:0:0:0:
321,240,68366,1,0,1:0:0:0:
191,144,68522,1,0,1:0:0:0:
208,257,68678,1,0,1:0:0:0:
241,95,68835,1,0,1:0:0:0:
159,206,68991,1,0,1:0:0:0:
270,288,69147,1,0,1:0:0:0:
352,177,69303,1,0,1:0:0:0:
256,192,69460,6,0,B|192:168|160:216|96:192,1,160,2|6,1:2|1:0,0:0:0:0:
256,192,69928,12,2,71335,0:0:0:0:
158,310,71647,6,0,P|170:276|156:227,1,80,2|0,1:0|0:0,0:0:0:0:
112,74,71960,6,0,P|42:109|80:179,1,176.000005371094,4|8,1:0|1:0,0:0:0:0:
160,234,72428,1,0,1:0:0:0:
248,193,72585,2,0,P|295:198|333:176,1,88.000002685547,2|4,0:0|1:3,0:0:0:0:
377,126,72819,1,2,0:0:0:0:
377,126,72897,2,0,L|362:37,1,88.000002685547,8|2,1:0|0:0,0:0:0:0:
256,9,73210,5,4,1:3:0:0:
169,52,73366,2,0,P|125:64|69:54,2,88.000002685547,2|8|6,0:0|0:1|1:3,0:0:0:0:
256,9,73835,2,0,P|266:62|246:110,1,88.000002685547,2|4,0:0|1:3,0:0:0:0:
177,149,74147,2,0,P|166:191|177:233,1,88.000002685547,8|0,1:0|0:0,0:0:0:0:
334,233,74460,6,0,P|345:191|335:149,2,88.000002685547,0|0|8,1:0|0:0|1:0,0:0:0:0:
256,284,74928,1,4,1:3:0:0:
177,233,75085,2,0,P|136:218|80:231,1,88.000002685547,2|4,0:0|1:3,0:0:0:0:
338,236,75397,1,8,1:0:0:0:
338,236,75553,6,0,P|380:162|341:84,1,176.000005371094,0|2,0:0|0:0,0:0:0:0:
256,43,76022,1,8,1:0:0:0:
126,118,76178,1,4,1:3:0:0:
126,118,76335,2,0,L|213:125,1,88.000002685547,2|4,0:0|1:3,0:0:0:0:
289,64,76647,1,12,1:0:0:0:
325,153,76803,1,4,1:3:0:0:
286,265,76960,6,0,P|220:210|212:124,1,176.000005371094,4|8,1:0|1:0,0:0:0:0:
267,45,77428,1,4,1:3:0:0:
212,124,77585,2,0,P|169:131|127:119,1,88.000002685547,0|4,3:0|1:3,0:0:0:0:
67,82,77819,1,0,0:0:0:0:
67,82,77897,2,0,P|91:129|69:175,1,88.000002685547,8|2,1:0|0:0,0:0:0:0:
39,257,78210,6,0,P|84:243|142:258,1,88.000002685547,4|2,1:3|0:0,0:0:0:0:
206,299,78522,1,8,1:0:0:0:
281,238,78678,1,4,1:3:0:0:
421,288,78835,2,0,P|339:301|279:225,1,176.000005371094,2|8,0:0|1:0,0:0:0:0:
230,155,79303,1,4,3:0:0:0:
287,30,79460,6,0,P|315:63|314:106,1,88.000002685547,4|0,1:3|0:0,0:0:0:0:
230,155,79772,1,8,1:0:0:0:
137,125,79928,2,0,L|129:184,1,44.0000013427735,4|0,1:3|0:0,0:0:0:0:
115,258,80085,1,0,3:0:0:0:
42,155,80241,1,2,1:3:0:0:
42,155,80319,1,2,0:0:0:0:
42,155,80397,1,8,1:0:0:0:
224,76,80553,6,0,P|278:137|367:120,1,176.000005371094,0|0,3:0|3:0,0:0:0:0:
446,70,81022,1,8,1:0:0:0:
501,149,81178,1,4,1:3:0:0:
421,205,81335,2,0,P|436:250|421:298,1,88.000002685547,2|0,1:3|1:0,0:0:0:0:
372,340,81569,1,0,0:0:0:0:
372,340,81647,2,0,L|282:334,1,88.000002685547,8|4,1:0|0:3,0:0:0:0:
203,253,81881,1,4,0:3:0:0:
203,253,81959,6,0,L|293:247,1,88.000002685547,4|0,1:0|0:0,0:0:0:0:
364,183,82272,1,8,1:0:0:0:
290,120,82428,1,4,1:3:0:0:
200,156,82585,2,0,P|217:117|203:76,2,88.000002685547,0|4|8,3:0|1:3|1:0,0:0:0:0:
125,303,83053,6,0,P|111:263|129:224,1,88.000002685547,2|4,0:0|1:3,0:0:0:0:
200,157,83366,1,0,3:0:0:0:
285,202,83522,1,8,1:0:0:0:
369,154,83678,1,4,1:3:0:0:
425,232,83835,2,0,L|536:259,1,88.000002685547,2|4,0:0|1:3,0:0:0:0:
369,154,84147,2,0,L|258:127,1,88.000002685547,8|0,1:0|0:0,0:0:0:0:
210,68,84460,5,6,1:3:0:0:
129,121,84616,1,0,0:0:0:0:
195,191,84772,2,0,P|219:229|208:280,1,88.000002685547,8|4,1:0|1:3,0:0:0:0:
139,332,85085,2,0,P|115:294|126:243,1,88.000002685547,0|4,3:0|1:3,0:0:0:0:
120,252,85319,1,2,0:0:0:0:
120,252,85397,1,8,1:0:0:0:
195,191,85553,6,0,P|261:242|343:208,1,176.000005371094,2|2,0:0|0:0,0:0:0:0:
398,133,86022,1,8,1:1:0:0:
322,72,86178,1,4,1:3:0:0:
322,72,86335,2,0,P|309:192|356:214,1,176.000005371094,0|8,1:3|1:0,0:0:0:0:
425,271,86803,1,4,1:3:0:0:
425,271,86881,1,4,1:3:0:0:
425,271,86960,6,0,P|382:267|343:308,1,88.000002685547,4|0,1:0|0:0,0:0:0:0:
275,356,87272,1,8,1:0:0:0:
224,273,87428,1,4,1:3:0:0:
127,283,87585,2,0,P|150:246|141:177,1,88.000002685547,0|4,3:0|1:3,0:0:0:0:
103,150,87819,1,0,0:0:0:0:
103,150,87897,2,0,P|143:155|182:124,1,88.000002685547,8|0,1:0|1:3,0:0:0:0:
263,41,88210,6,0,P|259:82|318:123,1,88.000002685547,4|0,1:3|3:0,0:0:0:0:
457,108,88522,2,0,P|422:84|380:92,1,88.000002685547,8|4,1:1|1:3,0:0:0:0:
341,322,88835,2,0,P|395:259|357:186,1,176.000005371094,0|12,3:0|1:2,0:0:0:0:
287,116,89303,2,0,L|217:115,1,44.0000013427735,4|4,1:3|1:3,0:0:0:0:
157,91,89460,5,4,1:0:0:0:
97,167,89616,1,0,3:0:0:0:
190,200,89772,1,8,1:0:0:0:
128,304,89928,1,2,0:0:0:0:
235,283,90085,2,0,L|337:283,1,88.000002685547,4|4,1:0|1:3,0:0:0:0:
445,192,90397,2,0,L|357:192,1,88.000002685547,8|0,1:0|3:0,0:0:0:0:
198,112,90710,6,0,P|200:82|162:41,1,88.000002685547,4|4,1:0|1:3,0:0:0:0:
314,112,91022,2,0,P|312:82|350:41,1,88.000002685547,12|4,1:0|1:3,0:0:0:0:
157,209,91335,2,0,P|136:175|89:166,1,88.000002685547,12|4,1:0|1:3,0:0:0:0:
355,209,91647,2,0,P|375:175|422:166,1,88.000002685547,12|0,1:0|1:3,0:0:0:0:
256,273,91960,5,12,1:0:0:0:
167,32,103210,6,0,P|181:68|159:133,1,80,4|0,1:0|0:0,0:0:0:0:
110,173,103522,1,8,1:0:0:0:
110,173,103678,2,0,P|168:138|259:166,1,160,4|4,1:3|1:3,0:0:0:0:
304,216,104069,1,2,0:0:0:0:
304,216,104147,2,0,P|342:224|390:196,1,80,8|0,1:0|0:0,0:0:0:0:
426,65,104460,6,0,P|419:103|435:140,1,80,4|0,1:3|3:0,0:0:0:0:
438,277,104772,1,8,1:0:0:0:
438,277,104928,2,0,P|471:211|418:131,1,160,4|2,1:3|0:0,0:0:0:0:
363,86,105397,1,8,1:0:0:0:
286,129,105553,1,0,3:0:0:0:
197,15,105710,6,0,P|191:54|205:92,1,80,4|0,1:3|0:0,0:0:0:0:
286,129,106022,1,8,1:0:0:0:
185,228,106178,2,0,P|224:229|261:213,1,80,4|0,1:3|0:0,0:0:0:0:
35,195,106491,1,4,1:3:0:0:
35,195,106569,1,0,0:0:0:0:
35,195,106647,2,0,P|71:178|111:180,1,80,8|0,1:0|3:3,0:0:0:0:
222,75,106960,6,0,P|218:114|191:143,1,80,4|0,1:3|0:0,0:0:0:0:
35,186,107272,2,0,P|71:170|110:180,1,80,8|4,1:0|1:3,0:0:0:0:
226,289,107585,2,0,P|194:266|183:229,2,80,2|6|8,3:0|1:3|1:0,0:0:0:0:
310,313,108053,1,0,0:0:0:0:
369,241,108210,6,0,P|381:202|358:167,1,80,4|0,1:3|3:0,0:0:0:0:
278,47,108522,1,8,1:0:0:0:
278,47,108678,2,0,P|266:84|285:119,1,80,4|0,1:3|0:0,0:0:0:0:
362,170,108991,2,0,L|359:227,1,40,4|0,1:3|0:0,0:0:0:0:
354,303,109147,1,8,1:0:0:0:
270,217,109303,1,0,3:0:0:0:
442,97,109460,6,0,P|404:76|350:99,1,80,6|0,1:3|3:0,0:0:0:0:
314,127,109694,1,2,0:0:0:0:
314,127,109772,2,0,P|274:139|223:128,1,80,8|4,1:0|3:0,0:0:0:0:
166,79,110085,1,0,3:0:0:0:
108,145,110241,1,4,1:3:0:0:
168,208,110397,2,0,P|172:247|152:281,1,80,8|0,1:0|3:0,0:0:0:0:
261,326,110710,6,0,P|300:329|337:313,1,80,4|0,1:3|0:0,0:0:0:0:
392,245,111022,1,8,1:0:0:0:
351,112,111178,2,0,P|360:184|432:224,2,160,4|4|0,1:3|1:3|3:0,0:0:0:0:
415,51,111960,5,0,1:3:0:0:
351,112,112116,1,0,1:3:0:0:
266,27,112272,1,8,1:0:0:0:
192,106,112428,1,0,1:3:0:0:
256,192,112585,2,0,L|364:195,1,80,0|0,1:3|0:0,0:0:0:0:
465,124,112897,2,0,L|386:122,1,80,0|0,1:3|0:0,0:0:0:0:
316,63,113210,6,0,P|261:97|195:87,1,128,8|8,3:0|3:0,0:0:0:0:
62,61,113835,2,0,P|99:107|82:182,1,128,8|8,3:0|3:0,0:0:0:0:
29,299,114460,6,0,L|112:293,1,64,8|8,0:3|0:3,0:0:0:0:
168,286,114772,1,8,0:3:0:0:
168,286,114928,2,0,B|210:295|252:256|305:264,1,128,12|0,0:3|0:0,0:0:0:0:
292,263,115397,1,2,0:0:0:0:
336,86,117741,5,2,0:0:0:0:
336,86,117897,2,0,L|242:86,1,80,4|2,0:1|0:0,0:0:0:0:
152,192,118210,6,0,L|236:192,1,80,4|0,0:1|0:0,0:0:0:0:
314,161,118522,1,8,0:1:0:0:
378,220,118678,2,0,P|391:264|377:308,1,80,4|0,0:3|0:0,0:0:0:0:
318,355,118991,1,4,0:3:0:0:
318,355,119069,1,0,0:0:0:0:
318,355,119147,1,8,0:1:0:0:
177,331,119303,6,0,P|257:375|321:351,1,160,2|2,0:0|3:0,0:0:0:0:
383,296,119772,2,0,P|390:257|378:220,1,80,8|4,0:1|0:3,0:0:0:0:
313,75,120085,2,0,P|307:114|320:152,1,80,0|4,3:0|0:3,0:0:0:0:
377,219,120397,1,8,0:1:0:0:
453,175,120553,1,0,3:0:0:0:
413,302,120710,6,0,P|447:289|517:321,2,80,4|0|8,0:3|0:0|0:1,0:0:0:0:
336,345,121178,2,0,P|301:327|258:326,1,80,4|0,0:3|0:0,0:0:0:0:
180,363,121491,1,4,0:3:0:0:
102,320,121647,1,8,0:1:0:0:
95,182,121803,6,0,P|65:235|105:322,1,160,2|0,0:0|3:0,0:0:0:0:
186,345,122272,2,0,L|282:335,1,80,8|4,0:1|0:3,0:0:0:0:
265,336,122506,1,0,0:0:0:0:
265,336,122585,1,0,0:0:0:0:
336,272,122741,1,4,0:3:0:0:
305,175,122897,2,0,P|287:139|304:89,1,80,8|0,0:1|3:0,0:0:0:0:
379,33,123210,5,4,1:0:0:0:
294,101,123366,1,4,0:3:0:0:
192,77,123522,1,4,0:3:0:0:
75,207,123991,2,0,P|93:243|76:293,1,80,0|4,0:0|3:0,0:0:0:0:
1,349,124304,1,0,0:0:0:0:
86,281,124460,5,4,1:0:0:0:
188,305,124616,1,4,0:3:0:0:
188,305,124694,1,2,0:0:0:0:
188,305,124772,1,4,1:0:0:0:
328,107,125085,2,0,L|335:187,1,80,0|0,3:0|0:0,0:0:0:0:
425,242,125397,2,0,L|419:163,1,80,4|0,1:3|0:0,0:0:0:0:
252,62,125710,6,0,P|206:134|245:213,1,160,4|8,1:1|1:0,0:0:0:0:
302,247,126178,2,0,P|239:222|158:273,1,160,4|4,0:3|0:3,0:0:0:0:
101,327,126647,1,8,0:1:0:0:
19,276,126803,6,0,P|-6:193|37:127,1,160,2|2,0:0|0:0,0:0:0:0:
101,83,127272,2,0,P|141:97|191:91,1,80,8|4,1:0|0:3,0:0:0:0:
320,47,127585,2,0,P|282:33|243:35,1,80,0|4,3:0|0:3,0:0:0:0:
178,94,127897,1,8,0:1:0:0:
225,167,128053,1,0,3:0:0:0:
140,256,128210,6,0,P|139:312|187:359,2,111.999996582031,8|8|8,1:3|1:3|1:3,0:0:0:0:
225,167,129147,1,4,0:0:0:0:
225,167,129460,6,0,P|258:175|294:167,1,60.0000022888184,2|0,0:0|0:0,0:0:0:0:
340,138,129772,1,8,0:0:0:0:
225,167,129928,2,0,P|257:155|282:129,1,60.0000022888184,2|0,0:0|0:0,0:0:0:0:
305,80,130240,1,2,0:0:0:0:
225,167,130397,2,0,P|225:132|209:100,1,60.0000022888184,8|0,0:0|0:0,0:0:0:0:
165,65,130710,6,0,P|125:72|58:53,2,90.0000034332277,2|0|0,0:0|0:0|0:0,0:0:0:0:
290,20,131335,6,0,P|266:44|254:79,1,60.0000022888184,2|0,0:0|0:0,0:0:0:0:
256,134,131647,1,8,0:0:0:0:
290,20,131803,2,0,P|284:54|293:89,1,60.0000022888184,2|2,0:0|0:0,0:0:0:0:
323,134,132115,1,0,0:0:0:0:
290,20,132272,2,0,P|319:38|355:42,1,60.0000022888184,8|0,0:0|0:0,0:0:0:0:
410,45,132585,2,0,P|445:31|501:34,2,90.0000034332277,2|0|0,0:0|0:0|0:0,0:0:0:0:
355,116,133210,6,0,L|361:202,1,60.0000022888184,2|0,0:0|0:0,0:0:0:0:
319,228,133522,1,8,0:0:0:0:
244,167,133678,1,2,0:0:0:0:
244,167,133835,6,0,L|250:253,1,60.0000022888184,2|0,0:0|0:0,0:0:0:0:
210,280,134147,1,8,0:0:0:0:
152,311,134303,1,0,0:0:0:0:
152,311,134460,2,0,L|43:292,2,90.0000034332277,2|0|0,0:0|0:0|0:0,0:0:0:0:
210,280,135085,6,0,P|211:210|264:180,2,120.000004577637,2|0|0,0:0|0:0|0:0,0:0:0:0:
244,335,135866,1,0,0:0:0:0:
302,301,136022,2,0,L|441:290,2,120.000004577637,2|0|2,0:0|0:0|0:0,0:0:0:0:
199,217,136960,6,0,P|202:158|257:119,1,120.000004577637,0|0,0:0|0:0,0:0:0:0:
374,88,137585,1,0,0:0:0:0:
246,121,137897,6,0,P|190:103|165:51,2,120.000004577637,2|0|0,0:0|0:0|0:0,0:0:0:0:
359,48,138835,6,0,P|385:114|337:163,1,143.999995605469,4|0,1:0|0:0,0:0:0:0:
265,189,139303,1,2,0:0:0:0:
265,189,139460,2,0,P|246:220|266:272,1,71.9999978027344,8|2,0:0|0:0,0:0:0:0:
250,253,139694,1,0,0:0:0:0:
250,253,139772,1,2,0:0:0:0:
276,328,139928,6,0,P|343:310|424:340,1,143.999995605469,2|0,0:0|0:0,0:0:0:0:
489,352,140397,2,0,L|471:262,1,71.9999978027344,2|0,0:0|0:0,0:0:0:0:
425,109,140710,2,0,P|386:166|413:231,1,143.999995605469,2|2,0:0|3:0,0:0:0:0:
290,26,141335,6,0,P|315:90|276:147,1,143.999995605469,4|0,1:0|0:0,0:0:0:0:
205,181,141803,1,0,0:0:0:0:
205,181,141960,2,0,P|167:183|126:155,1,71.9999978027344,10|2,0:0|0:0,0:0:0:0:
137,167,142194,1,0,0:0:0:0:
137,167,142272,1,0,0:0:0:0:
46,270,142428,6,0,P|112:252|187:303,1,143.999995605469,2|0,0:0|0:0,0:0:0:0:
307,326,142897,2,0,P|264:322|230:341,1,71.9999978027344,2|2,0:0|0:0,0:0:0:0:
175,286,143210,2,0,P|122:242|139:173,1,143.999995605469,0|10,0:0|3:0,0:0:0:0:
185,80,143835,5,4,1:1:0:0:
185,80,144147,1,2,0:0:0:0:
144,263,144460,1,4,1:0:0:0:
144,263,144772,1,2,0:0:0:0:
368,121,145085,1,4,1:0:0:0:
368,121,145397,1,2,0:0:0:0:
327,304,145710,1,4,1:0:0:0:
327,304,146022,1,2,0:0:0:0:
208,127,146335,5,0,1:3:0:0:
321,144,146491,1,0,1:3:0:0:
191,240,146647,1,0,1:3:0:0:
304,257,146803,1,0,1:3:0:0:
271,95,146960,1,0,1:3:0:0:
242,288,147116,1,0,1:3:0:0:
353,206,147272,1,0,1:3:0:0:
160,177,147428,1,0,1:3:0:0:
256,192,147585,6,0,B|320:168|352:216|416:192,1,160,4|4,1:3|1:1,0:0:0:0:
256,192,148053,12,2,149460,3:2:0:0:
162,283,149772,6,0,L|155:171,1,80,6|0,1:0|0:0,0:0:0:0:
74,64,150085,6,0,P|113:124|213:106,1,176.000005371094,4|8,1:1|1:0,0:0:0:0:
285,56,150553,1,4,1:3:0:0:
439,132,150710,2,0,P|397:119|340:141,1,88.000002685547,0|4,3:0|1:3,0:0:0:0:
302,183,150944,1,2,0:0:0:0:
302,183,151022,2,0,L|317:272,1,88.000002685547,8|2,1:0|0:0,0:0:0:0:
336,368,151335,5,4,1:3:0:0:
247,330,151491,1,0,3:0:0:0:
398,240,151647,1,8,1:0:0:0:
196,178,151803,1,4,1:3:0:0:
316,138,151960,2,0,P|326:85|306:37,1,88.000002685547,0|0,1:0|3:0,0:0:0:0:
220,13,152272,2,0,P|210:66|230:114,1,88.000002685547,8|0,1:0|0:0,0:0:0:0:
316,138,152585,6,0,P|358:127|400:137,2,88.000002685547,4|0|8,1:0|0:0|1:0,0:0:0:0:
249,208,153053,1,4,1:3:0:0:
154,184,153210,2,0,P|139:143|152:87,1,88.000002685547,0|0,3:0|1:3,0:0:0:0:
159,72,153444,1,2,0:0:0:0:
182,52,153522,1,8,1:0:0:0:
327,12,153678,6,0,P|264:69|179:49,1,176.000005371094,2|0,0:0|3:0,0:0:0:0:
91,14,154147,1,8,1:0:0:0:
25,84,154303,1,4,1:3:0:0:
106,136,154460,2,0,L|113:223,1,88.000002685547,2|4,3:2|1:3,0:0:0:0:
126,328,154772,1,12,1:0:0:0:
30,276,154928,1,4,0:3:0:0:
202,184,155085,6,0,P|291:212|372:179,1,176.000005371094,4|8,1:0|1:0,0:0:0:0:
435,117,155553,1,4,1:3:0:0:
497,191,155710,2,0,P|503:234|491:276,1,88.000002685547,0|4,3:0|1:3,0:0:0:0:
474,306,155944,1,2,0:0:0:0:
441,329,156022,1,8,1:0:0:0:
336,295,156178,6,0,L|214:304,1,88.000002685547,2|4,0:0|1:3,0:0:0:0:
160,260,156491,1,0,3:0:0:0:
237,201,156647,1,8,1:0:0:0:
152,101,156803,1,4,1:3:0:0:
248,115,156960,2,0,P|291:127|340:112,1,88.000002685547,0|4,3:0|1:3,0:0:0:0:
477,43,157272,2,0,P|435:31|393:42,1,88.000002685547,8|4,1:0|1:3,0:0:0:0:
332,116,157585,6,0,P|351:160|337:212,1,88.000002685547,6|0,1:3|0:0,0:0:0:0:
310,288,157897,1,8,1:0:0:0:
218,257,158053,1,4,1:3:0:0:
114,306,158210,2,0,P|145:270|137:217,1,88.000002685547,2|4,0:0|1:3,0:0:0:0:
135,202,158444,1,0,0:0:0:0:
114,178,158522,1,8,1:0:0:0:
79,47,158678,6,0,P|52:128|128:178,1,176.000005371094,2|0,3:2|3:0,0:0:0:0:
208,204,159147,1,8,1:0:0:0:
278,137,159303,1,4,1:3:0:0:
359,189,159460,2,0,L|371:283,1,88.000002685547,6|2,1:3|3:0,0:0:0:0:
464,331,159694,1,0,0:0:0:0:
464,331,159772,2,0,L|452:243,1,88.000002685547,8|4,1:0|1:3,0:0:0:0:
263,115,160006,1,4,1:3:0:0:
263,115,160084,6,0,L|274:202,1,88.000002685547,4|0,1:0|0:0,0:0:0:0:
318,289,160397,1,8,1:0:0:0:
408,254,160553,1,6,1:3:0:0:
318,289,160710,2,0,P|274:269|215:292,1,88.000002685547,0|4,3:0|1:3,0:0:0:0:
83,328,161022,1,8,1:0:0:0:
83,328,161178,6,0,P|122:347|165:341,1,88.000002685547,2|4,0:0|1:3,0:0:0:0:
236,276,161491,1,0,3:0:0:0:
164,341,161647,1,8,1:0:0:0:
142,207,161803,1,4,1:3:0:0:
212,140,161960,2,0,P|257:153|318:119,1,88.000002685547,0|4,3:0|1:3,0:0:0:0:
440,75,162272,2,0,P|398:88|357:77,1,88.000002685547,8|0,1:0|0:0,0:0:0:0:
211,21,162585,6,0,P|265:106|233:163,1,176.000005371094,6|8,1:3|1:0,0:0:0:0:
163,230,163053,1,4,1:3:0:0:
217,310,163210,2,0,P|261:292|304:308,1,88.000002685547,0|4,3:0|1:3,0:0:0:0:
386,342,163522,1,8,1:0:0:0:
424,200,163678,6,0,P|445:280|381:342,1,176.000005371094,2|0,0:0|3:0,0:0:0:0:
292,369,164147,1,8,1:0:0:0:
126,299,164303,1,4,1:3:0:0:
126,299,164460,2,0,P|176:305|219:278,1,88.000002685547,2|2,3:2|1:3,0:0:0:0:
273,217,164772,1,8,1:0:0:0:
216,135,164928,1,4,1:3:0:0:
216,135,165006,1,4,1:3:0:0:
216,135,165085,6,0,P|167:148|107:107,1,88.000002685547,4|0,1:0|0:0,0:0:0:0:
44,97,165397,1,8,1:0:0:0:
123,42,165553,1,4,1:3:0:0:
134,137,165710,2,0,P|152:177|139:235,1,88.000002685547,0|4,3:0|1:3,0:0:0:0:
117,288,165944,1,0,0:0:0:0:
117,288,166022,2,0,P|150:265|199:276,1,88.000002685547,8|4,1:0|1:3,0:0:0:0:
296,337,166335,6,0,P|292:296|351:255,1,88.000002685547,4|0,1:3|3:0,0:0:0:0:
490,219,166647,2,0,P|455:243|413:236,1,88.000002685547,8|4,1:0|1:3,0:0:0:0:
288,109,166960,2,0,P|319:136|312:271,1,176.000005371094,0|12,3:0|1:2,0:0:0:0:
206,161,167428,2,0,L|136:152,1,44.0000013427735,4|4,1:3|1:3,0:0:0:0:
68,119,167585,5,4,1:0:0:0:
8,195,167741,1,4,1:3:0:0:
101,228,167897,1,8,1:0:0:0:
39,332,168053,1,0,3:0:0:0:
146,311,168210,2,0,P|192:305|248:311,1,88.000002685547,4|4,1:1|1:3,0:0:0:0:
335,228,168444,1,2,0:0:0:0:
335,228,168522,2,0,P|288:232|247:228,1,88.000002685547,8|0,1:1|3:0,0:0:0:0:
162,41,168835,6,0,P|195:69|198:112,1,88.000002685547,4|4,1:0|1:3,0:0:0:0:
349,41,169147,2,0,P|316:69|314:112,1,88.000002685547,8|0,1:0|1:3,0:0:0:0:
91,165,169460,2,0,P|133:173|157:209,1,88.000002685547,8|4,1:0|1:3,0:0:0:0:
420,165,169772,2,0,P|377:172|355:209,1,88.000002685547,8|4,1:0|1:3,0:0:0:0:
256,273,170085,6,0,B|310:265|310:265|340:284|340:284|415:272,1,140.800004296875,4|2,0:0|0:0,0:0:0:0:
256,273,170710,2,0,B|202:265|202:265|172:284|172:284|97:272,1,140.800004296875,2|2,0:0|0:0,0:0:0:0:
318,174,171335,6,0,B|372:165|372:165|402:185|402:185|478:172,1,140.800004296875,2|2,0:0|0:0,0:0:0:0:
197,111,171960,2,0,B|142:102|142:102|112:122|112:122|36:109,1,140.800004296875,2|2,0:0|0:0,0:0:0:0:
20,219,172585,6,0,B|10:231|10:231|24:242|24:242|13:253|13:253|26:265|26:265|14:278|14:278|30:287|30:287|16:300|16:300|32:307|32:307|18:320|18:320,1,155.999992858887,2|2,0:0|0:0,0:0:0:0:
106,358,173210,6,0,P|149:333|209:347,1,92.0000017547608,4|0,0:0|0:0,0:0:0:0:
237,357,173444,2,0,P|216:316|241:260,1,92.0000017547608,4|0,0:0|0:0,0:0:0:0:
257,233,173678,1,0,0:0:0:0:
374,232,173835,6,0,P|321:262|252:224,1,136.000002593994,8|8,0:3|0:3,0:0:0:0:
206,102,174460,1,6,0:0:0:0:
206,102,174772,6,0,L|257:102,1,50,2|0,0:0|0:0,0:0:0:0:
356,46,174928,2,0,L|306:46,1,50,2|0,0:0|0:0,0:0:0:0:
206,102,175085,6,0,B|152:94|152:94|122:113|122:113|47:101,1,143.999995605469,2|0,0:0|0:0,0:0:0:0:
306,102,175710,2,0,B|360:94|360:94|390:113|390:113|465:101,1,143.999995605469,2|0,0:0|0:0,0:0:0:0:
162,234,176335,6,0,B|108:226|108:226|78:245|78:245|3:233,1,143.999995605469,0|0,0:0|0:0,0:0:0:0:
350,234,176960,2,0,B|404:226|404:226|434:245|434:245|509:233,1,143.999995605469,2|2,0:0|0:0,0:0:0:0:
429,133,177585,6,0,B|412:125|412:125|424:113|424:113|408:105|408:105|420:92|420:92|404:83|404:83|413:68|413:68|399:60|399:60|409:46|409:46|396:37,1,155.999992858887,2|2,0:0|0:0,0:0:0:0:
316,19,178210,6,0,P|247:50|226:40,1,92.0000017547608,4|0,0:0|0:0,0:0:0:0:
193,20,178444,2,0,L|202:132,1,92.0000017547608,4|0,0:0|0:0,0:0:0:0:
225,155,178678,1,0,0:0:0:0:
309,130,178835,6,0,P|369:138|389:213,1,136.000002593994,12|12,0:3|0:3,0:0:0:0:
341,343,179460,1,6,0:0:0:0:
341,343,179772,6,0,L|281:343,1,50,2|0,0:0|0:0,0:0:0:0:
189,288,179928,2,0,L|239:288,1,50,0|0,0:0|0:0,0:0:0:0:
299,230,180085,5,4,1:1:0:0:
211,334,188835,5,2,0:0:0:0:
351,228,189147,1,2,0:0:0:0:
167,130,189460,1,2,0:0:0:0:
366,54,189772,1,2,0:0:0:0:
130,19,190085,5,4,1:0:0:0:
201,82,190241,2,0,P|208:124|190:158,1,80,0|2,0:0|0:0,0:0:0:0:
118,218,190553,1,0,3:0:0:0:
184,287,190710,2,0,P|220:275|276:285,1,80,0|0,0:0|3:0,0:0:0:0:
349,316,191022,1,2,0:0:0:0:
427,261,191178,1,2,0:0:0:0:
376,178,191335,6,0,P|364:141|379:85,1,80,2|2,0:0|0:0,0:0:0:0:
487,28,191647,1,2,3:2:0:0:
487,28,191803,2,0,P|465:80|368:99,1,160,0|0,3:0|3:0,0:0:0:0:
285,56,192272,2,0,P|246:43|191:52,1,80,2|2,0:0|0:0,0:0:0:0:
104,86,192585,5,0,0:0:0:0:
171,154,192741,1,0,0:0:0:0:
104,223,192897,2,0,L|120:332,1,80,2|0,3:2|0:0,0:0:0:0:
189,364,193210,1,0,0:0:0:0:
264,304,193366,1,2,0:0:0:0:
423,351,193522,2,0,L|344:356,1,80,2|2,3:2|0:0,0:0:0:0:
264,304,193835,6,0,P|226:234|267:161,1,160,2|2,3:2|3:2,0:0:0:0:
466,69,194303,2,0,P|427:135|351:143,1,160,0|2,3:2|3:2,0:0:0:0:
281,76,194772,1,2,3:2:0:0:
351,143,194928,1,2,0:0:0:0:
211,215,195085,5,8,0:0:0:0:
159,296,195241,1,0,0:0:0:0:
240,346,195397,2,0,L|323:341,1,80,2|0,3:2|0:0,0:0:0:0:
384,269,195710,2,0,L|463:273,2,80,8|2|8,0:0|0:0|0:0,0:0:0:0:
318,199,196178,1,2,0:0:0:0:
224,223,196335,6,0,P|236:180|209:137,1,80,10|0,0:0|0:0,0:0:0:0:
97,93,196647,1,2,3:2:0:0:
97,93,196803,2,0,P|145:154|222:149,1,160,0|0,0:0|0:0,0:0:0:0:
308,107,197272,2,0,P|302:148|331:194,1,80,8|2,0:0|0:0,0:0:0:0:
380,287,197585,5,8,3:2:0:0:
284,280,197741,2,0,P|246:266|204:276,1,80,2|2,0:0|3:2,0:0:0:0:
65,290,198053,1,0,0:0:0:0:
65,290,198210,2,0,P|150:310|215:264,1,160,8|8,0:0|0:0,0:0:0:0:
256,189,198678,1,2,0:0:0:0:
256,109,198835,6,0,L|256:220,1,80,4|4,1:0|1:3,0:0:0:0:
256,309,199147,1,4,1:3:0:0:
256,309,199460,1,2,0:0:0:0:
256,309,199772,1,2,0:0:0:0:
256,80,200085,6,0,L|256:193,1,88.000002685547,4|4,1:0|1:3,0:0:0:0:
256,344,200397,1,4,1:3:0:0:
256,344,200710,1,2,0:0:0:0:
256,344,201022,1,2,0:0:0:0:
256,16,201335,6,0,L|256:128,1,95.9999970703126,4|4,1:0|1:3,0:0:0:0:
256,360,201647,1,4,1:3:0:0:
256,360,201960,1,2,1:0:0:0:
256,360,202272,1,2,1:0:0:0:
188,70,202585,5,6,0:0:0:0:
52,182,202897,1,2,0:0:0:0:
170,319,203210,1,2,0:0:0:0:
170,319,203366,1,0,0:0:0:0:
324,70,203678,5,2,0:0:0:0:
460,182,203990,1,2,0:0:0:0:
342,319,204303,1,0,0:0:0:0:
342,319,204459,1,2,0:0:0:0:
271,265,204616,1,0,0:0:0:0:
350,226,204772,1,2,0:0:0:0:
188,314,205085,5,2,0:0:0:0:
52,202,205397,1,2,0:0:0:0:
170,65,205710,1,2,0:0:0:0:
170,65,205866,1,0,0:0:0:0:
324,314,206178,5,2,0:0:0:0:
460,202,206490,1,0,0:0:0:0:
402,135,206647,1,0,0:0:0:0:
402,135,206803,2,0,P|341:160|250:117,1,160,2|0,0:0|0:0,0:0:0:0:
183,77,207272,1,0,0:0:0:0:
31,166,207585,6,0,L|37:262,1,80,4|0,0:0|0:0,0:0:0:0:
112,199,207897,2,0,L|117:279,1,80,2|2,0:0|3:0,0:0:0:0:
225,69,208210,2,0,L|220:148,1,80,8|0,0:3|3:0,0:0:0:0:
307,35,208522,1,2,0:0:0:0:
307,35,208678,6,0,L|296:209,1,160,0|2,3:0|0:0,0:0:0:0:
376,234,209147,2,0,L|380:154,1,80,2|0,0:0|3:0,0:0:0:0:
511,55,209460,2,0,P|479:79|441:89,1,80,8|0,0:3|3:0,0:0:0:0:
289,28,209772,2,0,P|326:43|354:72,1,80,0|2,0:0|3:0,0:0:0:0:
371,157,210085,5,0,1:0:0:0:
258,174,210241,1,0,1:0:0:0:
388,270,210397,1,0,1:0:0:0:
275,287,210553,1,0,1:0:0:0:
308,125,210710,1,0,1:0:0:0:
337,318,210866,1,0,1:0:0:0:
226,236,211022,1,0,1:0:0:0:
419,207,211178,1,0,1:0:0:0:
323,222,211335,6,0,B|259:198|227:246|163:222,1,160,2|6,0:0|0:1,0:0:0:0:
256,192,211803,12,0,213835,0:1:0:0:
124,192,215085,6,0,P|167:192|217:148,1,80,4|0,0:3|0:0,0:0:0:0:
387,192,215397,1,2,0:0:0:0:
387,192,215553,2,0,P|348:192|313:174,1,80,2|0,0:0|0:0,0:0:0:0:
256,89,215866,1,4,0:3:0:0:
198,174,216022,1,0,0:0:0:0:
313,174,216178,1,0,0:0:0:0:
148,116,216335,6,0,P|181:138|198:174,1,80
100,222,216647,2,0,P|137:234|164:264,1,80,0|0,0:0|0:0,0:0:0:0:
363,116,216960,2,0,P|330:138|314:174,1,80,0|0,0:0|0:0,0:0:0:0:
411,222,217272,2,0,P|374:234|348:264,1,80,6|0,1:0|0:0,0:0:0:0:
256,349,217585,6,0,P|279:276|189:239,1,184.000003509522,4|8,1:0|1:0,0:0:0:0:
104,277,218053,1,4,1:3:0:0:
20,218,218210,2,0,P|0:176|28:126,1,92.0000017547608,0|4,3:0|1:3,0:0:0:0:
94,73,218522,1,8,1:0:0:0:
255,69,218678,6,0,P|178:109|76:42,1,184.000003509522,2|0,0:0|3:0,0:0:0:0:
173,9,219147,1,8,1:0:0:0:
255,69,219303,1,4,1:3:0:0:
224,166,219460,2,0,P|212:212|246:271,1,92.0000017547608,0|4,3:0|1:3,0:0:0:0:
323,294,219772,2,0,P|335:248|301:189,1,92.0000017547608,8|0,1:0|0:0,0:0:0:0:
224,166,220085,5,4,1:3:0:0:
131,206,220241,1,0,0:0:0:0:
51,143,220397,2,0,P|34:98|70:45,1,92.0000017547608,8|4,1:0|1:3,0:0:0:0:
144,22,220710,2,0,P|186:55|251:42,1,92.0000017547608,0|4,3:0|1:3,0:0:0:0:
298,29,220944,1,2,0:0:0:0:
298,29,221022,2,0,P|289:76|328:126,1,92.0000017547608,8|2,1:0|0:0,0:0:0:0:
396,190,221335,5,4,1:3:0:0:
337,272,221491,2,0,L|219:261,1,92.0000017547608,0|8,3:0|1:0,0:0:0:0:
91,191,221803,1,4,1:3:0:0:
91,191,221960,2,0,L|183:183,1,92.0000017547608,2|4,3:2|1:3,0:0:0:0:
256,113,222272,1,8,1:0:0:0:
350,171,222428,1,4,1:3:0:0:
350,171,222506,1,4,1:3:0:0:
350,171,222585,6,0,P|376:224|347:282,1,92.0000017547608,4|0,1:0|0:0,0:0:0:0:
307,333,222897,1,8,1:0:0:0:
213,294,223053,1,4,1:3:0:0:
307,333,223210,2,0,L|295:216,1,92.0000017547608,0|4,3:0|1:3,0:0:0:0:
234,162,223522,1,8,1:0:0:0:
189,42,223678,6,0,P|156:111|250:155,1,184.000003509522,2|0,0:0|3:0,0:0:0:0:
323,113,224147,2,0,P|316:161|362:212,1,92.0000017547608,8|4,1:0|1:3,0:0:0:0:
426,245,224460,1,0,3:0:0:0:
503,179,224616,1,4,1:3:0:0:
336,197,224772,2,0,L|323:308,1,92.0000017547608,8|0,1:0|0:0,0:0:0:0:
176,187,225085,6,0,L|189:76,1,92.0000017547608,4|0,1:3|3:0,0:0:0:0:
267,35,225397,1,8,1:1:0:0:
341,103,225553,1,4,1:3:0:0:
428,51,225710,2,0,P|411:104|458:156,1,92.0000017547608,0|4,3:0|1:3,0:0:0:0:
471,208,225944,1,2,0:0:0:0:
471,208,226022,2,0,P|422:200|372:226,1,92.0000017547608,8|2,1:0|0:0,0:0:0:0:
305,279,226335,5,4,1:3:0:0:
214,234,226491,1,0,3:0:0:0:
317,96,226647,1,8,1:0:0:0:
226,135,226803,1,4,1:3:0:0:
97,8,226960,1,4,1:3:0:0:
128,105,227116,1,0,3:0:0:0:
56,176,227272,2,0,P|40:216|75:273,1,92.0000017547608,8|4,1:0|1:3,0:0:0:0:
195,325,227585,6,0,P|211:285|176:228,1,92.0000017547608,4|0,1:0|0:0,0:0:0:0:
141,154,227897,1,8,1:0:0:0:
214,84,228053,1,4,1:3:0:0:
291,150,228210,2,0,P|336:157|391:127,1,92.0000017547608,0|4,3:0|1:3,0:0:0:0:
404,117,228444,1,2,0:0:0:0:
414,83,228522,1,8,1:0:0:0:
301,1,228678,6,0,P|254:52|300:154,1,184.000003509522,2|0,0:0|3:0,0:0:0:0:
374,207,229147,1,8,1:0:0:0:
329,297,229303,1,4,1:3:0:0:
239,249,229460,2,0,P|198:268|147:257,1,92.0000017547608,0|4,3:0|1:3,0:0:0:0:
0,196,229772,2,0,P|40:177|85:185,1,92.0000017547608,8|0,1:0|0:0,0:0:0:0:
150,262,230085,6,0,P|99:187|144:102,1,184.000003509522,4|8,1:3|1:0,0:0:0:0:
203,35,230553,1,4,1:3:0:0:
290,87,230710,2,0,P|330:99|389:73,1,92.0000017547608,0|4,3:0|1:3,0:0:0:0:
450,40,230944,1,2,0:0:0:0:
450,40,231022,2,0,P|441:84|468:136,1,92.0000017547608,8|2,1:0|0:0,0:0:0:0:
503,217,231335,5,4,1:3:0:0:
468,311,231491,1,2,3:2:0:0:
387,249,231647,2,0,P|342:233|290:239,1,92.0000017547608,8|4,1:0|1:3,0:0:0:0:
213,292,231960,2,0,P|192:332|157:362,2,92.0000017547608,2|4|8,0:0|1:3|1:0,0:0:0:0:
188,193,232428,1,4,1:3:0:0:
188,193,232506,1,4,1:3:0:0:
188,193,232585,6,0,P|168:144|188:93,1,92.0000017547608,4|0,1:0|0:0,0:0:0:0:
256,45,232897,1,8,1:0:0:0:
324,192,233053,1,4,1:3:0:0:
324,192,233210,2,0,P|343:152|334:107,1,92.0000017547608,0|4,3:0|1:3,0:0:0:0:
273,57,233444,1,0,0:0:0:0:
273,57,233522,2,0,P|225:71|169:57,1,92.0000017547608,8|4,1:0|1:3,0:0:0:0:
83,18,233835,5,4,1:3:0:0:
18,95,233991,1,0,3:0:0:0:
102,150,234147,2,0,L|87:254,1,92.0000017547608,8|4,1:0|1:3,0:0:0:0:
176,326,234460,2,0,L|190:235,1,92.0000017547608,0|4,3:0|1:3,0:0:0:0:
266,168,234772,2,0,P|311:186|358:166,1,92.0000017547608,8|4,1:0|1:3,0:0:0:0:
414,128,235006,1,4,1:3:0:0:
414,128,235085,6,0,P|392:166|407:239,1,92.0000017547608,4|4,1:0|1:3,0:0:0:0:
455,354,235397,2,0,P|477:315|476:270,1,92.0000017547608,8|2,1:0|3:2,0:0:0:0:
393,212,235710,1,4,1:3:0:0:
304,260,235866,1,4,1:0:0:0:
119,172,236022,1,8,1:0:0:0:
208,124,236178,1,2,3:2:0:0:
304,260,236335,6,0,P|313:304|296:346,1,92.0000017547608,4|0,1:0|0:0,0:0:0:0:
208,124,236647,2,0,P|198:79|215:37,1,92.0000017547608,12|0,1:0|0:0,0:0:0:0:
324,144,236960,2,0,P|368:134|410:151,1,92.0000017547608,12|0,1:0|0:0,0:0:0:0:
188,240,237272,2,0,P|143:249|101:232,1,92.0000017547608,12|0,1:0|0:0,0:0:0:0:
282,49,237585,5,2,0:0:0:0:
324,144,237741,1,0,0:0:0:0:
229,334,238210,1,2,0:0:0:0:
188,240,238366,1,2,0:0:0:0:
421,25,238835,6,0,P|441:70|423:125,1,95.9999970703126,4|0,1:1|0:0,0:0:0:0:
350,258,239147,2,0,P|331:215|341:169,1,95.9999970703126,8|0,1:0|0:2,0:0:0:0:
433,117,239460,2,0,P|372:153|236:114,1,191.999994140625,6|14,1:3|1:0,0:0:0:0:
172,70,239928,1,0,0:0:0:0:
86,132,240085,6,0,P|79:180|123:244,1,95.9999970703126,4|0,1:2|0:0,0:0:0:0:
165,303,240397,1,8,1:0:0:0:
251,242,240553,1,2,3:2:0:0:
433,312,240710,2,0,L|338:302,1,95.9999970703126,4|0,1:3|3:0,0:0:0:0:
251,242,241022,1,8,1:0:0:0:
323,165,241178,6,0,P|351:77|261:52,1,191.999994140625,2|2,0:0|3:2,0:0:0:0:
179,89,241647,2,0,P|162:135|211:180,1,95.9999970703126,8|0,1:0|3:0,0:0:0:0:
279,220,241960,1,4,1:3:0:0:
295,324,242116,1,2,3:2:0:0:
199,279,242272,2,0,B|68:276,1,95.9999970703126,8|0,1:0|3:0,0:0:0:0:
279,220,242585,6,0,B|374:217,2,95.9999970703126,4|2|8,1:3|0:0|1:0,0:0:0:0:
186,170,243053,1,0,0:0:0:0:
269,104,243210,2,0,P|318:116|386:86,1,95.9999970703126,4|0,1:3|3:0,0:0:0:0:
445,41,243522,1,8,1:0:0:0:
505,127,243678,2,0,P|516:183|486:237,1,95.9999970703126,2|4,0:0|1:3,0:0:0:0:
437,301,243991,5,2,3:2:0:0:
348,244,244147,1,8,1:0:0:0:
256,295,244303,1,0,3:0:0:0:
164,244,244460,2,0,P|141:205|162:135,2,95.9999970703126,4|0|14,1:3|3:0|1:0,0:0:0:0:
256,295,244928,1,0,0:0:0:0:
365,156,245085,6,0,P|371:203|348:243,1,95.9999970703126,4|0,1:3|0:0,0:0:0:0:
256,295,245397,1,8,1:0:0:0:
164,244,245553,1,0,3:0:0:0:
6,317,245710,2,0,L|102:330,1,95.9999970703126,4|2,1:3|3:2,0:0:0:0:
177,359,245944,1,0,0:0:0:0:
177,359,246022,2,0,L|272:346,1,95.9999970703126,8|2,1:0|0:0,0:0:0:0:
362,291,246335,5,4,1:3:0:0:
278,227,246491,2,0,P|259:180|285:126,1,95.9999970703126,2|8,3:2|1:0,0:0:0:0:
339,57,246803,1,2,0:0:0:0:
512,131,246960,2,0,L|417:128,1,95.9999970703126,4|2,1:3|3:2,0:0:0:0:
339,57,247272,1,8,1:0:0:0:
253,119,247428,1,2,3:0:0:0:
327,194,247585,6,0,P|343:228|341:298,2,95.9999970703126,4|2|8,1:0|3:2|1:0,0:0:0:0:
253,119,248053,1,0,3:0:0:0:
163,175,248210,2,0,P|120:188|40:160,2,95.9999970703126,4|0|8,1:3|3:0|1:0,0:0:0:0:
107,45,248678,6,0,P|86:135|170:173,1,191.999994140625,2|0,0:0|3:0,0:0:0:0:
262,140,249147,2,0,P|246:192|293:245,1,95.9999970703126,8|0,1:0|3:0,0:0:0:0:
328,311,249460,1,4,1:0:0:0:
366,212,249616,1,0,0:0:0:0:
263,227,249772,2,0,P|217:214|157:239,1,95.9999970703126,14|0,1:0|0:0,0:0:0:0:
35,130,250085,6,0,P|80:143|126:129,1,95.9999970703126,4|0,1:3|0:0,0:0:0:0:
209,65,250397,1,8,1:0:0:0:
287,142,250553,1,2,3:2:0:0:
373,80,250710,2,0,P|360:122|401:179,1,95.9999970703126,4|2,1:3|3:2,0:0:0:0:
403,192,250944,1,2,0:0:0:0:
435,199,251022,1,8,1:0:0:0:
481,46,251178,6,0,P|502:131|422:200,1,191.999994140625,2|0,3:2|3:0,0:0:0:0:
337,241,251647,2,0,P|290:222|236:233,1,95.9999970703126,8|2,1:0|3:2,0:0:0:0:
83,293,251960,2,0,P|126:311|174:306,1,95.9999970703126,4|0,1:3|0:0,0:0:0:0:
246,228,252272,2,0,P|226:185|250:124,1,95.9999970703126,12|2,1:0|3:2,0:0:0:0:
319,0,252585,6,0,P|339:41|329:87,1,95.9999970703126,4|0,1:0|0:0,0:0:0:0:
237,139,252897,1,8,1:0:0:0:
137,103,253053,1,2,3:2:0:0:
3,195,253210,2,0,P|57:179|98:191,1,95.9999970703126,4|2,1:3|3:2,0:0:0:0:
165,240,253444,1,2,0:0:0:0:
165,240,253522,2,0,P|211:249|256:233,1,95.9999970703126,8|2,1:0|0:0,0:0:0:0:
347,162,253835,5,4,1:3:0:0:
256,233,253991,1,2,3:2:0:0:
187,153,254147,2,0,P|169:111|196:48,1,95.9999970703126,8|4,1:0|1:3,0:0:0:0:
256,233,254460,2,0,P|274:275|247:338,1,95.9999970703126,4|0,1:0|0:0,0:0:0:0:
170,374,254772,1,14,1:0:0:0:
109,287,254928,1,0,0:0:0:0:
261,321,255085,6,0,L|399:321,1,95.9999970703126,4|2,1:0|3:2,0:0:0:0:
440,256,255397,1,8,1:0:0:0:
386,165,255553,1,2,0:0:0:0:
357,321,255710,2,0,P|332:277|344:209,1,95.9999970703126,4|4,1:0|1:3,0:0:0:0:
386,165,255944,1,2,0:0:0:0:
386,165,256022,2,0,P|386:117|362:76,1,95.9999970703126,8|2,1:0|3:2,0:0:0:0:
126,219,256335,6,0,L|227:208,1,95.9999970703126,4|4,1:0|1:3,0:0:0:0:
386,165,256647,2,0,L|285:176,1,95.9999970703126,12|4,1:0|1:3,0:0:0:0:
112,221,256960,2,0,L|224:209,1,95.9999970703126,4|4,1:0|1:3,0:0:0:0:
399,162,257272,2,0,L|287:174,1,95.9999970703126,12|4,1:0|1:3,0:0:0:0:
186,234,257585,6,0,L|175:346,1,111.999996582031,14|4,1:0|1:3,0:0:0:0:
324,149,257897,2,0,L|337:38,1,111.999996582031,14|4,1:0|1:3,0:0:0:0:
182,234,258210,2,0,L|169:346,1,111.999996582031,14|4,1:0|1:3,0:0:0:0:
328,149,258522,2,0,L|342:38,1,111.999996582031,14|6,1:0|1:3,0:0:0:0:
256,192,258835,5,4,1:0:0:0:
256,192,258913,12,0,261335,0:0:0:0:
