osu file format v14

[General]
AudioFilename: audio.mp3
AudioLeadIn: 0
PreviewTime: 113087
Countdown: 0
SampleSet: Soft
StackLeniency: 0.5
Mode: 0
LetterboxInBreaks: 0
WidescreenStoryboard: 1

[Editor]
Bookmarks: 7773,14486,27913,41339,48053,77423,84136,95885,113507,126934,140360,169310,170570,177283,185255,213787,227212
DistanceSpacing: 1.2
BeatDivisor: 4
GridSize: 4
TimelineZoom: 1.7

[Metadata]
Title:Dream World
TitleUnicode:ドリームワールド
Artist:Shinra-bansho
ArtistUnicode:森羅万象
Creator:Hailie
Version:Seto's Hard
Source:東方永夜抄 ~ Imperishable Night.
Tags:Reisen Udongein Inaba theme Lunatic Eyes ~ Invisible Full Moon 狂気の瞳 ~ Invisible Full Moon 森羅万象 M other kaztora Meramipop Kyle_Y Icekalt Seto_Kousuke deep_fried_ice deep fried ice Seto Kousuke Kyle Y
BeatmapID:1881693
BeatmapSetID:901124

[Difficulty]
HPDrainRate:4
CircleSize:4
OverallDifficulty:7
ApproachRate:8
SliderMultiplier:1.4
SliderTickRate:1

[Events]
//Background and Video events
0,0,"bg.jpg",0,0
//Break Periods
2,77623,83386
2,127133,139609
//Storyboard Layer 0 (Background)
//Storyboard Layer 1 (Fail)
//Storyboard Layer 2 (Pass)
//Storyboard Layer 3 (Foreground)
//Storyboard Sound Samples

[TimingPoints]
1060,419.58041958042,4,2,0,40,1,0
9032,-100,4,2,0,50,0,0
14486,-100,4,2,0,60,0,0
27493,-100,4,2,0,70,0,0
27913,-100,4,2,0,40,0,0
41339,-100,4,2,0,50,0,0
60640,419.58041958042,4,2,0,50,1,0
62108,-100,4,2,0,60,0,0
63996,419.58041958042,4,2,0,70,1,1
63996,-100,4,2,0,70,0,1
77213,-100,4,2,0,50,0,1
77422,-100,4,2,0,50,0,0
83927,-100,4,2,0,40,0,0
97563,-100,4,2,0,50,0,0
110150,419.58041958042,4,2,0,50,1,0
111828,-100,4,2,0,60,0,0
113506,419.58041958042,4,2,0,70,1,1
113507,-100,4,2,0,70,0,1
126932,-100,4,2,0,50,0,0
153786,-100,4,2,0,60,0,0
163856,-100,4,2,0,50,0,0
167212,-100,4,2,0,60,0,0
176863,-100,4,2,0,55,0,0
178541,-100,4,2,0,50,0,0
182317,-100,4,2,0,40,0,0
185254,419.58041958042,4,2,0,70,1,1
185254,-90.9090909090909,4,2,0,70,0,1
198680,-90.9090909090909,4,2,0,80,0,1
213785,-100,4,2,0,80,0,0

[Colours]
Combo1 : 119,0,183
Combo2 : 0,255,0
Combo3 : 252,115,69
Combo4 : 255,0,0

[HitObjects]
111,117,2318,6,0,L|84:191,1,70,0|0,1:0|1:0,0:0:0:0:
369,117,3997,2,0,L|396:191,1,70,0|0,1:0|1:0,0:0:0:0:
111,117,5675,6,0,L|84:191,1,70,0|0,1:0|1:0,0:0:0:0:
306,29,7353,1,0,1:0:0:0:
377,86,7563,6,0,L|429:91,2,35,4|4|4,1:3|1:3|0:3,0:0:0:0:
316,154,8192,1,4,0:3:0:0:
375,223,8612,1,4,0:3:0:0:
318,294,9032,5,2,0:0:0:0:
248,235,9241,1,2,0:0:0:0:
172,285,9451,2,0,P|128:302|67:233,1,140,4|4,0:3|0:3,0:0:0:0:
82,155,10290,1,4,0:3:0:0:
152,97,10710,5,2,0:0:0:0:
225,150,10920,1,2,0:0:0:0:
313,131,11129,6,0,B|339:94|347:66|347:66|332:40|273:39,1,140,4|4,0:3|0:3,0:0:0:0:
203,57,11969,1,4,0:3:0:0:
124,11,12388,5,2,0:0:0:0:
50,64,12598,1,2,0:0:0:0:
119,122,12808,6,0,P|135:163|93:227,2,105,0|0|0,1:0|1:0|1:0,0:0:0:0:
13,270,13857,1,4,0:3:0:0:
13,270,13962,1,4,0:3:0:0:
13,270,14066,2,0,P|11:307|52:340,1,70,4|4,0:3|0:3,0:0:0:0:
116,363,14486,6,0,L|207:356,1,70,4|0,0:1|0:0,0:0:0:0:
254,297,14906,2,0,P|263:259|241:217,1,70,0|2,1:0|0:0,0:0:0:0:
170,192,15325,2,0,B|95:203,1,70,4|2,0:3|0:0,0:0:0:0:
17,222,15745,1,0,1:0:0:0:
4,131,15955,1,0,1:3:0:0:
78,78,16164,6,0,L|174:71,1,70,4|0,0:3|0:0,0:0:0:0:
226,26,16584,2,0,P|264:21|307:92,1,105,0|0,1:0|1:0,0:0:0:0:
348,87,17004,2,0,L|324:173,1,70,4|2,1:3|0:0,0:0:0:0:
316,244,17423,1,0,1:0:0:0:
378,310,17633,1,2,0:0:0:0:
465,285,17843,6,0,L|462:193,1,70,4|0,0:3|0:0,0:0:0:0:
510,137,18262,2,0,L|500:14,1,105,0|2,1:0|0:0,0:0:0:0:
457,45,18682,2,0,P|423:57|368:46,1,70,0|2,1:0|0:0,0:0:0:0:
301,30,19101,1,4,1:3:0:0:
316,119,19311,1,2,0:0:0:0:
250,182,19521,6,0,P|213:191|179:171,1,70,4|0,0:3|0:0,0:0:0:0:
94,189,19941,2,0,L|58:301,1,105,0|2,1:0|0:0,0:0:0:0:
60,334,20360,2,0,P|122:335|144:361,1,70,0|2,1:0|0:0,0:0:0:0:
251,350,20781,1,0,0:0:0:0:
261,355,20885,1,0,0:0:0:0:
272,360,20990,1,0,0:0:0:0:
282,365,21095,1,0,0:0:0:0:
291,370,21199,6,0,P|350:360|363:344,1,70,4|0,0:1|0:0,0:0:0:0:
434,308,21619,2,0,L|414:186,1,105,0|2,1:0|0:0,0:0:0:0:
394,164,22039,2,0,P|338:142|313:157,1,70,4|2,0:3|0:0,0:0:0:0:
251,185,22458,1,0,1:0:0:0:
175,134,22668,1,0,1:3:0:0:
101,187,22878,6,0,L|82:279,1,70,4|0,0:3|0:0,0:0:0:0:
7,211,23297,2,0,L|31:94,1,105,0|0,1:0|1:0,0:0:0:0:
53,69,23717,2,0,P|85:57|131:69,1,70,4|2,1:3|0:0,0:0:0:0:
191,119,24136,1,0,1:0:0:0:
257,56,24346,1,2,0:0:0:0:
309,130,24556,6,0,P|350:143|391:126,1,70,4|0,0:3|0:0,0:0:0:0:
459,100,24976,2,0,L|471:205,1,105,0|2,1:0|0:0,0:0:0:0:
502,237,25395,2,0,P|494:274|456:291,1,70,0|2,1:0|0:0,0:0:0:0:
379,268,25815,1,4,1:3:0:0:
339,350,26025,1,2,0:0:0:0:
266,295,26234,6,0,P|208:287|180:297,1,70,4|0,0:3|0:0,0:0:0:0:
139,359,26654,2,0,P|108:370|65:354,1,70,0|2,1:0|0:0,0:0:0:0:
24,283,27073,1,0,1:0:0:0:
24,283,27178,1,2,0:0:0:0:
24,283,27283,1,2,0:0:0:0:
84,214,27493,1,6,0:0:0:0:
48,130,27703,6,0,L|23:95,2,35,4|4|4,1:3|1:3|1:2,0:0:0:0:
203,34,28332,1,0,1:0:0:0:
112,41,28542,1,0,0:0:0:0:
112,41,28752,2,0,P|135:105|200:129,1,140,4|0,0:3|1:0,0:0:0:0:
288,114,29381,1,2,0:0:0:0:
288,114,29486,1,0,0:0:0:0:
288,114,29591,6,0,L|285:276,1,140,4|0,0:3|1:0,0:0:0:0:
335,329,30220,1,2,0:0:0:0:
335,329,30430,2,0,P|275:344|200:282,1,140,4|0,0:3|1:0,0:0:0:0:
149,238,31060,1,2,0:0:0:0:
228,193,31269,6,0,L|401:209,1,140,4|0,0:3|1:0,0:0:0:0:
466,52,32108,1,4,0:3:0:0:
295,115,32528,1,4,1:3:0:0:
346,39,32738,1,0,0:0:0:0:
346,39,32948,6,0,P|385:92|367:179,1,140,4|0,0:3|1:0,0:0:0:0:
228,267,33787,1,4,0:3:0:0:
160,205,33997,1,2,0:0:0:0:
80,249,34206,6,0,L|60:341,2,70,0|2|4,1:0|3:2|0:3,0:0:0:0:
105,68,35046,1,0,1:0:0:0:
181,116,35255,1,0,0:0:0:0:
181,116,35360,1,0,3:0:0:0:
181,116,35465,2,0,B|244:142|253:94|321:123,1,140,4|4,0:3|1:3,0:0:0:0:
406,103,36094,1,2,0:0:0:0:
406,103,36304,6,0,L|400:254,1,140,4|0,3:0|1:0,0:0:0:0:
248,343,37143,1,4,3:0:0:0:
430,350,37563,1,0,1:0:0:0:
449,261,37773,1,2,0:0:0:0:
449,261,37983,6,0,P|376:267|344:326,1,140,4|0,0:3|1:0,0:0:0:0:
166,356,38822,2,0,L|22:286,1,140,4|0,0:3|1:0,0:0:0:0:
19,206,39451,1,0,0:0:0:0:
103,172,39661,6,0,L|228:233,1,140,2|0,0:0|1:0,0:0:0:0:
314,202,40290,1,0,0:0:0:0:
336,113,40500,2,0,L|301:61,2,35,4|0|0,0:3|1:0|1:0,0:0:0:0:
425,131,40920,1,4,0:3:0:0:
425,131,41025,1,0,1:0:0:0:
425,131,41129,1,0,1:0:0:0:
490,193,41339,6,0,P|490:249|413:292,1,140,4|0,0:1|1:0,0:0:0:0:
371,366,41969,1,2,0:0:0:0:
371,366,42073,1,2,0:0:0:0:
371,366,42178,2,0,P|335:345|278:338,1,70,4|2,0:3|0:0,0:0:0:0:
235,282,42598,1,0,1:0:0:0:
156,327,42808,1,0,1:3:0:0:
69,298,43018,6,0,P|44:250|108:179,1,140,4|0,0:3|1:0,0:0:0:0:
93,92,43647,1,2,0:0:0:0:
93,92,43752,1,0,1:0:0:0:
93,92,43857,2,0,L|183:119,1,70,4|2,1:3|0:0,0:0:0:0:
250,117,44276,1,0,1:0:0:0:
310,49,44486,1,2,0:0:0:0:
380,106,44696,6,0,L|368:254,1,140,4|0,0:3|1:0,0:0:0:0:
457,266,45325,1,2,0:0:0:0:
457,266,45430,1,2,0:0:0:0:
457,266,45535,2,0,L|463:182,1,70,0|2,1:0|0:0,0:0:0:0:
474,105,45955,1,4,1:3:0:0:
423,29,46164,1,2,0:0:0:0:
356,90,46374,6,0,P|298:101|241:43,1,140,4|0,0:3|1:0,0:0:0:0:
158,14,47004,1,2,0:0:0:0:
123,97,47213,2,0,L|132:143,2,35,0|2|2,1:0|0:0|0:0,0:0:0:0:
48,43,47633,1,0,1:0:0:0:
36,133,47843,1,0,1:0:0:0:
24,223,48053,6,0,P|69:267|164:241,1,140,4|0,1:0|1:0,0:0:0:0:
211,202,48682,1,0,0:0:0:0:
280,260,48892,2,0,P|279:297|273:335,1,70,4|0,0:3|0:0,0:0:0:0:
364,344,49311,1,0,1:0:0:0:
364,344,49521,6,0,P|376:260|444:210,1,140,2|0,3:0|0:0,0:0:0:0:
481,163,50150,1,0,1:0:0:0:
428,88,50360,1,2,3:3:0:0:
350,136,50570,2,0,L|252:154,1,70,4|0,0:3|0:3,0:0:0:0:
194,118,50990,1,4,1:3:0:0:
216,30,51199,1,2,0:0:0:0:
127,10,51409,6,0,P|73:14|46:108,1,140,4|0,0:3|1:0,0:0:0:0:
80,165,52039,1,2,0:0:0:0:
17,230,52248,1,4,0:3:0:0:
17,230,52353,1,0,0:0:0:0:
17,230,52458,1,2,0:0:0:0:
65,306,52668,2,0,L|162:301,1,70,4|0,1:3|0:0,0:0:0:0:
202,241,53087,6,0,B|263:241|263:241|287:263|287:263|359:265,1,140,4|0,0:3|1:0,0:0:0:0:
411,216,53717,1,4,3:0:0:0:
411,216,53822,1,0,1:0:0:0:
411,216,53927,2,0,P|426:252|408:304,1,70,0|0,1:0|0:0,0:0:0:0:
364,352,54346,1,2,0:0:0:0:
274,333,54556,1,2,0:0:0:0:
186,359,54766,6,0,P|118:373|36:334,1,140,4|0,0:3|1:0,0:0:0:0:
3,273,55395,1,0,0:0:0:0:
75,218,55605,2,0,L|116:228,2,35,4|0|2,0:3|1:0|0:0,0:0:0:0:
38,133,56025,1,4,0:3:0:0:
102,68,56234,6,0,L|251:116,1,140,2|0,3:0|0:0,0:0:0:0:
325,123,56864,1,0,1:0:0:0:
378,49,57073,1,2,0:0:0:0:
428,124,57283,2,0,L|406:183,2,35,4|0|2,0:3|1:0|2:0,0:0:0:0:
490,56,57703,1,2,1:2:0:0:
507,145,57913,1,2,0:0:0:0:
415,156,58122,6,0,P|381:201|445:279,1,140,4|0,1:3|1:0,0:0:0:0:
483,355,58752,1,2,0:0:0:0:
483,355,58962,2,0,L|328:363,1,140,4|0,0:3|1:0,0:0:0:0:
280,296,59591,1,2,0:0:0:0:
206,349,59801,6,0,L|133:365,1,70,4|2,0:3|0:0,0:0:0:0:
100,281,60220,2,0,L|27:297,1,70,0|0,1:0|1:0,0:0:0:0:
31,295,60535,1,4,1:3:0:0:
31,295,60640,2,0,L|49:148,1,140,4|4,0:3|0:3,0:0:0:0:
92,77,61269,1,0,0:0:0:0:
92,77,61479,6,0,P|151:99|225:48,1,140,4|4,0:3|0:3,0:0:0:0:
304,83,62108,1,2,1:0:0:0:
304,83,62213,1,0,0:0:0:0:
304,83,62318,2,0,L|329:172,2,70,4|0|0,1:3|1:0|1:0,0:0:0:0:
358,9,62948,1,0,1:0:0:0:
443,39,63157,6,0,L|468:128,1,70,0|0,1:0|1:0,0:0:0:0:
427,233,63577,1,0,0:0:0:0:
438,234,63681,1,0,0:0:0:0:
450,236,63786,1,0,0:0:0:0:
461,237,63891,1,0,0:0:0:0:
473,240,63997,6,0,P|491:285|400:327,1,140,6|0,1:2|1:0,0:0:0:0:
347,299,64626,1,2,0:0:0:0:
272,350,64836,2,0,B|253:362|227:359|227:359|184:332|109:361,1,140,4|0,3:0|1:0,0:0:0:0:
49,326,65465,1,2,0:0:0:0:
94,247,65675,1,4,0:3:0:0:
31,180,65885,1,2,0:0:0:0:
80,104,66094,2,0,P|117:97|155:109,1,70,0|2,1:0|0:0,0:0:0:0:
170,16,66514,6,0,L|297:111,1,140,0|0,1:1|1:0,0:0:0:0:
367,67,67143,2,0,P|329:94|348:189,1,140,2|0,0:0|0:0,0:0:0:0:
412,229,67773,1,4,0:3:0:0:
409,320,67983,1,2,0:0:0:0:
324,351,68192,1,4,0:3:0:0:
324,351,68297,1,0,1:0:0:0:
324,351,68402,1,2,0:0:0:0:
255,291,68612,2,0,P|196:279|165:295,1,70,0|2,1:0|0:0,0:0:0:0:
116,226,69031,6,0,L|89:310,1,70,4|2,0:3|0:0,0:0:0:0:
0,171,69451,2,0,L|20:238,1,70,4|2,0:3|0:0,0:0:0:0:
92,139,69871,1,4,0:3:0:0:
92,139,69976,1,0,1:0:0:0:
92,139,70080,1,2,0:0:0:0:
48,58,70290,1,0,1:1:0:0:
128,16,70500,1,2,3:2:0:0:
171,96,70710,6,0,L|336:104,1,140,6|0,1:2|1:0,0:0:0:0:
379,42,71339,1,2,0:0:0:0:
450,98,71549,2,0,P|479:161|427:221,1,140,4|0,3:0|1:0,0:0:0:0:
352,203,72178,1,2,0:0:0:0:
307,282,72388,2,0,P|297:314|310:354,1,70,4|0,0:3|0:0,0:0:0:0:
397,349,72808,2,0,P|406:315|396:282,1,70,0|2,1:0|0:0,0:0:0:0:
268,204,73227,2,0,L|121:204,1,140,4|0,0:3|1:0,0:0:0:0:
85,122,73857,6,0,L|225:122,1,140,2|2,0:0|0:0,0:0:0:0:
288,57,74486,1,0,1:0:0:0:
347,126,74696,1,2,0:0:0:0:
436,110,74906,2,0,P|464:78|457:8,2,105,4|0|2,0:3|0:0|3:2,0:0:0:0:
413,198,75745,5,4,1:2:0:0:
344,257,75955,1,4,1:3:0:0:
403,326,76164,1,4,1:3:0:0:
472,267,76374,1,0,1:3:0:0:
413,198,76584,2,0,L|329:203,1,70,4|4,1:2|0:3,0:0:0:0:
259,165,77003,1,0,0:0:0:0:
259,165,77108,1,0,0:0:0:0:
259,165,77213,1,0,0:0:0:0:
198,233,77423,5,0,0:0:0:0:
416,161,84136,6,0,P|391:119|287:134,1,140,4|4,0:2|0:3,0:0:0:0:
254,39,84766,1,0,0:0:0:0:
254,39,84976,2,0,L|250:190,1,140,4|0,0:3|0:0,0:0:0:0:
182,239,85605,2,0,P|131:196|76:259,1,140,2|2,0:0|0:0,0:0:0:0:
125,309,86234,1,4,0:3:0:0:
214,327,86444,2,0,L|314:312,1,70,0|4,0:0|0:3,0:0:0:0:
335,241,86864,1,2,0:0:0:0:
415,282,87073,2,0,P|423:314|426:351,1,70,4|2,0:3|0:0,0:0:0:0:
491,231,87493,6,0,L|487:85,1,140,4|4,0:3|0:3,0:0:0:0:
424,24,88122,1,0,0:0:0:0:
363,92,88332,2,0,P|331:101|284:102,1,70,4|0,0:3|0:3,0:0:0:0:
240,176,88752,2,0,P|216:153|191:112,1,70,4|0,0:3|0:3,0:0:0:0:
158,39,89171,5,4,0:3:0:0:
67,29,89381,1,0,0:0:0:0:
14,103,89591,2,0,L|24:195,1,70,4|0,0:3|0:0,0:0:0:0:
91,230,90010,2,0,L|101:322,2,70,4|2|4,0:3|0:0|0:3,0:0:0:0:
219,360,90850,6,0,P|290:362|338:314,1,140,4|4,0:3|0:3,0:0:0:0:
427,323,91479,1,0,0:0:0:0:
427,323,91689,2,0,L|426:168,1,140,4|4,0:3|0:3,0:0:0:0:
489,117,92318,2,0,P|455:90|357:119,1,140,0|0,0:0|0:0,0:0:0:0:
299,170,92948,1,4,0:3:0:0:
255,90,93157,2,0,B|220:82|192:60|192:60|161:56|102:96,1,140,2|2,0:0|0:0,0:0:0:0:
50,34,93787,2,0,P|37:69|47:117,1,70,4|2,0:3|0:0,0:0:0:0:
96,172,94206,5,4,0:3:0:0:
41,244,94416,1,2,0:0:0:0:
91,319,94626,2,0,L|171:329,1,70,4|0,0:3|0:0,0:0:0:0:
234,274,95045,2,0,L|314:284,1,70,4|0,0:3|0:0,0:0:0:0:
365,349,95465,1,4,0:3:0:0:
447,310,95675,1,2,0:0:0:0:
430,220,95885,5,0,0:0:0:0:
422,212,95989,1,0,0:0:0:0:
414,205,96094,1,0,0:0:0:0:
406,198,96199,1,0,0:0:0:0:
400,191,96304,2,0,L|439:156,3,35,4|2|2|2,0:3|0:0|0:0|0:0,0:0:0:0:
454,154,96724,2,0,P|467:118|455:74,1,70,4|8,0:3|0:3,0:0:0:0:
462,87,97038,1,8,0:3:0:0:
462,87,97143,2,0,L|380:84,1,70,12|10,0:3|0:3,0:0:0:0:
297,143,97563,6,0,P|253:166|194:104,1,140,4|4,1:2|0:3,0:0:0:0:
138,31,98192,1,2,0:0:0:0:
61,80,98402,2,0,L|60:156,1,70,4|2,0:3|0:0,0:0:0:0:
9,226,98822,1,0,1:0:0:0:
9,226,99031,6,0,P|39:191|121:232,1,140,2|2,0:0|0:0,0:0:0:0:
163,298,99661,1,0,1:0:0:0:
234,241,99871,1,2,0:0:0:0:
304,297,100080,2,0,L|311:343,2,35,4|0|2,0:3|1:0|0:0,0:0:0:0:
347,216,100500,1,4,1:3:0:0:
434,241,100710,1,2,0:0:0:0:
493,171,100920,6,0,P|498:119|415:72,1,140,4|0,0:3|1:0,0:0:0:0:
352,29,101549,1,2,0:0:0:0:
287,93,101759,2,0,L|287:147,2,35,4|0|2,0:3|1:0|0:0,0:0:0:0:
218,33,102178,2,0,P|183:27|123:45,1,70,0|2,1:0|0:0,0:0:0:0:
58,39,102598,6,0,L|65:112,1,70,4|2,0:3|0:0,0:0:0:0:
147,146,103017,1,0,1:0:0:0:
86,214,103227,1,2,0:0:0:0:
148,280,103437,2,0,L|143:336,2,35,0|2|2,1:0|0:0|0:0,0:0:0:0:
217,220,103857,2,0,P|256:217|304:231,1,70,4|2,1:3|0:0,0:0:0:0:
365,330,104276,6,0,L|386:165,1,140,4|0,0:0|1:0,0:0:0:0:
459,141,104906,1,0,0:0:0:0:
419,59,105115,2,0,L|457:25,2,35,4|0|2,0:3|1:0|3:2,0:0:0:0:
341,107,105535,1,0,1:0:0:0:
270,49,105745,6,0,B|211:34|195:83|132:57,1,140,2|2,0:0|0:0,0:0:0:0:
51,95,106374,2,0,L|13:170,1,70,0|2,1:0|0:0,0:0:0:0:
95,208,106794,2,0,L|126:145,1,70,0|2,1:0|0:0,0:0:0:0:
212,116,107213,1,4,1:3:0:0:
288,165,107423,1,2,0:0:0:0:
282,255,107633,6,0,P|255:303|167:287,1,140,4|0,0:3|1:0,0:0:0:0:
95,348,108262,1,0,0:0:0:0:
95,348,108472,2,0,L|95:175,1,140,4|0,1:3|1:0,0:0:0:0:
125,122,109101,1,2,0:0:0:0:
203,167,109311,2,0,P|250:173|290:147,1,70,4|4,0:3|0:3,0:0:0:0:
337,103,109731,2,0,L|359:195,1,70,0|4,1:0|0:3,0:0:0:0:
450,204,110150,6,0,L|411:43,1,140,4|0,1:2|1:0,0:0:0:0:
345,11,110779,1,0,0:0:0:0:
346,10,110989,2,0,P|271:27|181:9,1,140,4|0,0:3|1:0,0:0:0:0:
120,39,111618,1,0,0:0:0:0:
120,39,111723,1,0,0:0:0:0:
120,39,111828,6,0,L|93:119,1,70,0|0,1:2|1:0,0:0:0:0:
12,138,112247,2,0,L|39:218,1,70,0|4,1:0|1:0,0:0:0:0:
34,204,113087,2,0,L|20:235,3,35,2|2|2|2,0:0|0:0|0:0|0:0,0:0:0:0:
19,281,113506,6,0,P|34:341|119:321,1,140,6|0,1:2|1:0,0:0:0:0:
171,282,114136,1,2,0:0:0:0:
242,337,114345,2,0,B|287:345|306:362|306:362|329:343|396:344,1,140,4|0,3:0|1:0,0:0:0:0:
453,300,114975,1,2,0:0:0:0:
447,209,115184,5,4,0:3:0:0:
356,194,115394,1,2,0:0:0:0:
303,268,115604,2,0,P|268:277|215:258,1,70,0|2,1:0|0:0,0:0:0:0:
186,347,116024,2,0,P|151:308|172:213,1,140,0|0,1:1|1:0,0:0:0:0:
274,133,116653,6,0,L|122:136,1,140,2|0,0:0|0:0,0:0:0:0:
68,72,117282,1,4,0:3:0:0:
133,8,117492,1,2,0:0:0:0:
215,46,117702,2,0,L|291:47,1,70,4|2,0:3|0:0,0:0:0:0:
370,15,118122,1,0,1:0:0:0:
435,77,118331,1,2,0:0:0:0:
372,143,118541,6,0,P|361:192|378:232,1,70,4|2,0:3|0:0,0:0:0:0:
437,340,118961,2,0,P|442:305|431:273,1,70,4|2,0:3|0:0,0:0:0:0:
296,335,119380,2,0,B|225:354|231:296|154:324,1,140,4|0,0:3|1:1,0:0:0:0:
76,355,120010,1,2,3:2:0:0:
18,231,120219,6,0,L|67:74,1,140,6|0,1:2|1:0,0:0:0:0:
126,34,120849,1,2,0:0:0:0:
182,105,121059,2,0,P|212:130|300:76,1,140,4|0,3:0|0:0,0:0:0:0:
360,31,121688,1,2,0:0:0:0:
443,67,121898,6,0,L|473:223,1,140,4|0,0:3|0:0,0:0:0:0:
510,285,122527,1,2,0:0:0:0:
456,358,122737,2,0,P|402:368|378:356,1,70,4|2,0:3|0:0,0:0:0:0:
334,290,123156,1,0,1:0:0:0:
233,363,123366,6,0,P|180:354|136:276,1,140,2|2,0:0|0:0,0:0:0:0:
31,270,123996,2,0,P|64:239|75:187,1,70,0|2,1:0|0:0,0:0:0:0:
157,99,124415,2,0,P|149:147|176:202,2,105,4|0|2,0:3|0:0|3:2,0:0:0:0:
214,28,125254,5,4,1:2:0:0:
286,82,125464,1,4,1:3:0:0:
353,21,125674,2,0,P|390:21|427:33,1,70,4|0,1:3|1:3,0:0:0:0:
492,88,126094,1,4,1:2:0:0:
437,160,126303,1,4,0:3:0:0:
437,160,126408,1,2,0:0:0:0:
437,160,126513,1,0,1:0:0:0:
497,228,126723,1,0,0:0:0:0:
442,301,126933,5,4,0:3:0:0:
439,176,140359,6,0,P|369:150|288:179,1,140,4|4,0:3|0:3,0:0:0:0:
238,65,140989,1,0,0:0:0:0:
238,65,141198,2,0,P|233:114|142:170,1,140,4|4,0:3|0:3,0:0:0:0:
63,281,141828,6,0,P|113:254|203:299,1,140,8|0,3:0|0:0,0:0:0:0:
280,357,142457,1,4,0:3:0:0:
280,357,142667,2,0,L|280:201,1,140,0|0,0:0|0:0,0:0:0:0:
321,135,143296,2,0,P|351:127|396:139,1,70,4|8,0:3|3:0,0:0:0:0:
422,219,143716,6,0,L|422:359,2,140,4|4|4,0:3|0:3|0:3,0:0:0:0:
332,60,144975,1,4,0:3:0:0:
205,190,145394,1,4,0:3:0:0:
77,59,145814,6,0,L|67:138,1,70,4|0,0:3|0:0,0:0:0:0:
105,211,146233,2,0,L|95:290,1,70,4|0,0:3|0:0,0:0:0:0:
137,362,146653,1,4,0:3:0:0:
137,362,146863,1,8,3:3:0:0:
215,315,147073,6,0,P|262:294|349:358,1,140,4|4,0:3|0:3,0:0:0:0:
461,311,147702,1,0,0:0:0:0:
461,311,147912,2,0,P|409:280|409:192,1,140,4|4,0:3|0:3,0:0:0:0:
489,109,148541,2,0,L|320:108,1,140,8|0,3:0|0:0,0:0:0:0:
268,28,149170,1,4,0:3:0:0:
268,28,149380,2,0,L|260:185,1,140,0|0,0:0|0:0,0:0:0:0:
204,239,150010,2,0,P|171:248|116:236,1,70,4|8,0:3|3:0,0:0:0:0:
54,286,150429,6,0,L|74:143,2,140,4|4|4,0:3|0:3|0:3,0:0:0:0:
221,357,151688,1,4,0:3:0:0:
310,198,152108,1,4,0:3:0:0:
473,278,152527,6,0,L|456:361,2,70,4|0|4,0:3|0:0|0:3,0:0:0:0:
446,190,153156,1,0,0:0:0:0:
370,240,153366,2,0,L|357:281,2,35,4|0|0,0:3|1:0|1:0,0:0:0:0:
318,109,153786,6,0,P|295:67|201:86,1,140,4|0,1:0|1:0,0:0:0:0:
142,130,154415,1,0,0:0:0:0:
54,104,154625,1,4,0:3:0:0:
76,192,154835,2,0,L|65:232,2,35,0|0|0,0:0|1:0|1:0,0:0:0:0:
142,130,155254,6,0,P|204:113|254:171,1,140,6|0,3:0|0:0,0:0:0:0:
343,178,155884,2,0,L|298:261,1,70,0|2,1:0|3:3,0:0:0:0:
223,269,156303,2,0,L|268:352,1,70,4|0,0:3|0:3,0:0:0:0:
339,368,156723,1,4,1:3:0:0:
386,290,156933,1,2,0:0:0:0:
309,239,157143,6,0,L|157:230,1,140,4|0,0:3|1:0,0:0:0:0:
97,174,157772,1,2,0:0:0:0:
127,88,157982,1,4,0:3:0:0:
213,115,158191,2,0,L|256:133,2,35,2|0|4,0:0|1:0|1:3,0:0:0:0:
218,23,158611,1,4,1:3:0:0:
302,55,158821,6,0,L|398:52,1,70,4|2,0:3|0:0,0:0:0:0:
456,19,159240,1,0,1:0:0:0:
498,99,159450,1,0,3:0:0:0:
427,156,159660,2,0,P|410:185|416:236,1,70,4|0,0:3|0:0,0:0:0:0:
397,327,160080,2,0,L|460:296,1,70,0|2,1:0|0:0,0:0:0:0:
328,263,160499,6,0,L|160:265,1,140,4|4,1:0|1:3,0:0:0:0:
133,191,161129,1,0,0:0:0:0:
46,218,161338,1,4,0:3:0:0:
65,129,161548,2,0,L|50:84,2,35,2|0|4,0:0|1:0|0:3,0:0:0:0:
133,191,161968,6,0,P|207:186|246:107,1,140,4|2,1:0|0:0,0:0:0:0:
244,46,162597,1,0,1:0:0:0:
327,9,162807,1,2,3:3:0:0:
389,74,163017,2,0,L|382:142,2,35,4|0|2,0:3|1:0|0:0,0:0:0:0:
467,27,163436,1,4,1:3:0:0:
509,105,163646,1,2,0:0:0:0:
448,172,163856,6,0,L|444:330,1,140,0|0,1:0|1:0,0:0:0:0:
268,358,164695,2,0,L|271:218,1,140,0|0,1:0|1:0,0:0:0:0:
95,170,165534,2,0,L|99:328,1,140,0|0,1:0|1:0,0:0:0:0:
268,358,166373,2,0,L|271:218,1,140,0|0,1:0|1:0,0:0:0:0:
184,58,167212,5,4,1:0:0:0:
271,32,167422,1,0,1:0:0:0:
271,32,167527,1,0,0:0:0:0:
271,32,167632,2,0,P|304:47|346:47,1,70,0|0,1:0|1:0,0:0:0:0:
425,13,168052,1,0,1:0:0:0:
488,77,168261,1,0,1:0:0:0:
440,154,168471,2,0,P|408:159|348:155,1,70,0|0,1:0|1:0,0:0:0:0:
284,128,168891,5,0,0:0:0:0:
273,129,168995,1,0,0:0:0:0:
263,131,169100,1,0,0:0:0:0:
252,132,169205,1,0,0:0:0:0:
242,136,169310,2,0,L|223:184,3,35,2|2|2|2,1:3|1:3|1:3|1:3,0:0:0:0:
215,208,169730,2,0,L|247:248,3,35,2|2|2|2,1:3|1:3|1:3|1:3,0:0:0:0:
268,263,170150,2,0,L|356:260,1,70,2|2,1:3|1:3,0:0:0:0:
379,257,170464,1,0,0:0:0:0:
379,257,170569,1,0,0:0:0:0:
111,117,171828,6,0,L|84:191,1,70,4|0,1:3|1:0,0:0:0:0:
369,117,173507,2,0,L|396:191,1,70,4|0,1:3|1:0,0:0:0:0:
111,117,175184,6,0,L|84:191,1,70,4|0,1:3|1:0,0:0:0:0:
306,355,176863,1,0,1:0:0:0:
377,298,177073,6,0,L|429:293,2,35,4|4|4,1:3|1:3|0:3,0:0:0:0:
307,229,177702,1,4,0:3:0:0:
380,163,178122,1,4,0:3:0:0:
321,84,178541,5,2,0:0:0:0:
237,135,178751,1,2,0:0:0:0:
155,80,178961,6,0,P|118:80|56:168,1,140,4|4,0:3|0:3,0:0:0:0:
43,250,179800,1,4,0:3:0:0:
116,314,180219,5,2,0:0:0:0:
184,243,180429,1,2,0:0:0:0:
245,319,180639,6,0,P|287:339|367:277,1,140,4|4,0:3|0:3,0:0:0:0:
393,202,181478,1,4,0:3:0:0:
333,123,181898,5,4,1:3:0:0:
246,168,182108,2,0,L|164:147,1,70,0|2,1:0|0:0,0:0:0:0:
119,28,184835,5,6,3:2:0:0:
119,28,185254,6,0,P|78:55|67:104,1,77.0000023498536,4|4,1:0|0:3,0:0:0:0:
79,187,185673,2,0,P|97:220|130:238,1,77.0000023498536,4|4,3:0|0:3,0:0:0:0:
131,239,185988,1,0,0:0:0:0:
131,239,186093,2,0,L|232:240,1,77.0000023498536,4|4,1:3|3:0,0:0:0:0:
268,159,186512,1,4,0:3:0:0:
361,194,186722,1,4,3:0:0:0:
307,278,186932,6,0,P|302:323|323:363,1,77.0000023498536,6|4,3:3|3:0,0:0:0:0:
413,349,187351,2,0,P|425:313|419:275,1,77.0000023498536,4|4,0:3|0:3,0:0:0:0:
361,194,187771,2,0,L|177:195,1,154.000004699707,2|6,1:2|3:0,0:0:0:0:
122,141,188400,6,0,P|84:121|34:211,1,154.000004699707,0|4,1:0|0:3,0:0:0:0:
24,293,189030,1,4,3:0:0:0:
112,246,189240,1,4,0:3:0:0:
112,246,189344,1,0,0:0:0:0:
112,246,189449,2,0,P|150:278|160:309,1,77.0000023498536,0|6,1:0|3:3,0:0:0:0:
276,367,189869,1,4,3:0:0:0:
276,367,190079,6,0,P|264:291|321:232,1,154.000004699707,4|4,0:3|0:3,0:0:0:0:
383,167,190708,1,4,3:0:0:0:
351,71,190918,1,4,0:3:0:0:
263,119,191128,2,0,P|228:124|166:104,1,77.0000023498536,0|6,1:0|3:3,0:0:0:0:
81,20,191547,1,4,3:0:0:0:
25,103,191757,1,4,0:3:0:0:
25,103,191862,1,0,0:0:0:0:
25,103,191967,6,0,L|20:268,1,154.000004699707,4|4,0:3|3:0,0:0:0:0:
71,343,192596,1,4,0:3:0:0:
146,276,192806,2,0,P|186:267|226:274,1,77.0000023498536,0|6,1:0|3:3,0:0:0:0:
290,344,193226,1,4,3:0:0:0:
376,294,193435,1,4,0:3:0:0:
301,203,193645,6,0,P|311:150|401:171,1,154.000004699707,4|4,0:3|3:0,0:0:0:0:
439,40,194274,1,4,0:3:0:0:
439,40,194484,2,0,L|276:36,1,154.000004699707,0|4,1:0|3:0,0:0:0:0:
116,50,195114,6,0,P|99:95|185:121,1,154.000004699707,4|4,0:3|0:3,0:0:0:0:
277,107,195743,1,4,3:0:0:0:
325,194,195953,1,4,0:3:0:0:
244,253,196163,2,0,L|118:252,2,115.50000352478,0|0|4,1:0|0:0|0:3,0:0:0:0:
305,332,197002,6,0,L|400:331,1,77.0000023498536,4|4,1:0|0:3,0:0:0:0:
491,235,197421,2,0,L|415:236,1,77.0000023498536,0|4,1:0|0:3,0:0:0:0:
415,236,197736,1,4,0:3:0:0:
415,236,197841,2,0,P|429:194|413:154,1,77.0000023498536,0|0,1:0|1:0,0:0:0:0:
310,117,198260,1,0,0:0:0:0:
300,122,198364,1,0,0:0:0:0:
290,128,198469,1,0,0:0:0:0:
279,134,198574,1,0,0:0:0:0:
269,139,198680,6,0,P|231:146|179:132,1,77.0000023498536,4|0,1:0|0:0,0:0:0:0:
115,75,199100,1,4,0:3:0:0:
39,139,199309,1,0,1:0:0:0:
39,139,199414,1,0,0:0:0:0:
39,139,199519,2,0,L|39:234,1,77.0000023498536,4|0,1:0|0:0,0:0:0:0:
57,314,199939,1,4,0:3:0:0:
154,290,200149,1,0,1:0:0:0:
228,356,200358,6,0,P|270:363|323:336,1,77.0000023498536,4|0,1:0|0:0,0:0:0:0:
302,352,200673,1,0,0:0:0:0:
302,352,200778,2,0,L|302:265,1,77.0000023498536,4|0,0:3|0:0,0:0:0:0:
235,200,201198,1,6,1:0:0:0:
302,126,201407,1,0,1:0:0:0:
366,202,201617,2,0,P|403:212|458:185,1,77.0000023498536,6|0,3:1|0:0,0:0:0:0:
504,124,202037,6,0,L|502:39,1,77.0000023498536,4|0,1:0|0:0,0:0:0:0:
402,48,202456,2,0,L|400:124,1,77.0000023498536,4|0,0:3|0:0,0:0:0:0:
296,124,202876,2,0,L|298:39,1,77.0000023498536,0|0,1:0|0:0,0:0:0:0:
297,47,203191,1,0,0:0:0:0:
297,47,203295,2,0,L|218:50,1,77.0000023498536,4|0,0:3|0:0,0:0:0:0:
124,21,203715,6,0,P|102:51|103:95,1,77.0000023498536,4|0,1:3|0:0,0:0:0:0:
171,162,204135,1,4,0:3:0:0:
96,228,204344,1,0,1:0:0:0:
145,315,204554,2,0,P|180:322|247:317,1,77.0000023498536,4|0,1:3|0:0,0:0:0:0:
313,361,204974,2,0,L|338:263,1,77.0000023498536,4|0,0:3|0:0,0:0:0:0:
431,209,205393,6,0,L|270:193,1,154.000004699707,4|0,1:0|0:0,0:0:0:0:
185,234,206023,1,0,1:0:0:0:
185,234,206128,1,0,0:0:0:0:
185,234,206233,2,0,P|194:194|173:147,1,77.0000023498536,4|0,1:0|0:0,0:0:0:0:
106,96,206652,1,4,0:3:0:0:
155,9,206862,1,0,1:0:0:0:
286,94,207072,6,0,B|355:111|365:69|442:95,1,154.000004699707,4|0,1:0|0:0,0:0:0:0:
504,168,207701,1,0,1:0:0:0:
442,246,207911,2,0,B|373:263|363:221|286:247,1,154.000004699707,6|0,1:0|0:0,0:0:0:0:
221,172,208540,1,0,0:0:0:0:
221,172,208645,1,0,1:0:0:0:
221,172,208750,6,0,L|120:179,1,77.0000023498536,4|0,1:0|0:0,0:0:0:0:
46,202,209170,1,4,1:3:0:0:
19,298,209379,1,4,0:3:0:0:
98,358,209589,2,0,L|227:350,2,115.50000352478,4|0|0,1:3|0:0|0:0,0:0:0:0:
19,298,210428,5,4,1:0:0:0:
19,298,210638,1,4,1:3:0:0:
46,202,210848,1,4,1:3:0:0:
46,202,211058,1,4,1:3:0:0:
143,180,211267,1,4,1:3:0:0:
207,256,211477,5,0,0:0:0:0:
219,257,211581,1,0,0:0:0:0:
232,259,211686,1,0,0:0:0:0:
245,261,211791,1,0,0:0:0:0:
257,263,211896,1,0,0:0:0:0:
270,265,212001,1,0,0:0:0:0:
283,267,212106,5,0,0:0:0:0:
364,131,212526,1,4,1:0:0:0:
449,312,212946,2,0,L|449:142,1,154.000004699707,4|0,1:0|0:0,0:0:0:0:
449,158,213785,6,0,P|409:134|361:141,1,70,4|0,0:1|0:0,0:0:0:0:
306,195,214205,2,0,B|273:205|273:205|233:188,1,70,0|2,1:0|0:0,0:0:0:0:
181,116,214624,2,0,L|140:121,2,35,4|0|2,0:3|0:0|0:0,0:0:0:0:
232,35,215044,1,0,1:0:0:0:
316,77,215254,1,0,1:3:0:0:
403,42,215463,6,0,P|433:66|447:99,1,70,4|0,0:3|0:0,0:0:0:0:
450,189,215883,2,0,P|434:220|406:241,1,70,0|0,1:0|0:0,0:0:0:0:
312,234,216302,1,4,1:3:0:0:
312,234,216407,1,0,0:0:0:0:
312,234,216512,1,2,0:0:0:0:
350,320,216722,1,0,1:0:0:0:
268,368,216932,1,2,0:0:0:0:
223,284,217142,6,0,L|133:278,1,70,4|0,0:3|0:0,0:0:0:0:
30,215,217561,2,0,L|99:210,1,70,0|0,1:0|0:0,0:0:0:0:
165,141,217981,2,0,L|227:147,2,35,0|0|2,1:0|0:0|0:0,0:0:0:0:
106,66,218400,1,4,1:3:0:0:
174,0,218610,1,2,0:0:0:0:
242,64,218820,6,0,L|319:58,1,70,4|0,0:3|0:0,0:0:0:0:
392,8,219240,2,0,P|408:40|400:90,1,70,0|0,1:0|0:0,0:0:0:0:
353,149,219659,2,0,L|291:155,2,35,0|0|2,1:0|0:0|0:0,0:0:0:0:
421,211,220079,1,0,0:0:0:0:
431,210,220183,1,0,0:0:0:0:
441,210,220288,1,0,0:0:0:0:
452,209,220393,1,0,0:0:0:0:
464,209,220498,6,0,L|443:301,1,70,4|0,0:1|0:0,0:0:0:0:
410,363,220918,2,0,P|379:369|326:353,1,70,0|0,1:0|0:0,0:0:0:0:
274,295,221337,2,0,L|273:250,2,35,4|0|2,0:3|0:0|0:0,0:0:0:0:
202,358,221757,1,0,1:0:0:0:
124,303,221967,1,0,1:3:0:0:
183,229,222177,6,0,L|177:151,1,70,4|0,0:3|0:0,0:0:0:0:
150,68,222596,2,0,P|117:59|62:77,1,70,0|0,1:0|0:0,0:0:0:0:
8,125,223016,1,4,1:3:0:0:
8,125,223121,1,0,0:0:0:0:
8,125,223226,1,2,0:0:0:0:
64,199,223435,2,0,L|58:288,1,70,0|2,1:0|0:0,0:0:0:0:
22,356,223855,6,0,P|56:363|110:344,1,70,4|0,0:3|0:0,0:0:0:0:
156,288,224274,2,0,L|254:298,1,70,0|0,1:0|0:0,0:0:0:0:
306,344,224694,2,0,L|311:382,2,35,0|0|2,1:0|0:0|0:0,0:0:0:0:
350,260,225114,1,4,1:3:0:0:
440,284,225323,1,2,0:0:0:0:
493,205,225533,6,0,L|471:112,1,70,4|0,0:3|0:0,0:0:0:0:
408,71,225953,1,0,1:0:0:0:
341,138,226163,1,2,0:0:0:0:
341,138,226267,2,0,P|291:143|235:119,1,105,0|2,0:0|0:0,0:0:0:0:
178,52,226792,2,0,L|185:7,3,35,6|0|0|0,0:0|1:0|1:0|1:0,0:0:0:0:
433,241,228470,6,0,L|368:301,1,70,0|0,1:0|1:0,0:0:0:0:
130,288,230149,2,0,L|79:241,1,70,0|0,1:0|1:0,0:0:0:0:
