osu file format v14

[General]
AudioFilename: audio.mp3
AudioLeadIn: 0
PreviewTime: 1009491
Countdown: 1
SampleSet: Normal
StackLeniency: 0.7
Mode: 0
LetterboxInBreaks: 0
WidescreenStoryboard: 1

[Editor]
Bookmarks: 2312846
DistanceSpacing: 1.7
BeatDivisor: 4
GridSize: 32
TimelineZoom: 2.1

[Metadata]
Title:Synchro Album
TitleUnicode:Synchro Album
Artist:Shinra-Bansho
ArtistUnicode:森羅万象
Creator:ANuko
Version:circle x triangle box: Crazy About You
Source:Touhou
Tags:kaztora ayaponzu ayo ticat Myui
BeatmapID:1644955
BeatmapSetID:779789

[Difficulty]
HPDrainRate:6
CircleSize:4.5
OverallDifficulty:9.3
ApproachRate:9.6
SliderMultiplier:1.8
SliderTickRate:1

[Events]
//Background and Video events
0,0,"cover.jpg",0,0
//Break Periods
//Storyboard Layer 0 (Background)
//Storyboard Layer 1 (Fail)
//Storyboard Layer 2 (Pass)
//Storyboard Layer 3 (Foreground)
//Storyboard Sound Samples

[TimingPoints]
1019,319.148936170213,4,1,0,100,1,0
20646,-133.333333333333,4,1,0,100,0,0
21125,-100,4,1,0,100,0,0
30540,-66.6666666666667,4,1,0,100,0,0
30859,-100,4,1,0,100,0,0
58306,-66.6666666666667,4,1,0,100,0,0
59742,-66.6666666666667,4,1,0,100,0,1
76178,-133.333333333333,4,1,0,100,0,1
77614,-100,4,1,0,100,0,0
98519,-79.9999999999999,4,1,0,100,0,0
98838,-100,4,1,0,100,0,0
103625,-74.074074074074,4,1,0,100,0,0
104263,-100,4,1,0,100,0,0
118465,-66.6666666666667,4,1,0,100,0,1
136338,-100,4,1,0,100,0,0
138891,-66.6666666666667,4,1,0,100,0,0
140167,-100,4,1,0,100,0,0
155487,-50,4,1,0,100,0,0
170806,-100,4,1,0,100,0,0
197774,-66.6666666666667,4,1,0,100,0,0
198093,-50,4,1,0,100,0,0
198412,-66.6666666666667,4,1,0,100,0,0
201125,-133.333333333333,4,1,0,100,0,0
201444,-66.6666666666667,4,1,0,100,0,1
209104,-66.6666666666667,4,1,0,100,0,0
219316,-133.333333333333,4,1,0,100,0,0
220433,-100,4,1,0,100,0,0
231763,-66.6666666666667,4,1,0,100,0,0
242006,319.148936170213,4,1,0,100,1,0
242377,4000,4,1,0,100,1,0
255050,297.029702970297,4,1,0,40,1,0
259802,-100,4,1,0,80,0,0
264554,-79.9999999999999,4,1,0,100,0,0
274356,-333.333333333333,4,1,0,100,0,0
276436,-100,4,1,0,100,0,0
301238,-79.9999999999999,4,1,0,100,0,0
305990,-133.333333333333,4,1,0,100,0,0
306287,-100,4,1,0,100,0,0
307178,-66.6666666666667,4,1,0,100,0,1
315495,-100,4,1,0,100,0,0
316683,-79.9999999999999,4,1,0,100,0,0
335248,-133.333333333333,4,1,0,100,0,0
335545,-79.9999999999999,4,1,0,100,0,0
335842,-133.333333333333,4,1,0,100,0,0
345347,-100,4,1,0,100,0,0
364356,-500,4,1,0,100,0,0
366584,-66.6666666666667,4,1,0,100,0,1
374901,-66.6666666666667,4,1,0,100,0,0
384406,-100,4,1,0,100,0,0
385149,-79.9999999999999,4,1,0,100,0,0
386337,-133.333333333333,4,1,0,100,0,0
405050,-100,4,1,0,100,0,0
405347,-133.333333333333,4,1,0,100,0,0
412327,-100,4,1,0,100,0,0
417228,-333.333333333333,4,1,0,100,0,0
423168,-133.333333333333,4,1,0,100,0,0
424208,-100,4,1,0,100,0,0
427624,-66.6666666666667,4,1,0,100,0,1
437426,-66.6666666666667,4,1,0,100,0,0
446931,-40,4,1,0,100,0,1
455099,-100,4,1,0,100,0,0
455545,-66.6666666666667,4,1,0,100,0,0
456436,-100,4,1,0,100,0,0
459406,-79.9999999999999,4,1,0,100,0,0
460000,-66.6666666666667,4,1,0,100,0,0
482863,2000,4,1,0,100,1,0
482863,-285.714285714284,4,1,0,100,0,0
499404,292.682926829268,4,1,0,100,1,0
508523,352.941176470588,4,1,0,100,1,0
508812,428.571428571429,4,1,0,100,1,0
509262,400,4,1,0,100,1,0
509716,545.454545454546,4,1,0,100,1,0
510219,441.176470588235,4,1,0,100,1,0
510683,454.545454545455,4,1,0,100,1,0
517955,-66.6666666666667,4,1,0,100,0,0
526137,-100,4,1,0,100,0,0
539773,-66.6666666666667,4,1,0,100,0,0
577955,-66.6666666666667,4,1,0,100,0,1
588864,-66.6666666666667,4,1,0,100,0,0
600455,-133.333333333333,4,1,0,100,0,0
600910,-66.6666666666667,4,1,0,100,0,0
602273,-133.333333333333,4,1,0,100,0,0
602728,-66.6666666666667,4,1,0,100,0,0
637501,-66.6666666666667,4,1,0,100,0,1
648864,-66.6666666666667,4,1,0,100,0,0
657046,-50,4,1,0,100,0,0
658637,-66.6666666666667,4,1,0,100,0,0
660683,-100,4,1,0,100,0,0
664319,-50,4,1,0,100,0,0
667955,-66.6666666666667,4,1,0,100,0,0
688864,-66.6666666666667,4,1,0,100,0,1
696137,-66.6666666666667,4,1,0,100,0,0
696592,-40,4,1,0,100,0,1
696819,-66.6666666666667,4,1,0,100,0,1
697046,-40,4,1,0,100,0,1
697273,-66.6666666666667,4,1,0,100,0,1
699773,-66.6666666666667,4,1,0,100,0,0
725228,-133.333333333333,4,1,0,100,0,0
733469,384.615384615385,4,1,0,100,1,0
770392,-100,4,1,0,100,0,1
795007,-100,4,1,0,100,0,0
853469,-100,4,1,0,100,0,1
878084,-100,4,1,0,100,0,0
941161,-100,4,1,0,100,0,1
953469,-100,4,1,0,100,0,0
963469,-100,4,1,0,100,0,1
988084,-100,4,1,0,100,0,0
999491,333.333333333333,3,1,0,100,1,0
1007157,-1000,3,1,0,100,0,0
1009491,333.333333333333,4,1,0,100,1,0
1009491,-100,3,1,0,100,0,0
1269390,382.165605095541,4,1,0,100,1,0
1504994,319.148936170213,4,1,0,100,1,0
1505303.9248597,337.078651685393,4,1,0,100,1,0
1516090,-66.6666666666667,4,1,0,100,0,0
1667438,-50,4,1,0,100,0,0
1776158,461.538461538462,4,1,0,100,1,0
1793696.36638709,348.837209302326,4,1,0,100,1,0
1827214,342.857142857143,3,1,0,100,1,0
1829255,322.58064516129,3,1,0,100,1,0
1831192,309.278350515464,3,1,0,100,1,0
1833003,291.26213592233,3,1,0,100,1,0
1834760,283.018867924528,3,1,0,100,1,0
1837297,326.086956521739,3,1,0,100,1,0
1837623,326.086956521739,3,1,0,100,1,0
1837954,326.086956521739,3,1,0,100,1,0
1838261,384.615384615385,3,1,0,100,1,0
1839030,326.086956521739,3,1,0,100,1,0
1839505,375,3,1,0,100,1,0
1840630,322.58064516129,3,1,0,100,1,0
1841650,342.857142857143,3,1,0,100,1,0
1843755,340.909090909091,3,1,0,100,1,0
1846183,326.086956521739,3,1,0,100,1,0
1846524,342.857142857143,4,1,0,90,1,0
1868476,348.837209302326,4,1,0,100,1,0
1892196,342.857142857143,3,1,0,100,1,0
1894237,322.58064516129,3,1,0,100,1,0
1896174,309.278350515464,3,1,0,100,1,0
1897985,291.26213592233,3,1,0,100,1,0
1899742,283.018867924528,3,1,0,100,1,0
1902279,326.086956521739,3,1,0,100,1,0
1902605,326.086956521739,3,1,0,100,1,0
1902936,326.086956521739,3,1,0,100,1,0
1903243,384.615384615385,3,1,0,100,1,0
1904012,326.086956521739,3,1,0,100,1,0
1904487,375,3,1,0,100,1,0
1905612,322.58064516129,3,1,0,100,1,0
1906619,342.857142857143,3,1,0,100,1,0
1911115,326.086956521739,3,1,0,100,1,0
1911516,342.857142857143,3,1,0,90,1,0
1911984,342.857142857143,3,1,0,90,1,0
1912306,342.857142857143,4,1,0,90,1,0
1933568,342.857142857143,4,1,0,100,1,0
1950827.9957343,400,3,1,0,100,1,0
1967607,410.958904109589,3,1,0,100,1,0
1970093,428.571428571429,3,1,0,100,1,0
1973997,447.761194029851,3,1,0,100,1,0
1979271,468.75,4,1,0,100,1,0
1979833,352.941176470588,4,1,0,100,1,0
1983891,342.857142857143,4,1,0,100,1,0
1985433,342.857142857143,4,1,0,100,1,0
1987310,283.018867924528,4,1,0,100,1,0
1989001,4000,4,1,0,100,1,0
1989033,4000,4,1,0,100,1,0
1989072,4000,4,1,0,100,1,0
1989192,4000,4,1,0,100,1,0
1989288,4000,4,1,0,100,1,0
1989396,4000,4,1,0,100,1,0
1989470,4000,4,1,0,100,1,0
1989624,4000,4,1,0,100,1,0
1989758,348.837209302326,4,1,0,100,1,0
1992214,468.75,4,1,0,100,1,0
1994109,342.857142857143,4,1,0,100,1,0
2048773,437.956204379562,4,1,0,100,1,0
2102641,-66.6666666666667,4,1,0,100,0,0
2103079,-1000,4,1,0,100,0,1
2103298,-33.3333333333333,4,1,0,100,0,1
2103517,-1000,4,1,0,100,0,1
2103736,-33.3333333333333,4,1,0,100,0,1
2103955,-1000,4,1,0,100,0,1
2104174,-33.3333333333333,4,1,0,100,0,1
2104393,-1000,4,1,0,100,0,1
2104612,-66.6666666666667,4,1,0,100,0,1
2106583,-1000,4,1,0,100,0,1
2106802,-33.3333333333333,4,1,0,100,0,1
2107021,-1000,4,1,0,100,0,1
2107240,-33.3333333333333,4,1,0,100,0,1
2107459,-66.6666666666667,4,1,0,100,0,1
2110086,-1000,4,1,0,100,0,1
2110305,-33.3333333333333,4,1,0,100,0,1
2110524,-1000,4,1,0,100,0,1
2110743,-33.3333333333333,4,1,0,100,0,1
2110962,-66.6666666666667,4,1,0,100,0,1
2113590,-1000,4,1,0,100,0,1
2113809,-33.3333333333333,4,1,0,100,0,1
2114028,-1000,4,1,0,100,0,1
2114247,-33.3333333333333,4,1,0,100,0,1
2114466,-66.6666666666667,4,1,0,100,0,1
2117094,-1000,4,1,0,100,0,1
2117313,-33.3333333333333,4,1,0,100,0,1
2117532,-1000,4,1,0,100,0,1
2117751,-33.3333333333333,4,1,0,100,0,1
2117970,-66.6666666666667,4,1,0,100,0,1
2120597,-1000,4,1,0,100,0,1
2120816,-33.3333333333333,4,1,0,100,0,1
2121035,-1000,4,1,0,100,0,1
2121254,-33.3333333333333,4,1,0,100,0,1
2121473,-66.6666666666667,4,1,0,100,0,1
2131108,-100,4,1,0,100,0,0
2301021,-33.3333333333333,4,1,0,100,0,0
2302773,-25,4,1,0,100,0,0
2304525,-20,4,1,0,100,0,0
2308029,-16.6666666666667,4,1,0,100,0,0
2309780,-14.2857142857143,4,1,0,100,0,0
2311532,-12.5,4,1,0,100,0,0
2313284,-1000,4,1,0,100,0,0
2315036,-100,4,1,0,100,0,0
2339561,-1000,4,1,0,100,0,0
2347923,560.747663551402,4,1,0,100,1,0

[HitObjects]
138,69,499404,5,0,0:0:0:0:
138,69,500574,5,0,0:0:0:0:
138,69,501745,5,0,0:0:0:0:
138,69,502916,5,0,0:0:0:0:
162,186,503501,1,0,0:0:0:0:
138,69,504086,5,0,0:0:0:0:
138,69,505257,5,0,0:0:0:0:
138,69,506428,5,0,0:0:0:0:
138,69,507599,5,0,0:0:0:0:
138,69,508523,5,0,0:0:0:0:
253,94,508812,5,0,0:0:0:0:
138,69,509262,1,0,0:0:0:0:
253,94,509716,5,0,0:0:0:0:
138,69,510219,5,0,0:0:0:0:
253,94,510683,5,0,0:0:0:0:
280,245,510910,1,0,0:0:0:0:
253,94,511137,1,0,0:0:0:0:
183,263,511364,1,0,0:0:0:0:
166,160,511478,1,0,0:0:0:0:
132,319,511705,1,0,0:0:0:0:
65,152,511933,1,0,0:0:0:0:
31,356,512160,1,0,0:0:0:0:
49,249,512273,1,0,0:0:0:0:
35,345,512501,5,0,0:0:0:0:
207,383,512728,1,0,0:0:0:0:
134,318,512955,1,0,0:0:0:0:
285,299,513183,1,0,0:0:0:0:
207,177,513296,1,0,0:0:0:0:
301,208,513523,1,0,0:0:0:0:
267,75,513751,1,0,0:0:0:0:
288,191,513978,1,0,0:0:0:0:
337,42,514092,1,0,0:0:0:0:
287,160,514319,5,0,0:0:0:0:
426,251,514546,1,0,0:0:0:0:
379,147,514773,1,0,0:0:0:0:
306,325,515001,1,0,0:0:0:0:
351,210,515114,1,0,0:0:0:0:
198,348,515342,1,0,0:0:0:0:
204,157,515569,2,0,L|224:224,1,45
244,274,515796,1,0,0:0:0:0:
104,190,515910,1,0,0:0:0:0:
163,75,516137,6,0,L|182:153,1,45
204,217,516364,1,0,0:0:0:0:
245,200,516478,1,0,0:0:0:0:
327,162,516592,5,0,0:0:0:0:
303,123,516705,1,0,0:0:0:0:
312,18,516819,1,0,0:0:0:0:
333,41,516933,1,0,0:0:0:0:
430,7,517046,5,0,0:0:0:0:
420,51,517160,1,0,0:0:0:0:
410,94,517273,2,0,L|423:173,1,45
433,228,517501,5,0,0:0:0:0:
394,251,517614,1,0,0:0:0:0:
333,221,517728,1,0,0:0:0:0:
288,225,517842,1,0,0:0:0:0:
231,188,517955,6,0,L|131:165,1,67.5000025749208
90,259,518183,2,0,L|157:256,1,67.5000025749208
21,192,518410,2,0,L|89:181,1,67.5000025749208
279,114,518637,1,0,0:0:0:0:
196,17,518751,2,0,L|219:92,1,67.5000025749208
279,114,518978,2,0,L|300:178,1,67.5000025749208
366,285,519205,2,0,L|348:219,1,67.5000025749208
377,72,519433,1,0,0:0:0:0:
409,172,519546,2,0,L|438:271,1,67.5000025749208
465,346,519773,6,0,L|388:370,1,67.5000025749208
247,342,520001,2,0,L|322:329,1,67.5000025749208
196,280,520228,2,0,L|128:284,1,67.5000025749208
59,167,520455,1,0,0:0:0:0:
117,118,520569,2,0,P|134:150|127:198,1,67.5000025749208
191,44,520796,2,0,P|185:86|204:120,1,67.5000025749208
251,0,521023,2,0,P|265:34|256:70,1,67.5000025749208
200,174,521251,1,0,0:0:0:0:
304,128,521364,2,0,P|343:122|375:132,1,67.5000025749208
332,259,521592,6,0,L|335:191,1,67.5000025749208
259,303,521820,2,0,L|255:220,1,67.5000025749208
177,346,522047,2,0,L|186:224,1,67.5000025749208
196,143,522274,1,0,0:0:0:0:
107,53,522388,2,0,L|115:132,1,67.5000025749208
215,5,522615,2,0,L|212:82,1,67.5000025749208
307,54,522842,2,0,L|312:124,1,67.5000025749208
327,274,523070,1,0,0:0:0:0:
408,202,523183,2,0,L|404:134,1,67.5000025749208
310,243,523410,6,0,L|226:264,1,67.5000025749208
90,295,523637,1,0,0:0:0:0:
142,207,523751,1,0,0:0:0:0:
146,358,523864,2,0,L|233:324,1,67.5000025749208
327,274,524092,1,0,0:0:0:0:
423,302,524205,1,0,0:0:0:0:
408,202,524319,2,0,L|297:232,1,67.5000025749208
184,179,524546,2,0,L|294:170,1,67.5000025749208
441,87,524773,2,0,B|393:92|393:92|385:73|385:73|367:122|367:122|348:101|348:101|252:113,1,202.500007724762
77,50,525228,6,0,L|256:35,1,135.000005149842
153,154,525569,1,0,0:0:0:0:
171,110,525683,1,0,0:0:0:0:
189,258,525910,1,0,0:0:0:0:
349,103,526137,6,0,L|337:264,1,135
429,177,526592,1,0,0:0:0:0:
338,237,526819,1,0,0:0:0:0:
324,282,526933,1,0,0:0:0:0:
243,333,527046,6,0,P|233:267|268:211,1,135
370,162,527501,1,0,0:0:0:0:
235,91,527842,1,0,0:0:0:0:
235,91,527955,1,0,0:0:0:0:
208,155,528069,1,0,0:0:0:0:
206,77,528183,1,0,0:0:0:0:
152,247,528410,1,0,0:0:0:0:
152,247,528864,6,0,P|162:296|217:321,1,90
380,343,529319,2,0,P|339:297|286:286,1,90
192,318,529660,1,0,0:0:0:0:
216,280,529773,5,0,0:0:0:0:
286,155,530001,1,0,0:0:0:0:
207,213,530114,1,0,0:0:0:0:
258,165,530228,1,0,0:0:0:0:
339,217,530455,1,0,0:0:0:0:
378,75,530683,5,0,0:0:0:0:
431,186,530910,1,0,0:0:0:0:
505,148,531023,1,0,0:0:0:0:
435,166,531137,1,0,0:0:0:0:
419,351,531592,5,0,0:0:0:0:
349,252,531705,1,0,0:0:0:0:
377,378,531819,1,0,0:0:0:0:
226,211,532046,1,0,0:0:0:0:
206,314,532273,1,0,0:0:0:0:
138,125,532501,5,0,0:0:0:0:
129,191,532614,1,0,0:0:0:0:
61,119,532728,1,0,0:0:0:0:
190,60,532955,2,0,P|204:77|227:139,1,45
270,190,533183,2,0,P|279:166|298:146,1,45
383,95,533410,5,0,0:0:0:0:
343,208,533637,1,0,0:0:0:0:
456,47,533864,2,0,B|456:68|456:68|435:83|435:83|472:103|472:103|455:124|455:124|452:182,1,135
452,259,534319,5,0,0:0:0:0:
343,208,534546,1,0,0:0:0:0:
365,347,534773,1,0,0:0:0:0:
281,286,534887,1,0,0:0:0:0:
325,343,535001,1,0,0:0:0:0:
343,208,535228,5,0,0:0:0:0:
314,115,535342,1,0,0:0:0:0:
305,191,535455,1,0,0:0:0:0:
229,82,535683,2,0,B|212:101|178:96|178:96|188:130|188:130|152:130|129:152,1,135
72,207,536137,5,0,0:0:0:0:
37,93,536364,1,0,0:0:0:0:
100,37,536478,1,0,0:0:0:0:
47,100,536592,1,0,0:0:0:0:
133,87,536705,1,0,0:0:0:0:
52,113,536819,1,0,0:0:0:0:
145,140,536933,1,0,0:0:0:0:
204,216,537046,5,0,0:0:0:0:
305,191,537160,1,0,0:0:0:0:
217,230,537273,1,0,0:0:0:0:
336,263,537387,1,0,0:0:0:0:
218,252,537501,5,0,0:0:0:0:
281,70,537728,1,0,0:0:0:0:
218,252,537955,5,0,0:0:0:0:
218,252,538410,1,0,0:0:0:0:
218,252,538864,1,0,0:0:0:0:
218,252,539319,2,0,B|240:232|267:232|267:232|286:261|286:261|321:260|358:232,1,135
418,226,539773,6,0,L|524:220,1,67.5000025749208
435,135,540001,2,0,L|361:140,1,67.5000025749208
300,145,540228,2,0,L|382:138,1,67.5000025749208
398,50,540455,1,0,0:0:0:0:
269,59,540569,2,0,L|163:68,1,67.5000025749208
37,133,540796,2,0,L|112:129,1,67.5000025749208
281,189,541023,2,0,L|174:195,1,67.5000025749208
169,292,541251,1,0,0:0:0:0:
136,207,541364,2,0,L|155:303,1,67.5000025749208
281,189,541592,6,0,P|312:173|387:183,1,67.5000025749208
392,273,541820,2,0,P|349:260|338:234,1,67.5000025749208
435,109,542047,2,0,L|453:174,1,67.5000025749208
353,89,542274,1,0,0:0:0:0:
344,169,542388,2,0,L|371:242,1,67.5000025749208
250,315,542615,2,0,P|215:309|181:268,1,67.5000025749208
127,157,542842,2,0,L|124:239,1,67.5000025749208
69,113,543070,1,0,0:0:0:0:
152,37,543183,2,0,P|181:25|257:34,1,67.5000025749208
237,150,543410,6,0,P|208:124|201:92,1,67.5000025749208
339,85,543638,2,0,P|299:79|268:88,1,67.5000025749208
344,169,543865,2,0,L|412:158,1,67.5000025749208
392,273,544092,1,0,0:0:0:0:
284,217,544206,2,0,P|270:186|270:152,1,67.5000025749208
202,315,544433,2,0,P|202:276|181:232,1,67.5000025749208
75,187,544660,2,0,P|69:230|91:265,1,67.5000025749208
151,138,544888,1,0,0:0:0:0:
250,214,545001,2,0,L|179:259,1,67.5000025749208
302,352,545228,6,0,P|364:332|391:272,1,135.000005149842
410,158,545569,1,0,0:0:0:0:
320,225,545683,2,0,P|230:255|161:236,1,135.000005149842
75,187,546023,1,0,0:0:0:0:
119,305,546137,5,0,0:0:0:0:
87,166,546364,1,0,0:0:0:0:
176,347,546592,2,0,P|222:368|310:344,1,135.000005149842
438,267,547046,6,0,P|359:220|301:232,1,135.000005149842
176,347,547387,1,0,0:0:0:0:
67,278,547501,2,0,P|144:278|200:239,1,135.000005149842
258,109,547955,5,0,0:0:0:0:
336,130,548069,1,0,0:0:0:0:
268,84,548183,1,0,0:0:0:0:
360,67,548296,1,0,0:0:0:0:
277,64,548410,6,0,P|203:64|191:60,1,67.5000025749208
67,31,548637,1,0,0:0:0:0:
91,133,548864,5,0,0:0:0:0:
137,204,548978,1,0,0:0:0:0:
36,134,549092,2,0,P|13:161|9:201,1,67.5000025749208
55,311,549319,6,0,L|78:194,1,67.5000025749208
175,286,549546,1,0,0:0:0:0:
137,204,549660,1,0,0:0:0:0:
248,315,549773,6,0,P|314:317|367:278,1,135.000005149842
377,184,550228,5,0,0:0:0:0:
367,278,550342,1,0,0:0:0:0:
297,153,550455,5,0,0:0:0:0:
339,254,550569,1,0,0:0:0:0:
214,157,550683,5,0,0:0:0:0:
260,60,550796,1,0,0:0:0:0:
174,165,550910,2,0,P|140:191|108:185,1,67.5000025749208
100,254,551137,2,0,P|159:227|173:164,1,135.000005149842
113,67,551478,1,0,0:0:0:0:
67,142,551592,5,0,0:0:0:0:
113,67,551705,1,0,0:0:0:0:
11,104,551819,2,0,P|-1:134|7:179,1,67.5000025749208
15,253,552046,2,0,P|68:194|39:101,1,135.000005149842
173,164,552501,6,0,L|192:256,1,67.5000025749208
209,326,552728,1,0,0:0:0:0:
306,288,552842,1,0,0:0:0:0:
225,304,552955,1,0,0:0:0:0:
317,261,553069,1,0,0:0:0:0:
407,215,553183,1,0,0:0:0:0:
308,67,553410,6,0,P|298:107|322:165,1,67.5000025749208
193,13,553637,2,0,P|213:42|214:102,1,67.5000025749208
136,71,553864,2,0,P|155:136|192:192,1,135.000005149842
302,132,554319,6,0,P|367:116|433:127,1,135.000005149842
346,246,554660,1,0,0:0:0:0:
293,304,554773,2,0,P|373:321|396:314,1,67.5000025749208
272,228,555001,1,0,0:0:0:0:
201,278,555114,1,0,0:0:0:0:
255,188,555228,6,0,P|137:156|92:171,1,135.000005149842
37,179,555683,2,0,L|25:112,1,67.5000025749208
8,13,555910,1,0,0:0:0:0:
91,65,556023,1,0,0:0:0:0:
34,12,556137,5,0,0:0:0:0:
110,93,556251,1,0,0:0:0:0:
69,9,556364,1,0,0:0:0:0:
166,108,556478,1,0,0:0:0:0:
281,33,556592,2,0,P|348:31|411:53,1,135.000005149842
283,180,556933,1,0,0:0:0:0:
354,87,557046,2,0,P|402:55|442:53,2,67.5000025749208
323,241,557387,1,0,0:0:0:0:
171,174,557501,6,0,B|164:167|160:163|157:160|148:127|152:93,1,67.5000025749208
171,174,557728,2,0,P|184:207|185:251,1,67.5000025749208
231,133,557955,5,0,0:0:0:0:
114,227,558183,2,0,P|86:239|2:220,1,67.5000025749208
147,318,558410,6,0,P|179:327|209:344,1,67.5000025749208
272,236,558637,1,0,0:0:0:0:
337,320,558751,2,0,P|349:345|348:419,2,67.5000025749208
271,235,559092,6,0,P|245:215|234:184,1,67.5000025749208
270,58,559319,1,0,0:0:0:0:
305,176,559546,1,0,0:0:0:0:
355,36,559773,5,0,0:0:0:0:
159,126,560001,1,0,0:0:0:0:
421,152,560228,5,0,0:0:0:0:
184,19,560455,1,0,0:0:0:0:
429,52,560683,5,0,0:0:0:0:
398,266,560910,1,0,0:0:0:0:
291,120,561137,2,0,P|199:114|133:139,1,135.000005149842
71,213,561592,5,0,0:0:0:0:
158,125,561819,1,0,0:0:0:0:
249,201,562046,5,0,0:0:0:0:
71,213,562273,1,0,0:0:0:0:
158,125,562387,1,0,0:0:0:0:
139,201,562501,2,0,P|156:251|255:294,1,135.000005149842
249,160,562842,1,0,0:0:0:0:
331,236,562955,2,0,P|257:296|197:283,1,135.000005149842
158,125,563410,5,0,0:0:0:0:
265,45,563637,1,0,0:0:0:0:
154,38,563864,5,0,0:0:0:0:
265,45,564092,1,0,0:0:0:0:
158,125,564205,1,0,0:0:0:0:
266,83,564319,2,0,P|332:72|397:91,1,135.000005149842
489,200,564773,2,0,P|423:211|359:191,1,135.000005149842
266,83,565228,5,0,0:0:0:0:
201,202,565342,1,0,0:0:0:0:
268,118,565455,1,0,0:0:0:0:
233,191,565569,1,0,0:0:0:0:
283,170,565683,2,0,L|360:193,1,67.5000025749208
399,204,565910,5,0,0:0:0:0:
330,319,566023,1,0,0:0:0:0:
363,216,566137,1,0,0:0:0:0:
316,282,566251,1,0,0:0:0:0:
317,227,566364,2,0,L|267:167,1,67.5000025749208
174,53,566592,5,0,0:0:0:0:
273,175,566819,1,0,0:0:0:0:
174,53,567046,5,0,0:0:0:0:
125,243,567273,1,0,0:0:0:0:
94,90,567501,5,0,0:0:0:0:
187,317,567728,1,0,0:0:0:0:
179,148,567955,5,0,0:0:0:0:
324,282,568183,1,0,0:0:0:0:
288,169,568410,2,0,P|273:115|282:34,1,135.000005149842
405,39,568751,1,0,0:0:0:0:
419,162,568864,6,0,P|365:177|284:167,1,135.000005149842
191,97,569319,2,0,P|131:70|68:89,1,135.000005149842
7,201,569660,1,0,0:0:0:0:
105,187,569773,6,0,P|138:191|169:205,1,67.5000025749208
133,321,570001,2,0,P|117:291|115:257,1,67.5000025749208
213,358,570228,2,0,P|274:379|356:358,1,135.000005149842
434,255,570683,5,0,0:0:0:0:
287,168,570796,1,0,0:0:0:0:
415,247,570910,1,0,0:0:0:0:
273,150,571023,1,0,0:0:0:0:
392,235,571137,1,0,0:0:0:0:
404,109,571364,1,0,0:0:0:0:
315,254,571592,6,0,P|280:257|216:235,1,67.5000025749208
66,220,571819,2,0,P|98:212|156:228,1,67.5000025749208
248,252,572046,1,0,0:0:0:0:
193,148,572160,1,0,0:0:0:0:
239,236,572273,1,0,0:0:0:0:
258,133,572387,1,0,0:0:0:0:
227,211,572501,5,0,0:0:0:0:
382,143,572728,2,0,P|337:186|314:258,1,135.000005149842
202,44,573183,5,0,0:0:0:0:
258,133,573410,2,0,P|301:115|385:146,1,135.000005149842
432,228,573751,5,0,0:0:0:0:
375,298,573864,2,0,P|306:313|214:293,1,135.000005149842
129,229,574205,5,0,0:0:0:0:
190,169,574319,2,0,P|205:104|192:38,1,135.000005149842
27,150,574773,5,0,0:0:0:0:
124,101,575001,1,0,0:0:0:0:
33,239,575228,1,0,0:0:0:0:
17,53,575455,1,0,0:0:0:0:
129,229,575683,1,0,0:0:0:0:
134,7,575910,1,0,0:0:0:0:
27,150,576137,5,0,0:0:0:0:
133,72,576251,1,0,0:0:0:0:
295,97,576364,1,0,0:0:0:0:
205,37,576478,1,0,0:0:0:0:
307,184,576592,5,0,0:0:0:0:
195,222,576705,1,0,0:0:0:0:
207,129,576819,1,0,0:0:0:0:
266,247,576933,1,0,0:0:0:0:
396,168,577046,5,0,0:0:0:0:
361,271,577160,1,0,0:0:0:0:
307,184,577273,1,0,0:0:0:0:
448,215,577387,1,0,0:0:0:0:
457,111,577501,5,0,0:0:0:0:
361,271,577614,1,0,0:0:0:0:
349,73,577728,1,0,0:0:0:0:
360,287,577842,1,0,0:0:0:0:
195,222,577955,5,0,0:0:0:0:
448,215,578069,1,0,0:0:0:0:
284,343,578183,1,0,0:0:0:0:
207,129,578296,1,0,0:0:0:0:
121,329,578410,6,0,P|133:288|122:259,1,67.5000025749208
54,156,578637,1,0,0:0:0:0:
195,222,578751,1,0,0:0:0:0:
111,97,578864,6,0,P|96:64|89:32,1,67.5000025749208
207,129,579092,2,0,P|282:77|286:42,1,67.5000025749208
443,205,579319,2,0,P|320:204|279:247,1,135.000005149842
195,222,579773,6,0,P|236:305|283:321,1,135.000005149842
418,322,580114,1,0,0:0:0:0:
347,263,580228,6,0,P|324:238|315:206,1,67.5000025749208
431,93,580455,2,0,P|416:121|383:151,1,67.5000025749208
290,214,580683,5,0,0:0:0:0:
348,79,580796,1,0,0:0:0:0:
270,91,580910,6,0,P|236:86|206:71,1,67.5000025749208
51,133,581137,2,0,L|62:200,1,67.5000025749208
170,359,581364,2,0,L|165:291,1,67.5000025749208
158,140,581592,5,0,0:0:0:0:
277,292,581705,1,0,0:0:0:0:
62,200,581819,1,0,0:0:0:0:
296,148,581933,1,0,0:0:0:0:
165,291,582046,6,0,P|135:306|101:310,1,67.5000025749208
16,188,582273,1,0,0:0:0:0:
108,244,582387,1,0,0:0:0:0:
158,140,582501,6,0,P|78:102|49:101,1,67.5000025749208
296,148,582728,2,0,P|291:179|324:224,1,67.5000025749208
381,85,582955,1,0,0:0:0:0:
387,328,583183,1,0,0:0:0:0:
199,251,583410,6,0,P|152:204|157:139,1,135.000005149842
259,59,583751,1,0,0:0:0:0:
296,148,583864,5,0,0:0:0:0:
381,85,583978,1,0,0:0:0:0:
305,210,584092,1,0,0:0:0:0:
259,59,584205,1,0,0:0:0:0:
365,237,584319,6,0,P|338:270|289:271,1,67.5000025749208
199,251,584546,2,0,P|162:237|101:257,1,67.5000025749208
57,293,584773,2,0,P|38:229|68:170,1,135.000005149842
157,139,585228,5,0,0:0:0:0:
94,48,585342,1,0,0:0:0:0:
185,69,585455,1,0,0:0:0:0:
68,170,585569,1,0,0:0:0:0:
199,251,585683,6,0,P|226:263|286:259,1,67.5000025749208
303,159,585910,2,0,P|264:181|238:222,1,67.5000025749208
357,301,586137,6,0,P|448:329|472:322,1,67.5000025749208
412,189,586364,2,0,L|419:271,1,67.5000025749208
485,147,586592,6,0,L|493:80,1,67.5000025749208
376,114,586819,1,0,0:0:0:0:
353,35,586933,1,0,0:0:0:0:
180,130,587046,6,0,P|309:155|336:134,1,135.000005149842
445,49,587387,1,0,0:0:0:0:
373,157,587501,6,0,P|382:190|419:211,1,67.5000025749208
497,318,587728,2,0,P|456:306|394:326,1,67.5000025749208
304,367,587955,6,0,P|293:335|296:301,1,67.5000025749208
332,214,588183,2,0,P|335:180|328:147,1,67.5000025749208
302,55,588410,2,0,L|154:63,1,135.000005149842
70,147,588864,6,0,P|102:182|207:174,2,135.000005149842
328,147,589773,6,0,P|343:212|337:279,1,135.000005149842
237,341,590114,1,0,0:0:0:0:
318,281,590228,5,0,0:0:0:0:
187,266,590342,1,0,0:0:0:0:
288,284,590455,1,0,0:0:0:0:
185,187,590569,1,0,0:0:0:0:
129,345,590683,5,0,0:0:0:0:
70,147,590910,1,0,0:0:0:0:
65,227,591023,1,0,0:0:0:0:
21,116,591137,1,0,0:0:0:0:
129,345,591364,1,0,0:0:0:0:
192,203,591592,5,0,0:0:0:0:
303,61,591819,1,0,0:0:0:0:
279,148,592046,1,0,0:0:0:0:
210,91,592160,1,0,0:0:0:0:
277,195,592273,1,0,0:0:0:0:
138,92,592387,1,0,0:0:0:0:
226,279,592501,6,0,P|331:327|382:296,1,135.000005149842
407,166,592955,2,0,P|310:258|311:291,1,135.000005149842
426,264,593410,2,0,P|503:213|506:175,1,135.000005149842
446,54,593864,1,0,0:0:0:0:
359,154,594319,6,0,P|328:179|273:195,1,67.5000025749208
289,51,594547,2,0,P|282:83|296:113,1,67.5000025749208
229,202,594774,2,0,P|208:228|179:245,1,67.5000025749208
148,83,595001,1,0,0:0:0:0:
92,154,595115,2,0,P|85:196|100:233,1,67.5000025749208
174,336,595342,2,0,P|205:309|256:306,1,67.5000025749208
416,307,595569,2,0,P|383:334|340:338,1,67.5000025749208
315,196,595797,1,0,0:0:0:0:
355,273,595910,2,0,P|372:247|418:223,1,67.5000025749208
488,111,596138,6,0,L|475:177,1,67.5000025749208
412,27,596364,2,0,L|407:95,1,67.5000025749208
329,100,596592,2,0,P|309:127|281:145,1,67.5000025749208
123,151,596819,1,0,0:0:0:0:
218,223,596933,2,0,P|233:265|226:302,1,67.5000025749208
46,226,597160,2,0,P|27:194|34:159,1,67.5000025749208
102,309,597388,2,0,P|126:286|172:269,1,67.5000025749208
318,300,597614,1,0,0:0:0:0:
373,216,597729,2,0,L|369:148,1,67.5000025749208
451,341,597955,6,0,L|455:259,1,67.5000025749208
500,114,598183,2,0,P|493:152|469:180,1,67.5000025749208
355,118,598410,2,0,P|390:111|459:132,1,67.5000025749208
341,28,598637,1,0,0:0:0:0:
262,119,598751,2,0,P|253:152|270:198,1,67.5000025749208
157,47,598978,2,0,P|178:69|170:123,1,67.5000025749208
81,193,599205,2,0,L|91:126,1,67.5000025749208
167,246,599433,1,0,0:0:0:0:
260,183,599546,2,0,L|264:265,1,67.5000025749208
275,370,599773,6,0,P|394:371|433:346,1,135.000005149842
425,218,600114,2,0,P|343:264|335:309,1,135.000005149842
260,183,600455,2,0,P|183:117|191:64,1,135.000005149842
339,99,601023,1,0,0:0:0:0:
240,59,601137,1,0,0:0:0:0:
346,160,601251,1,0,0:0:0:0:
384,300,601364,6,0,P|341:313|270:310,1,67.5000025749208
180,345,601592,2,0,P|232:304|241:239,1,135.000005149842
74,168,601933,2,0,P|115:249|184:259,1,135.000005149842
355,228,602273,2,0,P|301:152|330:120,1,135.000005149842
465,164,602842,1,0,0:0:0:0:
398,58,602955,1,0,0:0:0:0:
440,228,603069,1,0,0:0:0:0:
416,83,603183,6,0,P|396:126|367:143,1,67.5000025749208
245,187,603410,1,0,0:0:0:0:
207,104,603523,1,0,0:0:0:0:
253,167,603637,1,0,0:0:0:0:
102,142,603751,1,0,0:0:0:0:
107,235,603864,1,0,0:0:0:0:
122,158,603978,1,0,0:0:0:0:
187,276,604092,1,0,0:0:0:0:
98,268,604205,1,0,0:0:0:0:
263,147,604319,6,0,P|268:114|256:83,1,67.5000025749208
336,222,604546,1,0,0:0:0:0:
380,137,604660,1,0,0:0:0:0:
383,276,604773,6,0,P|358:289|310:281,1,67.5000025749208
227,218,605001,2,0,P|191:210|154:217,1,67.5000025749208
66,315,605228,6,0,P|156:307|201:254,1,135.000005149842
28,147,605683,2,0,P|37:198|129:237,1,135.000005149842
116,158,606137,5,0,0:0:0:0:
135,58,606364,2,0,L|129:163,1,67.5000025749208
186,279,606819,2,0,P|277:306|365:262,1,135.000005149842
402,180,607273,5,0,0:0:0:0:
341,114,607387,1,0,0:0:0:0:
378,184,607501,1,0,0:0:0:0:
279,133,607614,1,0,0:0:0:0:
357,197,607728,1,0,0:0:0:0:
233,198,607842,1,0,0:0:0:0:
344,219,607955,5,0,0:0:0:0:
262,33,608183,1,0,0:0:0:0:
279,133,608296,1,0,0:0:0:0:
240,30,608410,1,0,0:0:0:0:
218,117,608523,1,0,0:0:0:0:
222,22,608637,1,0,0:0:0:0:
166,74,608751,1,0,0:0:0:0:
207,12,608864,5,0,0:0:0:0:
139,7,608978,1,0,0:0:0:0:
81,41,609092,1,0,0:0:0:0:
61,105,609205,1,0,0:0:0:0:
79,170,609319,6,0,P|134:222|205:218,1,135.000005149842
341,157,609660,1,0,0:0:0:0:
361,182,609773,6,0,L|356:280,1,67.5000025749208
382,345,610001,2,0,P|452:292|448:235,1,135.000005149842
404,54,610455,2,0,L|357:192,1,135.000005149842
328,314,610910,5,0,0:0:0:0:
266,167,611137,1,0,0:0:0:0:
306,293,611364,1,0,0:0:0:0:
201,159,611592,2,0,P|134:149|72:174,1,135.000005149842
24,279,611933,1,0,0:0:0:0:
91,279,612046,2,0,P|121:293|153:335,1,67.5000025749208
255,262,612501,6,0,P|422:337|434:325,1,202.500007724762
512,290,612955,2,0,P|441:257|429:260,1,67.5000025749208
355,255,613183,6,0,P|309:195|380:86,1,202.500007724762
470,50,613637,2,0,L|402:21,1,67.5000025749208
268,58,613864,6,0,P|301:151|393:185,1,202.500007724762
512,188,614319,2,0,P|495:218|463:232,1,67.5000025749208
328,286,614546,6,0,P|231:280|186:194,1,202.500007724762
189,81,615001,2,0,L|116:97,1,67.5000025749208
0,128,615228,2,0,P|48:173|114:179,1,135.000005149842
270,159,615683,2,0,P|225:244|249:318,1,135.000005149842
169,340,616137,6,0,P|237:361|313:306,1,135.000005149842
496,246,616592,2,0,P|413:247|366:278,1,135.000005149842
339,382,617046,5,0,0:0:0:0:
264,153,617273,1,0,0:0:0:0:
339,187,617387,1,0,0:0:0:0:
330,107,617501,2,0,P|352:89|401:93,1,67.5000025749208
449,68,617728,2,0,P|427:86|378:82,1,67.5000025749208
283,59,617955,5,0,0:0:0:0:
192,86,618069,1,0,0:0:0:0:
272,36,618183,1,0,0:0:0:0:
182,65,618296,1,0,0:0:0:0:
127,150,618410,5,0,0:0:0:0:
199,219,618523,1,0,0:0:0:0:
107,174,618637,1,0,0:0:0:0:
181,242,618751,1,0,0:0:0:0:
198,341,618864,6,0,L|268:307,1,67.5000025749208
408,289,619092,2,0,L|325:329,1,67.5000025749208
398,154,619319,2,0,L|409:315,1,135.000005149842
493,208,619660,1,0,0:0:0:0:
408,289,619773,6,0,P|267:307|246:294,1,135.000005149842
78,234,620114,2,0,P|197:247|230:275,1,135.000005149842
201,146,620455,2,0,P|196:112|179:84,1,67.5000025749208
288,172,620683,6,0,P|371:185|421:146,1,135.000005149842
393,22,621023,2,0,P|326:80|347:128,1,135.000005149842
447,215,621364,2,0,P|466:236|468:316,1,67.5000025749208
461,363,621592,5,0,0:0:0:0:
382,300,621705,1,0,0:0:0:0:
434,361,621819,1,0,0:0:0:0:
327,339,621933,1,0,0:0:0:0:
258,256,622046,5,0,0:0:0:0:
202,306,622160,1,0,0:0:0:0:
241,260,622273,1,0,0:0:0:0:
146,258,622387,1,0,0:0:0:0:
68,202,622501,6,0,P|90:169|101:123,1,67.5000025749208
192,157,622728,2,0,P|187:123|216:62,1,67.5000025749208
268,150,622955,6,0,P|299:166|341:165,1,67.5000025749208
367,53,623183,1,0,0:0:0:0:
319,102,623296,1,0,0:0:0:0:
331,167,623410,5,0,0:0:0:0:
440,244,623523,1,0,0:0:0:0:
338,204,623637,1,0,0:0:0:0:
405,248,623751,1,0,0:0:0:0:
364,244,623864,2,0,P|342:278|312:290,1,67.5000025749208
210,279,624092,5,0,0:0:0:0:
163,182,624205,1,0,0:0:0:0:
175,262,624319,1,0,0:0:0:0:
156,211,624433,1,0,0:0:0:0:
152,237,624546,2,0,P|121:249|87:258,1,67.5000025749208
0,250,624773,5,0,0:0:0:0:
71,60,625001,1,0,0:0:0:0:
29,225,625228,6,0,P|114:262|146:261,1,67.5000025749208
153,146,625455,2,0,P|111:169|82:209,1,67.5000025749208
234,218,625683,6,0,P|190:227|157:215,1,67.5000025749208
230,99,625910,2,0,P|209:125|196:156,1,67.5000025749208
193,304,626137,5,0,0:0:0:0:
316,157,626364,1,0,0:0:0:0:
222,295,626592,1,0,0:0:0:0:
310,241,626705,1,0,0:0:0:0:
250,283,626819,1,0,0:0:0:0:
367,343,627046,6,0,P|416:316|436:225,1,135.000005149842
395,96,627501,1,0,0:0:0:0:
310,241,627728,1,0,0:0:0:0:
316,157,627842,1,0,0:0:0:0:
354,253,627955,5,0,0:0:0:0:
247,111,628183,1,0,0:0:0:0:
310,241,628410,2,0,P|268:265|156:260,1,135.000005149842
102,193,628864,5,0,0:0:0:0:
182,269,628978,1,0,0:0:0:0:
131,180,629092,1,0,0:0:0:0:
159,276,629205,1,0,0:0:0:0:
163,188,629319,2,0,P|179:151|215:127,1,67.5000025749208
304,218,629546,6,0,P|264:210|213:159,1,67.5000025749208
273,83,629773,2,0,P|292:121|296:167,1,67.5000025749208
383,89,630001,2,0,P|380:55|388:23,1,67.5000025749208
466,75,630228,2,0,P|506:148|510:222,1,135.000005149842
460,310,630683,5,0,0:0:0:0:
460,310,631137,1,0,0:0:0:0:
359,182,631592,1,0,0:0:0:0:
388,23,632046,1,0,0:0:0:0:
460,310,632501,5,0,0:0:0:0:
338,107,632728,2,0,P|295:77|167:96,1,135.000005149842
76,172,633183,1,0,0:0:0:0:
253,155,633410,1,0,0:0:0:0:
188,287,633637,1,0,0:0:0:0:
192,214,633751,1,0,0:0:0:0:
235,292,633864,2,0,P|282:330|372:339,1,135.000005149842
460,310,634319,5,0,0:0:0:0:
395,107,634546,1,0,0:0:0:0:
381,200,634660,1,0,0:0:0:0:
318,111,634773,1,0,0:0:0:0:
481,128,634887,1,0,0:0:0:0:
431,238,635001,1,0,0:0:0:0:
411,41,635114,1,0,0:0:0:0:
312,194,635228,5,0,0:0:0:0:
481,128,635342,1,0,0:0:0:0:
294,51,635455,1,0,0:0:0:0:
381,200,635569,1,0,0:0:0:0:
238,126,635683,1,0,0:0:0:0:
489,42,635796,1,0,0:0:0:0:
431,238,635910,5,0,0:0:0:0:
225,30,636023,1,0,0:0:0:0:
312,194,636137,6,0,P|281:208|211:207,1,67.5000025749208
77,203,636364,2,0,P|118:255|181:275,1,135.000005149842
312,194,636819,1,0,0:0:0:0:
248,212,637046,2,0,P|310:316|349:325,1,135.000005149842
460,310,637501,6,0,P|471:274|459:235,1,67.5000025749208
423,132,637728,1,0,0:0:0:0:
393,268,637842,1,0,0:0:0:0:
375,67,637955,6,0,P|345:48|296:47,1,67.5000025749208
145,197,638183,2,0,P|183:206|228:194,1,67.5000025749208
320,113,638410,5,0,0:0:0:0:
287,223,638523,1,0,0:0:0:0:
182,136,638637,2,0,P|150:118|119:114,1,67.5000025749208
9,187,638864,6,0,P|24:209|91:236,1,67.5000025749208
145,197,639092,2,0,P|181:209|246:275,1,67.5000025749208
279,311,639319,2,0,L|286:244,1,67.5000025749208
404,218,639546,2,0,L|395:145,1,67.5000025749208
463,31,639773,6,0,L|275:66,1,135.000005149842
396,152,640114,1,0,0:0:0:0:
203,99,640228,6,0,P|229:81|290:82,1,67.5000025749208
314,235,640455,2,0,P|305:285|260:323,1,67.5000025749208
127,213,640683,6,0,P|177:227|246:217,1,67.5000025749208
362,308,640910,2,0,P|326:298|268:303,1,67.5000025749208
127,213,641137,6,0,L|182:130,1,67.5000025749208
362,308,641364,2,0,L|320:368,1,67.5000025749208
232,339,641592,5,0,0:0:0:0:
192,227,641705,1,0,0:0:0:0:
295,296,641819,2,0,L|304:230,1,67.5000025749208
390,101,642046,6,0,L|380:211,1,67.5000025749208
289,87,642273,1,0,0:0:0:0:
392,66,642387,1,0,0:0:0:0:
314,182,642501,6,0,P|264:186|220:152,1,67.5000025749208
40,105,642728,2,0,P|75:106|113:122,1,67.5000025749208
192,227,642955,2,0,P|154:247|78:196,1,135.000005149842
141,69,643410,6,0,L|155:165,1,67.5000025749208
202,293,643637,2,0,L|188:203,1,67.5000025749208
224,81,643864,5,0,0:0:0:0:
285,193,643978,1,0,0:0:0:0:
232,101,644092,1,0,0:0:0:0:
291,212,644205,1,0,0:0:0:0:
245,128,644319,6,0,P|254:100|245:60,1,67.5000025749208
315,164,644546,2,0,P|300:203|310:252,1,67.5000025749208
437,184,644773,2,0,P|442:117|418:54,1,135.000005149842
301,228,645228,5,0,0:0:0:0:
159,260,645342,1,0,0:0:0:0:
321,218,645455,1,0,0:0:0:0:
172,248,645569,1,0,0:0:0:0:
249,132,645683,6,0,P|277:94|271:58,1,67.5000025749208
204,7,645910,1,0,0:0:0:0:
152,151,646023,1,0,0:0:0:0:
35,85,646137,6,0,L|120:72,1,67.5000025749208
0,229,646364,2,0,L|125:204,1,67.5000025749208
267,179,646592,1,0,0:0:0:0:
108,358,646819,1,0,0:0:0:0:
216,178,647046,6,0,P|224:150|208:110,1,67.5000025749208
314,233,647273,1,0,0:0:0:0:
195,95,647387,1,0,0:0:0:0:
346,141,647501,6,0,P|382:136|408:116,1,67.5000025749208
481,17,647728,1,0,0:0:0:0:
442,155,647842,1,0,0:0:0:0:
334,23,647955,5,0,0:0:0:0:
346,141,648069,1,0,0:0:0:0:
250,26,648183,1,0,0:0:0:0:
406,118,648296,1,0,0:0:0:0:
216,178,648410,5,0,0:0:0:0:
409,38,648523,1,0,0:0:0:0:
195,95,648637,1,0,0:0:0:0:
383,231,648751,1,0,0:0:0:0:
346,141,648864,5,0,0:0:0:0:
259,312,649092,1,0,0:0:0:0:
216,178,649319,2,0,P|138:161|56:177,1,135.000005149842
3,234,649773,5,0,0:0:0:0:
84,316,650001,1,0,0:0:0:0:
1,205,650228,1,0,0:0:0:0:
59,118,650342,1,0,0:0:0:0:
31,197,650455,1,0,0:0:0:0:
128,138,650569,1,0,0:0:0:0:
67,199,650683,6,0,P|84:222|125:234,1,67.5000025749208
293,249,650910,2,0,P|247:260|226:283,1,67.5000025749208
294,384,651137,6,0,L|289:317,1,67.5000025749208
395,292,651364,2,0,L|400:224,1,67.5000025749208
404,134,651592,6,0,P|356:140|314:123,1,67.5000025749208
373,5,651819,2,0,L|368:78,1,67.5000025749208
352,227,652046,5,0,0:0:0:0:
337,135,652160,1,0,0:0:0:0:
331,219,652273,1,0,0:0:0:0:
265,119,652387,1,0,0:0:0:0:
302,216,652501,6,0,P|246:243|137:242,1,135.000005149842
65,187,652842,1,0,0:0:0:0:
74,277,652955,1,0,0:0:0:0:
31,162,653069,1,0,0:0:0:0:
65,313,653183,2,0,P|80:331|161:315,1,67.5000025749208
338,295,653410,5,0,0:0:0:0:
174,249,653637,1,0,0:0:0:0:
174,249,653864,1,0,0:0:0:0:
211,74,654092,5,0,0:0:0:0:
326,202,654319,1,0,0:0:0:0:
326,202,654546,1,0,0:0:0:0:
338,105,654773,5,0,0:0:0:0:
121,121,655001,1,0,0:0:0:0:
338,105,655228,5,0,0:0:0:0:
235,249,655455,1,0,0:0:0:0:
230,163,655683,1,0,0:0:0:0:
158,317,655910,5,0,0:0:0:0:
163,299,656137,1,0,0:0:0:0:
167,279,656364,1,0,0:0:0:0:
199,89,656592,6,0,L|260:62,1,67.5000025749208
462,61,656819,2,0,L|385:106,1,67.5000025749208
352,269,657046,6,0,L|463:172,1,90
286,144,657273,1,0,0:0:0:0:
419,203,657387,1,0,0:0:0:0:
195,167,657501,1,0,0:0:0:0:
352,269,657728,6,0,L|307:388,1,90
193,244,657955,1,0,0:0:0:0:
234,343,658069,1,0,0:0:0:0:
113,226,658183,1,0,0:0:0:0:
292,115,658410,6,0,P|289:70|266:32,1,90
380,84,658637,2,0,P|372:125|383:209,1,67.5000025749208
397,264,658864,6,0,P|332:251|296:196,1,135.000005149842
220,93,659205,2,0,P|209:158|162:206,1,135.000005149842
55,223,659546,2,0,P|80:284|137:317,1,135.000005149842
162,206,659887,1,0,0:0:0:0:
243,292,660001,6,0,P|277:313|338:306,1,67.5000025749208
400,356,660228,2,0,P|403:321|394:275,1,67.5000025749208
387,193,660455,2,0,P|389:159|400:127,1,67.5000025749208
460,60,660683,5,0,0:0:0:0:
411,36,660910,1,0,0:0:0:0:
357,31,661137,1,0,0:0:0:0:
305,45,661364,1,0,0:0:0:0:
269,85,661592,2,0,P|234:113|164:101,1,90
86,71,662046,5,0,0:0:0:0:
51,112,662273,2,0,P|49:164|59:188,1,45
58,191,662501,1,0,0:0:0:0:
103,219,662728,1,0,0:0:0:0:
156,212,662955,2,0,P|220:183|289:188,1,135
354,255,663410,5,0,0:0:0:0:
283,187,663637,1,0,0:0:0:0:
354,255,663864,5,0,0:0:0:0:
356,147,664092,1,0,0:0:0:0:
398,320,664319,6,0,P|352:326|266:296,1,90
187,219,664546,1,0,0:0:0:0:
262,304,664660,1,0,0:0:0:0:
125,263,664773,6,0,P|113:220|129:173,1,90
213,117,665001,6,0,P|242:154|294:154,1,90
391,115,665228,1,0,0:0:0:0:
302,157,665342,2,0,P|290:213|310:292,1,90
302,380,665569,6,0,P|380:321|374:261,1,90
424,181,665910,1,0,0:0:0:0:
382,312,666137,5,0,0:0:0:0:
470,123,666364,1,0,0:0:0:0:
495,254,666592,1,0,0:0:0:0:
302,157,666819,1,0,0:0:0:0:
220,153,667046,6,0,P|229:201|282:237,1,90
130,82,667273,2,0,P|140:122|102:181,1,90
223,47,667501,2,0,P|286:39|409:60,1,180
470,123,667955,5,0,0:0:0:0:
404,202,668069,1,0,0:0:0:0:
459,139,668183,1,0,0:0:0:0:
391,213,668296,1,0,0:0:0:0:
449,153,668410,2,0,L|369:232,1,67.5000025749208
380,224,668637,2,0,L|300:303,1,67.5000025749208
192,311,668864,6,0,L|242:266,1,67.5000025749208
241,250,669092,2,0,L|305:196,1,67.5000025749208
295,183,669319,2,0,L|429:81,1,135.000005149842
267,26,669773,5,0,0:0:0:0:
218,114,669887,1,0,0:0:0:0:
258,40,670001,1,0,0:0:0:0:
207,130,670114,1,0,0:0:0:0:
248,56,670228,2,0,L|213:113,1,67.5000025749208
197,142,670455,2,0,L|142:236,1,67.5000025749208
123,302,670683,6,0,P|225:291|276:239,1,135.000005149842
374,245,671137,2,0,P|272:256|221:308,1,135.000005149842
192,371,671592,5,0,0:0:0:0:
123,302,671705,1,0,0:0:0:0:
180,359,671819,1,0,0:0:0:0:
115,289,671933,1,0,0:0:0:0:
167,346,672046,2,0,L|113:281,1,67.5000025749208
108,278,672273,2,0,L|54:213,1,67.5000025749208
80,123,672501,6,0,P|112:133|138:162,1,67.5000025749208
229,138,672728,2,0,P|220:192|197:222,1,67.5000025749208
298,218,672955,2,0,P|278:250|202:263,1,67.5000025749208
287,357,673183,2,0,P|253:356|221:346,1,67.5000025749208
108,278,673410,5,0,0:0:0:0:
214,202,673637,1,0,0:0:0:0:
108,278,673864,1,0,0:0:0:0:
102,189,673978,1,0,0:0:0:0:
132,253,674205,1,0,0:0:0:0:
138,123,674319,5,0,0:0:0:0:
224,284,674546,1,0,0:0:0:0:
248,131,674773,1,0,0:0:0:0:
224,208,674887,1,0,0:0:0:0:
274,113,675001,5,0,0:0:0:0:
327,212,675114,1,0,0:0:0:0:
284,100,675228,5,0,0:0:0:0:
196,56,675342,1,0,0:0:0:0:
305,106,675455,1,0,0:0:0:0:
218,59,675569,1,0,0:0:0:0:
328,112,675683,5,0,0:0:0:0:
239,62,675910,2,0,L|326:114,1,67.5000025749208
418,162,676137,5,0,0:0:0:0:
291,214,676364,1,0,0:0:0:0:
212,270,676478,1,0,0:0:0:0:
271,217,676592,1,0,0:0:0:0:
147,158,676819,5,0,0:0:0:0:
117,263,676933,1,0,0:0:0:0:
54,232,677046,6,0,P|42:265|57:307,1,67.5000025749208
169,356,677273,1,0,0:0:0:0:
70,304,677387,1,0,0:0:0:0:
212,270,677501,6,0,P|222:240|219:174,1,67.5000025749208
183,100,677728,1,0,0:0:0:0:
217,190,677842,1,0,0:0:0:0:
235,59,677955,6,0,P|281:32|383:63,1,135.000005149842
412,185,678296,2,0,P|347:177|312:104,1,135.000005149842
359,42,678637,1,0,0:0:0:0:
432,163,678751,1,0,0:0:0:0:
312,121,678864,6,0,P|274:134|237:119,1,67.5000025749208
143,67,679092,1,0,0:0:0:0:
155,154,679205,1,0,0:0:0:0:
89,24,679319,6,0,P|80:54|84:115,1,67.5000025749208
155,154,679546,2,0,P|157:206|151:250,1,67.5000025749208
101,314,679773,5,0,0:0:0:0:
200,222,679887,1,0,0:0:0:0:
138,311,680001,2,0,P|169:320|236:313,1,67.5000025749208
317,306,680228,5,0,0:0:0:0:
200,222,680342,1,0,0:0:0:0:
280,317,680455,2,0,P|294:333|355:334,1,67.5000025749208
453,326,680683,6,0,P|450:292|458:260,1,67.5000025749208
512,202,680910,1,0,0:0:0:0:
379,247,681023,1,0,0:0:0:0:
435,176,681137,6,0,P|433:142|418:112,1,67.5000025749208
321,32,681364,1,0,0:0:0:0:
358,161,681478,1,0,0:0:0:0:
298,74,681592,6,0,P|255:61|221:67,1,67.5000025749208
145,142,681819,1,0,0:0:0:0:
253,131,681933,1,0,0:0:0:0:
139,63,682046,5,0,0:0:0:0:
131,226,682160,1,0,0:0:0:0:
133,83,682273,1,0,0:0:0:0:
120,248,682387,1,0,0:0:0:0:
124,104,682501,5,0,0:0:0:0:
273,273,682728,1,0,0:0:0:0:
59,183,682955,1,0,0:0:0:0:
338,197,683183,1,0,0:0:0:0:
169,267,683410,5,0,0:0:0:0:
205,73,683637,1,0,0:0:0:0:
197,252,683864,1,0,0:0:0:0:
178,68,684092,1,0,0:0:0:0:
307,122,684319,5,0,0:0:0:0:
307,122,684546,1,0,0:0:0:0:
497,261,684773,5,0,0:0:0:0:
497,261,685001,1,0,0:0:0:0:
359,232,685228,5,0,0:0:0:0:
401,119,685455,1,0,0:0:0:0:
451,186,685683,5,0,0:0:0:0:
329,125,685796,1,0,0:0:0:0:
428,187,685910,1,0,0:0:0:0:
278,189,686023,1,0,0:0:0:0:
300,311,686137,5,0,0:0:0:0:
191,249,686251,1,0,0:0:0:0:
139,323,686364,1,0,0:0:0:0:
158,201,686478,1,0,0:0:0:0:
220,281,686592,5,0,0:0:0:0:
63,194,686705,1,0,0:0:0:0:
133,244,686819,1,0,0:0:0:0:
181,104,686933,1,0,0:0:0:0:
91,135,687046,5,0,0:0:0:0:
54,283,687160,1,0,0:0:0:0:
233,163,687273,1,0,0:0:0:0:
0,168,687387,1,0,0:0:0:0:
2,50,687501,5,0,0:0:0:0:
133,244,687614,1,0,0:0:0:0:
181,104,687728,1,0,0:0:0:0:
54,283,687842,1,0,0:0:0:0:
107,58,687955,6,0,P|141:36|253:45,1,135.000005149842
463,42,688410,2,0,P|412:75|316:54,1,135.000005149842
232,34,688864,5,0,0:0:0:0:
82,143,688978,1,0,0:0:0:0:
340,69,689092,2,0,P|360:110|361:175,1,67.5000025749208
311,309,689319,6,0,L|284:236,1,67.5000025749208
242,112,689546,1,0,0:0:0:0:
211,304,689660,1,0,0:0:0:0:
108,149,689773,6,0,P|69:138|-7:142,1,67.5000025749208
242,112,690001,2,0,P|222:83|196:61,1,67.5000025749208
364,131,690228,2,0,P|374:64|353:1,1,135.000005149842
447,183,690569,1,0,0:0:0:0:
287,245,690683,6,0,P|245:253|209:244,1,67.5000025749208
108,149,690910,1,0,0:0:0:0:
122,242,691023,1,0,0:0:0:0:
254,180,691137,6,0,P|266:163|263:111,1,67.5000025749208
287,245,691364,1,0,0:0:0:0:
202,139,691478,1,0,0:0:0:0:
319,239,691592,6,0,P|354:241|402:213,1,67.5000025749208
396,131,691819,2,0,P|357:154|344:185,1,67.5000025749208
488,149,692046,6,0,P|487:115|477:84,1,67.5000025749208
383,229,692273,2,0,P|391:279|389:303,1,67.5000025749208
237,263,692501,6,0,P|263:278|317:279,1,67.5000025749208
458,234,692728,1,0,0:0:0:0:
389,295,692842,1,0,0:0:0:0:
237,263,692955,6,0,P|231:229|213:201,1,67.5000025749208
104,154,693183,1,0,0:0:0:0:
164,252,693296,1,0,0:0:0:0:
163,97,693410,6,0,P|116:79|58:92,1,67.5000025749208
226,50,693637,2,0,P|259:54|298:25,1,67.5000025749208
480,97,693864,2,0,P|394:115|306:81,1,135.000005149842
288,38,694205,1,0,0:0:0:0:
368,122,694319,6,0,P|386:166|371:220,1,67.5000025749208
290,245,694546,2,0,P|293:211|309:182,1,67.5000025749208
471,100,694773,2,0,P|456:149|334:170,1,135.000005149842
231,160,695114,1,0,0:0:0:0:
226,265,695228,6,0,P|255:261|296:240,1,67.5000025749208
423,311,695455,2,0,P|384:296|299:302,1,67.5000025749208
229,370,695683,2,0,P|301:380|380:361,1,135.000005149842
423,311,696137,5,0,0:0:0:0:
454,183,696251,1,0,0:0:0:0:
435,298,696364,1,0,0:0:0:0:
486,151,696478,1,0,0:0:0:0:
307,308,696592,6,0,P|226:331|134:300,1,112.5
80,202,696819,2,0,L|101:266,1,67.5000025749208
1,207,697046,6,0,P|14:153|60:123,1,112.5
209,79,697273,2,0,P|211:122|188:170,1,67.5000025749208
326,100,697501,2,0,P|379:60|406:0,1,135.000005149842
333,215,697842,1,0,0:0:0:0:
411,249,697955,6,0,L|404:176,1,67.5000025749208
393,69,698183,1,0,0:0:0:0:
402,161,698296,1,0,0:0:0:0:
335,214,698410,6,0,P|273:235|200:183,1,135.000005149842
176,74,698751,1,0,0:0:0:0:
213,205,698864,6,0,P|220:244|186:311,1,67.5000025749208
379,195,699092,2,0,P|432:213|435:279,1,67.5000025749208
393,69,699319,2,0,P|448:26|550:57,1,135.000005149842
505,189,699773,5,0,0:0:0:0:
505,189,700001,5,0,0:0:0:0:
383,313,700228,2,0,P|333:327|266:284,1,135.000005149842
211,112,700683,5,0,0:0:0:0:
168,276,700910,1,0,0:0:0:0:
98,91,701137,1,0,0:0:0:0:
91,225,701251,1,0,0:0:0:0:
104,119,701364,1,0,0:0:0:0:
192,182,701592,6,0,P|213:218|197:274,1,67.5000025749208
284,337,701819,2,0,P|279:304|295:275,1,67.5000025749208
383,313,702046,6,0,P|410:285|407:221,1,67.5000025749208
368,137,702273,2,0,P|350:186|354:226,1,67.5000025749208
450,62,702501,6,0,L|331:51,1,67.5000025749208
284,115,702728,2,0,L|199:107,1,67.5000025749208
124,207,702955,5,0,0:0:0:0:
203,21,703183,1,0,0:0:0:0:
192,182,703410,6,0,P|195:218|181:251,1,67.5000025749208
299,364,703637,2,0,P|272:270|296:208,1,135.000005149842
402,124,703978,1,0,0:0:0:0:
373,170,704092,1,0,0:0:0:0:
368,223,704205,1,0,0:0:0:0:
466,256,704319,6,0,B|463:222|448:192,1,67.5000025749208
339,87,704546,1,0,0:0:0:0:
285,93,704660,1,0,0:0:0:0:
234,75,704773,5,0,0:0:0:0:
218,173,704887,1,0,0:0:0:0:
232,92,705001,1,0,0:0:0:0:
212,189,705114,1,0,0:0:0:0:
230,112,705228,6,0,L|201:246,1,135.000005149842
107,345,705683,2,0,L|274:336,1,135.000005149842
381,376,706137,6,0,L|417:246,1,135.000005149842
470,69,706592,1,0,0:0:0:0:
355,133,707046,6,0,P|288:128|230:95,1,135.000005149842
105,57,707501,2,0,P|171:61|229:94,1,135.000005149842
355,133,707955,6,0,P|356:166|335:195,1,67.5000025749208
298,338,708183,2,0,P|288:300|305:258,1,67.5000025749208
428,260,708410,2,0,P|406:286|375:298,1,67.5000025749208
218,278,708637,1,0,0:0:0:0:
197,181,708751,2,0,L|205:260,1,67.5000025749208
174,90,708978,2,0,L|178:169,1,67.5000025749208
152,4,709205,2,0,L|157:74,1,67.5000025749208
218,278,709433,1,0,0:0:0:0:
99,214,709546,2,0,L|95:146,1,67.5000025749208
279,31,709774,6,0,L|281:98,1,67.5000025749208
309,184,710002,2,0,L|304:96,1,67.5000025749208
332,205,710229,2,0,L|333:284,1,67.5000025749208
416,164,710456,1,0,0:0:0:0:
387,320,710570,2,0,P|320:341|274:313,1,67.5000025749208
255,318,710797,2,0,P|252:354|268:394,1,67.5000025749208
192,276,711024,2,0,P|192:242|176:213,1,67.5000025749208
81,136,711252,1,0,0:0:0:0:
213,212,711365,2,0,P|243:218|290:185,1,67.5000025749208
363,133,711592,6,0,P|345:91|367:51,1,67.5000025749208
432,24,711820,2,0,P|430:58|414:89,1,67.5000025749208
358,202,712047,2,0,P|397:191|441:129,1,67.5000025749208
484,110,712274,1,0,0:0:0:0:
422,228,712388,2,0,L|430:307,1,67.5000025749208
336,138,712615,2,0,L|363:217,1,67.5000025749208
212,112,712842,2,0,L|277:165,1,67.5000025749208
125,131,713070,1,0,0:0:0:0:
168,207,713183,2,0,P|183:251|172:289,1,67.5000025749208
152,346,713410,6,0,L|219:332,1,67.5000025749208
292,213,713637,1,0,0:0:0:0:
239,317,713751,1,0,0:0:0:0:
264,154,713864,6,0,P|267:120|285:92,1,67.5000025749208
421,18,714092,1,0,0:0:0:0:
331,145,714205,1,0,0:0:0:0:
251,49,714319,6,0,P|218:41|179:51,1,67.5000025749208
199,172,714546,2,0,P|220:142|216:106,1,67.5000025749208
104,195,714773,5,0,0:0:0:0:
149,122,714887,1,0,0:0:0:0:
130,274,715001,1,0,0:0:0:0:
149,122,715114,1,0,0:0:0:0:
179,329,715228,6,0,P|197:295|188:246,1,67.5000025749208
280,160,715456,2,0,P|274:193|289:223,1,67.5000025749208
387,310,715683,2,0,P|410:288|444:219,1,67.5000025749208
464,136,715910,1,0,0:0:0:0:
336,113,716024,2,0,P|349:144|344:192,1,67.5000025749208
255,14,716251,2,0,P|252:46|268:90,1,67.5000025749208
174,81,716478,2,0,P|191:117|179:151,1,67.5000025749208
110,248,716706,1,0,0:0:0:0:
113,122,716819,2,0,P|66:120|34:86,1,67.5000025749208
130,195,717047,6,0,P|136:224|126:262,1,67.5000025749208
234,349,717273,2,0,P|218:312|236:264,1,67.5000025749208
325,250,717502,2,0,P|316:279|289:307,1,67.5000025749208
396,236,717729,1,0,0:0:0:0:
312,164,717843,2,0,P|304:131|313:99,1,67.5000025749208
205,98,718070,2,0,P|194:67|200:34,1,67.5000025749208
86,76,718297,2,0,P|61:53|52:21,1,67.5000025749208
0,121,718523,1,0,0:0:0:0:
122,182,718638,2,0,P|134:207|126:264,1,67.5000025749208
201,166,718864,6,0,L|205:84,1,67.5000025749208
254,291,719092,2,0,L|248:210,1,67.5000025749208
341,368,719319,2,0,L|324:264,1,67.5000025749208
308,217,719546,1,0,0:0:0:0:
340,88,719660,2,0,P|350:117|348:167,1,67.5000025749208
412,76,719887,2,0,P|402:44|416:14,1,67.5000025749208
281,135,720114,2,0,P|239:141|194:102,1,67.5000025749208
145,44,720342,1,0,0:0:0:0:
162,200,720455,2,0,P|147:222|82:249,1,67.5000025749208
0,85,720683,6,0,P|62:137|104:191,1,135.000005149842
117,333,721023,1,0,0:0:0:0:
219,272,721137,2,0,P|284:258|351:268,1,135.000005149842
446,329,721478,1,0,0:0:0:0:
384,239,721592,6,0,P|374:182|388:152,1,67.5000025749208
343,150,721819,2,0,P|346:116|367:90,1,67.5000025749208
330,81,722046,2,0,P|356:44|493:68,1,202.500007724762
429,232,722501,5,0,0:0:0:0:
444,131,722614,1,0,0:0:0:0:
420,214,722728,1,0,0:0:0:0:
433,119,722842,1,0,0:0:0:0:
413,195,722955,6,0,L|340:271,1,67.5000025749208
331,188,723183,1,0,0:0:0:0:
346,266,723296,1,0,0:0:0:0:
371,348,723410,6,0,L|272:355,1,67.5000025749208
245,298,723637,2,0,L|157:285,1,67.5000025749208
138,211,723864,5,0,0:0:0:0:
70,342,724092,1,0,0:0:0:0:
138,211,724319,5,0,0:0:0:0:
44,88,724660,1,0,0:0:0:0:
51,164,724773,1,0,0:0:0:0:
110,70,725001,5,0,0:0:0:0:
195,224,725228,2,0,P|316:221|359:89,1,270.000010299683
