osu file format v14

[General]
AudioFilename: audio.mp3
AudioLeadIn: 0
PreviewTime: 65342
Countdown: 0
SampleSet: Soft
StackLeniency: 0.7
Mode: 2
LetterboxInBreaks: 0
WidescreenStoryboard: 0

[Editor]
Bookmarks: 34971,65156,104601,128304,162378,186082,217563,243860,263119
DistanceSpacing: 1.1
BeatDivisor: 4
GridSize: 32
TimelineZoom: 3.199999

[Metadata]
Title:Knowledge Paranoia
TitleUnicode:ノーレッジパラノイア
Artist:Shinra-Bansho
ArtistUnicode:森羅万象
Creator:Jemzuu
Version:Kodokushi
Source:東方紅魔郷 ~ the Embodiment of Scarlet Devil.
Tags:ajamez jbhyperion neonlights koakuma patchouli japanese zun 東方project th06 touhou koumakyou stage 4 theme パチュリー・ノーレッジ eosd ヴワル魔法図書館 Voile, the Magic Library kaztora ranko Seiji 青時 M other mother SBCD-006 Reitaisai 13 ランコ
BeatmapID:2244082
BeatmapSetID:1072155

[Difficulty]
HPDrainRate:6
CircleSize:4.2
OverallDifficulty:9.4
ApproachRate:9.4
SliderMultiplier:2.2
SliderTickRate:1

[Events]
//Background and Video events
0,0,"toehou.jpg",0,0
//Break Periods
2,198071,203073
//Storyboard Layer 0 (Background)
//Storyboard Layer 1 (Fail)
//Storyboard Layer 2 (Pass)
//Storyboard Layer 3 (Foreground)
//Storyboard Layer 4 (Overlay)
//Storyboard Sound Samples

[TimingPoints]
836,370.37037037037,4,2,1,50,1,0
836,-100,4,2,1,50,0,0
6206,-100,4,2,1,70,0,0
6761,-100,4,2,2,75,0,0
7132,-100,4,2,1,75,0,0
10835,-45.4545454545455,4,2,1,75,0,0
11206,-100,4,2,1,75,0,0
11970,370.37037037037,4,2,1,75,1,0
12317,370.37037037037,4,2,1,75,1,0
12687,370.37037037037,4,2,2,75,1,0
12872,-100,4,2,1,75,0,0
18057,-83.3333333333333,4,2,1,75,0,0
18612,-100,4,2,2,75,0,0
18798,-100,4,2,1,75,0,0
23242,-100,4,2,2,75,0,0
23612,-100,4,2,1,75,0,0
24539,-100,4,2,1,70,0,0
30464,-100,4,2,2,70,0,0
30649,-100,4,2,1,70,0,0
33427,-100,4,2,2,70,0,0
33612,-100,4,2,1,70,0,0
34909,-100,4,2,2,70,0,0
35094,-100,4,2,1,70,0,0
40279,-100,4,2,2,70,0,0
40464,-100,4,2,1,70,0,0
40835,-100,4,2,2,70,0,0
41205,-100,4,2,3,70,0,0
48983,-100,4,2,1,70,0,0
49168,-76.9230769230769,4,2,2,70,0,0
49724,-100,4,2,2,70,0,0
50094,-100,4,2,1,70,0,0
51020,-100,4,2,2,70,0,0
51390,-100,4,2,1,70,0,0
52686,-100,4,2,2,80,0,0
52687,-100,4,2,2,80,0,0
52964,-100,4,2,1,80,0,0
61390,-100,4,2,2,80,0,0
61761,-100,4,2,1,80,0,0
62131,-100,4,2,2,80,0,0
62501,-100,4,2,1,80,0,0
62872,-100,4,2,2,80,0,0
63149,-100,4,2,1,80,0,0
64724,-100,4,2,1,95,0,0
64910,-100,4,2,1,95,0,0
65095,-100,4,2,1,95,0,0
65465,-100,4,2,1,95,0,0
65650,-100,4,2,1,95,0,0
65743,-100,4,2,1,95,0,0
66020,-83.3333333333333,4,2,2,100,0,1
66298,-83.3333333333333,4,2,1,100,0,1
71020,-83.3333333333333,4,2,2,100,0,1
71390,-83.3333333333333,4,2,1,100,0,1
71761,-83.3333333333333,4,2,2,100,0,1
72131,-83.3333333333333,4,2,1,100,0,1
77316,-83.3333333333333,4,2,1,100,0,0
77686,-83.3333333333333,4,2,2,100,0,1
78057,-83.3333333333333,4,2,1,100,0,1
82872,-83.3333333333333,4,2,2,100,0,1
83242,-83.3333333333333,4,2,1,100,0,1
83612,-83.3333333333333,4,2,2,100,0,1
83983,-83.3333333333333,4,2,1,100,0,1
85094,-100,4,2,1,100,0,0
86761,-100,4,2,1,50,0,0
88983,-100,4,2,2,65,0,0
88984,-100,4,2,1,65,0,0
89724,-100,4,2,2,75,0,0
89909,-100,4,2,1,75,0,0
95094,-83.3333333333333,4,2,2,75,0,0
95279,-100,4,2,1,75,0,0
95649,-100,4,2,2,75,0,0
95835,-100,4,2,1,75,0,0
99910,370.37037037037,4,2,1,75,1,0
100280,-100,4,2,2,75,0,0
100650,-100,4,2,1,75,0,0
101391,-100,4,2,2,75,0,0
101576,-100,4,2,1,80,0,0
102132,-100,4,2,2,85,0,0
102502,-100,4,2,1,85,0,0
102873,-100,4,2,2,95,0,0
103243,-100,4,2,1,95,0,0
103613,-100,4,2,1,100,0,0
103798,-100,4,2,3,100,0,0
103984,-100,4,2,2,100,0,0
104354,-100,4,2,1,100,0,0
104539,370.37037037037,4,2,1,100,1,0
104632,-100,4,2,1,55,0,0
110095,-100,4,2,1,65,0,0
110280,-100,4,2,1,65,0,0
110464,-100,4,2,2,65,0,0
110742,-100,4,2,1,65,0,0
111576,-100,4,2,1,68,0,0
111761,-100,4,2,1,72,0,0
113058,-100,4,2,1,74,0,0
113243,-100,4,2,1,75,0,0
113427,-100,4,2,2,75,0,0
115279,-100,4,2,1,75,0,0
116390,-100,4,2,2,75,0,0
116761,-100,4,2,1,75,0,0
122316,-100,4,2,2,75,0,0
122687,-100,4,2,1,75,0,0
123983,-100,4,2,3,75,0,0
124168,-100,4,2,1,75,0,0
125279,-100,4,2,2,75,0,0
125464,-100,4,2,1,75,0,0
125835,-100,4,2,2,75,0,0
126113,-100,4,2,1,75,0,0
126576,-100,4,2,2,75,0,0
126946,-100,4,2,1,75,0,0
127501,-100,4,2,3,75,0,0
127687,-100,4,2,1,75,0,0
128243,-100,4,2,1,80,0,0
131020,-100,4,2,2,80,0,0
131390,-100,4,2,1,80,0,0
132501,-100,4,2,2,80,0,0
132872,-100,4,2,1,80,0,0
136946,-100,4,2,2,80,0,0
137316,-100,4,2,1,80,0,0
138427,-100,4,2,2,80,0,0
138798,-100,4,2,1,80,0,0
139909,-100,4,2,2,80,0,0
140280,-100,4,2,1,95,0,0
140465,-100,4,2,1,95,0,0
140650,-100,4,2,2,95,0,0
140835,-100,4,2,1,95,0,0
141021,-100,4,2,1,95,0,0
141576,-80,4,2,2,100,0,1
141853,-80,4,2,1,100,0,1
141947,-80,4,2,1,100,0,1
146576,-80,4,2,2,100,0,1
146946,-80,4,2,1,100,0,1
147316,-80,4,2,2,100,0,1
147687,-80,4,2,1,100,0,1
152872,-100,4,2,1,100,0,0
153242,-80,4,2,2,100,0,1
153520,-80,4,2,1,100,0,1
158427,-80,4,2,2,100,0,1
158705,-80,4,2,1,100,0,1
159168,-80,4,2,2,100,0,1
159538,-80,4,2,1,100,0,1
160650,-100,4,2,1,100,0,0
162317,-100,4,2,1,70,0,0
168983,-100,4,2,3,70,0,0
169168,-100,4,2,1,70,0,0
169353,-100,4,2,3,70,0,0
169538,-100,4,2,1,70,0,0
169724,-100,4,2,3,70,0,0
170001,-100,4,2,1,70,0,0
170464,-100,4,2,3,70,0,0
170650,-100,4,2,1,70,0,0
170835,-100,4,2,3,70,0,0
171020,-100,4,2,1,70,0,0
171205,-100,4,2,3,70,0,0
171637,-100,4,2,1,70,0,0
171946,-100,4,2,3,70,0,0
172131,-100,4,2,1,70,0,0
174168,-80,4,2,2,100,0,1
174353,-80,4,2,1,100,0,1
179724,-80,4,2,2,100,0,1
180279,-80,4,2,1,100,0,1
185094,-80,4,2,2,100,0,1
185279,-80,4,2,1,100,0,1
185650,-80,4,2,2,100,0,0
186020,-80,4,2,2,100,0,1
188798,-80,4,2,1,100,0,1
191576,-80,4,2,1,100,0,0
191946,-80,4,2,2,100,0,1
192131,-80,4,2,1,100,0,1
196575,-43.4782608695652,4,2,1,100,0,1
196946,-35.7142857142857,4,2,2,100,0,1
197316,-52.6315789473684,4,2,1,100,0,1
197687,-52.6315789473684,4,2,1,5,0,1
197872,-100,4,2,1,55,0,0
203798,-100,4,2,2,55,0,0
204353,-100,4,2,1,55,0,0
209538,-100,4,2,2,65,0,0
209539,-100,4,2,1,65,0,0
211020,-100,4,2,2,70,0,0
211021,-100,4,2,2,70,0,0
211390,-100,4,2,1,70,0,0
212502,-100,4,2,2,75,0,0
212779,-100,4,2,1,75,0,0
213984,-100,4,2,2,80,0,0
214353,-100,4,2,1,80,0,0
215464,-100,4,2,2,80,0,0
215835,-100,4,2,1,90,0,0
216576,-100,4,2,1,90,0,0
217131,-71.4285714285714,4,2,1,90,0,0
217501,-76.9230769230769,4,2,2,100,0,1
217687,-76.9230769230769,4,2,1,100,0,1
222131,-76.9230769230769,4,2,2,100,0,1
222501,-76.9230769230769,4,2,1,100,0,1
222872,-76.9230769230769,4,2,2,100,0,1
223242,-76.9230769230769,4,2,1,100,0,1
227872,-76.9230769230769,4,2,2,100,0,0
228798,-76.9230769230769,4,2,2,100,0,1
229076,-76.9230769230769,4,2,1,100,0,1
234724,-76.9230769230769,4,2,2,100,0,1
235001,-76.9230769230769,4,2,1,100,0,1
236205,-100,4,2,1,100,0,0
237873,-100,4,2,2,75,0,0
238057,-100,4,2,1,75,0,0
239538,-83.3333333333333,4,2,1,75,0,0
239909,-100,4,2,1,75,0,0
243242,-76.9230769230769,4,2,2,75,0,0
243427,-76.9230769230769,4,2,1,75,0,0
243798,-83.3333333333333,4,2,2,75,0,0
243898,-83.3333333333333,4,2,1,75,0,0
248427,-83.3333333333333,4,2,2,75,0,0
249909,-83.3333333333333,4,2,1,75,0,0
255094,-83.3333333333333,4,2,2,75,0,0
255835,-83.3333333333333,4,2,1,75,0,0
258891,-100,4,2,1,75,0,0
258984,-100,4,2,1,75,0,0
259076,-100,4,2,1,75,0,0
259169,-100,4,2,1,75,0,0
259261,-100,4,2,1,75,0,0
259354,-100,4,2,1,75,0,0
259539,-100,4,2,1,76,0,0
259632,-100,4,2,1,77,0,0
259724,-100,4,2,1,79,0,0
259817,-100,4,2,1,82,0,0
259909,-100,4,2,1,85,0,1
260001,-100,4,2,1,85,0,0
260279,-41.6666666666667,4,2,1,85,0,1
260372,-100,4,2,1,85,0,0
260650,-38.4615384615385,4,2,1,85,0,1
260742,-100,4,2,1,85,0,0
261020,-35.7142857142857,4,2,1,85,0,1
261113,-100,4,2,1,85,0,0
261206,-83.3333333333333,4,2,1,75,0,0
261576,-100,4,2,2,75,0,1
261668,-100,4,2,1,50,0,1
262316,-100,4,2,1,30,0,1
262501,-100,4,2,1,20,0,1
262687,-100,4,2,1,15,0,1
262872,-100,4,2,1,10,0,1
263057,-100,4,2,1,5,0,0

[Colours]
Combo1 : 128,128,255
Combo2 : 85,170,255
Combo3 : 255,128,128

[HitObjects]
348,311,836,5,2,0:0:0:0:
475,231,1021,1,2,0:0:0:0:
327,198,1206,2,0,L|320:130,1,55,2|2,0:0|0:0,0:0:0:0:
142,73,1484,2,0,L|316:49,1,165,2|0,0:0|0:0,0:0:0:0:
462,156,1947,2,0,L|333:145,1,110,2|0,0:0|0:0,0:0:0:0:
172,332,2317,5,2,0:0:0:0:
299,252,2502,1,2,0:0:0:0:
151,219,2687,2,0,L|89:191,1,55,2|2,0:0|0:0,0:0:0:0:
293,374,2965,2,0,L|119:354,1,165,2|0,0:0|0:0,0:0:0:0:
290,301,3428,2,0,L|276:180,1,110,2|0,0:0|0:0,0:0:0:0:
78,179,3798,5,2,0:0:0:0:
194,105,3984,1,2,0:0:0:0:
335,73,4169,2,0,L|268:64,1,55,2|2,0:0|0:0,0:0:0:0:
79,50,4447,2,0,L|242:28,1,165,2|0,0:0|0:0,0:0:0:0:
55,162,4910,2,0,L|188:172,1,110,2|0,0:0|0:0,0:0:0:0:
350,291,5280,5,2,0:0:0:0:
212,255,5465,1,2,0:0:0:0:
325,187,5650,1,2,0:0:0:0:
480,159,5835,2,0,L|485:98,1,55,2|0,0:0|0:0,0:0:0:0:
243,82,6206,2,0,L|288:44,1,55,2|0,0:0|0:0,0:0:0:0:
339,31,6391,1,2,0:0:0:0:
405,24,6484,2,0,L|284:15,1,110,0|0,0:0|0:0,0:0:0:0:
19,157,6761,6,0,P|155:237|227:225,1,220,4|0,1:2|1:0,0:0:0:0:
144,241,7224,1,0,0:0:0:0:
216,270,7317,2,0,L|279:276,1,55,4|0,0:0|0:0,0:0:0:0:
215,307,7502,2,0,L|140:314,1,55,0|0,1:0|0:0,0:0:0:0:
232,329,7687,2,0,L|293:333,1,55,4|0,0:0|0:0,0:0:0:0:
222,364,7873,2,0,L|152:374,1,55,0|0,1:0|0:0,0:0:0:0:
252,373,8058,2,0,L|319:380,1,55,4|0,0:0|0:0,0:0:0:0:
128,272,8243,6,0,L|-2:246,1,110,0|4,1:0|0:0,0:0:0:0:
176,182,8613,2,0,L|112:175,2,55,0|0|4,1:0|0:0|0:0,0:0:0:0:
365,185,8891,2,0,L|344:55,1,110,2|0,0:0|0:0,0:0:0:0:
281,66,9169,1,2,0:0:0:0:
445,31,9354,1,2,0:0:0:0:
272,276,9539,2,0,L|171:270,1,55,2|0,0:0|0:0,0:0:0:0:
451,360,9724,5,0,1:0:0:0:
299,355,9910,1,4,1:2:0:0:
153,298,10095,1,4,1:2:0:0:
325,226,10280,2,0,L|410:213,1,55,4|0,1:2|0:0,0:0:0:0:
190,188,10465,5,4,1:2:0:0:
156,175,10526,1,4,0:0:0:0:
138,144,10588,1,4,0:0:0:0:
143,108,10650,1,4,0:0:0:0:
194,80,10743,1,0,0:0:0:0:
264,87,10835,2,0,L|3:87,1,242.000007385254,4|0,1:2|0:0,0:0:0:0:
339,142,11206,6,0,L|343:174,1,27.5,10|0,0:0|0:0,0:0:0:0:
412,201,11391,1,2,0:0:0:0:
450,269,11576,1,2,0:0:0:0:
416,341,11761,1,2,0:0:0:0:
340,365,11970,1,2,0:0:0:0:
489,369,12155,1,2,1:2:0:0:
217,291,12317,5,14,0:0:0:0:
253,287,12378,1,4,0:0:0:0:
290,284,12440,1,4,0:0:0:0:
326,280,12502,1,4,0:0:0:0:
363,277,12563,1,4,0:0:0:0:
111,182,12687,6,0,L|240:172,1,110,4|0,1:2|1:0,0:0:0:0:
79,105,13057,2,0,L|10:97,1,55,8|0,0:0|0:0,0:0:0:0:
199,58,13335,1,0,0:0:0:0:
261,42,13427,2,0,L|143:30,1,110,4|0,0:0|1:0,0:0:0:0:
337,178,13798,2,0,L|405:170,2,55,12|4|4,0:0|0:0|0:0,0:0:0:0:
62,254,14168,5,4,1:2:0:0:
208,301,14353,1,0,1:0:0:0:
50,353,14538,2,0,L|29:202,1,110,12|0,0:0|0:0,0:0:0:0:
219,174,14816,1,0,0:0:0:0:
149,167,14909,2,0,L|123:41,1,110,4|0,0:2|1:0,0:0:0:0:
310,52,15186,1,0,0:0:0:0:
244,35,15279,2,0,L|311:22,1,55,12|0,0:0|1:0,0:0:0:0:
485,143,15464,1,0,0:0:0:0:
309,231,15649,6,0,L|445:249,1,110,4|0,1:2|1:0,0:0:0:0:
243,335,16020,1,12,0:0:0:0:
416,361,16205,2,0,L|391:290,1,55,0|0,0:0|0:0,0:0:0:0:
204,224,16483,2,0,L|119:209,2,55,0|4|4,0:0|1:2|0:0,0:0:0:0:
406,136,16761,1,12,0:0:0:0:
248,75,16946,2,0,L|313:65,1,55,0|0,0:0|0:0,0:0:0:0:
93,286,17131,5,4,1:2:0:0:
211,339,17316,1,4,1:2:0:0:
346,343,17501,1,8,0:0:0:0:
72,367,17686,2,0,L|9:359,1,55,4|0,1:2|0:0,0:0:0:0:
434,235,18057,6,0,L|246:227,1,131.99999597168,4|8,1:2|0:0,0:0:0:0:
375,208,18335,1,8,0:0:0:0:
162,156,18427,1,8,0:0:0:0:
89,134,18520,1,8,0:0:0:0:
316,105,18612,5,4,1:2:0:0:
456,77,18798,1,0,1:0:0:0:
296,23,18983,2,0,L|230:14,2,55,12|0|0,0:0|0:0|0:0,0:0:0:0:
114,156,19261,1,0,0:0:0:0:
50,192,19353,2,0,L|179:212,1,110,4|0,0:0|1:0,0:0:0:0:
365,279,19631,1,0,0:0:0:0:
302,323,19724,2,0,L|165:338,1,110,12|0,0:2|0:0,0:0:0:0:
493,184,20094,6,0,L|371:169,1,110,4|0,1:2|1:0,0:0:0:0:
188,134,20372,1,0,0:0:0:0:
249,113,20464,2,0,L|380:96,1,110,12|0,0:0|0:0,0:0:0:0:
136,231,20742,2,0,L|3:215,1,110,0|0,0:0|0:0,0:0:0:0:
68,304,21020,2,0,L|154:300,1,55,0|0,1:2|1:2,0:0:0:0:
210,334,21205,1,12,0:0:0:0:
42,370,21390,2,0,L|133:377,1,55,2|2,0:0|0:0,0:0:0:0:
340,295,21575,5,6,1:2:0:0:
202,252,21761,1,0,1:0:0:0:
362,189,21946,1,8,0:0:0:0:
416,185,22038,1,0,1:0:0:0:
471,182,22131,1,0,1:0:0:0:
286,113,22224,2,0,L|207:109,2,55,8|0|0,0:0|0:0|0:0,0:0:0:0:
99,180,22501,2,0,L|23:170,1,55,2|0,3:2|0:0,0:0:0:0:
235,353,22686,2,0,L|310:363,1,55,8|0,3:3|0:0,0:0:0:0:
27,325,22872,5,2,1:2:0:0:
487,362,23242,6,0,L|251:333,1,220,4|0,1:2|0:0,0:0:0:0:
234,327,23673,1,0,0:0:0:0:
219,295,23735,1,0,0:0:0:0:
236,264,23798,2,0,L|326:257,2,55,0|0|0,1:0|0:0|0:0,0:0:0:0:
31,196,24075,1,0,1:0:0:0:
104,158,24168,2,0,L|227:141,1,110,8|0,0:0|0:0,0:0:0:0:
133,106,24446,1,0,0:0:0:0:
336,51,24538,6,0,L|464:49,1,110,4|0,1:2|1:0,0:0:0:0:
387,81,24816,1,0,0:0:0:0:
322,92,24909,1,8,0:0:0:0:
492,177,25094,1,0,0:0:0:0:
432,185,25186,2,0,P|383:228|434:312,1,165,0|0,0:0|1:0,0:0:0:0:
269,347,25649,1,12,0:0:0:0:
455,369,25835,2,0,L|383:359,1,55,0|0,0:0|0:0,0:0:0:0:
192,231,26020,6,0,P|174:170|279:126,1,165,0|0,1:0|0:0,0:0:0:0:
312,115,26390,1,12,0:0:0:0:
125,56,26575,1,0,0:0:0:0:
65,61,26668,2,0,P|30:113|110:163,1,165,0|0,0:0|1:0,0:0:0:0:
250,231,27131,1,12,0:0:0:0:
97,300,27316,1,0,1:0:0:0:
365,350,27501,6,0,L|243:356,1,110,0|0,1:0|1:0,0:0:0:0:
409,280,27872,1,12,0:0:0:0:
235,257,28057,1,0,0:0:0:0:
176,227,28149,2,0,L|238:217,1,55,0|0,0:0|1:0,0:0:0:0:
416,164,28427,1,0,1:0:0:0:
229,95,28612,2,0,L|354:78,1,110,12|0,0:0|1:0,0:0:0:0:
344,122,28890,1,0,1:0:0:0:
122,295,28983,6,0,L|2:287,2,110,0|0|12,1:0|1:0|0:0,0:0:0:0:
306,360,29538,1,0,0:0:0:0:
368,340,29631,2,0,L|238:317,1,110,0|0,0:0|0:0,0:0:0:0:
437,256,29909,1,0,1:0:0:0:
277,221,30094,1,12,0:0:0:0:
211,208,30186,2,0,L|197:95,1,110,0|0,0:0|0:0,0:0:0:0:
420,55,30464,5,4,1:2:0:0:
312,27,30649,1,0,1:0:0:0:
195,31,30835,1,12,0:0:0:0:
378,125,31020,1,0,0:0:0:0:
438,135,31112,2,0,P|463:192|428:256,1,110,0|0,0:0|0:0,0:0:0:0:
217,351,31390,5,0,1:0:0:0:
357,298,31575,1,12,0:0:0:0:
200,245,31761,2,0,L|266:239,1,55,0|0,0:0|0:0,0:0:0:0:
57,228,31946,2,0,L|26:120,1,110,0|0,1:0|1:0,0:0:0:0:
187,53,32316,2,0,L|111:62,1,55,12|0,0:0|0:0,0:0:0:0:
189,29,32501,2,0,L|254:28,1,55,0|0,0:0|0:0,0:0:0:0:
46,144,32686,5,0,1:2:0:0:
163,204,32872,1,0,1:0:0:0:
294,234,33057,1,12,0:2:0:0:
119,305,33242,2,0,L|59:311,1,55,0|0,0:0|0:0,0:0:0:0:
307,355,33427,5,4,1:2:0:0:
165,336,33612,1,8,0:0:0:0:
299,266,33798,2,0,L|365:251,1,55,8|0,0:0|1:0,0:0:0:0:
450,189,33983,2,0,L|383:180,1,55,8|0,0:0|1:0,0:0:0:0:
180,173,34168,5,8,0:0:0:0:
332,118,34353,1,0,3:3:0:0:
164,66,34538,2,0,L|81:57,1,55,8|0,3:3|1:0,0:0:0:0:
322,28,34724,2,0,L|389:12,1,55,8|0,3:3|1:0,0:0:0:0:
129,262,34909,6,0,L|-20:255,1,110,4|0,1:2|1:0,0:0:0:0:
197,189,35279,2,0,L|266:195,2,55,12|0|0,0:0|0:0|0:0,0:0:0:0:
125,160,35557,2,0,L|279:138,1,110,0|0,0:0|0:0,0:0:0:0:
293,141,35835,1,0,1:0:0:0:
95,249,36020,2,0,L|84:381,1,110,12|0,0:0|0:0,0:0:0:0:
391,352,36390,5,0,1:0:0:0:
243,308,36575,1,0,1:0:0:0:
406,248,36761,2,0,L|463:253,2,55,12|0|0,0:0|0:0|0:0,0:0:0:0:
218,190,37038,2,0,L|354:170,1,110,0|0,0:0|0:0,0:0:0:0:
257,152,37316,1,0,1:0:0:0:
430,156,37501,1,14,0:0:0:0:
469,122,37593,1,2,0:0:0:0:
452,73,37686,1,2,0:0:0:0:
400,70,37778,1,2,0:0:0:0:
175,75,37872,5,0,1:0:0:0:
333,57,38057,1,0,1:0:0:0:
168,189,38242,1,12,0:0:0:0:
110,184,38334,1,0,0:0:0:0:
52,178,38427,1,0,0:0:0:0:
240,266,38520,2,0,L|254:378,1,110,0|0,0:0|0:0,0:0:0:0:
189,377,38798,1,0,1:0:0:0:
26,350,38983,1,12,0:0:0:0:
365,325,39168,1,0,0:0:0:0:
203,265,39353,6,0,L|136:260,1,55,8|0,0:0|1:0,0:0:0:0:
218,239,39538,2,0,L|291:230,1,55,8|8,0:0|0:0,0:0:0:0:
66,159,39724,2,0,L|-9:150,1,55,8|0,0:0|1:0,0:0:0:0:
252,166,39909,2,0,P|175:157|121:231,1,165,0|0,1:0|0:0,0:0:0:0:
380,58,40279,6,0,L|492:48,1,110,4|8,1:0|0:0,0:0:0:0:
331,138,40557,1,8,0:0:0:0:
271,149,40649,1,8,0:0:0:0:
442,216,40742,1,8,0:0:0:0:
239,233,40835,6,0,P|121:288|151:352,1,220,4|0,1:2|1:0,0:0:0:0:
292,376,41390,1,0,0:0:0:0:
136,300,41575,2,0,P|200:256|249:254,1,110,0|4,1:0|0:0,0:0:0:0:
327,260,41853,2,0,L|335:186,1,55,0|0,0:0|1:0,0:0:0:0:
161,174,42131,1,4,0:0:0:0:
453,118,42316,6,0,L|334:108,1,110,0|4,1:0|0:0,0:0:0:0:
129,91,42594,2,0,L|145:25,1,55,0|0,0:0|1:0,0:0:0:0:
325,11,42872,2,0,L|254:18,1,55,4|0,0:0|0:0,0:0:0:0:
185,49,43057,2,0,L|167:167,1,110,0|4,1:0|0:0,0:0:0:0:
41,207,43335,2,0,L|33:267,1,55,0|0,0:0|1:0,0:0:0:0:
206,351,43612,2,0,L|121:342,1,55,4|0,0:0|0:0,0:0:0:0:
373,308,43798,6,0,L|491:299,1,110,0|4,1:0|0:0,0:0:0:0:
367,271,44075,2,0,L|358:200,1,55,4|0,0:0|1:0,0:0:0:0:
201,149,44353,2,0,L|268:137,1,55,4|4,0:0|0:0,0:0:0:0:
445,37,44538,2,0,L|326:25,1,110,0|4,1:0|0:0,0:0:0:0:
453,85,44816,2,0,L|468:145,1,55,0|0,0:0|1:0,0:0:0:0:
334,198,45094,1,4,0:0:0:0:
45,280,45279,6,0,L|177:291,1,110,0|4,1:2|0:0,0:0:0:0:
272,364,45557,2,0,L|207:376,1,55,4|0,0:0|1:0,0:0:0:0:
66,360,45835,1,4,0:0:0:0:
407,240,46020,2,0,L|289:220,1,110,0|4,1:0|0:0,0:0:0:0:
121,141,46298,2,0,L|210:118,1,55,0|0,0:0|1:0,0:0:0:0:
348,70,46575,2,0,L|416:78,1,55,2|2,0:0|0:0,0:0:0:0:
187,93,46761,6,0,L|61:97,1,110,0|4,1:0|0:0,0:0:0:0:
190,182,47038,2,0,L|208:246,1,55,0|0,0:0|1:0,0:0:0:0:
52,345,47316,2,0,L|108:351,1,55,4|4,0:0|0:0,0:0:0:0:
181,351,47501,2,0,L|197:239,1,110,0|4,1:0|0:0,0:0:0:0:
33,206,47872,1,0,1:0:0:0:
208,131,48057,2,0,L|134:121,1,55,4|4,0:0|0:0,0:0:0:0:
383,79,48242,6,0,L|493:64,1,110,0|4,1:0|0:0,0:0:0:0:
379,202,48520,2,0,L|448:214,1,55,0|0,0:0|1:0,0:0:0:0:
267,283,48798,2,0,L|241:340,1,55,4|4,0:0|0:0,0:0:0:0:
450,363,48983,2,0,L|501:257,1,110,4|8,0:0|0:0,0:0:0:0:
431,251,49261,1,8,0:0:0:0:
177,175,49353,2,0,L|97:167,1,71.4999967269899,8|8,0:0|0:0,0:0:0:0:
490,108,49724,6,0,L|323:96,1,165,4|0,1:2|0:0,0:0:0:0:
382,82,50094,1,8,0:0:0:0:
115,63,50279,2,0,P|188:173|286:168,1,220,2|0,1:3|1:0,0:0:0:0:
411,181,50835,1,8,0:0:0:0:
86,302,51020,6,0,L|337:336,1,220,4|0,1:2|1:0,0:0:0:0:
147,277,51575,1,8,0:0:0:0:
343,222,51761,1,0,1:0:0:0:
195,156,51946,1,0,1:0:0:0:
22,137,52131,2,0,L|98:124,1,55,0|0,0:0|1:0,0:0:0:0:
300,75,52316,2,0,L|126:32,1,165,0|0,1:0|0:0,0:0:0:0:
393,15,52686,6,0,P|461:35|451:154,1,165,4|0,0:0|0:0,0:0:0:0:
350,166,53057,1,0,1:0:0:0:
485,245,53242,1,8,0:0:0:0:
197,320,53427,2,0,L|326:331,1,110,0|8,1:0|0:0,0:0:0:0:
122,255,53705,2,0,L|153:185,1,55,0|8,0:0|0:0,0:0:0:0:
314,170,53983,1,8,0:0:0:0:
25,145,54168,6,0,L|88:39,1,110,0|8,1:0|0:0,0:0:0:0:
283,28,54446,2,0,L|216:21,1,55,8|0,0:0|1:0,0:0:0:0:
57,154,54724,1,8,0:0:0:0:
352,274,54909,2,0,L|221:293,1,110,0|0,1:0|1:0,0:0:0:0:
48,350,55186,2,0,L|128:365,1,55,0|8,0:0|0:0,0:0:0:0:
456,138,55464,6,0,P|466:208|340:270,1,220,4|0,1:2|1:0,0:0:0:0:
174,119,56020,2,0,L|298:99,1,110,8|0,0:0|0:0,0:0:0:0:
118,215,56390,2,0,L|246:215,1,110,0|0,1:0|1:0,0:0:0:0:
49,301,56761,1,8,0:0:0:0:
327,373,56946,6,0,P|262:308|126:301,1,220,4|0,1:2|1:0,0:0:0:0:
300,230,57501,1,8,0:0:0:0:
130,160,57686,2,0,L|14:130,1,110,0|0,0:0|0:0,0:0:0:0:
89,106,57964,1,8,0:0:0:0:
293,52,58057,1,8,0:0:0:0:
358,78,58149,1,8,0:0:0:0:
129,61,58242,1,8,0:0:0:0:
182,50,58334,1,8,0:0:0:0:
236,39,58427,1,8,0:0:0:0:
290,28,58519,1,8,0:0:0:0:
71,282,58612,5,4,1:0:0:0:
11,257,58705,1,0,1:0:0:0:
70,231,58798,1,0,1:0:0:0:
284,344,58890,2,0,L|296:256,1,55,0|0,1:0|0:0,0:0:0:0:
494,204,59353,5,4,3:3:0:0:
421,175,59446,1,4,3:0:0:0:
493,129,59538,1,4,3:3:0:0:
266,126,59631,2,0,L|232:71,1,55,4|0,3:3|0:0,0:0:0:0:
19,55,60094,5,8,3:0:0:0:
105,100,60186,1,8,3:0:0:0:
22,154,60279,1,8,3:0:0:0:
257,268,60372,2,0,L|319:256,1,55,8|0,3:0|0:0,0:0:0:0:
497,324,60835,1,2,3:2:0:0:
55,351,61020,1,2,3:2:0:0:
384,206,61390,6,0,L|137:150,1,220,4|0,1:0|0:0,0:0:0:0:
333,126,61946,1,8,0:0:0:0:
25,75,62131,2,0,L|262:40,1,220,4|0,1:2|1:0,0:0:0:0:
102,28,62686,1,0,0:0:0:0:
399,47,62872,6,0,P|421:104|327:150,1,165,4|0,1:0|0:0,0:0:0:0:
285,148,63242,1,0,1:0:0:0:
471,163,63427,1,8,0:0:0:0:
497,209,63519,1,0,0:0:0:0:
477,258,63612,1,0,0:0:0:0:
426,273,63704,1,0,0:0:0:0:
187,347,63798,1,8,3:0:0:0:
350,276,63983,2,0,L|292:263,1,55,8|0,0:0|1:0,0:0:0:0:
62,188,64168,2,0,L|135:171,1,55,8|0,0:0|1:0,0:0:0:0:
417,118,64353,5,4,0:0:0:0:
179,65,64724,1,2,0:0:0:0:
345,43,64909,1,2,0:0:0:0:
54,182,65094,5,2,0:0:0:0:
291,303,65464,1,0,0:0:0:0:
92,349,65649,1,2,0:0:0:0:
25,291,65742,2,0,L|155:258,1,110
377,131,66020,6,0,P|306:60|206:98,1,197.99999395752,4|0,1:2|0:0,0:0:0:0:
288,73,66390,1,12,0:0:0:0:
477,69,66575,2,0,L|469:144,1,65.9999979858399,0|0,0:0|1:0,0:0:0:0:
261,333,66761,2,0,P|334:276|379:269,1,131.99999597168,4|0,1:2|1:0,0:0:0:0:
452,205,67038,2,0,L|382:195,1,65.9999979858399,0|12,0:0|0:0,0:0:0:0:
228,109,67316,2,0,L|313:102,1,65.9999979858399,0|0,1:0|0:0,0:0:0:0:
81,248,67501,6,0,P|20:212|85:116,1,197.99999395752,4|0,1:2|0:0,0:0:0:0:
140,105,67872,1,12,0:0:0:0:
318,28,68057,2,0,L|238:19,1,65.9999979858399,0|0,0:0|1:0,0:0:0:0:
45,54,68242,2,0,P|39:135|115:164,1,131.99999597168,4|0,1:2|1:0,0:0:0:0:
153,184,68520,2,0,L|235:189,1,65.9999979858399,0|12,0:0|0:0,0:0:0:0:
25,354,68798,2,0,L|108:360,1,65.9999979858399,0|0,0:0|0:0,0:0:0:0:
336,371,68983,6,0,P|269:310|143:295,1,197.99999395752,4|0,1:2|0:0,0:0:0:0:
234,267,69353,1,12,0:0:0:0:
413,181,69538,2,0,L|493:195,1,65.9999979858399,0|0,0:0|1:0,0:0:0:0:
235,106,69724,2,0,P|190:169|252:198,1,131.99999597168,4|0,1:2|1:0,0:0:0:0:
435,52,70001,2,0,L|350:33,1,65.9999979858399,0|8,0:0|0:0,0:0:0:0:
180,198,70279,2,0,L|268:213,1,65.9999979858399,2|2,0:0|0:0,0:0:0:0:
448,356,70464,5,6,1:2:0:0:
295,351,70649,1,0,1:0:0:0:
458,262,70835,1,12,0:0:0:0:
145,227,71020,2,0,P|178:156|348:75,1,263.99999194336,4|0,1:0|1:0,0:0:0:0:
172,51,71575,1,12,0:0:0:0:
479,224,71761,6,0,P|395:292|244:273,1,263.99999194336,4|0,1:2|1:0,0:0:0:0:
388,329,72316,1,12,0:0:0:0:
211,188,72501,2,0,L|302:175,1,65.9999979858399,0|0,0:0|1:0,0:0:0:0:
75,125,72686,2,0,P|16:165|39:240,1,131.99999597168,4|0,1:2|1:0,0:0:0:0:
192,268,72964,2,0,L|268:280,1,65.9999979858399,0|12,0:0|0:0,0:0:0:0:
64,343,73242,1,0,1:0:0:0:
355,342,73427,6,0,P|265:325|231:222,1,197.99999395752,4|0,1:2|0:0,0:0:0:0:
288,200,73798,1,12,0:0:0:0:
466,112,73983,2,0,L|385:105,1,65.9999979858399,0|0,0:0|1:0,0:0:0:0:
194,45,74168,2,0,P|181:125|219:150,1,131.99999597168,4|0,1:2|1:0,0:0:0:0:
406,222,74446,2,0,L|320:237,1,65.9999979858399,0|12,0:0|0:0,0:0:0:0:
165,309,74724,1,0,1:0:0:0:
459,353,74909,6,0,P|413:298|274:260,1,197.99999395752,4|0,1:2|0:0,0:0:0:0:
365,240,75279,1,12,0:0:0:0:
191,168,75464,2,0,L|110:152,1,65.9999979858399,0|0,0:0|1:0,0:0:0:0:
303,85,75649,2,0,L|445:73,1,131.99999597168,4|0,1:2|1:0,0:0:0:0:
243,41,75927,2,0,L|165:31,2,65.9999979858399,0|8|0,0:0|0:0|0:0,0:0:0:0:
441,182,76205,2,0,L|355:189,1,65.9999979858399,8|8,3:0|0:0,0:0:0:0:
177,194,76390,5,0,1:0:0:0:
143,247,76482,1,0,0:0:0:0:
169,304,76575,1,0,1:0:0:0:
232,314,76667,1,0,1:0:0:0:
134,341,76761,1,0,1:0:0:0:
69,343,76853,1,0,1:0:0:0:
31,280,76946,1,0,1:0:0:0:
330,199,77131,5,4,3:3:0:0:
8,193,77316,1,4,3:3:0:0:
493,129,77686,6,0,P|371:83|274:70,1,197.99999395752,4|0,1:2|0:0,0:0:0:0:
231,69,78057,1,0,1:0:0:0:
415,138,78242,2,0,P|426:218|399:275,1,131.99999597168,12|0,0:0|0:0,0:0:0:0:
335,278,78520,1,0,1:0:0:0:
137,362,78612,2,0,P|199:331|270:335,1,131.99999597168,4|0,1:2|1:0,0:0:0:0:
74,259,78890,1,0,0:0:0:0:
152,221,78983,2,0,L|311:202,1,131.99999597168,12|0,0:0|0:0,0:0:0:0:
17,72,79353,6,0,P|77:18|196:36,1,197.99999395752,4|0,1:2|0:0,0:0:0:0:
120,68,79724,1,12,0:0:0:0:
304,126,79909,2,0,L|234:140,1,65.9999979858399,0|0,0:0|1:0,0:0:0:0:
57,206,80094,2,0,P|44:281|121:307,1,131.99999597168,4|0,1:2|1:0,0:0:0:0:
286,344,80372,2,0,L|213:331,1,65.9999979858399,0|8,0:0|0:0,0:0:0:0:
37,200,80649,2,0,L|125:187,1,65.9999979858399,0|0,1:0|0:0,0:0:0:0:
336,78,80835,6,0,P|378:135|310:229,1,197.99999395752,4|0,1:2|0:0,0:0:0:0:
247,224,81205,1,12,0:0:0:0:
416,318,81390,2,0,L|507:328,1,65.9999979858399,0|0,0:0|1:0,0:0:0:0:
273,355,81575,2,0,P|344:304|418:288,1,131.99999597168,4|0,1:2|1:0,0:0:0:0:
191,235,81853,2,0,L|95:220,1,65.9999979858399,0|8,0:0|0:0,0:0:0:0:
295,134,82131,2,0,L|377:125,1,65.9999979858399,0|0,1:0|1:0,0:0:0:0:
98,73,82316,5,12,0:0:0:0:
226,144,82501,2,0,L|222:221,1,65.9999979858399,8|8,0:0|0:0,0:0:0:0:
26,293,82686,2,0,L|104:313,1,65.9999979858399,8|8,0:0|0:0,0:0:0:0:
301,355,82872,2,0,P|246:295|127:259,1,197.99999395752,4|0,1:2|0:0,0:0:0:0:
199,229,83242,1,0,1:0:0:0:
383,215,83427,1,12,0:0:0:0:
65,160,83612,6,0,P|123:90|299:42,1,263.99999194336,4|0,1:2|1:0,0:0:0:0:
100,43,84168,2,0,L|79:120,1,65.9999979858399,4|0,1:2|1:0,0:0:0:0:
172,143,84353,2,0,L|192:220,1,65.9999979858399,8|8,0:0|0:0,0:0:0:0:
409,327,84538,2,0,L|345:348,1,65.9999979858399,4|0,1:2|1:0,0:0:0:0:
115,307,84724,2,0,L|276:265,1,131.99999597168,8|4,0:0|1:2,0:0:0:0:
318,260,85001,1,0,0:0:0:0:
35,199,85094,5,2,1:2:0:0:
352,87,86668,1,2,0:0:0:0:
380,86,86714,1,2,0:0:0:0:
405,88,86761,5,2,0:0:0:0:
477,163,86946,1,2,0:0:0:0:
448,264,87131,1,2,0:0:0:0:
346,288,87316,2,0,L|208:271,1,110,2|2,0:0|0:0,0:0:0:0:
351,337,87686,2,0,L|469:340,1,110,2|2,0:0|0:0,0:0:0:0:
254,315,88057,1,2,0:0:0:0:
390,258,88242,5,2,0:0:0:0:
425,216,88334,1,2,0:0:0:0:
443,164,88427,1,2,0:0:0:0:
440,110,88519,1,2,0:0:0:0:
417,60,88612,1,2,0:0:0:0:
377,22,88704,1,2,0:0:0:0:
326,2,88797,1,2,0:0:0:0:
272,2,88890,1,2,0:0:0:0:
485,75,88983,6,0,L|413:60,1,55,8|8,0:0|0:0,0:0:0:0:
231,133,89168,2,0,L|166:146,1,55,8|8,0:0|0:0,0:0:0:0:
412,228,89353,1,8,0:0:0:0:
475,260,89446,2,0,L|341:278,1,110,0|0,1:0|0:0,0:0:0:0:
105,184,89724,5,4,1:2:0:0:
255,160,89909,1,0,1:0:0:0:
79,105,90094,2,0,L|10:97,2,55,12|0|0,0:0|0:0|0:0,0:0:0:0:
270,71,90372,1,0,0:0:0:0:
201,50,90464,2,0,L|321:25,1,110,4|0,0:0|1:0,0:0:0:0:
478,230,90835,2,0,L|504:312,2,55,12|0|0,0:0|0:0|0:0,0:0:0:0:
179,234,91205,5,4,1:2:0:0:
325,281,91390,1,0,1:0:0:0:
145,361,91575,2,0,L|12:340,1,110,12|0,0:0|0:0,0:0:0:0:
247,256,91853,1,0,1:0:0:0:
179,234,91946,2,0,L|62:218,1,110,4|0,1:2|1:0,0:0:0:0:
252,162,92223,1,0,0:0:0:0:
186,145,92316,2,0,L|253:132,1,55,12|0,0:0|0:0,0:0:0:0:
471,140,92501,1,0,0:0:0:0:
326,213,92686,6,0,L|320:353,1,110,4|0,1:2|1:0,0:0:0:0:
482,345,93057,1,12,0:0:0:0:
183,364,93242,2,0,L|158:293,1,55,0|0,0:0|0:0,0:0:0:0:
344,222,93520,2,0,L|439:219,2,55,0|0|0,0:0|1:0|0:0,0:0:0:0:
146,154,93798,1,12,0:0:0:0:
300,70,93983,2,0,L|242:59,1,55,0|0,0:0|0:0,0:0:0:0:
29,174,94168,6,0,L|102:164,1,55,4|0,1:2|0:0,0:0:0:0:
156,246,94353,2,0,L|97:242,1,55,8|0,0:0|0:0,0:0:0:0:
18,298,94538,2,0,L|87:312,1,55,12|0,0:0|0:0,0:0:0:0:
363,367,94723,2,0,L|426:359,1,55,8|0,0:0|0:0,0:0:0:0:
19,209,95094,6,0,L|170:189,1,131.99999597168,4|8,1:2|0:0,0:0:0:0:
220,181,95372,1,8,0:0:0:0:
396,166,95464,1,8,0:0:0:0:
211,100,95557,1,8,0:0:0:0:
25,312,95649,6,0,L|28:176,1,110,4|0,1:2|1:0,0:0:0:0:
204,130,96020,2,0,L|138:121,2,55,12|0|0,0:0|0:0|0:0,0:0:0:0:
396,200,96298,1,0,1:0:0:0:
468,236,96390,2,0,L|339:256,1,110,4|0,1:2|1:0,0:0:0:0:
176,349,96668,1,0,0:0:0:0:
111,352,96761,2,0,L|220:340,1,110,12|0,0:0|0:0,0:0:0:0:
43,278,97131,6,0,P|21:220|46:168,1,110,4|0,1:2|1:0,0:0:0:0:
235,93,97409,1,0,0:0:0:0:
174,56,97501,2,0,L|43:39,1,110,12|0,0:0|0:0,0:0:0:0:
270,175,97779,2,0,L|379:188,1,110,0|0,0:0|0:0,0:0:0:0:
304,228,98057,2,0,L|232:221,1,55,0|0,1:0|0:0,0:0:0:0:
429,321,98242,1,12,0:2:0:0:
266,360,98427,2,0,L|186:356,1,55,2|2,0:0|0:0,0:0:0:0:
437,269,98612,5,6,1:2:0:0:
380,229,98705,1,8,0:0:0:0:
313,229,98798,1,8,0:0:0:0:
382,189,98890,1,8,0:0:0:0:
181,236,98983,5,0,1:0:0:0:
145,185,99075,1,8,0:0:0:0:
174,127,99168,1,8,0:0:0:0:
244,111,99261,1,8,0:0:0:0:
46,103,99353,2,0,L|24:49,1,55,0|0,1:0|0:0,0:0:0:0:
206,27,99538,2,0,L|273:32,1,55,2|0,3:2|0:0,0:0:0:0:
30,208,99724,2,0,L|107:206,1,55,8|0,3:3|0:0,0:0:0:0:
454,283,99909,5,4,1:2:0:0:
13,109,100280,6,0,L|230:75,1,220,4|0,1:2|0:0,0:0:0:0:
266,78,100711,1,2,0:0:0:0:
292,102,100773,1,2,0:0:0:0:
299,138,100835,1,2,0:0:0:0:
284,170,100896,1,2,0:0:0:0:
252,187,100958,1,2,0:0:0:0:
85,255,101021,2,0,L|21:249,2,55,10|8|8,0:0|0:0|0:0,0:0:0:0:
403,107,101391,6,0,P|400:182|276:245,1,220,4|0,1:0|1:0,0:0:0:0:
435,294,101947,1,8,0:0:0:0:
120,358,102132,2,0,P|184:268|296:237,1,220,4|0,1:2|1:0,0:0:0:0:
110,205,102687,1,8,0:0:0:0:
435,126,102872,6,0,L|188:62,1,220,4|0,1:2|1:0,0:0:0:0:
418,47,103428,1,8,0:0:0:0:
85,80,103613,2,0,L|62:201,1,110,0|4,1:0|0:0,0:0:0:0:
396,307,103984,6,0,L|253:324,1,110,4|0,1:2|0:0,0:0:0:0:
217,314,104261,1,0,0:0:0:0:
438,225,104354,2,0,L|506:217,1,55,8|8,0:0|0:0,0:0:0:0:
239,164,104539,5,4,1:2:0:0:
9,93,106020,1,2,0:0:0:0:
285,29,106946,1,4,0:0:0:0:
403,104,107131,1,4,0:0:0:0:
300,180,107316,1,4,0:0:0:0:
104,264,107501,5,6,0:0:0:0:
479,289,108242,2,0,L|489:355,2,55,4|4|4,0:0|0:0|0:0,0:0:0:0:
149,263,108798,1,4,0:0:0:0:
261,205,108983,2,0,L|477:129,1,220,6|0,0:0|0:0,0:0:0:0:
346,88,109539,1,4,0:0:0:0:
192,77,109724,1,4,0:0:0:0:
437,44,110094,2,0,L|470:188,1,110,6|0,0:0|0:0,0:0:0:0:
119,324,110464,6,0,P|118:260|223:176,1,165,4|0,0:0|0:0,0:0:0:0:
246,173,110835,1,0,1:0:0:0:
20,70,111113,2,0,L|92:55,1,55,0|4,0:0|0:0,0:0:0:0:
248,59,111390,2,0,L|258:197,1,110,0|0,0:0|1:0,0:0:0:0:
98,249,111761,1,0,0:0:0:0:
298,324,111946,6,0,P|372:360|468:327,1,165,4|0,0:0|0:0,0:0:0:0:
380,309,112316,1,0,1:0:0:0:
201,358,112501,2,0,L|177:240,1,110,0|4,0:0|0:0,0:0:0:0:
331,219,112872,1,0,0:0:0:0:
155,157,113057,2,0,L|14:129,1,110,4|0,1:2|0:0,0:0:0:0:
358,94,113427,6,0,L|181:63,1,165,4|0,1:2|0:0,0:0:0:0:
121,57,113798,1,8,0:0:0:0:
436,39,113983,2,0,P|367:58|311:207,1,220,4|0,1:2|1:0,0:0:0:0:
465,249,114538,1,8,0:0:0:0:
118,363,114724,6,0,P|176:303|326:269,1,220,4|0,1:2|1:0,0:0:0:0:
133,261,115279,2,0,L|113:197,1,55,8|0,0:0|1:0,0:0:0:0:
203,190,115464,2,0,L|222:127,1,55,0|0,0:0|0:0,0:0:0:0:
20,113,115650,1,0,1:0:0:0:
159,49,115835,2,0,L|67:41,1,55,0|0,0:0|0:0,0:0:0:0:
299,44,116020,5,0,1:0:0:0:
325,106,116112,1,0,3:0:0:0:
300,168,116205,1,0,3:0:0:0:
238,195,116297,1,0,3:0:0:0:
448,202,116390,6,0,P|488:250|398:354,1,220,4|4,1:2|1:2,0:0:0:0:
275,354,116946,1,0,0:0:0:0:
91,357,117131,2,0,L|79:240,1,110,4|0,1:2|0:0,0:0:0:0:
197,222,117409,2,0,L|206:151,1,55,0|4,0:0|1:2,0:0:0:0:
41,136,117687,1,0,0:0:0:0:
221,68,117872,6,0,L|95:48,1,110,4|0,1:2|0:0,0:0:0:0:
179,24,118150,1,0,0:0:0:0:
264,20,118242,1,4,1:2:0:0:
92,148,118427,2,0,L|80:242,1,55,0|0,0:0|0:0,0:0:0:0:
276,293,118613,5,4,1:2:0:0:
126,306,118798,2,0,L|197:262,1,55,4|4,0:0|0:0,0:0:0:0:
253,267,118983,2,0,L|259:197,1,55,4|0,1:2|0:0,0:0:0:0:
469,160,119168,1,0,0:0:0:0:
316,163,119353,6,0,L|295:45,1,110,4|0,1:2|0:0,0:0:0:0:
411,15,119631,2,0,L|339:4,1,55,0|4,1:0|1:2,0:0:0:0:
196,120,119909,2,0,L|194:191,1,55,2|2,0:0|0:0,0:0:0:0:
378,260,120094,6,0,L|440:271,2,55,6|0|0,1:2|0:0|0:0,0:0:0:0:
288,354,120372,2,0,L|366:355,1,55,0|4,0:0|1:2,0:0:0:0:
500,366,120650,1,0,0:0:0:0:
217,261,120835,6,0,L|350:232,1,110,4|0,1:2|0:0,0:0:0:0:
389,235,121113,1,0,0:0:0:0:
264,171,121205,2,0,L|195:159,2,55,4|0|0,1:2|0:0|0:0,0:0:0:0:
10,63,121576,1,4,1:2:0:0:
179,113,121761,2,0,L|48:138,1,110,0|4,0:0|1:2,0:0:0:0:
259,250,122131,2,0,L|334:260,1,55,0|0,0:0|0:0,0:0:0:0:
60,354,122316,6,0,P|25:307|109:238,1,165,4|0,1:2|0:0,0:0:0:0:
149,220,122687,1,4,1:2:0:0:
328,256,122872,2,0,L|340:184,1,55,0|0,0:0|0:0,0:0:0:0:
246,160,123057,2,0,L|361:148,1,110,4|0,1:2|0:0,0:0:0:0:
460,74,123335,2,0,L|395:61,1,55,0|4,0:0|1:2,0:0:0:0:
244,54,123613,1,4,0:0:0:0:
509,285,123798,6,0,L|385:300,1,110,4|4,1:2|0:0,0:0:0:0:
207,317,124168,1,4,1:2:0:0:
370,364,124353,2,0,L|301:351,1,55,0|0,0:0|0:0,0:0:0:0:
131,350,124538,1,4,1:2:0:0:
275,249,124724,1,0,1:0:0:0:
11,188,124909,2,0,L|1:125,1,55,12|0,0:0|0:0,0:0:0:0:
420,95,125279,6,0,L|283:75,1,110,4|0,1:2|1:0,0:0:0:0:
477,37,125650,1,8,0:0:0:0:
176,157,125835,2,0,P|219:211|319:218,1,165,4|0,1:2|0:0,0:0:0:0:
375,213,126205,1,0,1:0:0:0:
192,271,126390,1,8,0:0:0:0:
494,318,126576,6,0,L|259:370,1,220,4|0,1:2|1:0,0:0:0:0:
217,351,127038,1,0,0:0:0:0:
288,324,127131,2,0,L|348:315,2,55,8|0|0,0:0|0:0|0:0,0:0:0:0:
101,275,127501,2,0,L|159:248,1,55,4|0,0:0|0:0,0:0:0:0:
348,172,127687,2,0,L|279:154,1,55,4|4,0:0|0:0,0:0:0:0:
220,150,127872,1,0,1:0:0:0:
378,101,128057,1,0,0:0:0:0:
96,37,128242,5,0,1:0:0:0:
39,29,128335,1,0,1:0:0:0:
96,37,128427,1,0,1:0:0:0:
297,33,128520,2,0,L|310:102,1,55,0|0,1:0|1:0,0:0:0:0:
143,153,128798,1,12,0:0:0:0:
434,205,128983,5,4,3:0:0:0:
495,215,129076,1,4,3:0:0:0:
434,205,129168,1,4,3:0:0:0:
217,310,129261,2,0,L|268:355,1,55,4|0,3:0|1:0,0:0:0:0:
434,366,129538,1,12,0:0:0:0:
131,366,129724,5,8,3:0:0:0:
64,346,129816,1,8,3:0:0:0:
130,326,129909,1,8,3:0:0:0:
358,243,130001,2,0,L|277:227,1,55,8|0,3:0|1:0,0:0:0:0:
109,200,130279,1,12,0:0:0:0:
428,127,130464,1,12,0:0:0:0:
100,122,130650,2,0,L|20:40,1,110,4|0,3:0|0:0,0:0:0:0:
365,18,131020,6,0,P|412:70|308:152,1,220,4|0,0:0|1:0,0:0:0:0:
177,151,131576,1,12,0:0:0:0:
454,230,131761,1,0,0:0:0:0:
178,288,131946,1,4,1:2:0:0:
330,333,132131,2,0,L|467:349,1,110,0|12,1:0|0:0,0:0:0:0:
376,354,132409,1,0,0:0:0:0:
145,371,132501,6,0,P|51:353|45:205,1,220,4|0,1:2|1:2,0:0:0:0:
183,199,133057,1,12,0:0:0:0:
15,148,133242,2,0,L|85:133,1,55,4|0,0:0|0:0,0:0:0:0:
272,47,133427,2,0,L|145:33,1,110,4|0,1:2|1:0,0:0:0:0:
426,25,133798,2,0,P|481:77|406:139,1,165,12|0,0:0|0:0,0:0:0:0:
217,173,134168,5,0,1:0:0:0:
151,189,134261,1,0,1:0:0:0:
221,202,134353,1,0,1:0:0:0:
37,257,134446,2,0,L|54:191,1,55,0|0,1:0|0:0,0:0:0:0:
282,278,134909,5,4,3:0:0:0:
354,315,135001,1,4,3:0:0:0:
279,340,135094,1,4,3:0:0:0:
492,353,135187,2,0,L|445:297,1,55,4|0,3:3|0:0,0:0:0:0:
204,180,135650,5,8,3:0:0:0:
272,155,135742,1,8,3:0:0:0:
350,150,135835,1,8,3:0:0:0:
126,105,135927,2,0,L|192:73,1,55,8|0,3:0|0:0,0:0:0:0:
433,75,136390,1,10,0:0:0:0:
26,40,136576,1,10,0:0:0:0:
477,314,136946,6,0,P|443:249|305:178,1,220,4|0,1:2|1:0,0:0:0:0:
476,96,137501,2,0,L|341:89,1,110,12|0,0:0|0:0,0:0:0:0:
308,83,137779,1,0,0:0:0:0:
113,157,137872,2,0,L|198:234,1,110,0|0,1:2|0:0,0:0:0:0:
351,257,138242,1,4,1:2:0:0:
58,351,138427,6,0,P|20:289|145:209,1,220,4|0,1:2|1:0,0:0:0:0:
178,187,138890,1,0,0:0:0:0:
99,171,138983,1,12,0:0:0:0:
46,160,139075,1,0,1:0:0:0:
22,113,139168,1,0,0:0:0:0:
44,65,139260,1,0,0:0:0:0:
259,37,139353,1,4,1:2:0:0:
103,20,139538,2,0,L|166:16,1,55,8|0,0:0|1:0,0:0:0:0:
389,140,139724,2,0,L|463:140,1,55,8|0,0:0|1:0,0:0:0:0:
175,247,139909,5,4,1:2:0:0:
464,323,140279,1,8,0:0:0:0:
349,337,140464,1,8,0:0:0:0:
55,355,140650,6,0,L|75:235,1,110,4|0,1:2|0:0,0:0:0:0:
127,220,140927,1,0,0:0:0:0:
197,204,141020,2,0,L|263:211,1,55,8|8,0:0|0:0,0:0:0:0:
64,95,141205,2,0,L|5:84,1,55,8|8,0:0|0:0,0:0:0:0:
248,44,141390,2,0,L|326:40,1,55,8|8,0:0|0:0,0:0:0:0:
92,13,141576,6,0,P|35:75|141:127,1,206.25,4|0,1:2|0:0,0:0:0:0:
178,150,141946,1,12,0:0:0:0:
350,213,142131,2,0,L|277:225,1,68.75,0|0,0:0|1:0,0:0:0:0:
352,243,142316,2,0,L|470:165,1,137.5,0|0,1:0|1:0,0:0:0:0:
264,349,142594,2,0,L|181:329,1,68.75,0|12,0:0|0:0,0:0:0:0:
379,305,142872,1,0,0:0:0:0:
103,276,143057,6,0,P|142:208|279:168,1,206.25,4|0,1:2|0:0,0:0:0:0:
194,133,143427,1,12,0:0:0:0:
19,118,143613,2,0,L|21:44,1,68.75,0|0,0:0|1:0,0:0:0:0:
223,11,143798,2,0,P|135:24|98:79,1,137.5,4|0,1:2|1:0,0:0:0:0:
291,119,144076,2,0,L|377:123,1,68.75,0|12,0:0|0:0,0:0:0:0:
166,221,144353,2,0,L|90:233,1,68.75,0|0,1:0|1:0,0:0:0:0:
325,240,144538,6,0,P|414:266|445:382,1,206.25,4|0,1:2|0:0,0:0:0:0:
373,380,144909,1,12,0:0:0:0:
185,367,145094,2,0,L|108:351,1,68.75,0|0,0:0|1:0,0:0:0:0:
324,290,145279,1,4,1:2:0:0:
181,238,145464,2,0,L|253:235,1,68.75,0|0,1:0|0:0,0:0:0:0:
448,222,145650,2,0,P|475:149|437:118,1,137.5,12|0,0:0|0:0,0:0:0:0:
370,106,145927,1,0,1:0:0:0:
132,106,146020,5,4,1:2:0:0:
264,43,146205,1,0,1:0:0:0:
409,35,146390,1,12,0:0:0:0:
94,31,146576,2,0,P|50:87|191:164,1,275,4|0,1:2|1:0,0:0:0:0:
16,213,147131,1,12,0:0:0:0:
321,151,147316,6,0,P|284:228|112:273,1,275,4|0,1:2|1:0,0:0:0:0:
414,363,147872,2,0,L|279:326,1,137.5,12|0,0:0|0:0,0:0:0:0:
265,286,148150,1,0,1:0:0:0:
448,230,148242,2,0,L|303:191,1,137.5,4|0,1:2|1:0,0:0:0:0:
505,108,148520,2,0,L|407:85,1,68.75,0|12,0:0|0:0,0:0:0:0:
275,29,148798,2,0,L|365:19,1,68.75,0|0,1:0|1:0,0:0:0:0:
152,105,148983,6,0,P|77:119|71:265,1,206.25,4|0,1:2|0:0,0:0:0:0:
113,254,149353,1,12,0:0:0:0:
295,355,149538,2,0,L|308:277,1,68.75,0|0,0:0|1:0,0:0:0:0:
121,181,149724,2,0,L|272:162,1,137.5,4|0,1:2|1:0,0:0:0:0:
73,88,150001,2,0,L|166:70,1,68.75,0|12,0:0|0:0,0:0:0:0:
308,18,150279,2,0,L|231:4,1,68.75,0|0,0:0|0:0,0:0:0:0:
30,49,150464,6,0,P|28:137|149:164,1,206.25,4|0,1:2|0:0,0:0:0:0:
205,165,150835,1,12,0:0:0:0:
21,258,151020,2,0,L|87:274,1,68.75,0|0,0:0|1:0,0:0:0:0:
154,297,151205,2,0,L|10:329,1,137.5,4|0,1:2|1:0,0:0:0:0:
248,365,151483,2,0,L|349:371,1,68.75,0|12,0:0|0:0,0:0:0:0:
485,240,151761,2,0,L|404:237,1,68.75,0|0,1:0|1:0,0:0:0:0:
206,223,151946,5,4,3:0:0:0:
160,169,152038,1,4,3:0:0:0:
194,106,152131,1,4,3:0:0:0:
263,102,152223,1,4,3:0:0:0:
185,74,152316,1,8,3:0:0:0:
245,36,152409,1,8,3:0:0:0:
315,26,152501,1,8,3:0:0:0:
389,50,152594,1,8,3:0:0:0:
149,194,152687,5,10,3:3:0:0:
494,262,152872,1,8,3:0:0:0:
30,310,153242,6,0,P|65:228|214:193,1,206.25,4|0,1:2|0:0,0:0:0:0:
245,191,153613,1,0,1:0:0:0:
58,211,153798,2,0,P|39:142|71:75,1,137.5,12|0,0:0|0:0,0:0:0:0:
134,55,154076,1,0,1:0:0:0:
340,26,154168,2,0,P|225:61|211:106,1,137.5,4|0,1:2|1:0,0:0:0:0:
427,126,154446,1,0,0:0:0:0:
498,163,154538,2,0,L|326:180,1,137.5,12|0,0:0|0:0,0:0:0:0:
89,244,154909,6,0,P|146:319|258:332,1,206.25,4|0,1:2|0:0,0:0:0:0:
180,353,155279,1,12,0:2:0:0:
357,272,155464,2,0,L|437:291,1,68.75,0|0,0:0|1:0,0:0:0:0:
225,205,155650,2,0,P|142:185|101:125,1,137.5,4|0,1:2|1:0,0:0:0:0:
309,107,155927,2,0,L|232:93,1,68.75,0|12,0:0|0:0,0:0:0:0:
56,76,156205,2,0,L|42:-7,1,68.75,0|0,0:0|0:0,0:0:0:0:
286,14,156390,6,0,P|331:71|210:131,1,206.25,4|0,1:2|0:0,0:0:0:0:
179,148,156761,1,12,0:2:0:0:
351,262,156946,2,0,L|267:276,1,68.75,0|0,0:0|1:0,0:0:0:0:
99,346,157131,2,0,L|269:373,1,137.5,4|0,1:2|1:0,0:0:0:0:
24,272,157409,2,0,L|34:197,1,68.75,0|12,0:0|0:0,0:0:0:0:
200,137,157687,2,0,L|273:129,1,68.75,0|0,0:0|0:0,0:0:0:0:
69,96,157872,6,0,L|136:42,1,68.75,8|8,0:0|0:0,0:0:0:0:
177,31,158057,2,0,L|251:15,1,68.75,8|8,0:0|0:0,0:0:0:0:
46,80,158242,2,0,L|14:168,1,68.75,8|8,0:0|0:0,0:0:0:0:
242,180,158427,2,0,P|314:202|349:333,1,206.25,4|0,1:2|0:0,0:0:0:0:
282,337,158798,1,0,1:0:0:0:
98,349,158983,1,12,0:0:0:0:
412,362,159168,6,0,P|360:272|192:221,1,275,4|0,1:2|1:0,0:0:0:0:
363,145,159724,2,0,L|483:112,2,68.75,12|0|0,0:0|0:0|0:0,0:0:0:0:
189,110,160094,1,4,1:2:0:0:
326,58,160279,1,0,0:0:0:0:
40,19,160464,2,0,L|160:0,1,68.75,12|8,0:0|0:0,0:0:0:0:
391,2,160650,5,4,1:2:0:0:
481,182,162316,5,6,1:2:0:0:
174,186,162501,2,0,L|159:322,1,110,2|6,0:0|0:0,0:0:0:0:
223,308,162779,1,2,0:0:0:0:
70,344,162964,1,2,0:0:0:0:
26,266,163150,1,2,0:0:0:0:
120,196,163335,2,0,L|187:183,1,55,2|6,0:0|0:0,0:0:0:0:
345,83,163613,2,0,L|279:70,1,55,2|2,0:0|0:0,0:0:0:0:
66,71,163798,5,6,0:0:0:0:
219,70,163983,2,0,L|239:200,1,110,2|6,0:0|0:0,0:0:0:0:
180,191,164261,1,2,0:0:0:0:
293,252,164446,1,2,0:0:0:0:
426,261,164631,1,2,0:0:0:0:
278,340,164816,2,0,P|215:329|186:231,1,165,2|2,0:0|0:0,0:0:0:0:
243,218,165187,1,2,0:0:0:0:
482,39,165279,5,6,0:0:0:0:
329,38,165464,2,0,L|309:168,1,110,2|6,0:0|0:0,0:0:0:0:
254,165,165742,1,2,0:0:0:0:
125,209,165927,1,2,0:0:0:0:
260,262,166113,1,2,0:0:0:0:
101,315,166298,1,2,0:0:0:0:
36,346,166390,2,0,L|174:371,1,110,6|2,0:0|0:0,0:0:0:0:
418,357,166761,5,6,0:0:0:0:
263,306,166946,2,0,L|149:285,1,110,2|6,0:0|0:0,0:0:0:0:
213,260,167224,1,0,0:0:0:0:
365,256,167409,1,2,0:0:0:0:
83,187,167594,1,2,0:0:0:0:
314,105,167872,2,0,L|454:93,1,110,4|10,1:2|0:0,0:0:0:0:
399,71,168103,1,10,0:0:0:0:
368,60,168150,1,10,0:0:0:0:
151,50,168242,6,0,P|81:64|76:217,1,220,4|2,3:0|0:0,0:0:0:0:
167,226,168798,1,4,0:0:0:0:
294,211,168983,2,0,L|314:331,1,110,4|4,0:0|0:0,0:0:0:0:
157,348,169353,2,0,L|37:335,1,110,6|4,0:0|0:0,0:0:0:0:
306,261,169724,2,0,L|475:322,1,165,6|2,0:0|0:0,0:0:0:0:
266,359,170279,2,0,L|193:350,2,55,6|2|6,0:0|0:0|0:0,0:0:0:0:
432,224,170650,2,0,L|494:209,1,55,4|0,0:0|0:0,0:0:0:0:
425,193,170835,2,0,L|308:175,1,110,4|4,0:0|0:0,0:0:0:0:
58,109,171205,6,0,L|313:43,1,220,4|4,0:0|0:0,0:0:0:0:
258,87,171637,1,2,0:0:0:0:
231,111,171699,1,2,0:0:0:0:
195,118,171761,1,6,0:0:0:0:
135,139,171853,1,2,0:0:0:0:
72,165,171946,2,0,L|63:289,1,110,6|6,0:0|0:0,0:0:0:0:
125,293,172224,1,2,0:0:0:0:
375,332,172501,2,0,L|322:344,1,55,4|0,0:0|0:0,0:0:0:0:
124,364,172687,6,0,L|5:335,1,110,6|0,0:0|1:0,0:0:0:0:
81,311,172964,1,0,1:0:0:0:
249,228,173057,2,0,L|380:224,1,110,8|0,0:0|0:0,0:0:0:0:
66,133,173427,1,8,0:0:0:0:
415,104,173613,2,0,P|470:145|352:236,1,275,8|0,0:0|0:0,0:0:0:0:
128,310,174168,6,0,L|279:347,1,137.5,4|0,0:0|0:0,0:0:0:0:
217,287,174446,1,0,0:0:0:0:
37,223,174538,1,12,0:0:0:0:
81,168,174631,2,0,P|148:137|231:146,1,137.5,0|0,0:0|1:0,0:0:0:0:
415,170,174909,2,0,L|394:90,1,68.75,4|0,1:2|0:0,0:0:0:0:
299,107,175094,2,0,L|280:33,1,68.75,0|0,1:0|0:0,0:0:0:0:
491,246,175279,5,12,0:0:0:0:
337,335,175464,2,0,L|423:348,1,68.75,0|0,1:0|1:0,0:0:0:0:
214,266,175650,2,0,L|139:260,1,68.75,4|0,1:2|0:0,0:0:0:0:
333,191,175835,1,0,1:0:0:0:
167,161,176020,6,0,L|186:91,1,68.75,12|0,0:0|0:0,0:0:0:0:
392,82,176205,2,0,L|417:5,1,68.75,0|0,1:0|0:0,0:0:0:0:
229,15,176390,2,0,L|73:29,1,137.5,4|0,0:0|1:0,0:0:0:0:
277,105,176761,2,0,L|205:114,1,68.75,12|0,0:0|1:0,0:0:0:0:
20,220,176946,2,0,L|150:234,1,68.75,8|8,0:0|0:0,0:0:0:0:
321,315,177131,6,0,L|164:328,1,137.5,4|0,1:2|1:0,0:0:0:0:
254,295,177409,1,0,0:0:0:0:
182,264,177501,1,12,0:0:0:0:
395,222,177594,1,0,0:0:0:0:
320,184,177687,2,0,L|301:44,1,137.5,0|4,1:0|0:0,0:0:0:0:
470,45,178057,1,0,1:0:0:0:
186,129,178242,1,12,0:0:0:0:
432,142,178427,1,0,0:0:0:0:
163,304,178613,6,0,L|270:297,1,68.75,6|0,1:2|0:0,0:0:0:0:
148,269,178798,2,0,L|66:262,1,68.75,2|0,1:2|0:0,0:0:0:0:
159,233,178983,2,0,L|254:224,1,68.75,14|0,0:0|0:0,0:0:0:0:
26,95,179168,1,2,1:2:0:0:
94,94,179260,1,2,0:0:0:0:
163,151,179353,1,6,0:0:0:0:
96,163,179445,1,2,0:0:0:0:
274,278,179538,6,0,L|351:265,1,68.75,2|2,1:2|0:0,0:0:0:0:
133,352,179724,1,10,0:0:0:0:
60,326,179816,1,10,0:0:0:0:
131,277,179909,1,10,0:0:0:0:
341,266,180001,1,10,0:0:0:0:
121,153,180094,6,0,P|45:129|25:59,1,137.5,4|0,1:2|0:0,0:0:0:0:
200,43,180464,2,0,P|289:71|304:176,1,206.25,12|0,0:0|0:0,0:0:0:0:
233,180,180835,1,4,1:2:0:0:
430,354,181020,2,0,L|446:212,1,137.5,0|12,1:0|0:0,0:0:0:0:
373,194,181298,1,0,1:0:0:0:
26,340,181576,6,0,P|24:233|46:191,1,137.5,4|0,1:2|1:0,0:0:0:0:
238,141,181853,2,0,L|325:122,1,68.75,0|12,0:0|0:0,0:0:0:0:
109,83,182131,2,0,L|34:62,1,68.75,0|0,1:0|0:0,0:0:0:0:
115,36,182316,2,0,L|191:16,1,68.75,4|0,0:0|0:0,0:0:0:0:
410,27,182501,1,0,1:0:0:0:
244,315,182687,2,0,L|334:302,1,68.75,12|0,0:0|0:0,0:0:0:0:
231,273,182872,2,0,L|309:260,1,68.75,0|0,0:0|0:0,0:0:0:0:
493,164,183057,6,0,P|346:134|241:168,1,206.25,4|0,1:2|0:0,0:0:0:0:
359,134,183427,1,14,0:0:0:0:
288,120,183520,1,0,0:0:0:0:
217,110,183612,1,2,0:0:0:0:
293,82,183705,1,0,0:0:0:0:
487,98,183798,6,0,P|473:211|449:240,1,137.5,4|0,1:2|1:0,0:0:0:0:
274,334,184168,1,14,0:0:0:0:
344,332,184260,1,0,0:0:0:0:
415,325,184353,1,2,0:0:0:0:
340,262,184445,1,0,0:0:0:0:
130,216,184538,6,0,P|48:190|33:127,1,137.5,4|10,1:2|0:0,0:0:0:0:
102,115,184816,1,8,0:0:0:0:
324,102,184909,1,14,0:0:0:0:
31,147,185094,6,0,L|24:310,1,137.5,6|10,1:2|0:0,0:0:0:0:
93,298,185372,1,8,0:0:0:0:
344,332,185464,1,10,0:0:0:0:
41,366,185650,2,0,P|98:333|190:325,1,137.5,10|10,0:0|0:0,0:0:0:0:
434,279,186020,6,0,P|349:217|219:188,1,206.25,4|0,1:2|0:0,0:0:0:0:
83,200,186390,1,8,0:2:0:0:
388,202,186576,6,0,P|301:141|159:119,1,206.25,0|0,1:2|0:0,0:0:0:0:
80,112,186946,1,8,0:0:0:0:
410,118,187131,6,0,P|330:74|202:49,1,206.25,4|0,1:2|0:0,0:0:0:0:
124,34,187501,1,8,0:0:0:0:
428,18,187687,6,0,L|268:-3,1,137.5,0|8,1:0|0:0,0:0:0:0:
355,52,187964,1,0,0:0:0:0:
426,78,188057,1,0,1:0:0:0:
76,288,188242,6,0,L|236:267,1,137.5,4|0,0:2|1:0,0:0:0:0:
288,307,188519,1,0,0:0:0:0:
56,365,188613,2,0,L|36:221,1,137.5,8|8,0:0|3:3,0:0:0:0:
340,200,188983,5,4,1:2:0:0:
274,205,189075,1,0,0:0:0:0:
231,154,189168,1,0,0:0:0:0:
260,92,189260,1,0,0:0:0:0:
425,57,189353,2,0,L|496:65,1,68.75,12|0,0:0|0:0,0:0:0:0:
268,218,189538,6,0,L|82:237,1,137.5,0|4,1:0|0:0,0:0:0:0:
297,318,189909,2,0,L|372:324,1,68.75,0|0,1:0|0:0,0:0:0:0:
179,364,190094,1,12,0:0:0:0:
109,335,190187,2,0,L|269:311,1,137.5,0|0,0:0|0:0,0:0:0:0:
35,257,190464,5,4,1:2:0:0:
194,164,190650,2,0,P|97:158|47:179,1,137.5,0|4,1:0|0:0,0:0:0:0:
227,99,191020,1,0,1:2:0:0:
52,72,191205,1,4,1:2:0:0:
250,29,191298,2,0,L|331:11,2,68.75,8|0|0,0:0|1:0|0:0,0:0:0:0:
447,339,191576,2,0,L|354:318,1,68.75,12|0,0:0|0:0,0:0:0:0:
133,347,191761,2,0,L|226:331,1,68.75,8|0,0:0|0:0,0:0:0:0:
415,275,191946,6,0,P|395:196|314:138,1,137.5,4|0,1:2|1:0,0:0:0:0:
410,114,192224,1,0,0:0:0:0:
481,106,192316,1,12,0:0:0:0:
406,78,192409,1,0,0:0:0:0:
192,190,192501,6,0,P|219:117|296:72,1,137.5,0|4,1:0|0:0,0:0:0:0:
336,54,192779,1,0,0:0:0:0:
418,47,192872,1,0,1:0:0:0:
343,22,192964,1,0,0:0:0:0:
125,69,193057,1,12,0:2:0:0:
160,126,193149,1,0,0:0:0:0:
221,156,193242,1,0,0:0:0:0:
288,149,193334,1,0,0:0:0:0:
74,193,193427,6,0,P|75:278|129:315,1,137.5,4|0,1:2|1:0,0:0:0:0:
265,335,193798,1,8,0:0:0:0:
57,358,193983,2,0,P|134:318|203:316,1,137.5,0|12,1:0|0:0,0:0:0:0:
114,278,194261,1,8,0:0:0:0:
189,244,194353,2,0,L|277:231,1,68.75,8|0,0:0|0:0,0:0:0:0:
37,151,194538,2,0,L|107:146,2,68.75,8|0|0,0:0|0:0|0:0,0:0:0:0:
320,70,194909,5,2,1:2:0:0:
301,135,195001,1,2,0:0:0:0:
255,185,195094,1,10,0:0:0:0:
191,210,195186,1,10,0:0:0:0:
123,205,195279,1,10,0:0:0:0:
429,292,195464,5,2,1:2:0:0:
361,297,195556,1,2,0:0:0:0:
297,272,195649,1,10,0:0:0:0:
251,222,195741,1,10,0:0:0:0:
232,156,195834,1,10,0:0:0:0:
394,123,196020,1,0,1:0:0:0:
215,72,196205,2,0,L|305:59,1,68.75,8|8,0:0|0:0,0:0:0:0:
497,54,196390,1,8,0:0:0:0:
80,366,196576,6,0,L|383:345,1,253.000004825592,2|0,1:2|0:0,0:0:0:0:
361,212,196946,6,0,L|34:181,1,307.999990600586,0|0,1:2|0:0,0:0:0:0:
381,84,197316,6,0,P|457:207|204:115,1,626.999983257294,4|4,1:2|0:0,0:0:0:0:
258,117,203613,6,0,L|176:112,1,55,2|0,0:0|0:0,0:0:0:0:
443,38,203798,6,0,P|480:138|303:294,1,330,4|0,1:2|0:0,0:0:0:0:
185,354,204538,2,0,L|177:113,1,220,4|0,0:0|0:0,0:0:0:0:
344,91,205094,2,0,L|410:89,1,55
466,75,205279,6,0,L|219:51,1,220,4|0,0:0|0:0,0:0:0:0:
100,193,205835,2,0,L|361:148,1,220,4|0,0:0|0:0,0:0:0:0:
439,199,206390,1,4,0:0:0:0:
145,344,206761,6,0,P|52:329|64:189,1,220,4|0,0:0|0:0,0:0:0:0:
186,197,207316,2,0,P|277:187|304:50,1,220,4|0,0:0|0:0,0:0:0:0:
192,46,207872,2,0,L|52:31,1,110,4|0,0:0|0:0,0:0:0:0:
287,14,208242,6,0,P|353:68|220:210,1,330,4|8,0:0|0:0,0:0:0:0:
63,152,208983,2,0,L|198:139,1,110,4|4,3:0|0:0,0:0:0:0:
368,147,209353,1,8,3:0:0:0:
60,138,209538,6,0,P|38:216|160:263,1,220,4|0,1:2|1:0,0:0:0:0:
319,356,210094,2,0,L|160:348,1,110,12|0,0:0|0:0,0:0:0:0:
386,333,210464,2,0,L|364:179,1,110,0|0,1:2|1:0,0:0:0:0:
173,167,210835,1,8,0:0:0:0:
456,19,211020,6,0,P|417:90|250:123,1,220,4|0,1:2|1:0,0:0:0:0:
454,146,211576,2,0,L|480:277,1,110,12|0,0:0|0:0,0:0:0:0:
412,282,211853,1,0,0:0:0:0:
198,353,211946,2,0,L|257:253,1,110,0|0,1:0|1:0,0:0:0:0:
448,205,212316,1,8,0:0:0:0:
157,239,212501,6,0,P|215:180|329:146,1,165,4|0,1:2|0:0,0:0:0:0:
361,148,212872,1,0,1:0:0:0:
174,93,213057,1,12,0:0:0:0:
446,50,213242,2,0,P|485:124|381:219,1,220,0|0,1:0|1:0,0:0:0:0:
118,231,213798,1,8,0:0:0:0:
431,331,213983,6,0,L|170:360,1,220,4|0,1:2|1:0,0:0:0:0:
56,317,214538,1,8,0:0:0:0:
220,250,214724,2,0,L|292:241,1,55,0|0,1:0|1:0,0:0:0:0:
87,176,214909,1,8,0:0:0:0:
147,169,215001,1,8,3:0:0:0:
207,162,215094,1,8,3:0:0:0:
267,155,215186,1,8,3:0:0:0:
72,56,215279,2,0,L|13:49,1,55,8|0,0:0|0:0,0:0:0:0:
261,6,215464,6,0,P|320:55|262:128,1,165,4|0,1:2|0:0,0:0:0:0:
103,181,215835,1,8,3:0:0:0:
389,239,216020,1,8,3:0:0:0:
31,301,216205,6,0,P|36:209|220:66,1,330,8|0,3:0|0:0,0:0:0:0:
390,48,216946,1,8,3:0:0:0:
419,68,217007,1,8,3:0:0:0:
425,103,217069,1,8,3:0:0:0:
405,132,217131,2,0,L|155:157,1,230.99999295044,8|0,3:0|0:0,0:0:0:0:
394,224,217501,6,0,P|471:257|477:323,1,142.99999345398,4|0,1:2|0:0,0:0:0:0:
323,353,217872,1,4,1:2:0:0:
486,366,218057,1,0,1:0:0:0:
266,269,218150,2,0,L|185:262,1,71.4999967269899,0|12,0:0|0:0,0:0:0:0:
380,189,218427,2,0,L|296:179,1,71.4999967269899,0|0,0:0|1:0,0:0:0:0:
97,244,218613,6,0,P|108:169|242:91,1,214.49999018097,4|0,1:2|0:0,0:0:0:0:
425,75,218983,2,0,L|257:53,1,142.99999345398,12|0,0:0|0:0,0:0:0:0:
369,28,219261,1,0,1:0:0:0:
157,22,219353,2,0,P|79:46|34:100,1,142.99999345398,4|0,1:2|1:0,0:0:0:0:
220,228,219631,2,0,L|317:243,2,71.4999967269899,0|12|0,0:0|0:0|0:0,0:0:0:0:
412,355,219909,2,0,L|318:365,1,71.4999967269899,0|0,0:0|0:0,0:0:0:0:
134,368,220094,6,0,P|113:280|155:229,1,142.99999345398,4|0,1:2|1:0,0:0:0:0:
338,151,220464,2,0,L|167:119,1,142.99999345398,8|0,0:0|0:0,0:0:0:0:
120,105,220742,1,0,1:0:0:0:
314,54,220835,1,4,1:2:0:0:
458,47,221020,1,0,1:0:0:0:
193,238,221205,2,0,L|377:259,1,142.99999345398,12|0,0:0|0:0,0:0:0:0:
254,289,221483,1,0,0:0:0:0:
25,330,221576,5,0,1:0:0:0:
192,236,221761,1,8,0:0:0:0:
22,182,221946,1,8,0:0:0:0:
309,131,222131,2,0,P|255:45|50:29,1,285.99998690796,4|0,1:2|1:0,0:0:0:0:
371,23,222687,1,8,0:0:0:0:
41,157,222872,6,0,P|101:264|296:265,1,285.99998690796,4|0,1:2|1:0,0:0:0:0:
98,326,223427,2,0,L|12:303,2,71.4999967269899,12|0|0,0:0|0:0|0:0,0:0:0:0:
271,197,223798,2,0,P|206:167|116:164,1,142.99999345398,4|0,1:2|1:0,0:0:0:0:
344,116,224076,1,0,1:0:0:0:
424,87,224168,2,0,L|255:68,1,142.99999345398,12|0,0:0|0:0,0:0:0:0:
206,62,224446,1,0,0:0:0:0:
405,187,224538,6,0,P|475:211|493:289,1,142.99999345398,4|0,1:2|1:0,0:0:0:0:
300,354,224909,2,0,L|286:188,1,142.99999345398,12|0,0:0|0:0,0:0:0:0:
452,132,225279,2,0,L|363:115,1,71.4999967269899,4|0,1:2|0:0,0:0:0:0:
171,134,225464,1,0,1:0:0:0:
96,79,225557,2,0,L|172:71,1,71.4999967269899,0|12,0:0|0:0,0:0:0:0:
237,64,225742,1,0,0:0:0:0:
38,197,225835,2,0,L|103:245,1,71.4999967269899,0|0,1:0|0:0,0:0:0:0:
307,323,226020,6,0,P|217:351|139:358,1,142.99999345398,4|0,1:2|1:0,0:0:0:0:
338,225,226390,2,0,P|427:235|492:282,1,142.99999345398,12|0,0:0|0:0,0:0:0:0:
399,284,226668,1,0,0:0:0:0:
200,256,226761,2,0,P|182:170|219:109,1,142.99999345398,12|8,0:0|0:0,0:0:0:0:
398,79,227131,1,0,0:0:0:0:
267,35,227255,1,0,0:0:0:0:
213,20,227316,2,0,L|39:40,1,142.99999345398,0|0,1:0|0:0,0:0:0:0:
346,139,227687,1,8,0:0:0:0:
53,148,227872,6,0,P|52:226|194:285,1,214.49999018097,6|0,0:2|0:0,0:0:0:0:
357,329,228242,1,8,0:2:0:0:
34,359,228427,2,0,L|189:326,1,142.99999345398,8|0,0:0|0:0,0:0:0:0:
450,339,228798,6,0,P|394:273|263:247,1,214.49999018097,4|0,1:2|0:0,0:0:0:0:
191,226,229168,1,0,1:0:0:0:
461,225,229353,2,0,P|483:149|454:72,1,142.99999345398,12|0,0:0|0:0,0:0:0:0:
391,70,229631,1,0,1:0:0:0:
183,62,229724,2,0,P|277:22|370:13,1,142.99999345398,4|0,1:2|1:0,0:0:0:0:
129,158,230001,2,0,L|37:152,2,71.4999967269899,0|12|0,0:0|0:0|0:0,0:0:0:0:
323,246,230279,2,0,L|240:272,1,71.4999967269899,0|0,0:0|0:0,0:0:0:0:
64,334,230464,6,0,P|18:262|45:193,1,142.99999345398,4|0,1:2|1:0,0:0:0:0:
103,177,230742,1,0,0:0:0:0:
319,129,230835,1,12,0:0:0:0:
145,67,231020,2,0,L|224:54,1,71.4999967269899,0|0,0:0|0:0,0:0:0:0:
426,80,231205,2,0,L|503:97,2,71.4999967269899,4|0|0,1:2|0:0|1:0,0:0:0:0:
222,287,231483,2,0,L|299:270,2,71.4999967269899,0|12|0,0:0|0:2|0:0,0:0:0:0:
425,335,231761,2,0,L|545:354,1,71.4999967269899,0|0,1:0|1:0,0:0:0:0:
254,358,231946,5,4,1:2:0:0:
110,333,232131,1,0,1:0:0:0:
384,218,232316,2,0,L|223:177,1,142.99999345398,12|8,0:0|0:0,0:0:0:0:
322,156,232594,1,8,0:0:0:0:
88,93,232687,2,0,P|164:60|249:71,1,142.99999345398,12|8,0:0|0:0,0:0:0:0:
77,184,233057,2,0,L|1:156,1,71.4999967269899,12|8,0:0|0:0,0:0:0:0:
246,217,233242,5,8,0:0:0:0:
86,295,233427,2,0,P|156:343|232:352,1,142.99999345398,4|0,1:2|0:0,0:0:0:0:
132,363,233705,1,0,0:0:0:0:
344,324,233798,1,8,3:0:0:0:
273,300,233890,1,8,3:0:0:0:
194,294,233983,1,8,3:0:0:0:
487,276,234168,6,0,P|458:193|392:153,1,142.99999345398,8|0,3:3|0:0,0:0:0:0:
318,135,234446,1,8,3:0:0:0:
121,109,234538,1,8,3:0:0:0:
472,36,234724,6,0,P|367:13|255:91,1,214.49999018097,4|0,1:2|0:0,0:0:0:0:
358,108,235094,2,0,L|457:122,1,71.4999967269899,0|0,1:0|1:0,0:0:0:0:
225,200,235279,2,0,L|145:214,1,71.4999967269899,8|0,0:0|0:0,0:0:0:0:
242,243,235464,2,0,L|336:243,1,71.4999967269899,8|0,0:0|0:0,0:0:0:0:
81,319,235650,1,4,3:3:0:0:
244,352,235835,2,0,L|161:324,1,71.4999967269899,8|8,3:0|3:0,0:0:0:0:
415,223,236020,2,0,L|328:202,1,71.4999967269899,4|4,3:0|3:0,0:0:0:0:
42,154,236205,5,4,3:0:0:0:
23,71,237501,2,0,P|35:148|127:178,1,165,2|0,0:0|0:0,0:0:0:0:
360,263,237872,5,4,1:2:0:0:
206,298,238057,1,0,1:0:0:0:
370,346,238242,2,0,L|515:360,1,110,12|0,0:0|0:0,0:0:0:0:
278,221,238520,1,0,0:0:0:0:
194,201,238613,2,0,L|72:171,1,110,4|0,0:0|0:0,0:0:0:0:
257,116,238983,1,12,1:2:0:0:
64,82,239168,1,0,0:0:0:0:
364,48,239353,5,4,1:2:0:0:
208,208,239538,2,0,L|343:171,1,131.99999597168,0|12,1:0|0:0,0:0:0:0:
488,319,239909,2,0,L|406:321,1,55,8|8,0:0|0:0,0:0:0:0:
223,354,240094,1,4,1:2:0:0:
373,362,240279,1,0,1:0:0:0:
123,154,240464,2,0,L|-32:170,1,110,12|0,0:0|0:0,0:0:0:0:
83,192,240742,1,0,0:0:0:0:
325,133,240835,6,0,L|336:255,1,110,4|0,1:2|1:0,0:0:0:0:
138,294,241205,2,0,L|288:332,1,110,12|0,0:0|0:0,0:0:0:0:
312,333,241483,1,0,1:0:0:0:
89,362,241576,2,0,L|1:350,2,55,4|0|8,1:2|0:0|0:2,0:0:0:0:
246,235,241946,1,12,0:0:0:0:
55,170,242131,2,0,L|152:160,1,55,0|0,0:0|0:0,0:0:0:0:
385,110,242316,1,4,1:2:0:0:
251,49,242501,1,0,1:0:0:0:
92,34,242687,1,8,0:0:0:0:
419,27,242872,2,0,L|483:27,1,55,4|0,1:2|0:0,0:0:0:0:
86,167,243242,6,0,L|252:187,1,142.99999345398,4|8,1:2|0:0,0:0:0:0:
150,214,243520,1,8,0:0:0:0:
374,301,243613,2,0,L|275:315,1,71.4999967269899,8|8,0:0|0:0,0:0:0:0:
96,347,243798,6,0,P|31:308|24:251,1,131.99999597168,6|0,1:2|1:0,0:0:0:0:
182,187,244168,1,12,0:0:0:0:
15,165,244353,1,0,0:0:0:0:
232,95,244446,1,0,0:0:0:0:
296,88,244538,2,0,L|136:72,1,131.99999597168,4|0,1:2|1:0,0:0:0:0:
239,52,244816,1,0,1:0:0:0:
459,113,244909,2,0,L|478:251,1,131.99999597168,12|0,0:0|0:0,0:0:0:0:
306,292,245279,5,4,1:2:0:0:
469,330,245464,1,0,1:0:0:0:
196,371,245650,2,0,L|88:352,1,65.9999979858399,12|0,0:0|0:0,0:0:0:0:
332,338,245835,1,0,1:0:0:0:
268,304,245927,2,0,L|121:282,1,131.99999597168,0|0,1:0|0:0,0:0:0:0:
205,253,246205,1,0,1:0:0:0:
32,211,246390,2,0,L|52:74,1,131.99999597168,12|0,0:0|0:0,0:0:0:0:
119,69,246668,1,0,0:0:0:0:
310,139,246761,6,0,L|235:150,1,65.9999979858399,4|0,1:2|1:0,0:0:0:0:
314,108,246946,1,8,0:0:0:0:
481,68,247131,1,8,0:0:0:0:
424,75,247224,1,8,0:0:0:0:
225,223,247316,1,8,0:0:0:0:
284,243,247409,1,8,0:0:0:0:
476,248,247501,5,8,0:0:0:0:
494,309,247593,1,8,0:0:0:0:
461,364,247686,1,8,0:0:0:0:
398,377,247778,1,8,0:0:0:0:
140,344,247872,5,8,0:0:0:0:
466,304,248057,1,4,1:2:0:0:
19,57,248427,6,0,P|242:81|155:328,1,527.999983886719,4|0,1:2|1:0,0:0:0:0:
10,288,249353,2,0,L|25:144,1,131.99999597168,12|0,0:2|0:0,0:0:0:0:
92,141,249631,1,0,0:0:0:0:
320,80,249724,5,4,1:2:0:0:
170,49,249909,1,0,1:0:0:0:
439,33,250094,2,0,L|466:183,1,131.99999597168,12|0,0:0|0:0,0:0:0:0:
250,279,250372,1,0,1:0:0:0:
174,308,250464,2,0,L|333:323,1,131.99999597168,4|0,1:2|1:0,0:0:0:0:
25,138,250835,2,0,L|149:66,1,131.99999597168,12|0,0:0|1:0,0:0:0:0:
208,62,251113,1,0,1:0:0:0:
417,158,251205,6,0,L|342:170,1,65.9999979858399,4|0,1:2|0:0,0:0:0:0:
277,187,251390,2,0,L|443:195,2,131.99999597168,0|12|0,1:0|0:0|0:0,0:0:0:0:
488,57,251853,1,0,0:0:0:0:
469,119,251945,1,4,1:2:0:0:
417,158,252038,1,0,0:0:0:0:
352,160,252130,1,0,1:0:0:0:
428,191,252224,1,0,0:0:0:0:
253,350,252316,2,0,L|183:319,1,65.9999979858399,12|0,0:0|0:0,0:0:0:0:
285,305,252501,1,0,0:0:0:0:
25,284,252687,6,0,P|23:202|84:161,1,131.99999597168,4|0,1:2|1:0,0:0:0:0:
244,103,253057,2,0,L|94:67,1,131.99999597168,12|0,0:0|0:0,0:0:0:0:
183,46,253335,1,0,1:0:0:0:
262,53,253427,2,0,L|253:126,1,65.9999979858399
42,237,253613,2,0,L|124:244,1,65.9999979858399,0|0,1:0|0:0,0:0:0:0:
307,328,253798,2,0,L|152:339,1,131.99999597168,12|0,0:0|1:0,0:0:0:0:
246,307,254076,1,0,0:0:0:0:
465,271,254168,6,0,L|434:206,1,65.9999979858399,10|8,0:0|0:0,0:0:0:0:
250,160,254353,2,0,L|183:131,1,65.9999979858399,10|8,0:0|0:0,0:0:0:0:
408,71,254538,2,0,L|321:46,1,65.9999979858399,10|8,0:0|0:0,0:0:0:0:
120,35,254724,2,0,L|0:49,1,65.9999979858399,10|0,0:0|0:0,0:0:0:0:
491,75,255094,5,4,1:2:0:0:
319,103,255279,1,8,0:0:0:0:
251,121,255371,1,8,0:0:0:0:
417,225,255464,1,8,0:0:0:0:
483,230,255556,1,8,0:0:0:0:
186,297,255650,5,4,1:2:0:0:
47,331,255835,2,0,L|45:257,1,65.9999979858399,0|0,1:0|0:0,0:0:0:0:
252,176,256020,2,0,L|100:150,1,131.99999597168,12|0,0:0|0:0,0:0:0:0:
197,129,256298,1,0,0:0:0:0:
12,211,256390,1,4,1:2:0:0:
170,333,256576,2,0,L|94:346,1,65.9999979858399,0|0,1:0|0:0,0:0:0:0:
332,348,256761,2,0,L|479:360,1,131.99999597168,12|0,0:0|0:0,0:0:0:0:
401,324,257038,1,0,1:0:0:0:
183,262,257131,5,4,1:2:0:0:
36,206,257316,1,0,1:0:0:0:
99,157,257409,1,0,0:0:0:0:
178,153,257501,1,12,0:0:0:0:
93,115,257594,1,0,0:0:0:0:
311,88,257687,6,0,L|417:75,1,65.9999979858399,0|0,0:0|0:0,0:0:0:0:
301,64,257872,2,0,L|161:41,1,131.99999597168,4|0,1:2|1:0,0:0:0:0:
243,14,258150,1,0,0:0:0:0:
461,39,258242,1,12,0:0:0:0:
488,96,258334,1,8,0:0:0:0:
463,155,258427,1,8,0:0:0:0:
403,176,258519,1,8,0:0:0:0:
148,215,258613,5,4,1:2:0:0:
294,288,258798,1,0,0:0:0:0:
467,323,258983,2,0,L|476:186,1,110,8|0,3:0|0:0,0:0:0:0:
406,220,259261,1,0,1:0:0:0:
193,214,259353,2,0,L|121:197,1,55,8|8,0:0|0:0,0:0:0:0:
353,153,259538,2,0,L|277:139,1,55,8|8,0:0|0:0,0:0:0:0:
110,100,259724,2,0,L|146:44,1,55,8|8,0:0|0:0,0:0:0:0:
397,31,259909,2,0,L|491:28,1,55,10|0,0:0|0:0,0:0:0:0:
26,205,260279,6,0,L|303:225,1,263.99999194336,10|0,0:0|0:0,0:0:0:0:
429,323,260650,6,0,L|97:351,1,285.99998690796,10|0,0:0|0:0,0:0:0:0:
11,229,261020,6,0,L|364:200,1,307.999990600586,14|8,0:2|0:0,0:0:0:0:
497,144,261298,1,8,0:0:0:0:
321,100,261390,1,8,0:0:0:0:
126,108,261483,1,8,0:0:0:0:
360,15,261576,5,6,0:2:0:0:
256,192,261761,12,2,263057,0:0:0:0:
