osu file format v14

[General]
AudioFilename: audio.mp3
AudioLeadIn: 0
PreviewTime: 56266
Countdown: 0
SampleSet: Normal
StackLeniency: 0.7
Mode: 1
LetterboxInBreaks: 0
WidescreenStoryboard: 0

[Editor]
DistanceSpacing: 1.1
BeatDivisor: 4
GridSize: 16
TimelineZoom: 1

[Metadata]
Title:SUPER STREAM (TV Size)
TitleUnicode:SUPER∞STREAM (TV Size)
Artist:Shinonono Houki (CV: Hikasa Youko)
ArtistUnicode:篠ノ之箒 (CV: 日笠陽子)
Creator:yuki_momoiro722
Version:Kantan
Source:IS <インフィニット・ストラトス>
Tags:taiko sing216 infinite stratos ed ending
BeatmapID:2027872
BeatmapSetID:969244

[Difficulty]
HPDrainRate:8
CircleSize:2
OverallDifficulty:3
ApproachRate:10
SliderMultiplier:1.4
SliderTickRate:1

[Events]
//Background and Video events
0,0,"bg.jpg",0,40
//Break Periods
//Storyboard Layer 0 (Background)
//Storyboard Layer 1 (Fail)
//Storyboard Layer 2 (Pass)
//Storyboard Layer 3 (Foreground)
//Storyboard Layer 4 (Overlay)
//Storyboard Sound Samples

[TimingPoints]
-3650,333.333333333333,4,1,0,70,1,0
349,-116.279069767442,4,1,0,70,0,0
1683,-116.279069767442,4,1,0,70,0,0
11016,-116.279069767442,4,1,0,80,0,0
21682,-116.279069767442,4,1,0,60,0,0
31016,-116.279069767442,4,1,0,70,0,0
32349,-116.279069767442,4,1,0,60,0,0
42849,-116.279069767442,4,1,0,65,0,0
50849,-116.279069767442,4,1,0,70,0,0
53516,-116.279069767442,4,1,0,75,0,0
56349,-116.279069767442,4,1,0,80,0,1
65683,-116.279069767442,4,1,0,80,0,0
67016,-116.279069767442,4,1,0,80,0,1
77683,-116.279069767442,4,1,0,70,0,0
87016,-116.279069767442,4,1,0,20,0,0

[HitObjects]
256,192,1683,5,12,0:0:0:0:
256,192,3016,1,8,0:0:0:0:
256,192,4349,1,4,0:0:0:0:
256,192,5016,1,12,0:0:0:0:
256,192,5683,1,4,0:0:0:0:
256,192,7016,1,8,0:0:0:0:
256,192,8183,1,12,0:0:0:0:
256,192,8683,1,12,0:0:0:0:
256,192,9683,1,8,0:0:0:0:
256,192,11016,1,4,0:0:0:0:
259,190,11683,1,0,0:0:0:0:
256,192,12183,1,0,0:0:0:0:
256,192,13016,1,0,0:0:0:0:
256,192,13349,1,8,0:0:0:0:
256,192,13683,1,0,0:0:0:0:
256,191,14349,1,0,0:0:0:0:
256,192,14849,1,8,0:0:0:0:
256,192,15683,1,8,0:0:0:0:
256,192,16016,1,0,0:0:0:0:
256,192,16349,1,8,0:0:0:0:
260,194,17016,1,0,0:0:0:0:
256,192,17516,1,8,0:0:0:0:
260,194,18349,1,12,0:0:0:0:
256,192,18849,1,4,0:0:0:0:
253,192,19683,1,0,0:0:0:0:
256,192,20183,1,12,0:0:0:0:
256,192,21016,1,12,0:0:0:0:
256,192,21683,1,0,0:0:0:0:
256,192,22349,1,0,0:0:0:0:
256,192,23016,1,8,0:0:0:0:
256,192,23349,1,8,0:0:0:0:
256,192,23683,1,0,0:0:0:0:
256,192,24349,1,8,0:0:0:0:
256,192,25349,1,0,0:0:0:0:
256,192,25683,1,8,0:0:0:0:
256,192,26349,1,8,0:0:0:0:
256,192,26683,1,8,0:0:0:0:
256,192,27016,1,0,0:0:0:0:
256,176,28349,1,8,0:0:0:0:
256,192,28683,1,8,0:0:0:0:
256,192,29016,1,0,0:0:0:0:
256,192,29683,1,8,0:0:0:0:
256,192,30349,1,0,0:0:0:0:
256,192,31016,1,12,0:0:0:0:
256,192,32349,1,4,0:0:0:0:
256,192,33683,1,8,0:0:0:0:
256,192,34349,1,0,0:0:0:0:
256,192,35016,1,8,0:0:0:0:
256,192,36183,1,4,0:0:0:0:
256,192,37349,1,0,0:0:0:0:
256,192,37683,1,8,0:0:0:0:
256,192,38349,1,8,0:0:0:0:
256,192,38849,1,0,0:0:0:0:
256,192,39683,1,8,0:0:0:0:
256,192,40349,1,8,0:0:0:0:
256,192,41016,1,0,0:0:0:0:
256,192,41516,1,8,0:0:0:0:
256,192,42349,1,0,0:0:0:0:
256,192,42849,1,12,0:0:0:0:
256,192,43683,1,0,0:0:0:0:
256,192,44349,1,8,0:0:0:0:
256,192,45016,1,0,0:0:0:0:
256,192,45349,1,8,0:0:0:0:
256,192,45683,1,0,0:0:0:0:
248,192,46349,1,8,0:0:0:0:
256,192,47016,1,12,0:0:0:0:
256,192,48349,1,0,0:0:0:0:
256,192,49016,1,8,0:0:0:0:
256,192,49516,1,8,0:0:0:0:
256,192,50349,1,12,0:0:0:0:
256,192,50849,1,4,0:0:0:0:
256,192,51683,1,0,0:0:0:0:
256,192,52016,1,0,0:0:0:0:
256,192,52349,1,8,0:0:0:0:
256,192,53016,1,0,0:0:0:0:
256,192,53516,1,12,0:0:0:0:
256,192,54349,1,8,0:0:0:0:
256,192,55016,1,12,0:0:0:0:
256,192,56349,5,4,0:0:0:0:
256,192,57349,1,8,0:0:0:0:
256,192,57683,1,8,0:0:0:0:
256,192,58349,1,8,0:0:0:0:
256,192,58683,1,8,0:0:0:0:
256,192,59016,1,0,0:0:0:0:
256,192,59683,1,0,0:0:0:0:
256,192,60349,1,8,0:0:0:0:
256,192,61516,1,4,0:0:0:0:
256,192,62349,1,0,0:0:0:0:
256,192,63016,1,0,0:0:0:0:
256,192,64349,1,0,0:0:0:0:
256,192,65016,1,8,0:0:0:0:
256,192,65683,1,12,0:0:0:0:
256,192,67016,5,4,0:0:0:0:
256,192,68016,1,8,0:0:0:0:
256,192,68349,1,8,0:0:0:0:
256,192,69016,1,8,0:0:0:0:
256,192,69349,1,8,0:0:0:0:
256,192,69683,1,0,0:0:0:0:
256,192,70349,1,0,0:0:0:0:
256,192,71016,1,8,0:0:0:0:
256,192,72183,1,4,0:0:0:0:
256,192,73016,1,0,0:0:0:0:
256,192,73683,1,8,0:0:0:0:
256,192,74349,1,0,0:0:0:0:
256,192,75016,1,8,0:0:0:0:
256,192,76016,1,0,0:0:0:0:
256,192,76349,1,12,0:0:0:0:
256,192,77016,1,12,0:0:0:0:
256,192,77683,1,4,0:0:0:0:
256,192,78683,1,8,0:0:0:0:
256,192,79016,1,8,0:0:0:0:
256,192,80183,1,8,0:0:0:0:
256,192,81016,1,0,0:0:0:0:
256,192,81683,1,12,0:0:0:0:
256,192,82683,1,0,0:0:0:0:
256,192,83016,1,8,0:0:0:0:
256,192,84183,1,12,0:0:0:0:
256,192,84683,1,12,0:0:0:0:
259,192,85683,5,0,0:0:0:0:
265,192,86849,1,4,0:0:0:0:
256,192,87016,12,0,88349,0:0:0:0:
