osu file format v14

[General]
AudioFilename: audio.mp3
AudioLeadIn: 0
PreviewTime: 56294
Countdown: 0
SampleSet: Normal
StackLeniency: 0.7
Mode: 1
LetterboxInBreaks: 0
WidescreenStoryboard: 0

[Editor]
Bookmarks: 1682,11016,21682,32349,42849,56349,67016,77682,88349
DistanceSpacing: 1.1
BeatDivisor: 4
GridSize: 16
TimelineZoom: 1.3

[Metadata]
Title:SUPER STREAM (TV Size)
TitleUnicode:SUPER∞STREAM (TV Size)
Artist:Shinonono Houki (CV: Hikasa Youko)
ArtistUnicode:條ノ之 箒 (CV: 日笠陽子)
Creator:jacky10186
Version:10186's New Oni
Source:インフィニット・ストラトス
Tags:taiko infinite stratos ed ending
BeatmapID:2043174
BeatmapSetID:976287

[Difficulty]
HPDrainRate:5
CircleSize:5
OverallDifficulty:6
ApproachRate:10
SliderMultiplier:1.4
SliderTickRate:1

[Events]
//Background and Video events
0,0,"bg.jpg",0,65
//Break Periods
//Storyboard Layer 0 (Background)
//Storyboard Layer 1 (Fail)
//Storyboard Layer 2 (Pass)
//Storyboard Layer 3 (Foreground)
//Storyboard Sound Samples

[TimingPoints]
349,333.333333333333,4,1,0,90,1,0
349,-100,4,1,0,90,0,0
1683,333.333333333333,4,1,0,90,1,0
1683,-100,4,1,0,90,0,0
56349,-100,4,1,0,90,0,1
65682,-100,4,1,0,90,0,0
67016,-100,4,1,0,90,0,1
77682,-100,4,1,0,90,0,0

[HitObjects]
227,122,1182,5,0,0:0:0:0:
320,222,1348,1,12,0:0:0:0:
287,240,1683,1,4,0:0:0:0:
473,205,3016,1,0,0:0:0:0:
300,193,4349,1,4,0:0:0:0:
293,191,5016,1,4,0:0:0:0:
310,128,5682,1,4,0:0:0:0:
357,166,5849,1,8,0:0:0:0:
357,166,6016,1,8,0:0:0:0:
315,135,6182,1,0,0:0:0:0:
309,170,6516,1,0,0:0:0:0:
441,250,6682,1,8,0:0:0:0:
206,151,7016,1,4,0:0:0:0:
286,163,7349,1,4,0:0:0:0:
286,163,7682,1,12,0:0:0:0:
348,163,8016,1,0,0:0:0:0:
295,165,8182,1,12,0:0:0:0:
298,154,8516,1,4,0:0:0:0:
284,152,8682,1,12,0:0:0:0:
284,152,9016,1,8,0:0:0:0:
284,152,9349,1,0,0:0:0:0:
284,152,9682,1,8,0:0:0:0:
310,146,9849,1,0,0:0:0:0:
416,255,10016,1,8,0:0:0:0:
417,217,10182,1,0,0:0:0:0:
366,213,10349,1,8,0:0:0:0:
331,178,10432,1,8,0:0:0:0:
387,157,10516,1,0,0:0:0:0:
387,157,10599,1,0,0:0:0:0:
410,232,10682,1,8,0:0:0:0:
389,269,11016,1,4,0:0:0:0:
347,194,11349,1,8,0:0:0:0:
323,274,11516,1,8,0:0:0:0:
313,186,11682,1,0,0:0:0:0:
304,224,11849,1,8,0:0:0:0:
307,199,11932,1,8,0:0:0:0:
307,199,12016,1,8,0:0:0:0:
341,148,12182,1,0,0:0:0:0:
242,136,12516,1,0,0:0:0:0:
335,193,12682,1,8,0:0:0:0:
347,152,13016,1,0,0:0:0:0:
368,232,13182,1,8,0:0:0:0:
363,171,13349,1,8,0:0:0:0:
326,151,13432,1,8,0:0:0:0:
443,186,13516,1,0,0:0:0:0:
271,307,13849,1,0,0:0:0:0:
404,182,14016,1,8,0:0:0:0:
342,179,14182,1,8,0:0:0:0:
253,181,14349,1,0,0:0:0:0:
192,159,14432,1,0,0:0:0:0:
299,245,14516,1,8,0:0:0:0:
290,92,14849,1,8,0:0:0:0:
210,104,15182,1,8,0:0:0:0:
226,70,15349,1,0,0:0:0:0:
281,109,15516,1,8,0:0:0:0:
284,109,15849,1,8,0:0:0:0:
357,160,16016,1,0,0:0:0:0:
360,155,16182,1,0,0:0:0:0:
214,145,16266,1,0,0:0:0:0:
308,156,16349,1,8,0:0:0:0:
227,167,16682,1,0,0:0:0:0:
267,177,17016,1,0,0:0:0:0:
346,186,17182,1,8,0:0:0:0:
262,127,17349,1,0,0:0:0:0:
365,117,17516,1,8,0:0:0:0:
266,73,17849,1,8,0:0:0:0:
306,269,18016,1,0,0:0:0:0:
271,221,18182,1,0,0:0:0:0:
271,221,18266,1,0,0:0:0:0:
392,196,18349,1,12,0:0:0:0:
392,196,18516,1,4,0:0:0:0:
392,196,18849,1,8,0:0:0:0:
261,80,19182,1,0,0:0:0:0:
425,229,19349,1,8,0:0:0:0:
352,157,19516,1,0,0:0:0:0:
282,136,19682,1,0,0:0:0:0:
248,146,19766,1,0,0:0:0:0:
248,146,19849,1,0,0:0:0:0:
207,110,19932,1,0,0:0:0:0:
368,243,20016,1,8,0:0:0:0:
244,153,20182,1,4,0:0:0:0:
244,153,20516,1,4,0:0:0:0:
244,153,20849,1,4,0:0:0:0:
244,153,21016,1,4,0:0:0:0:
368,233,21349,1,8,0:0:0:0:
261,152,21682,1,0,0:0:0:0:
362,147,22016,1,8,0:0:0:0:
325,235,22182,1,8,0:0:0:0:
236,178,22349,1,0,0:0:0:0:
330,146,22682,1,0,0:0:0:0:
341,155,23016,1,8,0:0:0:0:
287,133,23349,1,0,0:0:0:0:
362,240,23516,1,8,0:0:0:0:
311,145,23682,1,0,0:0:0:0:
315,151,24016,1,0,0:0:0:0:
346,191,24349,1,8,0:0:0:0:
321,147,24682,1,0,0:0:0:0:
320,147,24849,1,8,0:0:0:0:
346,134,25016,1,0,0:0:0:0:
322,102,25349,1,0,0:0:0:0:
340,120,25682,1,8,0:0:0:0:
346,162,26016,1,0,0:0:0:0:
264,130,26182,1,0,0:0:0:0:
269,246,26349,1,8,0:0:0:0:
360,173,26682,1,8,0:0:0:0:
396,191,27016,1,0,0:0:0:0:
370,158,27349,1,0,0:0:0:0:
293,231,27516,1,8,0:0:0:0:
366,160,27682,1,0,0:0:0:0:
327,192,28016,1,0,0:0:0:0:
352,205,28349,1,8,0:0:0:0:
404,143,28682,1,8,0:0:0:0:
404,143,28849,1,8,0:0:0:0:
354,209,29016,1,0,0:0:0:0:
426,189,29349,1,0,0:0:0:0:
442,207,29682,1,8,0:0:0:0:
326,106,30016,1,0,0:0:0:0:
332,113,30182,1,8,0:0:0:0:
299,239,30349,1,0,0:0:0:0:
282,111,30682,1,0,0:0:0:0:
294,136,31016,1,4,0:0:0:0:
294,136,31182,1,4,0:0:0:0:
365,194,31349,1,12,0:0:0:0:
215,107,31516,1,4,0:0:0:0:
308,125,31849,1,8,0:0:0:0:
309,128,31932,1,8,0:0:0:0:
349,257,32016,1,8,0:0:0:0:
349,184,32099,1,0,0:0:0:0:
339,189,32182,1,0,0:0:0:0:
353,166,32349,1,0,0:0:0:0:
339,205,32516,1,0,0:0:0:0:
409,244,32682,1,8,0:0:0:0:
397,176,32849,1,0,0:0:0:0:
397,176,32932,1,0,0:0:0:0:
397,176,33016,1,0,0:0:0:0:
388,170,33182,1,0,0:0:0:0:
431,214,33349,1,8,0:0:0:0:
261,79,33516,1,0,0:0:0:0:
261,79,33599,1,0,0:0:0:0:
371,232,33682,1,8,0:0:0:0:
382,124,33849,1,0,0:0:0:0:
287,247,34016,1,8,0:0:0:0:
280,109,34182,1,8,0:0:0:0:
408,266,34266,1,8,0:0:0:0:
280,109,34349,1,0,0:0:0:0:
357,301,34516,1,0,0:0:0:0:
426,195,34682,1,8,0:0:0:0:
387,270,34849,1,0,0:0:0:0:
340,223,34932,1,8,0:0:0:0:
353,242,35016,1,0,0:0:0:0:
342,278,35182,1,0,0:0:0:0:
354,196,35349,1,8,0:0:0:0:
383,223,35432,1,8,0:0:0:0:
396,166,35516,1,8,0:0:0:0:
351,153,35682,1,0,0:0:0:0:
371,200,35849,1,12,0:0:0:0:
318,264,36016,1,12,0:0:0:0:
370,224,36182,1,4,0:0:0:0:
295,202,36516,1,0,0:0:0:0:
432,228,36682,1,8,0:0:0:0:
244,170,37016,1,0,0:0:0:0:
214,162,37182,1,0,0:0:0:0:
312,271,37349,1,8,0:0:0:0:
425,169,37516,1,0,0:0:0:0:
181,123,37599,1,0,0:0:0:0:
354,246,37682,1,8,0:0:0:0:
388,249,37849,1,8,0:0:0:0:
351,189,38016,1,0,0:0:0:0:
290,169,38182,1,0,0:0:0:0:
290,169,38266,1,0,0:0:0:0:
310,99,38349,1,8,0:0:0:0:
288,175,38516,1,0,0:0:0:0:
334,258,38682,1,8,0:0:0:0:
346,249,38849,1,8,0:0:0:0:
346,249,38932,1,8,0:0:0:0:
342,201,39016,1,0,0:0:0:0:
217,292,39182,1,0,0:0:0:0:
381,219,39349,1,8,0:0:0:0:
334,240,39516,1,8,0:0:0:0:
318,116,39682,1,0,0:0:0:0:
318,116,39766,1,0,0:0:0:0:
318,116,39849,1,0,0:0:0:0:
380,160,40016,1,8,0:0:0:0:
414,236,40349,1,0,0:0:0:0:
373,189,40682,1,8,0:0:0:0:
330,146,41016,1,0,0:0:0:0:
330,146,41182,1,0,0:0:0:0:
323,274,41349,1,8,0:0:0:0:
364,155,41516,1,0,0:0:0:0:
363,192,41849,1,0,0:0:0:0:
384,253,42016,1,8,0:0:0:0:
269,146,42099,1,8,0:0:0:0:
269,146,42182,1,8,0:0:0:0:
364,163,42349,1,4,0:0:0:0:
363,162,42516,1,4,0:0:0:0:
382,239,42849,1,8,0:0:0:0:
274,162,43182,1,0,0:0:0:0:
274,162,43266,1,0,0:0:0:0:
305,273,43349,1,12,0:0:0:0:
461,216,43682,1,0,0:0:0:0:
197,241,43849,1,8,0:0:0:0:
351,178,44016,1,8,0:0:0:0:
297,108,44182,1,0,0:0:0:0:
297,108,44266,1,0,0:0:0:0:
297,108,44349,1,0,0:0:0:0:
440,185,44516,1,0,0:0:0:0:
401,224,44682,1,8,0:0:0:0:
298,144,44849,1,0,0:0:0:0:
316,251,44932,1,8,0:0:0:0:
338,199,45016,1,0,0:0:0:0:
338,199,45182,1,0,0:0:0:0:
328,277,45349,1,8,0:0:0:0:
403,191,45516,1,0,0:0:0:0:
296,142,45682,1,0,0:0:0:0:
362,148,45766,1,0,0:0:0:0:
362,148,45849,1,0,0:0:0:0:
245,264,46016,1,8,0:0:0:0:
316,316,46182,1,8,0:0:0:0:
353,267,46266,1,8,0:0:0:0:
371,208,46349,1,0,0:0:0:0:
200,221,46516,1,0,0:0:0:0:
293,293,46682,1,8,0:0:0:0:
269,159,46849,1,8,0:0:0:0:
303,147,47016,1,4,0:0:0:0:
303,147,47182,1,4,0:0:0:0:
262,261,47349,1,12,0:0:0:0:
303,147,47516,1,4,0:0:0:0:
354,136,47849,1,0,0:0:0:0:
386,252,48016,1,8,0:0:0:0:
386,197,48349,1,8,0:0:0:0:
314,189,48432,1,8,0:0:0:0:
324,216,48516,1,8,0:0:0:0:
405,235,48682,1,0,0:0:0:0:
407,205,48849,1,0,0:0:0:0:
391,258,49016,1,8,0:0:0:0:
298,265,49182,1,0,0:0:0:0:
353,266,49266,1,0,0:0:0:0:
409,260,49349,1,8,0:0:0:0:
394,152,49516,1,0,0:0:0:0:
263,169,49849,1,0,0:0:0:0:
291,248,50016,1,8,0:0:0:0:
240,174,50099,1,0,0:0:0:0:
418,262,50182,1,8,0:0:0:0:
448,219,50349,1,4,0:0:0:0:
412,208,50516,1,4,0:0:0:0:
416,253,50849,1,12,0:0:0:0:
313,91,51182,1,0,0:0:0:0:
298,295,51349,1,8,0:0:0:0:
280,269,51516,1,8,0:0:0:0:
344,204,51599,1,8,0:0:0:0:
363,182,51682,1,0,0:0:0:0:
363,182,51849,1,0,0:0:0:0:
368,194,52016,1,8,0:0:0:0:
323,168,52182,1,0,0:0:0:0:
325,262,52349,1,8,0:0:0:0:
358,194,52682,1,8,0:0:0:0:
453,218,53016,1,4,0:0:0:0:
453,218,53182,1,4,0:0:0:0:
373,244,53349,1,8,0:0:0:0:
378,217,53516,1,4,0:0:0:0:
403,251,53849,1,0,0:0:0:0:
380,188,54016,1,8,0:0:0:0:
418,178,54182,1,8,0:0:0:0:
377,193,54266,1,8,0:0:0:0:
240,151,54349,1,0,0:0:0:0:
240,151,54432,1,0,0:0:0:0:
240,151,54516,1,0,0:0:0:0:
341,261,54682,1,8,0:0:0:0:
294,244,54766,1,8,0:0:0:0:
355,189,54849,1,0,0:0:0:0:
284,241,55016,1,4,0:0:0:0:
330,263,55182,1,4,0:0:0:0:
306,159,55349,1,12,0:0:0:0:
325,221,55516,1,4,0:0:0:0:
318,267,56016,1,12,0:0:0:0:
283,190,56349,1,0,0:0:0:0:
283,190,56516,1,0,0:0:0:0:
314,199,56682,1,8,0:0:0:0:
382,197,56766,1,8,0:0:0:0:
367,274,56849,1,0,0:0:0:0:
357,255,57016,1,0,0:0:0:0:
358,269,57182,1,8,0:0:0:0:
242,157,57349,1,8,0:0:0:0:
262,145,57516,1,0,0:0:0:0:
262,145,57599,1,0,0:0:0:0:
263,146,57682,1,0,0:0:0:0:
318,151,57849,1,0,0:0:0:0:
418,224,58016,1,8,0:0:0:0:
407,162,58349,1,0,0:0:0:0:
407,162,58516,1,0,0:0:0:0:
288,239,58682,1,8,0:0:0:0:
293,246,58766,1,8,0:0:0:0:
273,201,58849,1,0,0:0:0:0:
433,166,59016,1,0,0:0:0:0:
432,166,59182,1,0,0:0:0:0:
331,190,59266,1,0,0:0:0:0:
403,232,59349,1,8,0:0:0:0:
350,201,59516,1,8,0:0:0:0:
223,154,59682,1,0,0:0:0:0:
368,237,59849,1,0,0:0:0:0:
288,269,60016,1,8,0:0:0:0:
298,129,60349,1,4,0:0:0:0:
340,165,60516,1,0,0:0:0:0:
358,141,60599,1,0,0:0:0:0:
356,278,60682,1,8,0:0:0:0:
360,165,60849,1,4,0:0:0:0:
323,171,61182,1,0,0:0:0:0:
262,257,61349,1,8,0:0:0:0:
388,176,61516,1,4,0:0:0:0:
388,176,61849,1,0,0:0:0:0:
396,259,62016,1,8,0:0:0:0:
293,284,62182,1,8,0:0:0:0:
293,284,62266,1,8,0:0:0:0:
351,274,62349,1,0,0:0:0:0:
303,145,62516,1,0,0:0:0:0:
384,245,62682,1,8,0:0:0:0:
339,160,62849,1,0,0:0:0:0:
339,160,62932,1,0,0:0:0:0:
339,160,63016,1,0,0:0:0:0:
367,136,63182,1,0,0:0:0:0:
458,209,63349,1,8,0:0:0:0:
360,228,63516,1,0,0:0:0:0:
305,146,63599,1,8,0:0:0:0:
383,226,63682,1,0,0:0:0:0:
393,199,63849,1,0,0:0:0:0:
414,237,64016,1,8,0:0:0:0:
339,214,64349,1,0,0:0:0:0:
322,197,64682,1,12,0:0:0:0:
413,222,65016,1,0,0:0:0:0:
439,243,65349,1,12,0:0:0:0:
432,236,65516,1,8,0:0:0:0:
430,234,65682,1,4,0:0:0:0:
431,234,65905,1,4,0:0:0:0:
431,234,66182,1,4,0:0:0:0:
309,139,66349,1,4,0:0:0:0:
322,130,66516,1,0,0:0:0:0:
322,130,66599,1,0,0:0:0:0:
413,245,66682,1,8,0:0:0:0:
452,222,66849,1,8,0:0:0:0:
444,220,67016,1,0,0:0:0:0:
325,173,67099,1,0,0:0:0:0:
351,154,67182,1,0,0:0:0:0:
319,82,67349,1,8,0:0:0:0:
410,165,67516,1,8,0:0:0:0:
394,140,67599,1,8,0:0:0:0:
394,140,67682,1,0,0:0:0:0:
325,178,67849,1,0,0:0:0:0:
350,234,68016,1,8,0:0:0:0:
379,256,68099,1,8,0:0:0:0:
357,135,68182,1,0,0:0:0:0:
357,135,68266,1,0,0:0:0:0:
430,255,68349,1,0,0:0:0:0:
471,221,68516,1,0,0:0:0:0:
356,244,68682,1,8,0:0:0:0:
300,286,68849,1,8,0:0:0:0:
303,248,68932,1,0,0:0:0:0:
303,248,69016,1,0,0:0:0:0:
303,248,69182,1,0,0:0:0:0:
391,274,69349,1,8,0:0:0:0:
352,257,69516,1,8,0:0:0:0:
366,278,69682,1,0,0:0:0:0:
366,278,69766,1,0,0:0:0:0:
366,278,69849,1,0,0:0:0:0:
368,217,70016,1,8,0:0:0:0:
423,232,70182,1,0,0:0:0:0:
345,273,70266,1,8,0:0:0:0:
346,151,70349,1,0,0:0:0:0:
346,151,70432,1,0,0:0:0:0:
346,151,70516,1,0,0:0:0:0:
390,226,70682,1,8,0:0:0:0:
383,131,71016,1,4,0:0:0:0:
383,131,71182,1,8,0:0:0:0:
297,124,71266,1,8,0:0:0:0:
383,131,71349,1,0,0:0:0:0:
383,131,71516,1,8,0:0:0:0:
222,103,71849,1,8,0:0:0:0:
222,103,72016,1,0,0:0:0:0:
299,182,72182,1,12,0:0:0:0:
336,146,72516,1,0,0:0:0:0:
377,261,72682,1,8,0:0:0:0:
305,123,72766,1,0,0:0:0:0:
305,123,72849,1,8,0:0:0:0:
421,183,73016,1,0,0:0:0:0:
421,183,73182,1,0,0:0:0:0:
421,183,73266,1,0,0:0:0:0:
387,205,73349,1,8,0:0:0:0:
421,183,73516,1,0,0:0:0:0:
334,264,73682,1,8,0:0:0:0:
240,224,73766,1,8,0:0:0:0:
277,123,73849,1,0,0:0:0:0:
335,273,74016,1,8,0:0:0:0:
262,157,74182,1,8,0:0:0:0:
347,152,74349,1,0,0:0:0:0:
347,152,74432,1,0,0:0:0:0:
347,152,74516,1,0,0:0:0:0:
340,281,74682,1,8,0:0:0:0:
356,171,74849,1,8,0:0:0:0:
418,256,74932,1,8,0:0:0:0:
315,117,75016,1,0,0:0:0:0:
315,117,75182,1,0,0:0:0:0:
331,264,75266,1,0,0:0:0:0:
331,278,75349,1,8,0:0:0:0:
320,245,75516,1,8,0:0:0:0:
336,171,75682,1,8,0:0:0:0:
339,171,75766,1,8,0:0:0:0:
383,287,75849,1,0,0:0:0:0:
304,155,75932,1,0,0:0:0:0:
388,216,76016,1,0,0:0:0:0:
321,144,76182,1,8,0:0:0:0:
397,204,76349,1,4,0:0:0:0:
379,184,76571,1,4,0:0:0:0:
292,147,76849,1,4,0:0:0:0:
302,197,77016,1,4,0:0:0:0:
270,173,77182,1,0,0:0:0:0:
270,173,77266,1,0,0:0:0:0:
302,263,77349,1,8,0:0:0:0:
266,255,77516,1,8,0:0:0:0:
370,217,77682,1,0,0:0:0:0:
331,125,77766,1,0,0:0:0:0:
331,125,77849,1,0,0:0:0:0:
410,216,78016,1,8,0:0:0:0:
394,262,78182,1,8,0:0:0:0:
416,208,78266,1,8,0:0:0:0:
400,165,78349,1,0,0:0:0:0:
346,193,78516,1,0,0:0:0:0:
287,257,78682,1,8,0:0:0:0:
288,224,78849,1,0,0:0:0:0:
416,176,79016,1,0,0:0:0:0:
416,176,79099,1,0,0:0:0:0:
416,176,79182,1,0,0:0:0:0:
336,256,79349,1,8,0:0:0:0:
448,176,79516,1,0,0:0:0:0:
336,144,79599,1,0,0:0:0:0:
320,208,79682,1,8,0:0:0:0:
304,128,79766,1,8,0:0:0:0:
304,128,79849,1,0,0:0:0:0:
320,160,80016,1,8,0:0:0:0:
176,160,80349,1,0,0:0:0:0:
176,160,80516,1,0,0:0:0:0:
240,144,80599,1,0,0:0:0:0:
368,240,80682,1,8,0:0:0:0:
368,272,80849,1,8,0:0:0:0:
368,272,80932,1,8,0:0:0:0:
368,224,81016,1,0,0:0:0:0:
288,160,81182,1,0,0:0:0:0:
400,272,81349,1,8,0:0:0:0:
352,240,81516,1,8,0:0:0:0:
224,160,81682,1,4,0:0:0:0:
224,160,81849,1,4,0:0:0:0:
240,160,82016,1,12,0:0:0:0:
240,160,82182,1,4,0:0:0:0:
272,144,82516,1,0,0:0:0:0:
352,240,82682,1,8,0:0:0:0:
416,240,82849,1,8,0:0:0:0:
416,240,82932,1,8,0:0:0:0:
304,144,83016,1,4,0:0:0:0:
288,160,83349,1,12,0:0:0:0:
256,160,83682,1,4,0:0:0:0:
352,224,84016,1,8,0:0:0:0:
384,176,84182,1,4,0:0:0:0:
224,144,84516,1,4,0:0:0:0:
336,160,84682,1,12,0:0:0:0:
336,240,85016,1,8,0:0:0:0:
272,128,85349,1,0,0:0:0:0:
352,176,85682,1,0,0:0:0:0:
400,192,85849,1,0,0:0:0:0:
400,192,85932,1,0,0:0:0:0:
400,224,86016,1,8,0:0:0:0:
368,224,86182,1,8,0:0:0:0:
480,192,86349,1,0,0:0:0:0:
480,192,86516,1,0,0:0:0:0:
400,240,86682,1,12,0:0:0:0:
256,192,86849,12,0,88349,0:0:0:0:
