osu file format v14

[General]
AudioFilename: audio.ogg
AudioLeadIn: 0
PreviewTime: 76125
Countdown: 0
SampleSet: Soft
StackLeniency: 0.5
Mode: 0
LetterboxInBreaks: 0
WidescreenStoryboard: 1

[Editor]
Bookmarks: 14208,19791,30208,52875,76875,95541,103541,119541,142208,166208,184875,190208,216875,235541,243541,251541,259541
DistanceSpacing: 1.5
BeatDivisor: 4
GridSize: 32
TimelineZoom: 1.3

[Metadata]
Title:Star Trail
TitleUnicode:Star Trail
Artist:Shinomiya Ginka (CV: Hasegawa Ikumi)
ArtistUnicode:四ノ宮銀花(CV:長谷川育美)
Creator:pnky
Version:Amateurre's Expert
Source:GINKA
Tags:freezinganimenz amateurre lasse kanui clammbon japanese pop j-pop jpop visual novel vn galgame video game frontwing 松本文紀 matsumoto fuminori 紺野アスタ konno asta
BeatmapID:4389784
BeatmapSetID:2087813

[Difficulty]
HPDrainRate:5
CircleSize:4
OverallDifficulty:8.8
ApproachRate:9.2
SliderMultiplier:1.72
SliderTickRate:1

[Events]
//Background and Video events
0,0,"ginka1.jpg",0,0
//Break Periods
//Storyboard Layer 0 (Background)
//Storyboard Layer 1 (Fail)
//Storyboard Layer 2 (Pass)
//Storyboard Layer 3 (Foreground)
//Storyboard Layer 4 (Overlay)
//Storyboard Sound Samples

[TimingPoints]
-458,333.333333333333,4,2,1,30,1,0
6208,-100,4,2,1,40,0,0
8875,-100,4,2,1,45,0,0
11541,-100,4,2,1,50,0,0
12875,-100,4,2,1,65,0,0
14208,-100,4,2,1,70,0,0
22208,-125,4,2,1,60,0,0
28541,-125,4,2,2,60,0,0
28875,-125,4,2,3,50,0,0
30208,-125,4,2,1,40,0,0
40875,-125,4,2,1,45,0,0
50208,-125,4,2,1,50,0,0
51541,-125,4,2,1,60,0,0
52875,-111.111111111111,4,2,1,55,0,0
63541,-100,4,2,1,55,0,0
71541,-100,4,2,1,60,0,0
75541,-100,4,2,1,70,0,0
76875,-100,4,2,1,75,0,1
95541,-125,4,2,1,60,0,0
102208,-125,4,2,1,65,0,0
102708,-100,4,2,1,65,0,0
103541,-100,4,2,1,70,0,0
111541,-125,4,2,1,60,0,0
117875,-125,4,2,2,60,0,0
118208,-125,4,2,3,50,0,0
118708,-125,4,2,1,50,0,0
134875,-125,4,2,2,50,0,0
135208,-125,4,2,1,50,0,0
138708,-125,4,2,3,50,0,0
139041,-125,4,2,1,50,0,0
139541,-125,4,2,1,55,0,0
140875,-125,4,2,1,60,0,0
141375,-111.111111111111,4,2,1,60,0,0
142208,-111.111111111111,4,2,1,55,0,0
160875,-111.111111111111,4,2,1,60,0,0
164875,-111.111111111111,4,2,1,70,0,0
166208,-100,4,2,1,75,0,1
184875,-125,4,2,1,60,0,0
188708,-111.111111111111,4,2,1,60,0,0
188875,-111.111111111111,4,2,1,65,0,0
189875,-111.111111111111,4,2,4,65,0,0
190208,-100,4,2,1,65,0,0
215541,-100,4,2,1,70,0,0
216875,-100,4,2,1,75,0,1
235541,-125,4,2,1,60,0,0
242208,-111.111111111111,4,2,1,65,0,0
243541,-111.111111111111,4,2,1,70,0,0
251541,-125,4,2,1,60,0,0
257875,-125,4,2,2,60,0,0
258208,-125,4,2,3,50,0,0
259541,681.818181818182,4,2,1,30,1,0
260904,697.674418604651,4,2,1,30,1,0
261950,821.917808219178,4,2,1,30,1,0
262155,789.473684210526,4,2,1,30,1,0
262549,666.666666666667,4,2,1,30,1,0

[Colours]
Combo1 : 209,209,209
Combo2 : 41,167,167
Combo3 : 138,184,221

[HitObjects]
203,196,12708,5,0,1:1:0:0:
203,196,12791,1,0,1:1:0:0:
203,196,12875,1,12,2:2:0:0:
328,264,13041,1,0,1:1:0:0:
166,304,13208,1,0,1:1:0:0:
346,351,13375,5,12,2:2:0:0:
288,188,13541,2,0,P|291:145|303:104,1,86,0|0,1:1|1:1,0:0:0:0:
308,95,13791,1,0,1:2:0:0:
313,88,13875,1,14,2:2:0:0:
390,172,14041,1,2,2:2:0:0:
189,124,14208,6,0,P|112:158|21:162,1,172,6|8,1:2|2:2,0:0:0:0:
190,115,14708,1,0,1:1:0:0:
255,206,14875,2,0,P|268:246|270:289,1,86,0|0,0:0|1:1,0:0:0:0:
484,218,15208,5,10,2:2:0:0:
363,384,15375,1,2,2:2:0:0:
363,384,15458,1,2,0:2:0:0:
363,384,15541,2,0,P|368:311|380:256,1,129,2|0,1:2|0:0,0:0:0:0:
386,246,15875,1,10,2:2:0:0:
289,102,16041,2,0,P|337:128|386:138,1,86,2|0,1:2|0:0,0:0:0:0:
477,123,16375,1,0,1:2:0:0:
268,277,16541,2,0,P|338:240|417:262,1,129,10|0,2:2|0:0,0:0:0:0:
389,254,16875,6,0,P|306:248|233:184,1,172,2|8,1:2|2:2,0:0:0:0:
153,139,17375,1,2,1:2:0:0:
153,139,17458,1,2,0:0:0:0:
153,139,17541,2,0,P|142:182|137:223,1,86,0|0,0:0|1:1,0:0:0:0:
70,74,17875,5,10,2:2:0:0:
238,193,18041,1,2,1:2:0:0:
64,280,18208,2,0,P|53:237|48:195,1,86,2|0,2:2|1:2,0:0:0:0:
244,96,18541,1,8,2:2:0:0:
313,137,18708,2,0,P|324:180|328:221,1,86,2|0,1:2|0:0,0:0:0:0:
207,373,19041,5,0,1:1:0:0:
158,310,19208,2,0,P|162:267|173:225,1,86,10|0,2:2|1:1,0:0:0:0:
178,215,19458,1,0,1:2:0:0:
184,204,19541,5,6,1:2:0:0:
88,71,19708,1,0,1:1:0:0:
245,42,19875,1,8,2:2:0:0:
173,113,20041,2,0,P|87:107|2:94,1,172,2|0,2:2|1:1,0:0:0:0:
83,225,20541,2,0,P|96:279|97:321,1,86,10|0,2:2|0:0,0:0:0:0:
307,222,20875,6,0,P|372:217|429:188,1,129,4|0,1:1|0:0,0:0:0:0:
436,180,21208,1,10,2:2:0:0:
410,295,21375,1,0,1:1:0:0:
408,303,21458,1,0,1:2:0:0:
407,309,21541,1,8,2:2:0:0:
302,142,21708,1,0,1:1:0:0:
304,134,21791,1,0,1:2:0:0:
305,128,21874,1,8,2:2:0:0:
219,214,22041,1,4,2:3:0:0:
0,108,22208,6,0,P|79:33|110:48,1,137.6,6|2,1:2|2:2,0:0:0:0:
138,117,22708,2,0,P|131:146|126:184,1,68.8,2|8,1:2|2:2,0:0:0:0:
126,184,23208,5,2,2:2:0:0:
311,271,23375,2,0,P|232:196|201:211,1,137.6,2|2,1:2|0:0,0:0:0:0:
126,184,23875,2,0,P|133:213|137:251,1,68.8,0|2,0:0|1:2,0:0:0:0:
20,384,24208,6,0,P|30:333|32:281,1,103.2,8|0,2:2|0:0,0:0:0:0:
28,271,24541,1,2,2:2:0:0:
137,251,24708,1,2,2:2:0:0:
215,331,24875,6,0,P|264:348|364:325,1,137.6,6|2,1:2|2:2,0:0:0:0:
429,293,25375,2,0,P|436:234|443:207,1,68.8,2|8,1:2|2:2,0:0:0:0:
438,224,25875,5,2,2:2:0:0:
291,187,26041,2,0,P|330:214|356:219,1,68.8,2|0,1:2|0:0,0:0:0:0:
474,371,26375,2,0,P|387:332|317:343,1,137.6,2|2,1:2|1:2,0:0:0:0:
261,384,26875,2,0,P|257:349|250:316,1,68.8,8|0,2:2|0:0,0:0:0:0:
181,264,27208,1,2,1:2:0:0:
332,122,27541,6,0,P|382:131|474:93,1,137.6,6|0,1:2|0:0,0:0:0:0:
462,103,28041,1,2,1:2:0:0:
381,213,28208,2,0,P|362:267|361:286,1,68.8,8|0,2:2|0:0,0:0:0:0:
245,119,28541,2,0,P|226:65|225:46,1,68.8,12|2,2:2|0:0,0:0:0:0:
229,43,28791,1,2,0:0:0:0:
233,33,28875,1,4,1:2:0:0:
256,192,28958,12,2,30208,2:2:0:0:
256,192,30708,5,0,0:0:0:0:
483,23,31541,2,0,P|477:55|471:90,1,68.8,2|0,2:2|0:0,0:0:0:0:
397,182,31875,2,0,P|392:148|386:115,1,68.8
299,90,32208,1,0,0:0:0:0:
454,249,32875,6,0,P|388:229|319:227,1,137.6,2|0,2:2|0:0,0:0:0:0:
251,184,33375,2,0,P|209:203|175:208,1,68.8
186,207,34208,6,0,P|180:239|174:274,1,68.8,2|0,2:2|0:0,0:0:0:0:
104,366,34542,2,0,P|98:331|92:298,1,68.8
15,274,34875,1,0,0:0:0:0:
282,64,35541,6,0,L|360:81,2,68.8,2|0|0,2:2|0:0|0:0,0:0:0:0:
203,109,36041,1,0,0:0:0:0:
203,109,36875,6,0,P|191:60|193:29,2,68.8,2|0|0,2:2|0:0|0:0,0:0:0:0:
121,149,37375,2,0,P|175:152|261:183,1,137.6
253,178,37875,1,0,0:0:0:0:
482,303,38208,6,0,P|488:267|500:228,2,68.8,2|0|0,2:2|0:0|0:0,0:0:0:0:
403,384,38708,2,0,P|397:350|387:317,1,68.8
301,267,39041,2,0,P|241:290|151:284,1,137.6
168,288,39541,1,2,2:2:0:0:
27,361,39875,5,0,0:0:0:0:
27,361,40041,2,0,P|23:286|51:223,1,137.6
3,117,40541,2,0,P|48:131|108:84,1,103.2
102,99,40875,6,0,P|181:108|223:225,1,206.4,2|0,2:2|0:0,0:0:0:0:
225,215,42208,5,2,2:2:0:0:
288,266,42375,1,0,0:0:0:0:
358,221,42542,1,0,0:0:0:0:
336,142,42709,1,0,0:0:0:0:
253,137,42875,1,0,0:0:0:0:
125,8,43541,6,0,P|66:42|0:34,2,137.6,2|0|0,2:2|0:0|0:0,0:0:0:0:
125,8,44875,2,0,P|106:59|102:85,1,68.8,2|0,2:2|0:0,0:0:0:0:
221,138,45208,2,0,P|202:87|198:61,1,68.8
261,7,45541,1,0,0:0:0:0:
506,177,46208,6,0,P|456:197|426:196,1,68.8,2|0,2:2|0:0,0:0:0:0:
355,234,46541,1,0,0:0:0:0:
355,234,46708,1,0,0:0:0:0:
355,234,47541,6,0,P|363:167|377:86,1,137.6,2|0,2:2|0:0,0:0:0:0:
252,181,48041,2,0,P|262:248|271:317,1,137.6
156,169,48541,1,0,0:0:0:0:
0,298,48875,6,0,P|104:309|157:170,1,275.2,2|0,2:2|0:0,0:0:0:0:
156,169,49875,5,0,0:0:0:0:
216,110,50041,1,0,0:0:0:0:
297,144,50208,2,0,P|363:155|433:163,1,137.6,4|0,2:1|0:0,0:0:0:0:
334,230,50708,5,0,0:0:0:0:
443,169,50875,2,0,P|461:220|466:243,1,68.8,4|0,2:1|0:0,0:0:0:0:
291,135,51208,2,0,P|299:101|312:69,1,68.8
383,10,51541,5,2,2:2:0:0:
359,202,51708,1,0,0:0:0:0:
208,83,51875,1,2,2:2:0:0:
312,69,52041,1,2,2:2:0:0:
145,155,52208,5,4,2:1:0:0:
130,176,52291,1,0,0:0:0:0:
119,199,52374,1,0,0:0:0:0:
110,223,52458,1,0,0:0:0:0:
104,248,52541,1,2,2:2:0:0:
101,274,52624,1,0,0:0:0:0:
100,300,52708,1,0,0:0:0:0:
103,325,52791,1,0,0:0:0:0:
109,351,52875,6,0,B|149:336|149:336|181:344|181:344|212:323|255:320,1,154.799995275879,6|0,1:2|1:1,0:0:0:0:
436,354,53375,1,0,0:0:0:0:
357,302,53541,2,0,P|346:341|341:377,1,77.3999976379395,0|0,1:1|0:0,0:0:0:0:
512,282,53875,2,0,P|507:243|496:206,1,77.3999976379395,0|0,1:1|0:0,0:0:0:0:
398,144,54208,5,0,1:1:0:0:
491,92,54375,1,0,0:0:0:0:
426,257,54541,1,0,1:1:0:0:
274,198,54708,2,0,P|197:206|124:231,1,154.799995275879
157,56,55208,1,0,1:1:0:0:
19,93,55375,5,0,0:0:0:0:
15,101,55458,1,0,0:0:0:0:
12,109,55541,2,0,P|58:135|85:142,1,77.3999976379395,0|0,1:1|0:0,0:0:0:0:
218,242,55875,1,0,1:1:0:0:
250,116,56041,2,0,P|204:142|184:162,1,77.3999976379395,0|0,0:0|1:1,0:0:0:0:
42,218,56375,1,0,0:0:0:0:
133,311,56541,2,0,P|133:258|126:230,1,77.3999976379395,0|0,1:1|0:0,0:0:0:0:
2,24,56875,5,0,1:1:0:0:
118,119,57041,1,0,0:0:0:0:
29,101,57208,1,0,1:1:0:0:
197,74,57375,2,0,P|273:89|326:155,1,154.799995275879
317,153,57791,1,0,0:0:0:0:
312,161,57875,1,0,1:1:0:0:
503,15,58041,6,0,L|447:8,1,38.6999988189698
394,56,58208,2,0,B|419:168|419:168|408:188|402:211,1,154.799995275879,4|0,1:2|1:1,0:0:0:0:
468,305,58708,2,0,P|476:264|487:229,1,77.3999976379395,0|0,0:0|1:1,0:0:0:0:
512,146,59041,5,0,0:0:0:0:
473,313,59208,1,0,1:1:0:0:
338,271,59375,1,0,0:0:0:0:
338,271,59458,1,0,0:0:0:0:
338,271,59541,2,0,P|278:292|246:320,1,77.3999976379395,0|0,1:1|0:0,0:0:0:0:
115,191,59875,5,0,1:1:0:0:
163,384,60041,2,0,P|173:318|190:229,1,154.799995275879
224,79,60541,1,0,1:1:0:0:
337,181,60708,1,0,0:0:0:0:
189,231,60875,6,0,B|102:219|118:247|34:230,1,154.799995275879,0|0,1:1|1:1,0:0:0:0:
170,137,61375,1,0,0:0:0:0:
225,325,61541,2,0,P|186:316|148:310,1,77.3999976379395,0|0,1:1|0:0,0:0:0:0:
337,181,61875,2,0,P|298:175|260:166,1,77.3999976379395,0|0,1:1|0:0,0:0:0:0:
300,383,62208,6,0,P|317:328|307:271,1,116.099996456909,0|0,1:1|0:0,0:0:0:0:
301,260,62541,1,0,1:1:0:0:
406,127,62708,2,0,P|424:165|424:201,1,77.3999976379395,0|0,0:0|1:1,0:0:0:0:
512,264,63041,5,8,2:3:0:0:
512,264,63125,1,4,0:3:0:0:
512,264,63208,1,8,2:2:0:0:
308,144,63375,1,0,0:0:0:0:
512,0,63541,6,0,P|439:42|355:29,1,172,4|0,1:2|1:1,0:0:0:0:
201,172,64041,2,0,P|213:131|220:88,1,86,0|0,0:0|1:1,0:0:0:0:
371,293,64375,1,0,0:0:0:0:
448,239,64541,2,0,P|436:197|428:155,1,86,0|0,1:1|0:0,0:0:0:0:
279,337,64875,6,0,P|359:323|429:384,1,172,0|0,1:1|1:1,0:0:0:0:
345,164,65375,2,0,P|311:215|307:252,1,86,4|0,2:3|1:1,0:0:0:0:
111,316,65708,1,0,1:1:0:0:
204,384,65875,2,0,P|199:313|191:253,1,129,8|0,2:2|0:0,0:0:0:0:
91,200,66208,6,0,P|173:213|243:166,1,172,0|0,1:1|1:1,0:0:0:0:
446,100,66708,2,0,P|363:113|293:66,1,172
292,57,67125,1,0,0:0:0:0:
291,45,67208,1,0,1:2:0:0:
353,202,67375,1,0,0:0:0:0:
173,225,67541,5,0,1:1:0:0:
243,166,67708,2,0,P|258:208|260:250,1,86,8|0,2:3|1:1,0:0:0:0:
0,384,68041,2,0,P|3:319|21:258,1,129,4|0,2:3|0:0,0:0:0:0:
29,248,68375,1,0,1:1:0:0:
207,318,68541,2,0,P|255:332|298:341,1,86,8|0,2:2|0:0,0:0:0:0:
127,384,68875,6,0,P|114:342|105:300,1,86,4|0,1:1|0:0,0:0:0:0:
245,152,69208,1,0,1:1:0:0:
135,84,69375,2,0,B|159:136|159:136|151:168|151:168|171:201|179:243,1,172
263,325,69875,2,0,P|275:283|284:241,1,86,0|0,1:1|0:0,0:0:0:0:
469,230,70208,6,0,P|515:301|499:393,1,172,0|0,1:1|1:1,0:0:0:0:
378,194,70708,2,0,L|398:104,1,86,8|0,2:3|1:1,0:0:0:0:
292,237,71041,1,4,2:3:0:0:
477,220,71208,1,8,2:2:0:0:
376,29,71375,5,0,0:0:0:0:
368,22,71458,1,0,0:0:0:0:
358,17,71541,2,0,P|309:71|307:152,1,129,4|0,1:2|0:0,0:0:0:0:
297,137,71875,2,0,P|237:159|205:152,1,86,8|0,2:2|0:0,0:0:0:0:
211,152,72125,1,0,0:0:0:0:
206,145,72208,5,0,1:1:0:0:
65,248,72375,1,0,1:1:0:0:
182,344,72541,1,8,2:2:0:0:
155,230,72708,1,0,0:0:0:0:
19,327,72875,5,0,1:1:0:0:
242,260,73041,1,0,0:0:0:0:
175,345,73208,1,8,2:2:0:0:
391,376,73375,1,0,0:0:0:0:
363,178,73541,5,0,1:1:0:0:
298,384,73708,1,0,1:1:0:0:
298,384,73791,1,0,1:2:0:0:
298,384,73875,2,0,P|309:330|322:286,1,86,8|0,2:2|1:1,0:0:0:0:
508,139,74208,6,0,P|442:193|353:179,1,172,4|10,1:2|2:2,0:0:0:0:
220,108,74708,1,0,0:0:0:0:
218,98,74791,1,0,0:0:0:0:
216,88,74875,1,0,1:1:0:0:
164,218,75041,1,0,1:1:0:0:
298,295,75208,1,8,2:1:0:0:
133,116,75375,1,0,0:0:0:0:
78,299,75541,5,4,1:2:0:0:
300,83,75708,2,0,P|312:41|313:0,1,86,8|8,1:3|1:3,0:0:0:0:
376,171,76041,1,8,2:2:0:0:
222,27,76208,1,6,1:3:0:0:
389,82,76375,1,4,1:3:0:0:
405,87,76458,1,0,1:1:0:0:
422,92,76542,2,0,P|498:64|520:48,1,86,10|2,2:2|2:2,0:0:0:0:
271,212,76875,6,0,P|201:164|116:167,1,172,4|8,1:1|2:2,0:0:0:0:
288,91,77375,1,0,0:0:0:0:
175,262,77541,2,0,P|155:337|157:363,1,86,0|0,1:1|1:1,0:0:0:0:
271,212,77875,5,10,2:2:0:0:
64,259,78041,1,2,2:2:0:0:
64,259,78125,1,2,2:2:0:0:
64,259,78208,2,0,P|28:219|39:96,1,172,2|8,1:2|2:2,0:0:0:0:
270,290,78708,2,0,P|265:336|244:376,1,86,2|0,1:2|0:0,0:0:0:0:
438,219,79041,5,2,1:2:0:0:
462,211,79125,1,2,0:0:0:0:
486,205,79208,1,10,2:2:0:0:
270,104,79375,1,0,0:0:0:0:
408,0,79541,2,0,P|368:56|376:158,1,172,2|8,1:2|2:2,0:0:0:0:
496,290,80041,1,2,1:2:0:0:
348,350,80208,2,0,P|338:287|327:250,1,86,2|0,2:2|1:1,0:0:0:0:
478,126,80541,2,0,P|467:167|462:210,1,86,10|2,2:2|1:2,0:0:0:0:
423,374,80875,6,0,P|341:326|248:356,1,172,2|8,2:2|2:2,0:0:0:0:
62,297,81375,2,0,P|104:295|141:274,1,86,2|0,1:2|0:0,0:0:0:0:
227,209,81708,1,0,1:2:0:0:
188,384,81875,1,10,2:2:0:0:
230,197,82041,1,0,1:2:0:0:
0,82,82208,6,0,P|73:155|151:138,1,172,6|8,1:2|2:2,0:0:0:0:
282,114,82708,1,0,0:0:0:0:
225,292,82875,2,0,P|176:278|139:273,1,86,2|0,1:2|1:1,0:0:0:0:
365,132,83208,2,0,P|322:125|281:113,1,86,10|0,2:2|0:0,0:0:0:0:
471,222,83541,6,0,P|506:138|496:91,1,129,2|0,1:2|0:0,0:0:0:0:
494,91,83875,1,10,2:2:0:0:
370,260,84041,2,0,P|453:275|512:335,1,172,0|2,1:1|1:2,0:0:0:0:
275,294,84541,2,0,P|284:253|292:200,1,86,10|0,2:2|0:0,0:0:0:0:
195,74,84875,5,6,1:2:0:0:
25,184,85041,1,0,1:1:0:0:
6,108,85208,1,8,2:2:0:0:
215,151,85375,1,2,2:2:0:0:
90,26,85541,5,0,1:1:0:0:
141,221,85708,1,0,1:1:0:0:
141,221,85791,1,0,1:2:0:0:
141,221,85875,2,0,P|132:263|127:305,1,86,10|0,2:2|0:0,0:0:0:0:
259,218,86208,5,6,1:2:0:0:
8,318,86375,1,0,1:2:0:0:
190,384,86541,1,10,2:2:0:0:
74,142,86708,1,0,1:2:0:0:
20,232,86875,5,10,2:2:0:0:
189,142,87041,1,0,1:2:0:0:
210,122,87125,1,0,1:2:0:0:
217,94,87208,2,0,P|203:54|193:11,1,86,8|4,2:2|1:3,0:0:0:0:
84,157,87541,6,0,B|185:165|138:205|248:210,1,172,6|8,1:2|2:2,0:0:0:0:
102,256,88041,1,0,0:0:0:0:
190,384,88208,2,0,P|198:330|210:286,1,86,0|0,1:1|1:1,0:0:0:0:
311,157,88541,5,10,2:2:0:0:
448,288,88708,1,2,0:0:0:0:
448,288,88791,1,2,0:0:0:0:
448,288,88875,2,0,P|486:216|461:120,1,172,2|8,1:2|2:2,0:0:0:0:
331,281,89375,2,0,L|343:376,1,86,2|0,1:2|0:0,0:0:0:0:
240,227,89708,1,0,1:1:0:0:
447,287,89875,1,10,2:2:0:0:
240,359,90041,1,0,0:0:0:0:
362,195,90208,6,0,P|348:279|341:366,1,172,2|8,1:2|2:2,0:0:0:0:
138,172,90708,1,2,1:2:0:0:
98,341,90875,2,0,P|93:298|86:255,1,86,2|0,2:2|1:1,0:0:0:0:
47,144,91208,1,10,2:2:0:0:
208,243,91375,1,2,1:2:0:0:
208,243,91458,1,2,0:0:0:0:
208,243,91541,6,0,P|283:246|346:206,1,129,2|0,2:2|0:0,0:0:0:0:
335,212,91875,1,8,2:2:0:0:
253,84,92041,2,0,P|242:32|252:-17,1,86,2|0,1:2|0:0,0:0:0:0:
354,116,92375,1,0,1:2:0:0:
167,147,92541,2,0,P|122:118|94:76,1,86,10|0,2:2|0:0,0:0:0:0:
100,83,92791,1,0,0:0:0:0:
101,75,92875,5,6,1:2:0:0:
22,217,93041,1,0,1:1:0:0:
177,142,93208,1,10,2:2:0:0:
15,28,93375,2,0,P|10:70|4:113,1,86,0|2,0:0|1:2,0:0:0:0:
152,242,93708,1,0,1:1:0:0:
59,301,93875,2,0,P|67:245|81:168,1,129,10|0,2:2|0:0,0:0:0:0:
90,167,94208,6,0,P|128:161|174:150,1,86,6|0,1:2|1:2,0:0:0:0:
329,105,94541,1,10,2:2:0:0:
229,45,94708,1,0,1:2:0:0:
276,205,94875,1,10,2:2:0:0:
500,149,95041,1,0,3:2:0:0:
500,149,95125,1,4,2:3:0:0:
500,149,95208,1,8,2:2:0:0:
436,358,95375,1,4,2:3:0:0:
389,282,95541,6,0,P|398:218|406:145,1,137.6,4|2,1:1|2:2,0:0:0:0:
335,99,96041,1,2,1:2:0:0:
277,163,96208,2,0,B|194:150|222:181|140:169,1,137.6,8|2,2:2|2:2,0:0:0:0:
0,263,96708,6,0,P|87:266|129:302,2,137.6,2|2|2,1:2|1:2|1:2,0:0:0:0:
112,379,97541,2,0,P|151:375|187:351,1,68.8,8|0,2:2|1:1,0:0:0:0:
250,307,97875,1,2,1:2:0:0:
250,307,98041,1,2,2:2:0:0:
326,384,98208,6,0,P|333:309|343:247,1,137.6,6|2,1:2|2:2,0:0:0:0:
182,249,98708,2,0,P|193:181|199:112,1,137.6,2|0,1:2|0:0,0:0:0:0:
199,112,99208,1,2,2:2:0:0:
278,193,99375,6,0,B|318:213|318:213|356:197|409:199,1,137.6,2|2,1:2|1:2,0:0:0:0:
409,199,99875,1,0,0:0:0:0:
259,277,100041,2,0,P|237:324|238:352,1,68.8,2|8,1:2|2:2,0:0:0:0:
343,255,100375,1,0,0:0:0:0:
278,193,100541,2,0,P|226:197|202:212,1,68.8,2|0,1:2|1:1,0:0:0:0:
141,246,100875,6,0,P|73:239|23:194,1,137.6,6|0,1:2|0:0,0:0:0:0:
23,194,101375,1,0,1:1:0:0:
186,318,101541,2,0,P|198:359|204:392,1,68.8,8|0,2:2|0:0,0:0:0:0:
288,186,101875,2,0,P|300:145|306:112,1,68.8,10|0,1:3|0:0,0:0:0:0:
356,248,102208,5,14,2:2:0:0:
205,139,102375,1,0,1:1:0:0:
367,49,102541,1,2,1:2:0:0:
280,193,102708,2,0,P|196:173|110:163,1,172,14|0,2:2|1:1,0:0:0:0:
323,354,103208,5,14,2:2:0:0:
354,361,103291,1,2,0:0:0:0:
386,358,103374,1,2,0:0:0:0:
416,346,103457,1,2,0:0:0:0:
441,326,103541,2,0,P|453:241|478:158,1,172,4|8,1:1|2:2,0:0:0:0:
372,25,104041,1,0,1:1:0:0:
372,25,104125,1,0,2:2:0:0:
372,25,104208,2,0,P|349:69|350:127,1,86,0|0,0:0|1:1,0:0:0:0:
295,185,104541,1,10,2:2:0:0:
421,257,104708,5,2,2:2:0:0:
421,257,104791,1,2,0:0:0:0:
421,257,104875,2,0,B|322:231|358:294|250:267,1,172,2|10,1:2|2:2,0:0:0:0:
87,242,105375,2,0,P|80:280|70:326,1,86,2|0,1:2|0:0,0:0:0:0:
204,189,105708,1,0,1:1:0:0:
184,382,105875,2,0,P|176:339|167:297,1,86,10|0,2:2|0:0,0:0:0:0:
47,176,106208,6,0,P|88:211|210:182,1,172,2|8,1:2|2:2,0:0:0:0:
318,229,106708,1,2,1:2:0:0:
318,229,106791,1,2,0:0:0:0:
318,229,106875,2,0,L|309:133,1,86,2|0,0:0|1:1,0:0:0:0:
197,194,107208,5,10,2:2:0:0:
240,74,107375,1,2,1:2:0:0:
400,182,107541,2,0,P|475:184|507:119,1,129,2|0,2:2|0:0,0:0:0:0:
507,136,107875,1,8,2:2:0:0:
397,322,108041,2,0,P|321:260|226:275,1,172,2|0,1:2|1:1,0:0:0:0:
95,165,108541,1,10,2:2:0:0:
211,87,108708,5,0,1:1:0:0:
211,87,108791,1,0,1:2:0:0:
211,87,108875,2,0,P|197:130|191:170,1,86,6|0,1:2|1:1,0:0:0:0:
262,272,109208,1,8,2:2:0:0:
84,335,109375,1,2,2:2:0:0:
182,357,109541,2,0,P|175:314|162:273,1,86,0|0,1:1|1:1,0:0:0:0:
9,175,109875,2,0,P|49:188|92:194,1,86,10|0,2:2|0:0,0:0:0:0:
253,316,110208,6,0,P|307:291|387:297,1,129,6|0,1:2|0:0,0:0:0:0:
389,299,110541,1,10,2:2:0:0:
433,137,110708,1,2,1:2:0:0:
486,249,110875,5,12,2:1:0:0:
338,143,111041,1,0,1:1:0:0:
338,143,111125,1,8,2:2:0:0:
338,143,111208,2,0,P|343:96|372:60,1,86,10|6,2:2|2:3,0:0:0:0:
268,220,111541,6,0,P|204:245|135:251,1,137.6,6|2,1:2|2:2,0:0:0:0:
136,251,112041,1,2,1:2:0:0:
279,213,112208,2,0,P|312:221|343:236,2,68.8,8|0|2,2:2|0:0|2:2,0:0:0:0:
157,164,112708,1,2,1:2:0:0:
157,164,113208,2,0,P|161:130|172:98,1,68.8,0|2,0:0|1:2,0:0:0:0:
247,28,113541,2,0,P|258:60|261:94,1,68.8,8|0,2:2|0:0,0:0:0:0:
375,199,113875,1,2,2:2:0:0:
375,199,114041,1,2,2:2:0:0:
341,124,114208,6,0,P|331:192|323:275,1,137.6,6|2,1:2|2:2,0:0:0:0:
324,260,114708,1,2,1:2:0:0:
419,240,114875,2,0,P|474:249|498:258,2,68.8,8|0|2,2:2|0:0|2:2,0:0:0:0:
251,316,115375,2,0,P|217:325|183:329,1,68.8,2|0,1:2|0:0,0:0:0:0:
183,329,115875,5,0,0:0:0:0:
19,291,116041,2,0,L|4:191,2,68.8,2|8|0,1:2|2:2|0:0,0:0:0:0:
92,384,116541,2,0,L|107:284,1,68.8,2|2,1:2|2:2,0:0:0:0:
125,231,116875,6,0,L|263:207,1,137.6,6|0,1:2|0:0,0:0:0:0:
371,249,117375,1,0,1:1:0:0:
466,212,117541,2,0,P|475:155|484:124,1,68.8,8|0,2:2|0:0,0:0:0:0:
361,258,117875,2,0,P|370:315|379:346,1,68.8,12|2,2:2|0:0,0:0:0:0:
381,338,118125,1,2,0:0:0:0:
387,344,118209,5,4,1:2:0:0:
251,257,118708,5,8,2:3:0:0:
105,342,119208,5,4,2:3:0:0:
9,298,119541,6,0,P|8:224|39:165,1,137.6,4|0,1:2|0:0,0:0:0:0:
36,168,120041,1,8,2:3:0:0:
89,84,120208,2,0,P|76:43|55:12,1,68.8
62,21,120541,1,4,2:3:0:0:
136,162,120875,6,0,P|198:188|266:182,1,137.6,4|8,2:3|2:3,0:0:0:0:
350,220,121375,1,4,2:1:0:0:
292,286,121541,2,0,P|278:344|276:366,1,68.8,2|0,2:2|0:0,0:0:0:0:
439,237,121875,2,0,P|433:203|423:170,1,68.8
478,67,122208,6,0,B|394:62|435:94|342:86,1,137.6,2|0,1:2|0:0,0:0:0:0:
344,86,122708,1,8,2:3:0:0:
286,186,122875,2,0,P|216:159|155:168,1,137.6,0|4,0:0|2:3,0:0:0:0:
155,167,123541,2,0,P|166:128|169:94,1,68.8,4|0,1:3|0:0,0:0:0:0:
68,34,123875,2,0,P|72:68|81:101,1,68.8,0|4,0:0|1:3,0:0:0:0:
104,231,124208,2,0,B|161:195|247:203,1,137.6,0|4,0:0|2:3,0:0:0:0:
236,202,124875,6,0,P|223:245|215:278,2,68.8,6|0|0,1:2|0:0|0:0,0:0:0:0:
315,132,125375,1,8,2:3:0:0:
251,64,125541,2,0,P|182:89|106:97,1,137.6,0|4,0:0|2:3,0:0:0:0:
118,97,126041,1,0,0:0:0:0:
0,13,126208,6,0,P|32:65|18:143,1,137.6,0|0,1:1|0:0,0:0:0:0:
118,239,126708,2,0,P|105:172|139:114,1,137.6,8|0,2:3|0:0,0:0:0:0:
209,49,127208,2,0,P|255:63|291:66,1,68.8,4|0,2:3|0:0,0:0:0:0:
382,130,127541,6,0,P|389:164|393:204,2,68.8,2|0|0,1:2|0:0|0:0,0:0:0:0:
438,56,128041,2,0,P|471:45|505:40,1,68.8,8|0,2:3|0:0,0:0:0:0:
382,130,128375,2,0,P|309:127|272:72,1,137.6
207,21,128875,6,0,B|100:27|159:58|63:58,1,137.6,4|0,2:3|0:0,0:0:0:0:
0,159,129375,2,0,P|80:152|140:204,1,137.6,6|0,2:3|0:0,0:0:0:0:
225,167,129875,2,0,P|209:222|203:253,1,68.8,8|0,2:3|0:0,0:0:0:0:
338,383,130208,6,0,P|358:313|373:245,1,137.6,4|0,1:2|1:1,0:0:0:0:
372,249,130708,1,8,2:3:0:0:
446,192,130875,2,0,P|480:195|512:207,1,68.8
358,152,131208,1,4,2:3:0:0:
512,23,131541,6,0,P|452:65|379:51,1,137.6,0|8,1:1|2:3,0:0:0:0:
321,7,132041,1,0,0:0:0:0:
261,151,132208,2,0,P|251:210|248:229,1,68.8,8|0,2:2|0:0,0:0:0:0:
156,125,132541,2,0,P|87:122|54:143,1,103.2,4|0,2:3|0:0,0:0:0:0:
47,136,132875,6,0,P|19:74|41:10,1,137.6,6|0,1:2|1:1,0:0:0:0:
41,10,133375,1,8,2:3:0:0:
153,134,133541,2,0,P|138:178|118:292,1,137.6,0|4,0:0|2:3,0:0:0:0:
120,267,134208,6,0,P|160:276|184:289,1,68.8,0|0,1:1|0:0,0:0:0:0:
270,244,134541,2,0,P|285:280|290:309,1,68.8,8|8,2:3|2:3,0:0:0:0:
389,384,134875,2,0,P|394:310|404:230,1,137.6,2|4,2:3|2:3,0:0:0:0:
196,152,135541,6,0,P|191:226|181:306,1,137.6,4|0,1:2|1:1,0:0:0:0:
183,288,136041,1,8,2:3:0:0:
228,377,136208,2,0,P|181:337|89:356,1,137.6,0|4,0:0|2:3,0:0:0:0:
0,130,136875,6,0,P|47:170|139:151,1,137.6,2|8,1:2|2:3,0:0:0:0:
210,114,137375,2,0,P|214:74|221:38,2,68.8,8|8|0,2:3|2:2|0:0,0:0:0:0:
253,208,137875,1,4,2:3:0:0:
31,355,138208,6,0,P|65:318|158:314,1,137.6,0|8,1:1|2:3,0:0:0:0:
148,309,138708,1,2,1:3:0:0:
245,368,138875,2,0,L|235:292,1,68.8,0|4,0:0|2:3,0:0:0:0:
76,274,139208,2,0,L|86:198,1,68.8,8|0,2:3|0:0,0:0:0:0:
0,68,139541,6,0,B|88:67|39:96|143:94,1,137.6,4|4,1:2|2:3,0:0:0:0:
216,141,140041,1,8,2:3:0:0:
314,29,140208,2,0,P|303:82|301:99,1,68.8,0|4,0:0|2:3,0:0:0:0:
364,177,140541,1,8,2:3:0:0:
450,136,140708,1,0,0:0:0:0:
497,217,140875,5,12,2:2:0:0:
353,169,141041,1,0,1:1:0:0:
462,55,141208,1,0,1:1:0:0:
407,256,141375,6,0,P|331:210|241:221,1,154.799995275879,8|0,2:3|1:1,0:0:0:0:
157,264,141875,1,8,2:2:0:0:
190,99,142041,1,0,0:0:0:0:
153,280,142208,6,0,P|142:351|139:371,1,77.3999976379395,4|0,1:1|0:0,0:0:0:0:
274,221,142541,2,0,P|285:292|288:312,1,77.3999976379395,0|0,1:1|0:0,0:0:0:0:
74,185,142875,2,0,P|63:256|60:276,1,77.3999976379395,0|0,1:1|0:0,0:0:0:0:
251,142,143208,2,0,P|262:213|265:233,1,77.3999976379395,0|0,1:1|0:0,0:0:0:0:
65,83,143541,6,0,P|55:148|38:256,1,154.799995275879,0|0,1:1|1:1,0:0:0:0:
159,384,144041,2,0,P|168:341|177:304,1,77.3999976379395,0|0,0:0|1:1,0:0:0:0:
238,212,144375,1,0,0:0:0:0:
263,355,144541,1,0,1:1:0:0:
78,315,144708,5,0,0:0:0:0:
78,315,144791,1,0,0:0:0:0:
78,315,144875,2,0,P|73:249|110:191,1,116.099996456909,0|0,1:1|0:0,0:0:0:0:
102,198,145208,1,0,1:1:0:0:
179,102,145375,2,0,P|171:64|158:27,1,77.3999976379395,0|0,0:0|1:1,0:0:0:0:
84,102,145708,1,0,0:0:0:0:
189,188,145875,2,0,P|225:200|263:208,1,77.3999976379395,0|0,1:1|0:0,0:0:0:0:
457,191,146208,5,0,1:1:0:0:
310,119,146375,1,0,0:0:0:0:
435,68,146541,1,0,1:1:0:0:
344,231,146708,2,0,P|330:310|321:397,1,154.799995275879
231,219,147208,1,0,1:1:0:0:
91,368,147375,5,0,0:0:0:0:
91,368,147458,1,0,0:0:0:0:
91,369,147541,2,0,P|167:361|222:300,1,154.799995275879,4|0,1:2|1:1,0:0:0:0:
140,169,148041,2,0,P|137:198|126:279,1,77.3999976379395,0|0,0:0|1:1,0:0:0:0:
282,371,148375,1,0,0:0:0:0:
347,319,148541,2,0,P|350:290|361:209,1,77.3999976379395,0|0,1:1|0:0,0:0:0:0:
376,154,148875,5,0,1:1:0:0:
430,305,149041,1,0,0:0:0:0:
275,234,149208,1,0,1:1:0:0:
458,202,149375,2,0,P|477:107|448:43,1,154.799995275879
368,13,149875,1,0,1:1:0:0:
269,135,150041,5,0,0:0:0:0:
269,135,150125,1,0,0:0:0:0:
269,135,150208,2,0,B|173:140|193:167|98:166,1,154.799995275879,0|0,1:1|1:1,0:0:0:0:
267,248,150708,1,0,0:0:0:0:
157,324,150875,2,0,L|174:238,1,77.3999976379395,0|0,1:1|0:0,0:0:0:0:
22,106,151208,1,0,1:1:0:0:
90,31,151375,5,0,0:0:0:0:
90,31,151458,1,0,0:0:0:0:
90,31,151541,2,0,P|122:84|122:147,1,116.099996456909,4|0,1:1|0:0,0:0:0:0:
118,153,151875,1,0,1:1:0:0:
285,55,152041,2,0,L|191:34,1,77.3999976379395,0|0,0:0|1:1,0:0:0:0:
12,206,152375,1,8,2:3:0:0:
113,291,152541,2,0,L|207:274,1,77.3999976379395,8|0,2:2|0:0,0:0:0:0:
197,283,152791,1,0,0:0:0:0:
204,291,152875,6,0,P|219:208|242:124,1,154.799995275879,4|0,1:2|1:1,0:0:0:0:
174,55,153375,1,0,0:0:0:0:
312,175,153541,2,0,P|315:113|302:77,1,77.3999976379395,0|0,1:1|0:0,0:0:0:0:
136,128,153875,2,0,P|133:190|146:226,1,77.3999976379395,0|0,1:1|0:0,0:0:0:0:
210,301,154208,6,0,P|280:298|352:361,1,154.799995275879,0|0,1:1|1:1,0:0:0:0:
498,259,154708,2,0,L|422:242,1,77.3999976379395,4|0,2:3|1:1,0:0:0:0:
442,333,155041,1,0,1:1:0:0:
475,167,155208,6,0,P|484:103|494:63,1,77.3999976379395,8|0,2:2|0:0,0:0:0:0:
483,80,155458,1,0,0:0:0:0:
477,70,155541,2,0,P|377:63|330:109,1,154.799995275879,0|0,1:1|1:1,0:0:0:0:
363,264,156041,2,0,P|436:279|501:239,1,154.799995275879
420,187,156541,1,0,1:2:0:0:
420,187,156708,1,0,0:0:0:0:
286,350,156875,6,0,P|283:311|273:250,1,77.3999976379395,0|8,1:1|2:3,0:0:0:0:
210,208,157208,1,0,1:1:0:0:
152,288,157374,2,0,B|65:269|82:310|-9:288,1,154.799995275879,4|0,2:3|1:1,0:0:0:0:
124,81,157875,1,8,2:2:0:0:
0,169,158041,5,0,0:0:0:0:
0,169,158125,1,0,0:0:0:0:
0,169,158208,2,0,B|35:191|35:191|70:183|116:179,1,116.099996456909,4|0,1:2|0:0,0:0:0:0:
119,185,158541,1,0,1:1:0:0:
241,129,158708,2,0,P|252:74|245:40,1,77.3999976379395,0|0,0:0|1:1,0:0:0:0:
41,246,159041,5,0,0:0:0:0:
199,253,159208,1,0,1:1:0:0:
119,283,159375,1,0,0:0:0:0:
230,168,159541,2,0,P|276:208|268:315,1,154.799995275879,0|0,1:1|1:1,0:0:0:0:
125,193,160041,2,0,L|146:75,1,116.099996456909,8|0,2:3|0:0,0:0:0:0:
147,70,160375,1,4,2:3:0:0:
308,202,160541,2,0,L|324:103,1,77.3999976379395,8|0,2:2|0:0,0:0:0:0:
324,116,160791,1,0,0:0:0:0:
326,108,160875,6,0,P|386:116|492:76,1,154.799995275879,4|8,1:2|2:2,0:0:0:0:
383,19,161375,1,0,0:0:0:0:
383,19,161458,1,0,0:0:0:0:
383,19,161541,1,0,1:1:0:0:
416,201,161708,1,0,1:1:0:0:
231,129,161875,2,0,L|248:42,1,77.3999976379395,8|0,2:2|0:0,0:0:0:0:
143,220,162208,5,0,1:1:0:0:
319,175,162375,1,0,0:0:0:0:
234,40,162541,1,8,2:2:0:0:
246,252,162708,1,0,0:0:0:0:
246,252,162791,1,0,0:0:0:0:
246,252,162875,2,0,P|290:271|335:301,1,77.3999976379395,0|0,1:1|1:1,0:0:0:0:
81,313,163208,1,8,2:2:0:0:
187,384,163375,1,0,1:1:0:0:
149,203,163541,6,0,L|132:112,1,77.3999976379395,4|0,1:2|1:1,0:0:0:0:
272,0,163875,2,0,L|289:91,1,77.3999976379395,8|0,2:2|0:0,0:0:0:0:
313,237,164208,5,0,1:1:0:0:
380,110,164375,1,0,1:1:0:0:
230,202,164541,1,8,2:2:0:0:
393,361,164708,1,0,0:0:0:0:
426,198,164875,5,4,1:2:0:0:
211,303,165041,2,0,P|157:323|124:327,1,77.3999976379395,8|8,1:3|1:3,0:0:0:0:
221,189,165375,5,8,2:2:0:0:
310,374,165541,1,6,1:3:0:0:
501,239,165708,1,4,1:3:0:0:
501,239,165791,1,0,1:1:0:0:
501,239,165875,2,0,P|513:169|509:137,1,77.3999976379395,14|2,2:2|2:2,0:0:0:0:
333,91,166208,6,0,P|313:176|303:293,1,172,4|8,1:1|2:2,0:0:0:0:
143,353,166708,1,2,0:0:0:0:
143,353,166791,1,2,0:0:0:0:
143,353,166875,2,0,P|185:351|227:340,1,86,0|0,1:2|1:1,0:0:0:0:
399,275,167208,5,10,2:2:0:0:
330,376,167375,1,0,0:0:0:0:
211,253,167541,2,0,P|212:210|223:168,1,86,2|0,1:2|0:0,0:0:0:0:
318,71,167875,5,8,2:2:0:0:
62,0,168041,2,0,P|119:54|121:158,1,172,2|0,1:2|1:2,0:0:0:0:
123,152,168458,1,0,1:1:0:0:
119,159,168541,1,10,2:2:0:0:
231,22,168708,1,0,0:0:0:0:
177,262,168875,6,0,P|103:241|8:226,1,172,2|8,1:2|2:2,0:0:0:0:
255,112,169375,1,2,1:2:0:0:
255,112,169541,2,0,P|211:103|171:91,1,86,2|0,2:2|1:1,0:0:0:0:
271,267,169875,2,0,P|282:308|291:350,1,86,10|2,2:2|1:2,0:0:0:0:
478,263,170208,6,0,P|498:201|486:137,1,129,2|0,2:2|0:0,0:0:0:0:
480,127,170541,1,8,2:2:0:0:
364,0,170708,2,0,L|347:91,1,86,2|0,1:2|0:0,0:0:0:0:
201,197,171041,1,0,1:2:0:0:
201,197,171125,1,0,1:2:0:0:
201,197,171208,2,0,P|144:208|100:220,1,86,10|0,2:2|1:2,0:0:0:0:
304,367,171541,6,0,P|379:335|479:353,1,172,6|8,1:2|2:2,0:0:0:0:
346,217,172041,1,0,0:0:0:0:
455,157,172208,2,0,P|446:193|435:240,1,86,2|0,1:2|1:1,0:0:0:0:
295,374,172541,2,0,P|286:331|275:290,1,86,10|0,2:2|0:0,0:0:0:0:
229,133,172875,5,2,1:2:0:0:
142,203,173041,1,0,0:0:0:0:
326,156,173208,1,10,2:2:0:0:
189,40,173375,2,0,P|136:108|149:193,1,172,0|2,1:1|1:2,0:0:0:0:
64,324,173875,2,0,P|110:319|147:304,1,86,10|0,2:2|0:0,0:0:0:0:
407,228,174208,5,6,1:2:0:0:
237,352,174375,1,0,1:1:0:0:
237,352,174458,1,0,1:2:0:0:
237,352,174541,1,8,2:2:0:0:
349,384,174708,2,0,P|341:341|334:299,1,86,2|0,2:2|1:1,0:0:0:0:
312,170,175041,1,0,1:1:0:0:
149,308,175208,2,0,P|142:265|134:223,1,86,10|0,2:2|0:0,0:0:0:0:
1,31,175541,5,6,1:2:0:0:
214,96,175708,1,0,1:2:0:0:
45,186,175875,5,10,2:2:0:0:
276,32,176041,2,0,P|290:54|295:71,1,43,0|0,1:2|0:0,0:0:0:0:
227,208,176208,5,10,2:2:0:0:
152,38,176375,1,0,1:2:0:0:
146,18,176458,1,0,1:2:0:0:
140,0,176541,2,0,L|125:84,1,86,8|4,2:2|1:3,0:0:0:0:
160,298,176875,6,0,P|89:252|7:271,1,172,6|8,1:2|2:2,0:0:0:0:
185,168,177375,1,0,0:0:0:0:
38,83,177541,2,0,P|13:131|14:185,1,86,0|0,1:1|1:1,0:0:0:0:
80,338,177875,1,10,2:2:0:0:
241,256,178041,5,2,0:0:0:0:
248,262,178125,1,2,0:0:0:0:
255,269,178208,2,0,P|325:280|381:292,1,129,2|0,1:2|0:0,0:0:0:0:
392,297,178541,1,8,2:2:0:0:
311,154,178708,2,0,B|309:108|309:108|329:73,1,86,2|0,1:2|0:0,0:0:0:0:
512,143,179041,1,0,1:1:0:0:
505,149,179125,1,0,1:2:0:0:
497,156,179208,2,0,P|427:141|386:137,1,86,10|0,2:2|0:0,0:0:0:0:
244,31,179541,6,0,B|138:31|188:78|81:78,1,172,2|8,1:2|2:2,0:0:0:0:
204,168,180041,1,2,1:2:0:0:
204,168,180125,1,2,0:0:0:0:
204,168,180208,1,2,2:2:0:0:
7,239,180375,1,0,1:1:0:0:
137,351,180541,2,0,P|125:288|111:255,1,86,10|2,2:2|1:2,0:0:0:0:
0,89,180875,6,0,P|44:148|125:147,1,129,2|0,2:2|0:0,0:0:0:0:
109,152,181208,1,8,2:2:0:0:
57,353,181375,2,0,P|114:311|233:337,1,172,2|0,1:2|1:2,0:0:0:0:
342,218,181875,1,10,2:2:0:0:
260,127,182041,5,2,0:0:0:0:
260,127,182125,1,2,0:0:0:0:
260,127,182208,1,6,1:2:0:0:
371,48,182375,1,0,1:1:0:0:
339,227,182541,1,10,2:2:0:0:
177,170,182708,2,0,P|109:189|9:207,1,172,0|0,0:0|1:1,0:0:0:0:
163,305,183208,6,0,P|200:353|209:398,1,86,10|0,2:2|0:0,0:0:0:0:
346,227,183541,2,0,P|365:188|369:146,1,86,6|0,1:2|1:2,0:0:0:0:
272,161,183875,5,10,2:2:0:0:
458,249,184041,1,0,1:2:0:0:
278,275,184208,5,10,2:2:0:0:
473,150,184375,1,0,3:2:0:0:
473,150,184458,1,4,2:3:0:0:
473,150,184541,2,0,P|468:107|449:69,1,86,8|4,2:2|2:3,0:0:0:0:
344,21,184875,6,0,B|265:24|291:49|212:58,1,137.6,4|2,1:1|2:2,0:0:0:0:
133,20,185375,1,2,1:2:0:0:
66,71,185541,2,0,P|48:130|65:205,1,137.6,8|2,2:2|2:2,0:0:0:0:
141,282,186041,6,0,P|72:291|6:309,2,137.6,2|2|2,1:2|1:2|1:2,0:0:0:0:
247,230,186875,2,0,P|235:285|234:307,1,68.8,8|0,2:2|1:1,0:0:0:0:
291,373,187208,1,2,1:2:0:0:
291,373,187375,1,2,2:2:0:0:
378,349,187541,6,0,P|394:284|398:213,1,137.6,8|2,1:3|2:2,0:0:0:0:
238,221,188041,2,0,P|241:152|258:85,1,137.6,2|0,1:2|0:0,0:0:0:0:
341,30,188541,1,6,2:3:0:0:
325,168,188708,5,2,1:2:0:0:
325,168,188791,1,0,1:2:0:0:
325,168,188875,1,8,2:2:0:0:
143,132,189041,1,8,2:3:0:0:
196,309,189208,1,2,1:2:0:0:
2,255,189375,2,0,P|47:249|78:242,1,77.3999976379395,10|4,2:2|2:3,0:0:0:0:
204,210,189708,1,0,1:1:0:0:
378,384,189875,5,10,2:3:0:0:
356,364,189958,1,2,0:0:0:0:
329,353,190041,1,2,0:0:0:0:
300,352,190125,1,2,0:0:0:0:
273,360,190208,2,0,P|282:296|299:174,1,172,4|8,1:1|2:2,0:0:0:0:
461,91,190708,1,0,0:0:0:0:
391,15,190875,2,0,P|377:58|372:104,1,86,0|0,1:1|1:1,0:0:0:0:
397,228,191208,2,0,P|448:209|510:205,1,86,10|2,2:2|2:2,0:0:0:0:
274,103,191541,6,0,P|188:129|118:124,1,129,2|0,1:2|0:0,0:0:0:0:
138,125,191875,1,8,2:2:0:0:
192,267,192041,2,0,P|122:242|9:242,1,172,2|0,1:2|1:1,0:0:0:0:
34,56,192541,2,0,P|44:99|48:140,1,86,10|0,2:2|0:0,0:0:0:0:
201,271,192875,6,0,P|264:213|267:128,1,172,2|8,1:2|2:2,0:0:0:0:
226,58,193375,2,0,L|235:5,2,43,0|0|0,0:0|0:0|1:1,0:0:0:0:
180,171,193708,1,2,1:2:0:0:
134,47,193875,1,10,2:2:0:0:
277,141,194041,1,2,2:2:0:0:
99,231,194208,6,0,P|38:251|7:253,1,86,2|0,1:2|1:2,0:0:0:0:
36,150,194541,1,8,2:2:0:0:
81,342,194708,2,0,P|166:336|248:359,1,172,2|2,1:2|1:2,0:0:0:0:
449,320,195208,2,0,P|414:345|372:353,1,86,10|0,2:2|0:0,0:0:0:0:
379,245,195541,6,0,P|365:160|324:84,1,172,6|8,1:2|2:2,0:0:0:0:
264,203,196041,1,0,0:0:0:0:
264,203,196125,1,0,0:0:0:0:
264,203,196208,1,0,1:2:0:0:
441,104,196375,1,0,1:1:0:0:
252,16,196541,2,0,P|226:59|232:108,1,86,8|0,2:2|0:0,0:0:0:0:
351,248,196875,6,0,B|268:223|279:271|180:247,1,172,2|10,1:2|2:2,0:0:0:0:
46,143,197375,2,0,P|102:138|137:128,1,86,2|0,2:2|1:2,0:0:0:0:
257,288,197708,1,0,1:2:0:0:
372,152,197875,2,0,P|361:193|359:236,1,86,10|0,2:2|0:0,0:0:0:0:
142,384,198208,6,0,P|138:261|109:197,1,172,2|8,1:2|2:2,0:0:0:0:
85,80,198708,2,0,L|99:27,2,43,0|0|0,1:1|0:0|0:0,0:0:0:0:
13,147,199041,1,2,1:2:0:0:
174,89,199208,1,10,2:2:0:0:
16,0,199375,1,2,2:2:0:0:
117,198,199541,6,0,P|160:189|211:183,1,86,2|0,1:2|1:2,0:0:0:0:
306,138,199875,1,8,2:2:0:0:
388,208,200041,1,0,1:2:0:0:
388,208,200125,1,0,1:2:0:0:
388,208,200208,1,0,1:2:0:0:
448,62,200375,5,2,1:2:0:0:
493,253,200541,1,12,2:1:0:0:
300,148,200708,1,2,1:2:0:0:
420,140,200875,6,0,P|402:222|388:315,1,172,6|8,1:2|2:2,0:0:0:0:
300,148,201375,1,2,1:2:0:0:
281,282,201541,2,0,P|271:324|265:366,1,86,0|0,0:0|1:1,0:0:0:0:
126,214,201875,2,0,P|116:171|110:129,1,86,10|0,2:2|0:0,0:0:0:0:
26,259,202208,5,10,2:2:0:0:
213,161,202375,1,0,1:1:0:0:
39,50,202541,1,2,1:2:0:0:
115,171,202708,1,14,2:3:0:0:
302,100,202875,1,2,1:2:0:0:
302,100,202958,1,2,2:2:0:0:
302,100,203041,1,2,1:2:0:0:
206,32,203208,6,0,L|216:81,1,43,6|0,2:3|0:0,0:0:0:0:
303,177,203375,2,0,L|293:226,1,43,0|0,1:1|0:0,0:0:0:0:
153,287,203541,6,0,P|51:275|20:250,1,129,6|0,1:2|0:0,0:0:0:0:
24,253,203875,1,10,2:2:0:0:
222,215,204041,2,0,P|278:292|268:389,1,172,2|0,2:2|1:1,0:0:0:0:
137,197,204541,2,0,P|127:124|121:92,1,86,8|0,2:2|0:0,0:0:0:0:
284,27,204875,6,0,P|327:114|326:164,1,129,2|0,1:2|0:0,0:0:0:0:
325,157,205208,1,10,2:2:0:0:
498,53,205375,2,0,L|389:36,1,86,2|0,2:2|1:1,0:0:0:0:
212,159,205708,1,0,1:2:0:0:
357,240,205875,2,0,P|420:233|472:196,1,129,10|0,2:2|0:0,0:0:0:0:
483,187,206208,6,0,P|475:225|466:271,1,86,2|0,1:2|1:1,0:0:0:0:
307,142,206541,1,10,2:2:0:0:
374,384,206708,2,0,P|365:293|333:193,1,172,2|0,1:2|1:1,0:0:0:0:
227,70,207208,2,0,P|209:128|206:168,1,86,8|0,2:2|0:0,0:0:0:0:
113,269,207541,5,2,1:2:0:0:
64,179,207708,1,2,1:2:0:0:
199,240,207875,1,10,2:2:0:0:
45,336,208041,2,0,P|21:291|25:242,1,86,2|0,1:2|0:0,0:0:0:0:
127,76,208375,1,0,1:2:0:0:
106,259,208541,1,10,2:2:0:0:
0,142,208708,5,2,2:2:0:0:
0,142,208792,1,2,0:0:0:0:
0,142,208875,2,0,B|62:136|62:136|97:160|97:160|189:147,1,172,6|10,1:2|2:2,0:0:0:0:
338,284,209375,2,0,B|400:278|400:278|435:302|435:302|527:289,1,172,2|2,1:2|1:2,0:0:0:0:
264,222,209875,2,0,P|246:273|245:310,1,86,10|0,2:2|1:1,0:0:0:0:
173,368,210208,5,0,0:0:0:0:
10,245,210375,1,0,1:1:0:0:
67,384,210541,2,0,P|85:333|86:296,1,86,8|0,2:2|0:0,0:0:0:0:
0,141,210875,1,0,1:1:0:0:
169,232,211041,1,0,1:1:0:0:
0,334,211208,1,10,2:2:0:0:
126,116,211375,1,0,0:0:0:0:
261,195,211541,6,0,P|344:208|424:176,1,172,6|10,1:2|2:2,0:0:0:0:
172,153,212041,2,0,P|118:219|106:303,1,172,2|2,1:2|1:2,0:0:0:0:
256,103,212541,2,0,P|245:59|238:18,1,86,10|0,2:2|1:1,0:0:0:0:
2,154,212875,6,0,P|12:197|19:238,1,86,2|0,2:2|1:1,0:0:0:0:
96,304,213208,1,8,2:2:0:0:
248,249,213375,2,0,P|205:241|163:231,1,86,2|0,1:2|0:0,0:0:0:0:
0,331,213708,1,0,1:1:0:0:
0,331,213791,1,0,1:2:0:0:
0,331,213875,2,0,P|79:320|96:310,1,86,10|0,2:2|0:0,0:0:0:0:
326,184,214208,6,0,P|335:241|342:311,1,129,6|0,1:2|0:0,0:0:0:0:
341,325,214541,1,8,2:2:0:0:
233,143,214708,2,0,P|284:94|392:109,1,172,2|0,1:2|1:2,0:0:0:0:
512,247,215208,2,0,P|465:262|416:247,1,86,8|0,2:1|0:0,0:0:0:0:
325,182,215541,5,12,2:1:0:0:
200,292,215708,1,8,2:3:0:0:
376,363,215875,1,4,2:3:0:0:
232,175,216041,5,12,2:1:0:0:
131,369,216208,1,10,2:3:0:0:
0,205,216375,1,4,2:3:0:0:
0,205,216458,1,4,2:3:0:0:
0,205,216541,2,0,P|11:156|19:121,1,86,12|2,2:1|2:2,0:0:0:0:
126,30,216875,6,0,B|136:100|136:100|122:135|122:135|133:206,1,172,4|8,1:1|2:2,0:0:0:0:
235,52,217375,1,0,0:0:0:0:
315,193,217541,2,0,L|222:172,1,86,0|0,1:1|1:1,0:0:0:0:
21,258,217875,1,10,2:2:0:0:
124,325,218041,5,2,0:0:0:0:
124,325,218125,1,2,0:0:0:0:
124,325,218208,2,0,B|198:316|170:348|251:334,1,129,2|0,1:2|0:0,0:0:0:0:
262,339,218541,1,8,2:2:0:0:
164,117,218708,2,0,P|145:168|148:208,1,86,2|0,1:2|0:0,0:0:0:0:
339,375,219041,1,0,1:1:0:0:
417,331,219208,2,0,P|436:280|433:240,1,86,10|0,2:2|0:0,0:0:0:0:
500,211,219458,1,0,0:0:0:0:
506,203,219541,6,0,B|399:193|435:231|334:221,1,172,2|8,1:2|2:2,0:0:0:0:
497,100,220041,1,2,1:2:0:0:
394,0,220208,2,0,P|386:42|381:85,1,86,2|0,1:2|1:1,0:0:0:0:
261,278,220541,1,10,2:2:0:0:
209,161,220708,1,2,1:2:0:0:
340,232,220875,5,2,2:2:0:0:
180,343,221041,1,0,1:2:0:0:
203,152,221208,1,8,2:2:0:0:
354,320,221375,2,0,P|424:360|513:350,1,172,2|0,1:2|1:2,0:0:0:0:
451,249,221875,1,10,2:2:0:0:
282,384,222041,5,0,1:2:0:0:
282,384,222125,1,0,1:2:0:0:
281,383,222208,2,0,P|267:298|247:214,1,172,6|8,1:2|2:2,0:0:0:0:
177,50,222708,1,0,0:0:0:0:
302,132,222875,2,0,P|342:116|383:103,1,86,4|0,1:1|1:1,0:0:0:0:
170,279,223208,2,0,P|129:294|88:307,1,86,10|0,2:2|0:0,0:0:0:0:
170,159,223541,5,2,1:2:0:0:
278,296,223708,1,0,0:0:0:0:
84,216,223875,1,10,2:2:0:0:
270,55,224041,2,0,B|256:113|256:113|268:153|268:153|249:236,1,172,0|2,1:1|1:2,0:0:0:0:
107,384,224541,2,0,L|91:299,1,86,10|0,2:2|0:0,0:0:0:0:
53,105,224875,5,6,1:2:0:0:
176,172,225041,1,0,1:1:0:0:
0,268,225208,1,8,2:2:0:0:
187,172,225375,2,0,P|203:114|200:59,1,86,2|0,2:2|1:1,0:0:0:0:
72,205,225708,1,0,1:1:0:0:
211,285,225875,2,0,P|253:281|294:268,1,86,10|0,2:2|0:0,0:0:0:0:
487,151,226208,5,6,1:2:0:0:
299,86,226375,1,0,1:2:0:0:
497,42,226541,5,10,2:2:0:0:
276,171,226708,1,0,1:2:0:0:
472,254,226875,5,10,2:2:0:0:
393,97,227041,1,0,1:2:0:0:
393,97,227125,1,0,1:2:0:0:
393,97,227208,2,0,P|398:54|408:12,1,86,8|4,2:2|1:3,0:0:0:0:
258,184,227541,6,0,B|158:177|190:229|90:215,1,172,6|8,1:2|2:2,0:0:0:0:
239,264,228041,1,0,0:0:0:0:
28,106,228208,2,0,P|84:122|116:126,1,86,0|0,1:1|1:1,0:0:0:0:
319,239,228541,1,10,2:2:0:0:
157,284,228708,1,0,0:0:0:0:
231,384,228875,6,0,P|237:341|250:300,1,86,2|0,1:2|0:0,0:0:0:0:
222,168,229208,1,8,2:2:0:0:
512,110,229375,2,0,P|440:154|357:140,1,172,2|0,1:2|1:1,0:0:0:0:
238,64,229875,1,10,2:2:0:0:
168,262,230041,1,0,0:0:0:0:
11,40,230208,6,0,P|73:53|79:157,1,172,2|8,1:2|2:2,0:0:0:0:
3,289,230708,1,2,1:2:0:0:
3,289,230791,1,2,0:0:0:0:
3,289,230875,2,0,P|59:268|96:262,1,86,2|0,2:2|1:1,0:0:0:0:
232,183,231208,1,10,2:2:0:0:
175,358,231375,1,2,1:2:0:0:
386,322,231541,6,0,P|344:312|304:296,1,86,2|0,2:2|1:2,0:0:0:0:
131,175,231875,1,8,2:2:0:0:
195,376,232041,2,0,P|207:290|227:207,1,172,2|0,1:2|1:2,0:0:0:0:
282,97,232541,1,10,2:2:0:0:
83,21,232708,5,2,0:0:0:0:
83,21,232791,1,2,0:0:0:0:
83,21,232875,1,6,1:2:0:0:
137,202,233041,1,0,1:1:0:0:
254,0,233208,1,10,2:2:0:0:
82,126,233375,2,0,P|51:136|-1:148,1,86,0|2,0:0|1:2,0:0:0:0:
10,54,233708,1,0,1:1:0:0:
227,178,233875,2,0,P|258:188|310:200,1,86,10|0,2:2|0:0,0:0:0:0:
76,315,234208,6,0,P|63:254|53:214,1,86,6|0,1:2|1:2,0:0:0:0:
6,44,234541,1,10,2:2:0:0:
144,188,234708,1,0,1:2:0:0:
45,243,234875,1,10,2:2:0:0:
160,89,235041,1,0,3:2:0:0:
170,86,235125,1,4,2:3:0:0:
177,83,235208,2,0,P|197:90|218:95,1,43,8|8,2:2|2:3,0:0:0:0:
290,223,235375,2,0,P|310:216|331:210,1,43,4|4,2:3|2:3,0:0:0:0:
497,120,235541,6,0,B|412:102|441:143|360:127,1,137.6,4|2,1:1|2:2,0:0:0:0:
362,127,236041,1,2,1:2:0:0:
336,220,236208,2,0,P|278:186|203:193,1,137.6,8|2,2:2|2:2,0:0:0:0:
126,159,236708,2,0,P|115:87|103:23,2,137.6,2|2|2,1:2|1:2|1:2,0:0:0:0:
63,228,237541,1,8,2:2:0:0:
63,228,237708,1,0,1:1:0:0:
134,285,237875,2,0,P|184:295|207:307,1,68.8,2|2,1:2|2:2,0:0:0:0:
73,366,238208,6,0,P|44:298|56:231,1,137.6,6|2,1:2|2:2,0:0:0:0:
53,236,238708,1,2,1:2:0:0:
0,106,238875,2,0,P|68:153|140:138,1,137.6,8|2,2:2|2:2,0:0:0:0:
208,205,239375,6,0,P|225:257|236:346,2,137.6,2|2|2,1:2|1:2|1:2,0:0:0:0:
261,130,240208,1,8,2:2:0:0:
261,130,240375,1,0,0:0:0:0:
338,173,240541,1,2,1:2:0:0:
338,173,240708,1,0,1:1:0:0:
411,110,240875,6,0,P|418:53|425:26,1,68.8,2|0,1:2|1:1,0:0:0:0:
211,200,241208,2,0,P|204:257|197:284,1,68.8,0|0,0:0|1:1,0:0:0:0:
203,278,241458,1,0,1:2:0:0:
205,285,241541,1,10,2:2:0:0:
298,239,241708,5,2,0:0:0:0:
336,319,241875,5,10,1:3:0:0:
406,281,242041,5,2,0:0:0:0:
420,293,242208,5,14,2:2:0:0:
211,376,242375,2,0,P|170:368|135:358,1,77.3999976379395,0|2,1:1|1:2,0:0:0:0:
435,194,242708,2,0,P|495:230|509:322,1,154.799995275879,14|0,2:2|1:1,0:0:0:0:
283,256,243208,5,14,2:2:0:0:
274,251,243291,1,0,0:0:0:0:
265,247,243374,1,0,0:0:0:0:
257,242,243458,1,0,0:0:0:0:
248,238,243541,2,0,P|260:140|278:68,1,154.799995275879,6|8,1:2|2:2,0:0:0:0:
279,73,244041,1,0,1:1:0:0:
150,12,244208,2,0,P|156:43|164:88,1,77.3999976379395,0|0,0:0|1:1,0:0:0:0:
83,206,244541,1,8,2:2:0:0:
0,111,244708,1,2,2:2:0:0:
24,287,244875,6,0,P|100:299|166:263,1,154.799995275879,2|10,1:2|2:2,0:0:0:0:
325,160,245375,2,0,P|347:204|349:251,1,77.3999976379395,0|0,1:2|0:0,0:0:0:0:
211,151,245708,1,0,1:1:0:0:
253,54,245875,2,0,P|297:32|344:30,1,77.3999976379395,10|0,2:2|0:0,0:0:0:0:
204,163,246208,6,0,B|115:140|144:188|49:170,1,154.799995275879,2|8,1:2|2:2,0:0:0:0:
218,152,246708,1,2,1:2:0:0:
169,246,246875,2,0,P|161:284|159:322,1,77.3999976379395,0|0,0:0|1:1,0:0:0:0:
45,165,247208,2,0,P|37:126|35:88,1,77.3999976379395,10|2,2:2|1:2,0:0:0:0:
176,250,247541,6,0,P|129:283|50:277,1,116.099996456909,2|0,2:2|0:0,0:0:0:0:
61,281,247875,1,8,2:2:0:0:
228,172,248041,2,0,P|278:180|326:285,1,154.799995275879,2|0,1:2|1:1,0:0:0:0:
512,359,248541,1,10,2:2:0:0:
438,221,248708,5,0,1:1:0:0:
438,221,248791,1,0,1:2:0:0:
438,221,248875,1,6,1:2:0:0:
368,374,249041,1,0,1:1:0:0:
512,274,249208,1,8,2:2:0:0:
349,187,249375,2,0,P|279:210|185:221,1,154.799995275879,2|0,2:2|1:1,0:0:0:0:
13,362,249875,2,0,P|63:348|130:362,1,116.099996456909,10|0,2:2|0:0,0:0:0:0:
140,367,250208,2,0,P|142:328|149:290,1,77.3999976379395,6|0,1:2|1:2,0:0:0:0:
176,135,250541,5,10,2:2:0:0:
71,259,250708,1,2,1:2:0:0:
184,123,250875,5,8,2:2:0:0:
239,310,251041,1,0,1:1:0:0:
239,310,251125,1,0,1:2:0:0:
239,310,251208,1,10,2:2:0:0:
62,260,251375,1,6,2:3:0:0:
317,199,251541,6,0,P|392:278|377:309,1,137.6,6|2,1:2|2:2,0:0:0:0:
306,322,252041,2,0,P|277:315|239:310,1,68.8,2|8,1:2|2:2,0:0:0:0:
239,310,252541,5,2,2:2:0:0:
381,375,252708,2,0,P|445:364|470:302,1,137.6,2|2,1:2|1:2,0:0:0:0:
420,233,253208,2,0,P|391:240|353:244,1,68.8,0|2,0:0|1:2,0:0:0:0:
273,188,253541,6,0,P|283:137|285:85,1,103.2,8|0,2:2|0:0,0:0:0:0:
281,75,253874,1,2,2:2:0:0:
190,119,254041,1,2,2:2:0:0:
106,42,254208,6,0,P|89:91|112:191,1,137.6,6|2,1:2|2:2,0:0:0:0:
0,241,254708,2,0,P|33:248|68:251,1,68.8,2|8,1:2|2:2,0:0:0:0:
67,251,255208,5,2,2:2:0:0:
149,285,255374,2,0,P|170:311|180:344,1,68.8,2|0,1:2|0:0,0:0:0:0:
250,230,255708,2,0,P|289:143|278:73,1,137.6,2|2,1:2|1:2,0:0:0:0:
386,162,256208,2,0,P|421:166|454:173,1,68.8,8|0,2:2|0:0,0:0:0:0:
430,89,256541,1,2,1:2:0:0:
402,309,256874,6,0,P|352:300|260:338,1,137.6,6|2,1:2|2:2,0:0:0:0:
271,327,257374,1,0,1:1:0:0:
212,255,257541,2,0,P|217:221|231:189,1,68.8,10|0,2:2|0:0,0:0:0:0:
179,350,257874,2,0,P|125:369|106:370,1,68.8,14|2,2:2|0:0,0:0:0:0:
103,366,258124,1,2,0:0:0:0:
93,362,258208,1,6,1:2:0:0:
256,192,258291,12,2,259541,2:2:0:0:
256,192,259711,12,0,262549,0:0:0:0:
