osu file format v14

[General]
AudioFilename: audio.mp3
AudioLeadIn: 0
PreviewTime: 76911
Countdown: 0
SampleSet: Normal
StackLeniency: 0.7
Mode: 1
LetterboxInBreaks: 0
WidescreenStoryboard: 0

[Editor]
DistanceSpacing: 1.3
BeatDivisor: 4
GridSize: 32
TimelineZoom: 2.000005

[Metadata]
Title:Star Trail
TitleUnicode:Star Trail
Artist:Shinomiya Ginka (CV: Hasegawa Ikumi)
ArtistUnicode:四ノ宮銀花 (CV: 長谷川育美)
Creator:hz404
Version:Meteor
Source:GINKA
Tags:Frontwing front wing フロントウイング ギンカ konno asta asuta 紺野アスタ Matsumoto Fuminori 松本文紀 visual novel vn galgame video game japanese pop jpop j-pop
BeatmapID:4309067
BeatmapSetID:2061238

[Difficulty]
HPDrainRate:5
CircleSize:5
OverallDifficulty:6
ApproachRate:10
SliderMultiplier:1.4
SliderTickRate:1

[Events]
//Background and Video events
0,0,"bg.jpg",0,50
//Break Periods
//Storyboard Layer 0 (Background)
//Storyboard Layer 1 (Fail)
//Storyboard Layer 2 (Pass)
//Storyboard Layer 3 (Foreground)
//Storyboard Layer 4 (Overlay)
//Storyboard Sound Samples

[TimingPoints]
328,333.333333333333,4,1,0,40,1,0
1661,333.333333333333,4,1,0,40,1,0
10577,-100,4,1,0,50,0,0
13411,-100,4,1,0,70,0,0
23244,-105.263157894737,4,1,0,60,0,0
30911,-111.111111111111,4,1,0,40,0,0
50910,-111.111111111111,4,1,0,50,0,0
52577,-111.111111111111,4,1,0,60,0,0
52651,-107.52688172043,4,1,0,60,0,0
52817,-104.166666666667,4,1,0,60,0,0
52984,-101.010101010101,4,1,0,60,0,0
53151,-98.0392156862745,4,1,0,60,0,0
53317,-95.2380952380952,4,1,0,60,0,0
53484,-92.5925925925926,4,1,0,60,0,0
53651,-86.9565217391304,4,1,0,60,0,0
53911,-100,4,1,0,60,0,0
72244,-100,4,1,0,70,0,0
76317,-97.0873786407767,4,1,0,70,0,0
76484,-94.3396226415094,4,1,0,70,0,0
76651,-91.743119266055,4,1,0,70,0,0
76817,-89.2857142857143,4,1,0,70,0,0
76984,-86.9565217391304,4,1,0,70,0,0
77151,-84.7457627118644,4,1,0,70,0,0
77317,-82.6446280991736,4,1,0,70,0,0
77484,-80.6451612903226,4,1,0,70,0,0
77577,-74.6268656716418,4,1,0,80,0,0
77660,-74.6268656716418,4,1,0,80,0,1
77911,-90.9090909090909,4,1,0,80,0,1
95798,-92.5925925925926,4,1,0,80,0,1
95882,-94.3396226415094,4,1,0,80,0,1
95965,-96.1538461538461,4,1,0,80,0,1
96048,-98.0392156862745,4,1,0,80,0,1
96132,-100,4,1,0,80,0,1
96244,-100,4,1,0,70,0,1
96327,-100,4,1,0,70,0,0
104911,-117.647058823529,4,1,0,40,0,0

[HitObjects]
256,192,994,5,0,0:0:0:0:
256,192,1327,1,8,0:0:0:0:
256,192,1494,1,8,0:0:0:0:
256,192,2327,1,8,0:0:0:0:
256,192,2827,1,8,0:0:0:0:
256,192,2994,1,0,0:0:0:0:
256,192,3327,1,0,0:0:0:0:
256,192,3494,1,8,0:0:0:0:
256,192,3827,1,8,0:0:0:0:
256,192,4161,1,0,0:0:0:0:
256,192,4661,1,0,0:0:0:0:
256,192,4827,1,8,0:0:0:0:
256,192,5327,1,8,0:0:0:0:
256,192,5494,1,8,0:0:0:0:
256,192,5994,1,0,0:0:0:0:
256,192,6161,1,8,0:0:0:0:
256,192,6661,1,0,0:0:0:0:
256,192,6827,1,8,0:0:0:0:
256,192,6994,1,0,0:0:0:0:
256,192,7161,1,8,0:0:0:0:
256,192,7327,1,0,0:0:0:0:
256,192,7994,1,0,0:0:0:0:
256,192,8327,1,8,0:0:0:0:
256,192,8494,1,0,0:0:0:0:
256,192,8661,1,0,0:0:0:0:
256,192,8827,1,0,0:0:0:0:
256,192,8994,1,8,0:0:0:0:
256,192,9327,1,8,0:0:0:0:
256,192,9494,1,8,0:0:0:0:
256,192,9661,1,0,0:0:0:0:
256,192,10661,1,0,0:0:0:0:
256,192,10827,1,0,0:0:0:0:
256,192,10994,1,8,0:0:0:0:
256,192,11661,1,0,0:0:0:0:
256,192,11827,1,0,0:0:0:0:
256,192,11994,1,8,0:0:0:0:
256,192,12161,1,8,0:0:0:0:
256,192,12327,1,0,0:0:0:0:
256,192,12661,1,0,0:0:0:0:
256,192,12994,1,8,0:0:0:0:
256,192,13494,1,0,0:0:0:0:
256,192,13577,1,0,0:0:0:0:
256,192,13661,1,8,0:0:0:0:
256,192,13827,1,0,0:0:0:0:
256,192,13911,1,0,0:0:0:0:
256,192,13994,1,0,0:0:0:0:
256,192,14161,1,8,0:0:0:0:
256,192,14327,1,0,0:0:0:0:
256,192,14411,1,0,0:0:0:0:
256,192,14494,1,8,0:0:0:0:
256,192,14577,1,0,0:0:0:0:
256,192,14661,1,8,0:0:0:0:
256,192,14827,1,0,0:0:0:0:
256,128,14994,1,12,0:0:0:0:
256,192,15327,1,8,0:0:0:0:
256,192,15661,1,0,0:0:0:0:
256,192,15827,1,0,0:0:0:0:
256,192,15911,1,0,0:0:0:0:
256,192,15994,1,8,0:0:0:0:
256,192,16161,1,0,0:0:0:0:
256,192,16327,1,8,0:0:0:0:
256,192,16494,1,8,0:0:0:0:
256,192,16577,1,8,0:0:0:0:
256,192,16661,1,0,0:0:0:0:
256,192,16827,1,8,0:0:0:0:
256,192,16994,1,0,0:0:0:0:
256,192,17161,1,0,0:0:0:0:
256,192,17244,1,0,0:0:0:0:
256,192,17327,1,8,0:0:0:0:
256,192,17411,1,8,0:0:0:0:
256,192,17494,1,0,0:0:0:0:
256,192,17661,1,8,0:0:0:0:
256,192,17994,1,8,0:0:0:0:
256,192,18161,1,0,0:0:0:0:
256,192,18494,1,0,0:0:0:0:
256,192,18661,1,8,0:0:0:0:
256,192,18827,1,0,0:0:0:0:
256,192,18994,1,8,0:0:0:0:
256,192,19161,1,0,0:0:0:0:
256,192,19244,1,0,0:0:0:0:
256,192,19327,1,8,0:0:0:0:
256,192,19494,1,0,0:0:0:0:
256,192,19577,1,8,0:0:0:0:
256,192,19661,1,0,0:0:0:0:
256,192,19827,1,0,0:0:0:0:
256,192,19994,1,8,0:0:0:0:
256,192,20161,1,8,0:0:0:0:
256,192,20244,1,8,0:0:0:0:
256,192,20327,1,0,0:0:0:0:
256,192,20494,1,0,0:0:0:0:
256,192,20661,1,8,0:0:0:0:
256,192,20994,1,0,0:0:0:0:
256,192,21161,1,0,0:0:0:0:
256,192,21327,1,8,0:0:0:0:
256,192,21494,1,8,0:0:0:0:
256,128,21661,1,4,0:0:0:0:
256,192,21994,1,8,0:0:0:0:
256,192,22161,1,0,0:0:0:0:
256,192,22327,1,8,0:0:0:0:
256,192,22494,1,0,0:0:0:0:
256,192,22577,1,0,0:0:0:0:
256,192,22661,1,8,0:0:0:0:
256,192,22744,1,8,0:0:0:0:
256,192,22827,1,0,0:0:0:0:
256,192,22911,1,0,0:0:0:0:
256,192,22994,1,8,0:0:0:0:
256,192,23327,1,8,0:0:0:0:
256,192,23494,1,0,0:0:0:0:
256,192,23661,1,8,0:0:0:0:
256,192,23994,1,0,0:0:0:0:
256,192,24161,1,0,0:0:0:0:
256,192,24327,1,0,0:0:0:0:
256,192,24494,1,8,0:0:0:0:
256,192,24827,1,0,0:0:0:0:
256,192,24994,1,8,0:0:0:0:
256,192,25327,1,0,0:0:0:0:
256,192,25494,1,8,0:0:0:0:
256,192,25661,1,0,0:0:0:0:
256,192,25994,1,0,0:0:0:0:
256,192,26161,1,0,0:0:0:0:
256,192,26327,1,8,0:0:0:0:
256,192,26661,1,8,0:0:0:0:
256,192,26827,1,8,0:0:0:0:
256,192,26994,1,0,0:0:0:0:
256,192,27161,1,0,0:0:0:0:
256,192,27494,1,0,0:0:0:0:
256,192,27661,1,8,0:0:0:0:
256,192,27994,1,8,0:0:0:0:
256,192,28327,1,0,0:0:0:0:
256,192,28827,1,0,0:0:0:0:
256,192,28994,1,8,0:0:0:0:
256,192,29327,1,0,0:0:0:0:
256,192,29661,1,8,0:0:0:0:
256,192,30994,1,0,0:0:0:0:
256,192,31327,1,0,0:0:0:0:
256,192,31494,1,8,0:0:0:0:
256,192,32327,1,0,0:0:0:0:
256,192,32661,1,8,0:0:0:0:
256,192,32827,1,8,0:0:0:0:
256,192,32994,1,0,0:0:0:0:
256,192,33661,1,0,0:0:0:0:
256,192,33994,1,0,0:0:0:0:
256,192,34161,1,8,0:0:0:0:
256,192,34327,1,0,0:0:0:0:
256,192,34994,1,8,0:0:0:0:
256,192,35327,1,0,0:0:0:0:
256,192,35494,1,0,0:0:0:0:
256,192,35661,1,8,0:0:0:0:
256,192,36327,1,8,0:0:0:0:
256,192,36661,1,0,0:0:0:0:
256,192,36827,1,8,0:0:0:0:
256,192,37661,1,0,0:0:0:0:
256,192,37994,1,0,0:0:0:0:
256,192,38161,1,0,0:0:0:0:
256,192,38327,1,8,0:0:0:0:
256,192,38494,1,0,0:0:0:0:
256,192,38994,1,8,0:0:0:0:
256,192,39327,1,0,0:0:0:0:
256,192,39494,1,8,0:0:0:0:
256,192,39661,1,0,0:0:0:0:
256,192,39827,1,0,0:0:0:0:
256,192,40327,1,0,0:0:0:0:
256,192,40661,1,8,0:0:0:0:
256,192,40827,1,8,0:0:0:0:
256,192,40994,1,0,0:0:0:0:
256,192,41327,1,8,0:0:0:0:
256,192,41661,1,0,0:0:0:0:
256,192,41994,1,0,0:0:0:0:
256,192,42161,1,8,0:0:0:0:
256,192,42994,1,8,0:0:0:0:
256,192,43327,1,0,0:0:0:0:
256,192,43494,1,0,0:0:0:0:
256,192,43661,1,8,0:0:0:0:
256,192,44327,1,0,0:0:0:0:
256,192,44661,1,0,0:0:0:0:
256,192,44827,1,8,0:0:0:0:
256,192,45661,1,0,0:0:0:0:
256,192,45994,1,0,0:0:0:0:
256,192,46161,1,8,0:0:0:0:
256,192,46327,1,0,0:0:0:0:
256,192,46994,1,0,0:0:0:0:
256,192,47327,1,0,0:0:0:0:
256,192,47494,1,8,0:0:0:0:
256,192,48327,1,0,0:0:0:0:
256,192,48661,1,0,0:0:0:0:
256,192,48827,1,8,0:0:0:0:
256,192,49161,1,0,0:0:0:0:
256,192,49327,1,8,0:0:0:0:
256,192,49661,1,0,0:0:0:0:
256,192,50327,1,8,0:0:0:0:
256,192,50494,1,0,0:0:0:0:
256,192,50660,1,8,0:0:0:0:
256,192,50827,1,8,0:0:0:0:
256,192,50994,1,8,0:0:0:0:
256,192,51494,1,0,0:0:0:0:
256,192,51661,1,8,0:0:0:0:
256,192,51994,1,0,0:0:0:0:
256,192,52161,1,0,0:0:0:0:
256,192,52327,1,8,0:0:0:0:
256,192,52661,1,0,0:0:0:0:
256,192,52827,1,8,0:0:0:0:
256,192,52994,1,0,0:0:0:0:
256,192,53161,1,0,0:0:0:0:
256,192,53327,1,8,0:0:0:0:
256,192,53494,1,8,0:0:0:0:
256,128,53661,1,4,0:0:0:0:
256,192,53994,1,8,0:0:0:0:
256,192,54327,1,8,0:0:0:0:
256,192,54661,1,0,0:0:0:0:
256,192,54994,1,8,0:0:0:0:
256,192,55327,1,0,0:0:0:0:
256,192,55494,1,0,0:0:0:0:
256,192,55661,1,8,0:0:0:0:
256,192,55994,1,8,0:0:0:0:
256,192,56161,1,8,0:0:0:0:
256,192,56327,1,0,0:0:0:0:
256,192,56661,1,8,0:0:0:0:
256,192,56994,1,0,0:0:0:0:
256,192,57327,1,8,0:0:0:0:
256,192,57661,1,0,0:0:0:0:
256,192,57994,1,0,0:0:0:0:
256,192,58161,1,0,0:0:0:0:
256,192,58327,1,8,0:0:0:0:
256,192,58661,1,0,0:0:0:0:
256,192,58827,1,8,0:0:0:0:
256,128,58994,1,4,0:0:0:0:
256,192,59327,1,0,0:0:0:0:
256,192,59494,1,0,0:0:0:0:
256,192,59661,1,8,0:0:0:0:
256,192,59827,1,0,0:0:0:0:
256,192,59994,1,8,0:0:0:0:
256,192,60327,1,0,0:0:0:0:
256,192,60494,1,0,0:0:0:0:
256,192,60661,1,8,0:0:0:0:
256,192,60827,1,8,0:0:0:0:
256,192,61161,1,0,0:0:0:0:
256,192,61327,1,8,0:0:0:0:
256,192,61494,1,8,0:0:0:0:
256,192,61661,1,0,0:0:0:0:
256,192,61994,1,8,0:0:0:0:
256,192,62161,1,8,0:0:0:0:
256,192,62327,1,0,0:0:0:0:
256,192,62661,1,8,0:0:0:0:
256,192,62994,1,0,0:0:0:0:
256,192,63327,1,0,0:0:0:0:
256,192,63494,1,0,0:0:0:0:
256,192,63661,1,8,0:0:0:0:
256,192,63827,1,0,0:0:0:0:
256,192,63994,1,8,0:0:0:0:
256,128,64327,1,4,0:0:0:0:
256,192,64661,1,0,0:0:0:0:
256,192,64827,1,0,0:0:0:0:
256,192,64994,1,8,0:0:0:0:
256,192,65327,1,0,0:0:0:0:
256,192,65661,1,8,0:0:0:0:
256,192,65994,1,0,0:0:0:0:
256,192,66161,1,8,0:0:0:0:
256,192,66327,1,0,0:0:0:0:
256,192,66494,1,0,0:0:0:0:
256,192,66661,1,8,0:0:0:0:
256,192,66994,1,0,0:0:0:0:
256,192,67327,1,8,0:0:0:0:
256,192,67494,1,0,0:0:0:0:
256,192,67661,1,8,0:0:0:0:
256,192,67994,1,0,0:0:0:0:
256,192,68327,1,8,0:0:0:0:
256,192,68494,1,0,0:0:0:0:
256,192,68661,1,0,0:0:0:0:
256,192,68827,1,8,0:0:0:0:
256,192,68994,1,0,0:0:0:0:
256,192,69161,1,0,0:0:0:0:
256,192,69327,1,8,0:0:0:0:
256,128,69661,1,4,0:0:0:0:
256,192,69994,1,8,0:0:0:0:
256,192,70161,1,8,0:0:0:0:
256,192,70327,1,0,0:0:0:0:
256,192,70494,1,0,0:0:0:0:
256,192,70661,1,8,0:0:0:0:
256,192,70994,1,0,0:0:0:0:
256,192,71327,1,8,0:0:0:0:
256,192,71494,1,0,0:0:0:0:
256,192,71661,1,0,0:0:0:0:
256,192,71994,1,8,0:0:0:0:
256,128,72327,1,4,0:0:0:0:
256,192,72661,1,8,0:0:0:0:
256,192,72994,1,0,0:0:0:0:
256,192,73161,1,0,0:0:0:0:
256,192,73327,1,8,0:0:0:0:
256,192,73661,1,0,0:0:0:0:
256,192,73827,1,0,0:0:0:0:
256,192,73994,1,8,0:0:0:0:
256,192,74161,1,0,0:0:0:0:
256,192,74327,1,0,0:0:0:0:
256,192,74494,1,0,0:0:0:0:
256,192,74661,1,8,0:0:0:0:
256,192,74994,1,0,0:0:0:0:
256,192,75161,1,0,0:0:0:0:
256,192,75327,1,8,0:0:0:0:
256,192,75494,1,8,0:0:0:0:
256,192,75661,1,0,0:0:0:0:
256,192,75827,1,0,0:0:0:0:
256,192,75994,1,8,0:0:0:0:
256,192,76161,1,0,0:0:0:0:
256,192,76327,1,8,0:0:0:0:
256,192,76494,1,0,0:0:0:0:
256,192,76661,1,0,0:0:0:0:
256,192,76827,1,8,0:0:0:0:
256,192,76994,1,0,0:0:0:0:
256,192,77161,1,0,0:0:0:0:
256,192,77327,1,8,0:0:0:0:
256,192,77494,1,8,0:0:0:0:
256,128,77661,1,4,0:0:0:0:
256,192,77994,1,8,0:0:0:0:
256,192,78161,1,0,0:0:0:0:
256,192,78244,1,0,0:0:0:0:
256,192,78327,1,0,0:0:0:0:
256,192,78494,1,0,0:0:0:0:
256,192,78661,1,8,0:0:0:0:
256,192,78827,1,8,0:0:0:0:
256,192,78911,1,8,0:0:0:0:
256,192,78994,1,0,0:0:0:0:
256,192,79161,1,0,0:0:0:0:
256,192,79327,1,8,0:0:0:0:
256,192,79494,1,0,0:0:0:0:
256,192,79577,1,8,0:0:0:0:
256,192,79661,1,8,0:0:0:0:
256,192,79744,1,8,0:0:0:0:
256,192,79827,1,0,0:0:0:0:
256,192,79994,1,8,0:0:0:0:
256,192,80161,1,8,0:0:0:0:
256,192,80327,1,0,0:0:0:0:
256,192,80661,1,8,0:0:0:0:
256,192,80827,1,0,0:0:0:0:
256,192,80994,1,0,0:0:0:0:
256,192,81161,1,0,0:0:0:0:
256,192,81244,1,0,0:0:0:0:
256,192,81327,1,8,0:0:0:0:
256,192,81494,1,8,0:0:0:0:
256,192,81661,1,0,0:0:0:0:
256,192,81827,1,0,0:0:0:0:
256,192,81911,1,0,0:0:0:0:
256,192,81994,1,8,0:0:0:0:
256,192,82077,1,0,0:0:0:0:
256,192,82161,1,8,0:0:0:0:
256,192,82327,1,0,0:0:0:0:
256,192,82494,1,8,0:0:0:0:
256,192,82577,1,8,0:0:0:0:
256,192,82661,1,0,0:0:0:0:
256,192,82744,1,0,0:0:0:0:
256,192,82827,1,8,0:0:0:0:
256,128,82994,1,4,0:0:0:0:
256,192,83327,1,8,0:0:0:0:
256,192,83661,1,0,0:0:0:0:
256,192,83827,1,0,0:0:0:0:
256,192,83994,1,8,0:0:0:0:
256,192,84161,1,8,0:0:0:0:
256,192,84327,1,0,0:0:0:0:
256,192,84494,1,0,0:0:0:0:
256,192,84577,1,0,0:0:0:0:
256,192,84661,1,8,0:0:0:0:
256,192,84827,1,0,0:0:0:0:
256,192,84911,1,8,0:0:0:0:
256,192,84994,1,0,0:0:0:0:
256,192,85161,1,0,0:0:0:0:
256,192,85327,1,8,0:0:0:0:
256,192,85661,1,0,0:0:0:0:
256,192,85827,1,0,0:0:0:0:
256,192,85994,1,8,0:0:0:0:
256,192,86161,1,8,0:0:0:0:
256,192,86244,1,8,0:0:0:0:
256,192,86327,1,0,0:0:0:0:
256,192,86494,1,0,0:0:0:0:
256,192,86661,1,8,0:0:0:0:
256,192,86827,1,8,0:0:0:0:
256,128,86994,1,4,0:0:0:0:
256,192,87327,1,8,0:0:0:0:
256,192,87494,1,0,0:0:0:0:
256,192,87661,1,8,0:0:0:0:
256,192,87827,1,0,0:0:0:0:
256,192,87911,1,0,0:0:0:0:
256,192,87994,1,8,0:0:0:0:
256,192,88077,1,8,0:0:0:0:
256,192,88161,1,8,0:0:0:0:
256,192,88244,1,8,0:0:0:0:
256,192,88327,1,0,0:0:0:0:
256,192,88661,1,8,0:0:0:0:
256,192,88827,1,0,0:0:0:0:
256,192,88911,1,0,0:0:0:0:
256,192,88994,1,0,0:0:0:0:
256,192,89161,1,0,0:0:0:0:
256,192,89327,1,8,0:0:0:0:
256,192,89494,1,8,0:0:0:0:
256,192,89577,1,8,0:0:0:0:
256,192,89661,1,0,0:0:0:0:
256,192,89827,1,0,0:0:0:0:
256,192,89994,1,8,0:0:0:0:
256,192,90161,1,0,0:0:0:0:
256,192,90244,1,0,0:0:0:0:
256,192,90327,1,8,0:0:0:0:
256,192,90411,1,8,0:0:0:0:
256,192,90494,1,0,0:0:0:0:
256,192,90661,1,8,0:0:0:0:
256,192,90827,1,8,0:0:0:0:
256,192,90994,1,0,0:0:0:0:
256,192,91327,1,8,0:0:0:0:
256,192,91494,1,8,0:0:0:0:
256,192,91661,1,0,0:0:0:0:
256,192,91827,1,0,0:0:0:0:
256,192,91994,1,8,0:0:0:0:
256,192,92161,1,0,0:0:0:0:
256,192,92327,1,8,0:0:0:0:
256,192,92494,1,0,0:0:0:0:
256,192,92577,1,0,0:0:0:0:
256,192,92661,1,8,0:0:0:0:
256,192,92827,1,8,0:0:0:0:
256,192,92994,1,0,0:0:0:0:
256,192,93161,1,0,0:0:0:0:
256,192,93244,1,0,0:0:0:0:
256,192,93327,1,8,0:0:0:0:
256,192,93411,1,0,0:0:0:0:
256,192,93494,1,8,0:0:0:0:
256,192,93661,1,0,0:0:0:0:
256,192,93994,1,8,0:0:0:0:
256,192,94161,1,8,0:0:0:0:
256,192,94244,1,8,0:0:0:0:
256,192,94327,1,0,0:0:0:0:
256,192,94494,1,0,0:0:0:0:
256,192,94661,1,8,0:0:0:0:
256,192,94994,1,0,0:0:0:0:
256,192,95161,1,0,0:0:0:0:
256,192,95327,1,8,0:0:0:0:
256,192,95494,1,0,0:0:0:0:
256,192,95661,1,8,0:0:0:0:
256,192,95827,1,0,0:0:0:0:
256,192,95911,1,0,0:0:0:0:
256,192,95994,1,8,0:0:0:0:
256,192,96077,1,8,0:0:0:0:
256,192,96161,1,0,0:0:0:0:
256,128,96327,1,12,0:0:0:0:
256,192,96661,1,0,0:0:0:0:
256,192,96827,1,0,0:0:0:0:
256,192,96994,1,8,0:0:0:0:
256,192,97494,1,8,0:0:0:0:
256,192,97661,1,0,0:0:0:0:
256,192,97994,1,0,0:0:0:0:
256,192,98327,1,8,0:0:0:0:
256,192,98661,1,0,0:0:0:0:
256,192,98827,1,8,0:0:0:0:
256,192,98994,1,0,0:0:0:0:
256,192,99494,1,0,0:0:0:0:
256,192,99661,1,8,0:0:0:0:
256,192,99994,1,8,0:0:0:0:
256,192,100161,1,8,0:0:0:0:
256,192,100327,1,0,0:0:0:0:
256,192,100494,1,8,0:0:0:0:
256,192,100661,1,0,0:0:0:0:
256,192,100994,1,8,0:0:0:0:
256,192,101327,1,0,0:0:0:0:
256,192,101661,1,0,0:0:0:0:
256,192,102161,1,0,0:0:0:0:
256,192,102327,1,8,0:0:0:0:
256,192,102661,1,8,0:0:0:0:
256,192,102994,1,0,0:0:0:0:
256,192,103327,1,0,0:0:0:0:
256,192,103494,1,0,0:0:0:0:
256,192,103661,1,8,0:0:0:0:
256,192,103994,1,8,0:0:0:0:
256,192,104327,1,0,0:0:0:0:
256,192,104994,12,0,107327,0:0:0:0:
