osu file format v14

[General]
AudioFilename: audio.mp3
AudioLeadIn: 0
PreviewTime: 46788
Countdown: 0
SampleSet: Normal
StackLeniency: 0.3
Mode: 0
LetterboxInBreaks: 0
WidescreenStoryboard: 0

[Editor]
DistanceSpacing: 0.4
BeatDivisor: 3
GridSize: 16
TimelineZoom: 1.7

[Metadata]
Title:Motto! Futari no Par~ty~Night
TitleUnicode:もっと!ふたりのパ~ティ~ナイト
Artist:Shinobu (CV: Ootsubo Yuka), Miyako (CV: Amamiya Sora)
ArtistUnicode:シノブ (CV: 大坪由佳), ミヤコ (CV: 雨宮天)
Creator:My Angel RangE
Version:Pudding In Halloween
Source:プリンセスコネクト!Re:Dive
Tags:Pudding Halloween japanese プリコネ princess connect re:dive video game priconne character song 07 short ver. cygames
BeatmapID:2166111
BeatmapSetID:1036068

[Difficulty]
HPDrainRate:5
CircleSize:4
OverallDifficulty:8.5
ApproachRate:9
SliderMultiplier:1.9
SliderTickRate:1

[Events]
//Background and Video events
0,0,"8.png",0,0
Video,-120,"284.mp4"
//Break Periods
2,40611,42112
//Storyboard Layer 0 (Background)
//Storyboard Layer 1 (Fail)
//Storyboard Layer 2 (Pass)
//Storyboard Layer 3 (Foreground)
//Storyboard Layer 4 (Overlay)
//Storyboard Sound Samples

[TimingPoints]
412,270.27027027027,4,1,2,75,1,0
412,-83.3333333333333,4,1,2,75,0,0
9060,-117.647058823529,4,1,2,40,0,0
10141,-125,4,1,2,50,0,0
18790,-111.111111111111,4,1,2,50,0,0
25817,-83.3333333333333,4,1,2,50,0,0
26357,-111.111111111111,4,1,2,50,0,0
27439,-125,4,1,2,60,0,0
36087,-125,4,1,2,60,0,0
38249,-111.111111111111,4,1,2,60,0,0
40411,-125,4,1,2,30,0,0
42574,-100,4,1,2,50,0,0
46538,-71.4285714285714,4,1,2,60,0,0
46898,-83.3333333333333,4,1,2,75,0,1
59871,-90.9090909090909,4,1,2,60,0,1
64195,-142.857142857143,4,1,2,50,0,0
68520,-125,4,1,2,20,0,0
69871,-125,4,1,2,60,0,0
70682,-125,4,1,2,50,0,0
72303,-125,4,1,2,40,0,0
73925,-125,4,1,2,30,0,0
75547,-125,4,1,2,20,0,0

[Colours]
Combo1 : 255,255,128
Combo2 : 89,255,255
Combo3 : 173,91,255
Combo4 : 0,0,170

[HitObjects]
312,284,412,6,0,B|350:307|350:307|478:291,1,151.999995361328,4|0,0:0|3:0,0:0:0:0:
291,177,682,2,0,L|141:205,1,151.999995361328,2|0,2:0|3:0,0:0:0:0:
366,71,952,2,0,B|408:131|408:131|391:209,1,151.999995361328,0|0,0:0|3:0,0:0:0:0:
133,168,1222,2,0,L|285:141,1,151.999995361328,2|0,2:0|3:0,0:0:0:0:
380,234,1493,5,0,0:0:0:0:
246,74,1673,1,0,0:0:0:0:
253,45,1763,1,0,0:0:0:0:
172,281,1943,2,0,P|142:212|-18:208,1,227.999993041992,4|0,3:0|3:0,0:0:0:0:
82,370,2303,2,0,B|142:364|142:364|167:370|167:370|252:361,1,151.999995361328,2|0,2:0|3:0,0:0:0:0:
397,285,2574,6,0,P|383:252|387:176,1,75.9999976806641,0|0,0:0|3:0,0:0:0:0:
469,146,2754,1,0,0:0:0:0:
453,166,2844,2,0,L|291:159,1,151.999995361328,2|0,2:0|3:0,0:0:0:0:
217,17,3114,2,0,L|405:32,1,151.999995361328,2|0,2:0|3:0,0:0:0:0:
279,184,3384,2,0,L|127:194,1,151.999995361328,2|0,2:0|3:0,0:0:0:0:
26,241,3655,5,0,0:0:0:0:
194,45,3835,1,0,0:0:0:0:
190,77,3925,1,0,0:0:0:0:
293,292,4105,1,0,0:0:0:0:
297,257,4195,2,0,P|333:252|365:227,2,75.9999976806641,8|8|0,3:0|3:0|3:0,0:0:0:0:
200,121,4466,2,0,L|194:38,2,75.9999976806641,4|4|4,3:0|3:0|3:0,0:0:0:0:
147,275,4736,6,0,L|302:257,1,151.999995361328,4|0,0:0|3:0,0:0:0:0:
321,107,5006,2,0,L|166:125,1,151.999995361328,2|0,2:0|3:0,0:0:0:0:
398,31,5276,2,0,B|439:95|439:95|412:166,1,151.999995361328,0|0,0:0|3:0,0:0:0:0:
244,181,5547,2,0,B|203:117|203:117|230:46,1,151.999995361328,2|0,2:0|3:0,0:0:0:0:
376,359,5817,6,0,P|311:288|221:295,1,151.999995361328,0|0,0:0|3:0,0:0:0:0:
193,336,6087,1,2,2:0:0:0:
39,159,6267,1,0,0:0:0:0:
55,177,6357,2,0,P|90:177|140:136,2,75.9999976806641,4|4|0,3:0|3:0|3:0,0:0:0:0:
239,99,6628,2,0,P|150:135|176:45,1,227.999993041992,4|0,1:0|3:0,0:0:0:0:
219,322,7078,6,0,L|180:58,1,227.999993041992,4|0,1:0|3:0,0:0:0:0:
133,297,7439,2,0,P|114:225|56:178,1,151.999995361328,4|0,0:0|3:0,0:0:0:0:
341,140,7709,2,0,P|294:198|291:273,1,151.999995361328,4|0,0:0|3:0,0:0:0:0:
361,326,7979,1,0,3:0:0:0:
456,143,8159,1,2,3:0:0:0:
467,173,8249,1,2,3:0:0:0:
269,51,8430,1,4,0:0:0:0:
269,51,9060,6,0,P|315:25|385:33,1,107.666668720245
194,107,9330,2,0,P|140:108|94:82,1,107.666668720245,0|0,0:0|0:0,0:0:0:0:
278,140,9601,2,0,L|266:324,1,161.500003080368,0|0,0:0|0:0,0:0:0:0:
126,243,10141,5,0,0:0:0:0:
238,104,10682,1,0,0:0:0:0:
371,249,11222,2,0,L|89:273,1,253.333333333333,4|4,3:0|3:0,0:0:0:0:
205,338,11763,2,0,L|341:327,1,101.333333333333,0|0,1:0|2:0,1:1:0:0:
388,373,12033,1,4,3:0:0:0:
145,128,12484,5,0,0:0:0:0:
126,316,12844,2,0,P|198:301|240:254,1,101.333333333333,0|0,0:0|3:0,0:0:0:0:
221,188,13114,1,0,0:0:0:0:
46,119,13384,6,0,P|23:209|52:283,1,152,0|0,0:0|3:0,0:0:0:0:
221,188,13835,1,0,1:0:0:0:
202,165,13925,1,0,0:0:0:0:
37,99,14466,5,0,0:0:0:0:
252,56,15006,1,0,0:0:0:0:
42,236,15547,2,0,B|104:217|104:217|133:224|133:224|206:201,1,152,4|0,3:0|3:0,0:0:0:0:
328,82,15997,2,0,P|307:157|350:236,1,152,4|0,3:0|3:0,0:0:0:0:
444,265,16357,1,4,3:0:0:0:
278,314,16808,5,0,0:0:0:0:
465,201,17168,1,0,0:0:0:0:
505,340,17439,1,0,0:0:0:0:
469,173,17709,5,0,0:0:0:0:
222,237,17979,1,0,0:0:0:0:
336,364,18249,5,8,3:0:0:0:
333,323,18339,1,8,3:0:0:0:
331,283,18430,1,8,3:0:0:0:
312,247,18520,5,4,3:0:0:0:
315,216,18610,1,4,3:0:0:0:
318,186,18700,1,4,3:0:0:0:
322,156,18790,5,4,0:0:0:0:
211,343,19330,1,0,0:0:0:0:
70,268,19871,2,0,B|137:257|137:257|161:234|161:234|267:217,1,170.999994781494,4|0,3:0|3:0,0:0:0:0:
403,345,20321,2,0,L|220:336,1,170.999994781494,4|0,3:0|3:0,0:0:0:0:
239,243,20682,1,4,3:0:0:0:
128,326,20952,5,0,0:0:0:0:
70,268,21132,2,0,P|149:247|207:305,1,170.999994781494
128,326,21492,1,0,0:0:0:0:
166,192,21763,1,0,0:0:0:0:
304,369,22033,6,0,P|310:313|285:264,1,113.999996520996,0|0,0:0|3:0,0:0:0:0:
228,331,22303,1,0,0:0:0:0:
337,179,22484,2,0,L|137:195,1,170.999994781494,0|0,0:0|3:0,0:0:0:0:
88,200,22844,1,0,0:0:0:0:
280,108,23114,5,0,0:0:0:0:
398,268,23655,1,0,0:0:0:0:
327,37,24195,2,0,P|243:29|197:97,1,170.999994781494,4|0,3:0|3:0,0:0:0:0:
302,271,24646,2,0,B|315:227|315:227|281:107,1,170.999994781494,4|0,3:0|3:0,0:0:0:0:
253,19,25006,1,4,3:0:0:0:
96,104,25186,6,0,L|176:112,1,56.9999982604981,0|0,0:0|0:0,0:0:0:0:
378,202,25457,2,0,L|171:225,1,170.999994781494,4|0,0:0|3:0,0:0:0:0:
273,140,25817,6,0,P|305:227|260:318,1,151.999995361328,4|0,0:0|3:0,0:0:0:0:
139,301,26087,2,0,P|107:214|152:123,1,151.999995361328,4|0,0:0|3:0,0:0:0:0:
187,65,26357,5,4,0:0:0:0:
249,194,26538,2,0,L|60:176,1,170.999994781494,8|8,3:0|3:0,0:0:0:0:
25,315,26898,2,0,L|138:300,1,113.999996520996,8|4,3:0|3:0,0:0:0:0:
170,295,27168,1,4,3:0:0:0:
355,233,27348,1,4,3:0:0:0:
331,225,27439,6,0,P|282:196|256:121,1,101.333333333333,4|0,0:0|3:0,0:0:0:0:
150,70,27709,2,0,P|174:154|172:204,1,101.333333333333,0|0,0:0|3:0,0:0:0:0:
118,232,27979,1,0,0:0:0:0:
19,109,28159,1,8,3:0:0:0:
45,129,28249,2,0,P|90:107|139:95,1,101.333333333333,4|0,3:0|3:0,0:0:0:0:
199,143,28520,6,0,P|257:144|309:119,1,101.333333333333,0|0,0:0|3:0,0:0:0:0:
355,21,28790,2,0,P|328:63|318:113,1,101.333333333333,0|0,0:0|3:0,0:0:0:0:
401,150,29060,1,0,0:0:0:0:
209,50,29240,1,8,3:0:0:0:
238,61,29330,2,0,L|258:197,1,101.333333333333,4|0,3:0|3:0,0:0:0:0:
311,306,29601,6,0,L|334:175,1,101.333333333333,0|0,0:0|3:0,0:0:0:0:
204,361,29871,2,0,L|181:230,1,101.333333333333,0|0,0:0|3:0,0:0:0:0:
167,146,30141,1,0,0:0:0:0:
106,311,30321,1,8,3:0:0:0:
121,328,30411,2,0,P|67:340|5:377,1,101.333333333333,4|0,3:0|3:0,0:0:0:0:
204,361,30682,6,0,P|265:349|320:307,1,101.333333333333,0|0,0:0|3:0,0:0:0:0:
261,215,30952,2,0,P|200:227|145:269,1,101.333333333333,0|0,0:0|3:0,0:0:0:0:
347,244,31222,1,8,3:0:0:0:
265,100,31402,1,8,3:0:0:0:
270,122,31493,1,4,3:0:0:0:
389,352,31763,6,0,L|501:345,1,101.333333333333,0|0,0:0|3:0,0:0:0:0:
480,236,32033,2,0,L|368:243,1,101.333333333333,0|0,0:0|3:0,0:0:0:0:
308,305,32303,1,0,0:0:0:0:
392,74,32483,1,8,3:0:0:0:
370,57,32574,2,0,P|348:106|358:155,1,101.333333333333,4|0,3:0|3:0,0:0:0:0:
331,245,32844,6,0,P|380:246|422:219,1,101.333333333333,0|0,0:0|3:0,0:0:0:0:
266,170,33114,2,0,P|216:168|174:195,1,101.333333333333,0|0,0:0|3:0,0:0:0:0:
146,271,33384,1,0,0:0:0:0:
317,360,33564,1,8,3:0:0:0:
341,345,33655,2,0,L|330:242,1,101.333333333333,4|0,3:0|3:0,0:0:0:0:
365,99,33925,6,0,P|314:109|271:155,1,101.333333333333,0|0,0:0|3:0,0:0:0:0:
457,243,34195,2,0,L|447:111,1,101.333333333333,0|0,0:0|3:0,0:0:0:0:
444,43,34465,1,0,0:0:0:0:
278,174,34645,1,8,3:0:0:0:
295,151,34736,2,0,P|223:133|159:136,1,101.333333333333,4|0,3:0|3:0,0:0:0:0:
114,249,35006,6,0,P|175:237|230:195,1,101.333333333333,0|0,0:0|3:0,0:0:0:0:
12,204,35276,2,0,P|89:229|134:224,1,101.333333333333,0|0,0:0|3:0,0:0:0:0:
156,142,35547,1,0,0:0:0:0:
292,250,35727,1,0,0:0:0:0:
302,219,35817,1,0,0:0:0:0:
62,350,36087,5,4,0:0:0:0:
279,62,36628,1,4,3:0:0:0:
336,133,36763,1,0,0:0:0:0:
272,196,36898,2,0,L|136:205,1,101.333333333333,0|0,0:0|3:0,0:0:0:0:
89,19,37168,6,0,P|56:57|47:106,1,101.333333333333,0|8,0:0|3:0,0:0:0:0:
155,150,37439,2,0,P|187:111|196:62,1,101.333333333333,4|0,3:0|3:0,0:0:0:0:
106,237,37709,2,0,L|232:227,1,101.333333333333,0|0,0:0|3:0,0:0:0:0:
66,329,37979,2,0,L|192:319,1,101.333333333333,0|0,0:0|3:0,0:0:0:0:
289,376,38249,6,0,P|283:316|304:249,1,113.999996520996,2|0,2:0|3:0,0:0:0:0:
377,126,38520,2,0,P|390:181|384:237,1,113.999996520996,0|0,0:0|3:0,0:0:0:0:
330,35,38790,2,0,L|489:48,1,113.999996520996,0|0,0:0|3:0,0:0:0:0:
282,169,39060,2,0,L|123:182,1,113.999996520996,0|0,0:0|3:0,0:0:0:0:
281,34,39330,5,2,2:0:0:0:
97,220,39601,1,0,0:0:0:0:
193,106,39781,1,4,3:0:0:0:
198,133,39871,1,4,3:0:0:0:
98,27,40141,1,0,0:0:0:0:
272,248,40411,5,4,0:0:0:0:
93,180,42754,6,0,L|311:156,1,190,4|0,0:0|3:0,0:0:0:0:
306,56,43114,2,0,P|242:59|190:113,1,126.666666666667,0|0,0:0|3:0,0:0:0:0:
257,262,43384,2,0,P|321:259|373:205,1,126.666666666667,0|0,0:0|3:0,0:0:0:0:
118,92,43655,6,0,P|120:123|136:150,2,63.3333333333333,8|8|8,3:0|3:0|3:0,0:0:0:0:
114,227,43925,2,0,P|175:219|212:170,1,126.666666666667,4|4,3:0|3:0,3:3:0:0:
330,282,44195,6,0,P|343:197|317:130,1,126.666666666667,0|0,0:0|3:0,0:0:0:0:
138,246,44466,2,0,P|126:307|140:369,1,126.666666666667,0|0,0:0|3:0,0:0:0:0:
300,274,44736,1,0,0:0:0:0:
369,31,44916,6,0,L|182:65,1,190,4|0,0:0|3:0,0:0:0:0:
6,62,45276,2,0,P|29:76|49:123,2,63.3333333333333
59,141,45547,2,0,P|63:82|161:29,1,126.666666666667,0|0,0:0|3:0,0:0:0:0:
141,250,45817,6,0,L|2:275,1,126.666666666667,0|0,0:0|3:0,0:0:0:0:
320,142,46087,2,0,L|181:167,1,126.666666666667,0|0,0:0|3:0,0:0:0:0:
404,75,46357,1,0,0:0:0:0:
316,283,46538,6,0,L|324:-10,1,265.999991882324,4|0,0:0|2:0,0:0:0:0:
458,170,46898,6,0,P|373:164|303:221,1,151.999995361328,4|0,0:0|3:0,0:0:0:0:
194,99,47168,2,0,L|179:299,1,151.999995361328,2|0,2:0|3:0,0:0:0:0:
276,384,47439,2,0,L|287:232,1,151.999995361328,0|0,0:0|3:0,0:0:0:0:
457,324,47709,2,0,L|381:335,1,75.9999976806641,2|0,2:0|3:0,0:0:0:0:
168,278,47889,6,0,L|393:243,1,227.999993041992,0|0,0:0|3:0,0:0:0:0:
240,88,48249,2,0,B|203:66|203:66|219:180,1,151.999995361328,2|0,2:0|3:0,0:0:0:0:
343,344,48520,2,0,P|304:281|232:267,1,151.999995361328,0|0,0:0|3:0,0:0:0:0:
98,327,48790,2,0,L|107:236,1,75.9999976806641,2|0,2:0|3:0,0:0:0:0:
200,371,48970,6,0,L|176:144,1,227.999993041992,0|0,0:0|3:0,0:0:0:0:
7,36,49330,2,0,B|40:58|40:58|172:40,1,151.999995361328,2|0,2:0|3:0,0:0:0:0:
25,165,49601,2,0,L|249:134,1,151.999995361328,0|0,0:0|3:0,0:0:0:0:
308,82,49871,2,0,L|204:76,1,75.9999976806641,2|0,2:0|3:0,0:0:0:0:
400,14,50051,6,0,B|377:47|377:47|406:208,1,151.999995361328,0|0,0:0|3:0,0:0:0:0:
480,158,50321,1,0,2:0:0:0:
440,84,50411,2,0,P|352:80|315:146,1,151.999995361328,4|0,3:0|3:0,0:0:0:0:
404,304,50682,2,0,P|416:229|396:157,1,151.999995361328,0|0,1:0|3:0,0:0:0:0:
217,57,50952,2,0,P|205:131|225:204,1,151.999995361328,2|0,2:0|3:0,0:0:0:0:
297,17,51222,6,0,L|124:6,1,151.999995361328,0|0,0:0|3:0,0:0:0:0:
20,146,51493,2,0,L|193:135,1,151.999995361328,2|0,2:0|3:0,0:0:0:0:
347,255,51763,2,0,P|322:149|238:82,1,151.999995361328,0|0,0:0|3:0,0:0:0:0:
154,170,52033,2,0,P|179:276|263:343,1,151.999995361328,2|0,2:0|3:0,0:0:0:0:
196,70,52303,6,0,L|-19:100,1,151.999995361328,0|0,0:0|3:0,0:0:0:0:
289,4,52574,1,0,1:0:0:0:
381,177,52754,2,0,L|90:167,1,227.999993041992,0|0,0:0|3:0,0:0:0:0:
62,320,53114,2,0,P|164:286|219:244,1,151.999995361328,2|0,2:0|3:0,0:0:0:0:
33,122,53384,6,0,L|52:290,1,151.999995361328,0|0,0:0|3:0,0:0:0:0:
239,340,53655,2,0,L|256:188,1,151.999995361328,0|0,0:0|3:0,0:0:0:0:
105,362,53925,2,0,P|150:258|121:191,1,151.999995361328,0|0,0:0|3:0,0:0:0:0:
139,7,54195,2,0,P|134:81|176:143,1,151.999995361328,0|0,0:0|3:0,0:0:0:0:
249,96,54466,5,0,0:0:0:0:
391,199,54646,1,0,0:0:0:0:
367,220,54736,2,0,L|238:235,1,75.9999976806641,0|0,0:0|3:0,0:0:0:0:
231,326,54916,1,8,3:0:0:0:
265,341,55006,2,0,L|450:319,1,151.999995361328,4|0,3:0|3:0,0:0:0:0:
365,185,55276,2,0,L|169:206,1,151.999995361328,0|0,0:0|3:0,0:0:0:0:
327,82,55547,6,0,P|401:78|457:127,1,151.999995361328,4|0,0:0|3:0,0:0:0:0:
402,285,55817,2,0,P|327:289|272:240,1,151.999995361328,2|0,2:0|3:0,0:0:0:0:
164,59,56087,2,0,L|175:211,1,151.999995361328,0|0,0:0|3:0,0:0:0:0:
194,371,56357,2,0,P|196:329|214:257,1,75.9999976806641,2|0,2:0|3:0,0:0:0:0:
325,156,56538,6,0,L|100:191,1,227.999993041992,0|0,0:0|3:0,0:0:0:0:
125,54,56898,2,0,P|200:78|284:77,1,151.999995361328,2|0,2:0|3:0,0:0:0:0:
468,11,57168,2,0,P|420:69|417:144,1,151.999995361328,0|0,0:0|3:0,0:0:0:0:
495,281,57439,2,0,P|495:236|485:189,1,75.9999976806641,2|0,2:0|3:0,0:0:0:0:
397,365,57619,6,0,P|390:259|276:242,1,227.999993041992,0|0,0:0|3:0,0:0:0:0:
173,336,57979,2,0,L|324:317,1,151.999995361328,2|0,2:0|3:0,0:0:0:0:
416,143,58249,2,0,L|265:162,1,151.999995361328,0|0,0:0|3:0,0:0:0:0:
198,46,58520,2,0,P|207:122|268:163,1,151.999995361328,2|0,2:0|3:0,0:0:0:0:
477,245,58790,6,0,P|430:189|356:183,1,151.999995361328,0|0,0:0|3:0,0:0:0:0:
174,319,59060,2,0,P|247:313|295:256,1,151.999995361328,0|0,0:0|3:0,0:0:0:0:
202,78,59330,2,0,L|208:230,1,151.999995361328,0|0,0:0|3:0,0:0:0:0:
350,335,59601,2,0,L|355:183,1,151.999995361328,0|0,0:0|3:0,0:0:0:0:
425,110,59871,6,0,B|358:67|280:110|280:110|214:147|137:116,1,278.666675170899,4|0,0:0|3:0,0:0:0:0:
229,46,60321,2,0,P|265:121|179:227,1,209.000006378174,4|0,0:0|3:0,0:0:0:0:
82,199,60682,2,0,P|46:124|132:18,1,209.000006378174,4|0,0:0|2:0,0:0:0:0:
233,217,61132,5,8,3:0:0:0:
203,219,61222,1,12,3:0:0:0:
301,125,61402,1,8,3:0:0:0:
270,116,61493,1,8,3:0:0:0:
376,219,61673,1,4,3:0:0:0:
342,226,61763,1,4,3:0:0:0:
418,102,61943,1,4,3:0:0:0:
380,85,62033,5,4,0:0:0:0:
480,237,62213,2,0,L|455:28,1,209.000006378174,4|0,3:0|3:0,0:0:0:0:
354,270,62574,2,0,P|380:193|377:114,1,139.333337585449,4|0,3:0|3:0,0:0:0:0:
251,50,62844,2,0,P|253:119|277:184,1,139.333337585449,4|0,3:0|3:0,0:0:0:0:
492,104,63114,6,0,L|328:96,1,139.333337585449,4|0,0:0|3:0,0:0:0:0:
209,226,63384,2,0,L|373:218,1,139.333337585449,4|0,0:0|3:0,0:0:0:0:
452,259,63655,1,8,3:0:0:0:
165,125,63835,1,4,3:0:0:0:
168,286,64195,6,0,P|161:222|20:210,1,221.666659901937,4|0,0:0|3:0,0:0:0:0:
86,264,64736,2,0,B|135:230|189:258|189:258|250:288|323:237,1,221.666659901937,0|0,0:0|3:0,0:0:0:0:
226,175,65276,2,0,P|194:285|268:354,1,221.666659901937,0|0,0:0|3:0,0:0:0:0:
369,332,65817,2,0,P|401:222|327:153,1,221.666659901937,0|0,0:0|3:0,0:0:0:0:
197,77,66357,6,0,L|435:54,1,221.666659901937,0|0,0:0|3:0,0:0:0:0:
322,179,66898,2,0,L|92:156,1,221.666659901937,0|0,0:0|3:0,0:0:0:0:
21,46,67439,2,0,B|64:81|64:81|74:270,1,221.666659901937,0|0,0:0|3:0,0:0:0:0:
208,349,67979,2,0,B|165:314|165:314|155:125,1,221.666659901937,0|0,0:0|3:0,0:0:0:0:
154,49,68520,5,2,2:0:0:0:
418,141,69870,5,8,3:0:0:0:
414,181,69960,1,8,3:0:0:0:
410,221,70050,1,8,3:0:0:0:
424,259,70140,5,4,3:0:0:0:
425,284,70230,1,4,3:0:0:0:
426,309,70320,1,4,3:0:0:0:
428,334,70411,5,4,3:0:0:0:
314,66,70682,1,4,0:0:0:0:
256,192,70772,12,0,76628,0:0:0:0:
