osu file format v14

[General]
AudioFilename: audio.mp3
AudioLeadIn: 0
PreviewTime: 57999
Countdown: 0
SampleSet: Soft
StackLeniency: 0.7
Mode: 0
LetterboxInBreaks: 0
WidescreenStoryboard: 1

[Editor]
DistanceSpacing: 1.2
BeatDivisor: 4
GridSize: 32
TimelineZoom: 1.7

[Metadata]
Title:Re:Create
TitleUnicode:Re:Create
Artist:Shinkai Masayo
ArtistUnicode:新海雅代
Creator:ckharv
Version:Hard
Source:創作彼女の恋愛公式
Tags:Aino+Links aino links Sousaku Kanojo no Ren'ai Koushiki renai vn visual novel galgame galge eroge ending ed japanese pop j-pop short version video game recreate
BeatmapID:3477432
BeatmapSetID:1700007

[Difficulty]
HPDrainRate:5
CircleSize:3.5
OverallDifficulty:6
ApproachRate:7.5
SliderMultiplier:1.6
SliderTickRate:1

[Events]
//Background and Video events
0,0,"yumemi.jpeg",0,0
//Break Periods
//Storyboard Layer 0 (Background)
//Storyboard Layer 1 (Fail)
//Storyboard Layer 2 (Pass)
//Storyboard Layer 3 (Foreground)
//Storyboard Layer 4 (Overlay)
//Storyboard Sound Samples

[TimingPoints]
827,314.13612565445,4,2,1,50,1,0
2083,-166.666666666667,4,2,1,50,0,0
10722,-166.666666666667,4,2,1,5,0,0
10879,-166.666666666667,4,2,1,65,0,0
11036,-166.666666666667,4,2,1,65,0,0
11193,-100,4,2,1,65,0,0
12135,-100,4,2,1,80,0,0
22188,-133.333333333333,4,2,1,65,0,0
27135,-133.333333333333,4,2,1,5,0,0
27214,-133.333333333333,4,2,1,65,0,0
31141,-133.333333333333,4,2,1,70,0,0
32240,-113.636363636364,4,2,1,70,0,0
36245,-113.636363636364,4,2,1,5,0,0
36324,-113.636363636364,4,2,1,70,0,0
36559,-113.636363636364,4,2,1,5,0,0
36638,-113.636363636364,4,2,1,70,0,0
41978,-113.636363636364,4,2,1,60,0,0
42292,-166.666666666667,4,2,1,50,0,0
47319,-113.636363636364,4,2,1,65,0,0
49832,-113.636363636364,4,2,1,60,0,0
52345,-113.636363636364,4,2,1,50,0,0
54858,-113.636363636364,4,2,1,70,0,0
55957,-113.636363636364,4,2,1,75,0,0
56743,-113.636363636364,4,2,1,80,0,0
57057,-113.636363636364,4,2,1,85,0,0
57449,-113.636363636364,4,2,1,5,0,0
57528,-113.636363636364,4,2,1,85,0,0
57999,-113.636363636364,4,2,1,70,0,0
58313,-113.636363636364,4,2,1,65,0,0
58628,-100,4,2,1,80,0,1
67423,-100,4,2,1,75,0,0
67737,-100,4,2,1,85,0,0
67894,-100,4,2,1,80,0,0
68366,-100,4,2,1,75,0,0
68680,-100,4,2,1,85,0,1
68837,-100,4,2,1,80,0,1
71114,-100,4,2,1,5,0,1
71193,-100,4,2,1,80,0,1
71664,-100,4,2,1,70,0,1
71821,-100,4,2,1,80,0,1
72292,-100,4,2,1,70,0,1
72450,-100,4,2,1,80,0,1
72921,-100,4,2,1,70,0,1
73078,-100,4,2,1,80,0,1
73706,-100,4,2,1,85,0,1
73863,-100,4,2,1,80,0,1
77476,-100,4,2,1,75,0,0
77790,-100,4,2,1,85,0,0
77947,-100,4,2,1,80,0,0
78418,-100,4,2,1,75,0,0
78732,-100,4,2,1,85,0,1
83758,-166.666666666667,4,2,1,80,0,0
84072,-166.666666666667,4,2,1,60,0,0
86272,-166.666666666667,4,2,1,70,0,0
86586,-166.666666666667,4,2,1,50,0,0
86743,-166.666666666667,4,2,1,55,0,0
86900,-133.333333333333,4,2,1,60,0,0
87057,-133.333333333333,4,2,1,65,0,0
87214,-111.111111111111,4,2,1,70,0,0
87371,-111.111111111111,4,2,1,75,0,0
87528,-166.666666666667,4,2,1,80,0,0
88706,-166.666666666667,4,2,1,5,0,0
88785,-100,4,2,1,80,0,0
96324,-100,4,2,1,85,0,0
98837,-100,4,2,1,45,0,0
103549,-100,4,2,1,15,0,0

[Colours]
Combo1 : 253,225,162
Combo2 : 252,141,114
Combo3 : 233,233,233
Combo4 : 150,158,209

[HitObjects]
35,350,2083,6,0,P|79:339|137:328,1,95.9999999999998,10|0,2:1|2:0,0:0:0:0:
199,279,2554,2,0,P|214:224|143:155,1,144,10|10,2:1|2:1,0:0:0:0:
112,62,3340,6,0,B|149:32|149:32|196:47,1,95.9999999999998,2|0,2:0|2:0,0:0:0:0:
252,111,3811,2,0,B|299:126|299:126|336:96,1,95.9999999999998,2|0,2:0|2:0,0:0:0:0:
393,32,4282,1,10,2:1:0:0:
490,122,4596,6,0,P|477:176|467:234,1,95.9999999999998,10|2,2:1|2:0,0:0:0:0:
427,292,5067,1,10,2:1:0:0:
427,292,5224,2,0,P|379:296|339:265,1,95.9999999999998,0|10,2:0|2:1,0:0:0:0:
231,230,5853,6,0,B|196:267|196:267|212:327,1,95.9999999999998,2|0,2:0|2:0,0:0:0:0:
144,369,6324,2,0,P|99:356|45:344,1,95.9999999999998,2|0,2:0|2:0,0:0:0:0:
0,274,6795,2,0,P|8:240|27:219,1,47.9999999999999,8|8,2:0|2:1,0:0:0:0:
86,181,7109,6,0,P|74:139|52:76,1,95.9999999999998,10|2,2:0|2:0,0:0:0:0:
118,28,7580,2,0,P|148:57|216:49,1,95.9999999999998,8|0,2:0|0:0,0:0:0:0:
268,4,8052,1,10,2:0:0:0:
361,106,8366,5,2,2:0:0:0:
361,106,8523,2,0,P|401:95|427:93,1,47.9999999999999,8|0,2:0|2:0,0:0:0:0:
487,138,8837,1,2,2:0:0:0:
487,138,8994,2,0,P|497:175|491:200,1,47.9999999999999,8|0,2:0|2:0,0:0:0:0:
443,252,9308,2,0,P|419:256|396:263,1,47.9999999999999,8|0,2:0|2:0,0:0:0:0:
328,210,9622,5,2,2:0:0:0:
256,192,9701,12,0,10722,2:0:0:0:
189,318,11036,5,6,2:0:0:0:
189,318,11193,2,0,P|139:303|93:295,1,80,6|8,2:0|2:1,0:0:0:0:
31,244,11507,2,0,L|43:192,3,40,8|8|8|8,2:3|2:3|2:3|2:3,0:0:0:0:
71,168,11821,2,0,L|59:116,3,40,8|8|8|8,2:1|2:1|2:1|2:1,0:0:0:0:
32,91,12135,6,0,B|94:41|94:41|181:68,1,160,6|8,2:1|2:0,0:0:0:0:
245,125,12607,2,0,P|294:111|345:102,1,80,8|8,2:1|2:1,0:0:0:0:
408,148,12921,2,0,P|428:198|399:251,1,80,10|8,2:1|2:0,0:0:0:0:
357,292,13235,2,0,P|291:273|186:252,1,160,10|8,2:1|2:1,0:0:0:0:
132,321,13706,1,8,2:0:0:0:
56,261,13863,2,0,P|48:206|71:170,1,80,10|8,2:1|2:1,0:0:0:0:
126,118,14177,2,0,P|182:136|214:143,1,80,10|8,2:1|2:0,0:0:0:0:
261,65,14491,2,0,P|292:27|407:52,1,160,10|0,2:1|0:0,0:0:0:0:
459,106,14963,1,8,2:0:0:0:
396,178,15120,6,0,P|343:161|308:152,1,80,10|8,2:1|2:1,0:0:0:0:
262,231,15434,2,0,P|212:251|182:270,1,80,10|8,2:1|2:0,0:0:0:0:
102,223,15748,2,0,B|60:156|60:156|107:73,1,160,10|8,2:1|2:1,0:0:0:0:
161,11,16219,1,10,2:0:0:0:
245,57,16376,2,0,P|271:87|256:156,1,80,10|8,2:1|2:1,0:0:0:0:
202,190,16690,1,10,2:1:0:0:
202,190,16847,2,0,P|184:245|209:290,1,80,8|8,2:0|2:1,0:0:0:0:
252,337,17162,6,0,B|313:321|313:321|352:345|352:345|427:329,1,160,6|8,2:1|2:0,0:0:0:0:
484,284,17633,2,0,P|484:237|442:197,1,80,10|8,2:1|2:1,0:0:0:0:
390,152,17947,2,0,P|334:172|301:179,1,80,10|8,2:1|2:0,0:0:0:0:
248,246,18261,2,0,B|196:182|196:182|235:106,1,160,10|8,2:1|2:1,0:0:0:0:
213,18,18732,1,10,2:0:0:0:
135,74,18889,2,0,P|83:59|51:53,1,80,10|8,2:1|2:1,0:0:0:0:
2,132,19203,2,0,P|-12:171|14:219,1,80,10|8,2:1|2:0,0:0:0:0:
64,277,19518,1,0,2:0:0:0:
130,207,19675,6,0,P|179:227|215:237,1,80,4|8,2:0|2:1,0:0:0:0:
198,330,19989,2,0,P|248:313|283:298,1,80,4|8,2:0|2:1,0:0:0:0:
333,377,20303,2,0,P|361:331|377:297,1,80,4|8,2:0|2:1,0:0:0:0:
467,317,20617,2,0,P|459:264|450:227,1,80,4|8,2:0|2:1,0:0:0:0:
511,162,20931,2,0,P|471:125|440:103,1,80,4|8,2:0|2:1,0:0:0:0:
405,24,21245,1,4,2:0:0:0:
405,24,21324,1,2,2:1:0:0:
405,24,21402,2,0,P|362:38|349:41,2,40,2|2|10,2:1|2:1|2:0,0:0:0:0:
335,127,21717,1,10,2:0:0:0:
171,46,22031,5,2,2:0:0:0:
171,46,22188,2,0,P|117:23|52:72,1,120,4|10,2:0|2:1,0:0:0:0:
61,141,22659,1,0,2:0:0:0:
61,141,22816,2,0,P|102:150|182:178,1,120.000004577637,10|10,2:1|2:1,0:0:0:0:
265,178,23287,6,0,B|287:120|287:120|246:61,1,120,2|2,2:1|2:1,0:0:0:0:
329,23,23758,2,0,P|364:38|393:39,1,60.0000022888184,10|0,2:1|2:0,0:0:0:0:
446,106,24073,2,0,P|416:109|389:122,1,60.0000022888184,10|0,2:1|2:0,0:0:0:0:
352,208,24387,1,10,2:1:0:0:
352,208,24544,1,0,2:0:0:0:
441,212,24701,6,0,B|464:266|464:266|420:333,1,120,10|10,2:1|2:1,0:0:0:0:
368,382,25172,1,2,2:0:0:0:
292,333,25329,2,0,P|234:310|160:295,1,120.000004577637,8|10,2:1|2:1,0:0:0:0:
102,258,25800,1,0,2:0:0:0:
102,258,25957,2,0,P|120:181|131:125,1,120,10|8,2:1|2:1,0:0:0:0:
250,8,26586,1,10,2:1:0:0:
352,155,26900,2,0,P|412:135|451:125,1,90.0000000000002,2|0,2:1|2:0,0:0:0:0:
468,94,27214,6,0,B|505:151|505:151|476:223,1,120,10|8,2:1|2:1,0:0:0:0:
425,266,27685,2,0,P|369:251|291:239,1,120,2|0,2:0|2:1,0:0:0:0:
240,180,28156,2,0,P|246:138|271:112,1,60.0000000000001,10|0,2:1|2:0,0:0:0:0:
220,41,28470,2,0,B|174:2|174:2|109:13,1,120,10|10,2:1|2:1,0:0:0:0:
46,71,28942,2,0,P|19:128|54:184,1,120,2|0,2:0|2:1,0:0:0:0:
105,238,29413,1,10,2:1:0:0:
243,260,29727,6,0,P|258:300|260:340,1,60.0000000000001,10|0,2:1|2:0,0:0:0:0:
331,371,30041,2,0,P|371:356|411:354,1,60.0000000000001,10|0,2:1|2:0,0:0:0:0:
431,274,30355,2,0,P|416:234|414:194,1,60.0000000000001,10|0,2:1|2:0,0:0:0:0:
342,162,30669,2,0,B|302:177|278:177|278:177|271:144|260:126,1,120,10|8,2:1|2:1,0:0:0:0:
214,54,31141,1,12,2:0:0:0:
214,54,31298,2,0,P|170:36|142:41,1,60.0000000000001,12|8,2:0|2:1,0:0:0:0:
92,97,31612,1,10,2:0:0:0:
92,97,31769,1,10,2:0:0:0:
226,186,32083,5,2,2:0:0:0:
226,186,32240,2,0,P|266:174|303:167,1,70.3999999999998,4|0,2:0|2:0,0:0:0:0:
369,220,32554,1,10,2:0:0:0:
415,141,32711,1,0,2:0:0:0:
491,190,32868,2,0,B|525:254|525:254|484:332,1,140.8,10|10,2:1|2:0,0:0:0:0:
415,363,33340,6,0,P|367:344|275:327,1,140.8,2|8,2:0|2:1,0:0:0:0:
204,379,33811,1,10,2:0:0:0:
162,297,33968,1,0,2:0:0:0:
85,347,34125,2,0,P|44:286|71:225,1,140.8,10|10,2:1|2:0,0:0:0:0:
219,128,34753,6,0,B|283:159|283:159|359:109,1,140.8,10|10,2:1|2:0,0:0:0:0:
403,53,35224,1,2,2:0:0:0:
467,118,35381,2,0,P|504:165|468:261,1,140.8,8|10,2:1|2:0,0:0:0:0:
434,313,35853,1,2,2:0:0:0:
347,283,36010,6,0,P|305:300|266:307,1,70.3999999999998,8|0,2:1|0:0,0:0:0:0:
213,367,36324,2,0,P|162:346|133:338,1,70.3999999999998,8|0,2:0|0:0,0:0:0:0:
74,295,36638,1,10,2:1:0:0:
74,295,36795,1,10,2:1:0:0:
139,231,36952,2,0,P|151:196|135:164,1,70.3999999999998,8|0,2:0|2:0,0:0:0:0:
60,117,37266,6,0,P|100:131|186:68,1,140.8,4|10,2:0|2:0,0:0:0:0:
228,7,37737,2,0,P|268:-7|354:55,1,140.8,2|8,2:0|2:1,0:0:0:0:
387,121,38209,2,0,P|437:107|469:102,1,70.3999999999998,10|0,2:0|2:0,0:0:0:0:
509,177,38523,2,0,P|489:258|478:330,1,140.8,10|10,2:1|2:0,0:0:0:0:
400,358,38994,2,0,P|336:305|274:322,1,140.8,2|8,2:0|2:1,0:0:0:0:
219,377,39465,1,10,2:0:0:0:
91,289,39779,6,0,P|106:237|110:210,1,70.3999999999998,10|0,2:1|2:0,0:0:0:0:
175,158,40094,2,0,P|227:173|254:177,1,70.3999999999998,10|0,2:0|2:0,0:0:0:0:
302,245,40408,2,0,P|291:278|284:312,1,70.3999999999998,10|8,2:1|2:1,0:0:0:0:
219,377,40722,2,0,P|167:362|140:358,1,70.3999999999998,10|0,2:0|2:0,0:0:0:0:
91,289,41036,2,0,B|76:218|76:218|139:150,1,140.8,10|12,2:1|2:0,0:0:0:0:
199,118,41507,1,2,2:0:0:0:
128,59,41664,6,0,B|104:45|104:45|74:51,2,46.9333333333332,8|8|8,2:3|2:3|2:3,0:0:0:0:
179,26,41978,1,8,2:3:0:0:
306,141,42292,6,0,P|353:149|398:166,1,95.9999999999998,4|8,2:0|2:1,0:0:0:0:
480,125,42764,1,2,2:0:0:0:
480,125,42921,2,0,P|496:159|465:225,1,95.9999999999998,4|8,2:0|2:1,0:0:0:0:
436,288,43392,1,10,2:1:0:0:
436,288,43549,6,0,P|371:267|334:262,1,95.9999999999998,4|8,2:0|2:1,0:0:0:0:
294,334,44020,1,10,2:1:0:0:
294,334,44177,2,0,P|229:355|192:360,1,95.9999999999998,4|8,2:0|2:1,0:0:0:0:
54,308,44806,6,0,P|40:255|71:208,1,95.9999999999998,4|8,2:0|2:1,0:0:0:0:
132,174,45277,1,2,2:0:0:0:
132,174,45434,2,0,P|186:192|231:202,1,95.9999999999998,4|8,2:0|2:1,0:0:0:0:
371,158,46062,6,0,P|388:115|365:60,1,95.9999999999998,4|10,2:0|2:1,0:0:0:0:
298,25,46533,1,8,2:1:0:0:
298,25,46690,2,0,P|255:39|239:44,1,47.9999999999999,10|8,2:1|2:3,0:0:0:0:
194,104,47005,2,0,P|157:90|136:85,1,47.9999999999999,10|8,2:3|2:3,0:0:0:0:
88,19,47319,6,0,B|40:70|40:70|66:159,1,140.8,4|10,2:0|2:0,0:0:0:0:
129,197,47790,1,8,2:1:0:0:
51,245,47947,2,0,P|34:287|36:317,1,70.3999999999998,10|8,2:0|2:1,0:0:0:0:
102,373,48261,2,0,P|142:359|181:356,1,70.3999999999998,10|8,2:0|2:1,0:0:0:0:
225,283,48575,6,0,P|211:245|223:202,1,70.3999999999998,10|0,2:0|2:0,0:0:0:0:
306,206,48889,2,0,P|320:244|308:287,1,70.3999999999998,10|8,2:0|2:1,0:0:0:0:
406,274,49203,2,0,P|444:260|487:272,1,70.3999999999998,10|8,2:0|2:1,0:0:0:0:
483,355,49518,2,0,P|445:369|402:357,1,70.3999999999998,10|8,2:0|2:1,0:0:0:0:
331,329,49832,6,0,B|275:301|236:349|236:349|199:391|136:367,1,211.199999999999,4|8,2:0|2:1,0:0:0:0:
71,317,50460,1,10,2:0:0:0:
71,317,50617,1,8,2:0:0:0:
219,209,50931,2,0,P|211:158|191:60,1,140.8,10|8,2:1|2:0,0:0:0:0:
280,117,51402,1,10,2:1:0:0:
144,240,51717,1,10,2:0:0:0:
35,172,52031,1,10,2:1:0:0:
99,66,52345,5,2,2:0:0:0:
35,172,53916,5,2,2:0:0:0:
99,66,54230,1,2,2:0:0:0:
207,131,54544,1,2,2:0:0:0:
263,67,54701,1,8,2:1:0:0:
263,67,54779,1,8,2:1:0:0:
263,67,54858,6,0,B|318:20|318:20|394:50,1,140.8,4|10,2:0|2:1,0:0:0:0:
451,101,55329,1,8,2:1:0:0:
451,101,55486,2,0,P|432:156|428:187,1,70.3999999999998,8|10,2:1|2:1,0:0:0:0:
382,237,55800,2,0,P|358:215|296:220,1,70.3999999999998,10|10,2:1|2:1,0:0:0:0:
256,262,56114,5,10,2:1:0:0:
256,262,56272,1,8,2:1:0:0:
207,190,56429,1,10,2:1:0:0:
207,190,56586,1,8,2:1:0:0:
274,138,56743,2,0,P|282:113|287:93,3,35.1999999999999,10|8|8|8,2:3|2:3|2:3|2:3,0:0:0:0:
245,29,57057,1,4,2:0:0:0:
176,89,57214,6,0,P|92:70|16:55,1,140.8,4|4,2:0|2:0,0:0:0:0:
66,146,57685,1,4,2:0:0:0:
198,228,58628,6,0,P|264:252|329:201,1,160,6|8,2:1|2:0,0:0:0:0:
406,144,59099,2,0,B|460:203|460:203|430:297,1,160,2|0,2:0|2:0,0:0:0:0:
383,359,59570,1,10,2:0:0:0:
315,290,59727,1,2,2:0:0:0:
250,360,59884,2,0,P|194:344|153:341,1,80,10|2,2:1|2:0,0:0:0:0:
120,261,60198,1,10,2:0:0:0:
47,323,60355,2,0,P|15:253|70:178,1,160,2|0,2:0|2:0,0:0:0:0:
138,145,60826,2,0,P|157:103|145:61,1,80,10|2,2:0|2:0,0:0:0:0:
222,10,61141,6,0,P|301:33|396:53,1,160,8|10,2:1|2:0,0:0:0:0:
466,127,61612,1,2,2:0:0:0:
466,127,61769,2,0,P|385:144|292:170,1,160,8|10,2:1|2:0,0:0:0:0:
266,251,62240,1,2,2:0:0:0:
266,251,62397,2,0,P|197:228|174:222,1,80,8|0,2:1|2:0,0:0:0:0:
138,145,62711,2,0,P|69:168|46:174,1,80,8|0,2:0|2:0,0:0:0:0:
0,243,63025,2,0,P|-20:296|67:384,1,160,8|10,2:1|2:0,0:0:0:0:
125,340,63497,1,10,2:1:0:0:
125,340,63575,1,8,2:1:0:0:
125,340,63654,6,0,P|162:329|214:322,1,80,6|0,2:1|0:0,0:0:0:0:
273,258,63968,1,10,2:0:0:0:
220,177,64125,2,0,P|168:156|81:224,1,160,2|8,2:0|2:1,0:0:0:0:
33,127,64596,2,0,P|27:87|15:49,1,80,10|0,2:0|2:0,0:0:0:0:
97,0,64910,2,0,B|160:51|160:51|246:16,1,160,10|8,2:1|2:0,0:0:0:0:
313,73,65381,2,0,P|297:161|288:235,1,160,2|8,2:0|2:1,0:0:0:0:
361,294,65853,2,0,P|407:280|442:273,1,80,10|2,2:0|2:0,0:0:0:0:
510,208,66167,6,0,P|527:156|462:68,1,160,8|10,2:1|2:0,0:0:0:0:
386,105,66638,1,2,2:0:0:0:
386,105,66795,2,0,P|368:156|433:244,1,160,8|10,2:1|2:0,0:0:0:0:
492,303,67266,1,0,2:0:0:0:
418,361,67423,5,8,2:3:0:0:
418,361,67502,1,8,2:3:0:0:
418,361,67580,1,8,2:3:0:0:
345,298,67737,2,0,P|296:315|267:323,1,80,4|8,2:1|2:1,0:0:0:0:
188,376,68052,2,0,P|179:339|177:328,3,40,8|8|8|8,2:3|2:3|2:3|2:3,0:0:0:0:
145,297,68366,2,0,P|154:260|156:249,3,40,8|8|8|8,2:0|2:0|2:0|2:0,0:0:0:0:
187,237,68680,6,0,P|178:180|151:68,1,160,6|10,2:1|2:0,0:0:0:0:
229,20,69151,2,0,P|293:73|369:55,1,160,2|0,2:0|2:0,0:0:0:0:
439,1,69622,1,10,2:0:0:0:
485,84,69779,1,0,2:0:0:0:
408,142,69936,2,0,P|386:185|402:229,1,80,10|2,2:1|2:0,0:0:0:0:
458,283,70251,1,10,2:0:0:0:
384,344,70408,2,0,P|303:319|195:302,1,160,2|0,2:0|2:0,0:0:0:0:
166,232,70879,2,0,P|164:186|195:151,1,80,10|0,2:0|0:0,0:0:0:0:
249,90,71193,6,0,B|290:74|308:41|308:41|312:77|348:113,1,160,6|8,2:1|2:0,0:0:0:0:
433,155,71664,1,0,2:0:0:0:
390,241,71821,6,0,B|383:284|402:316|402:316|369:302|319:315,1,160,6|8,2:1|2:0,0:0:0:0:
236,359,72292,1,0,2:0:0:0:
171,287,72450,6,0,B|136:259|99:259|99:259|128:238|141:188,1,160,6|8,2:1|2:0,0:0:0:0:
109,100,72921,1,0,2:0:0:0:
179,35,73078,2,0,P|242:55|288:66,1,80,10|0,2:1|2:0,0:0:0:0:
294,146,73392,2,0,P|355:128|392:121,1,80,10|8,2:0|2:1,0:0:0:0:
429,48,73706,5,6,2:1:0:0:
429,48,73863,1,2,2:0:0:0:
503,108,74020,1,10,2:0:0:0:
463,195,74177,2,0,B|423:202|382:217|382:217|369:265|323:279,1,160,2|8,2:0|2:1,0:0:0:0:
273,347,74648,2,0,P|215:323|186:317,1,80,10|2,2:0|2:0,0:0:0:0:
140,242,74963,5,10,2:1:0:0:
206,173,75120,1,2,2:0:0:0:
156,90,75277,2,0,P|203:73|249:101,1,80,10|2,2:0|2:0,0:0:0:0:
295,152,75591,2,0,P|361:134|392:129,1,80,8|0,2:1|2:0,0:0:0:0:
445,72,75905,2,0,P|470:113|459:156,1,80,10|2,2:0|2:0,0:0:0:0:
412,222,76219,6,0,P|397:300|385:389,2,160,10|8|8,2:1|2:0|2:1,0:0:0:0:
372,131,77005,1,2,2:0:0:0:
323,213,77162,2,0,P|287:233|239:223,1,80,10|2,2:0|2:0,0:0:0:0:
196,161,77476,5,8,2:3:0:0:
196,161,77554,1,8,2:3:0:0:
196,161,77633,1,8,2:3:0:0:
152,75,77790,2,0,P|110:61|69:99,1,80,4|8,2:1|2:1,0:0:0:0:
7,135,78104,2,0,P|19:179|21:188,3,40,8|8|8|8,2:3|2:3|2:3|2:3,0:0:0:0:
58,199,78418,2,0,P|45:243|43:252,3,40,8|8|8|8,2:0|2:0|2:0|2:0,0:0:0:0:
27,282,78732,6,0,P|38:343|44:384,1,80,12|8,2:0|2:1,0:0:0:0:
133,328,79046,1,12,2:0:0:0:
133,328,79203,2,0,P|136:288|141:248,1,80,10|12,2:1|2:0,0:0:0:0:
218,191,79518,1,8,2:1:0:0:
260,281,79675,1,12,2:0:0:0:
260,281,79832,2,0,P|313:297|350:307,1,80,10|12,2:1|2:0,0:0:0:0:
425,266,80146,5,10,2:1:0:0:
355,197,80303,2,0,P|369:143|378:115,1,80,12|10,2:0|2:1,0:0:0:0:
303,57,80617,2,0,P|289:111|280:139,1,80,12|10,2:0|2:1,0:0:0:0:
202,79,80931,2,0,P|216:25|225:-3,1,80,12|8,2:0|2:1,0:0:0:0:
132,32,81245,6,0,P|99:61|86:100,1,80,12|8,2:0|2:1,0:0:0:0:
8,147,81559,1,12,2:0:0:0:
8,147,81717,2,0,P|36:174|48:212,1,80,10|12,2:1|2:0,0:0:0:0:
109,286,82031,1,8,2:1:0:0:
185,226,82188,1,12,2:0:0:0:
185,226,82345,2,0,P|165:150|160:125,1,80,10|12,2:1|2:0,0:0:0:0:
217,68,82659,5,10,2:1:0:0:
293,126,82816,2,0,P|344:108|383:99,1,80,12|10,2:0|2:1,0:0:0:0:
363,196,83130,2,0,P|400:182|439:171,1,80,12|0,2:0|2:0,0:0:0:0:
421,270,83444,2,0,P|382:280|344:294,1,80,12|0,2:0|2:0,0:0:0:0:
282,355,83758,6,0,P|217:334|177:325,1,95.9999999999998,12|10,2:1|2:1,0:0:0:0:
117,370,84230,1,0,2:0:0:0:
57,314,84387,2,0,P|47:270|85:212,1,95.9999999999998,10|2,2:0|2:0,0:0:0:0:
140,189,84858,2,0,P|150:145|112:87,1,95.9999999999998,10|8,2:1|2:0,0:0:0:0:
155,23,85329,2,0,P|195:39|220:44,1,47.9999999999999,10|0,2:1|2:0,0:0:0:0:
246,107,85643,2,0,P|299:91|342:81,1,95.9999999999998,10|10,2:0|2:1,0:0:0:0:
396,23,86114,1,10,2:1:0:0:
396,23,86272,5,4,2:1:0:0:
484,160,86586,2,0,P|473:209|471:220,1,47.9999999999999,8|8,2:1|2:1,0:0:0:0:
392,186,86900,2,0,P|381:235|375:257,1,60.0000000000001,8|8,2:1|2:1,0:0:0:0:
292,225,87214,2,0,P|281:274|274:300,1,72.0000000000001,8|8,2:1|2:1,0:0:0:0:
185,272,87528,6,0,B|163:321|164:352|164:352|117:301|-20:334|-4:171|81:199,1,359.999999999999,6|0,2:1|2:0,0:0:0:0:
121,206,88785,6,0,P|166:196|275:166,1,160,6|8,2:1|2:0,0:0:0:0:
335,91,89256,2,0,P|380:107|413:114,1,80,8|8,2:1|2:1,0:0:0:0:
473,187,89570,2,0,P|455:245|448:280,1,80,10|8,2:1|2:0,0:0:0:0:
404,357,89884,2,0,P|352:302|270:312,1,160,10|8,2:1|2:1,0:0:0:0:
206,378,90355,1,8,2:0:0:0:
135,313,90512,2,0,P|149:259|156:228,1,80,10|8,2:1|2:1,0:0:0:0:
224,169,90826,2,0,P|210:115|203:84,1,80,10|8,2:1|2:0,0:0:0:0:
275,26,91141,2,0,B|340:79|340:79|422:36,1,160,10|0,2:1|2:0,0:0:0:0:
481,104,91612,1,8,2:0:0:0:
427,183,91769,6,0,P|368:165|342:160,1,80,10|8,2:1|2:1,0:0:0:0:
290,236,92083,2,0,P|240:253|210:266,1,80,10|8,2:1|2:0,0:0:0:0:
132,214,92397,2,0,P|96:143|136:70,1,160,10|8,2:1|2:1,0:0:0:0:
204,17,92868,1,10,2:0:0:0:
285,67,93025,2,0,P|305:110|293:158,1,80,10|8,2:1|2:1,0:0:0:0:
233,210,93340,1,10,2:1:0:0:
233,210,93497,2,0,P|213:253|225:301,1,80,8|8,2:0|2:1,0:0:0:0:
166,366,93811,6,0,P|108:348|8:323,1,160,6|8,2:1|2:0,0:0:0:0:
79,255,94282,2,0,P|94:210|82:166,1,80,10|8,2:1|2:1,0:0:0:0:
12,120,94596,2,0,P|15:72|44:36,1,80,10|8,2:1|2:0,0:0:0:0:
122,11,94910,2,0,B|183:27|183:27|208:60|208:60|271:79,1,160,10|8,2:1|2:1,0:0:0:0:
343,26,95381,1,10,2:0:0:0:
390,110,95539,2,0,P|374:167|369:198,1,80,8|8,2:1|2:1,0:0:0:0:
295,247,95853,2,0,P|251:231|203:221,1,80,10|8,2:1|2:0,0:0:0:0:
163,302,96167,1,0,2:0:0:0:
68,285,96324,6,0,P|33:258|19:210,1,80,4|8,2:0|2:1,0:0:0:0:
98,170,96638,2,0,P|88:127|109:81,1,80,4|8,2:0|2:1,0:0:0:0:
195,79,96952,2,0,P|215:40|260:18,1,80,4|8,2:0|2:1,0:0:0:0:
316,87,97266,2,0,P|356:70|404:82,1,80,4|8,2:0|2:1,0:0:0:0:
417,168,97580,2,0,P|458:181|487:222,1,80,4|8,2:0|2:1,0:0:0:0:
452,299,97895,1,4,2:0:0:0:
452,299,97973,1,2,2:1:0:0:
452,299,98052,2,0,P|470:331|472:353,2,40,2|2|10,2:1|2:1|2:0,0:0:0:0:
359,242,98366,1,10,2:0:0:0:
243,365,98837,5,2,2:0:0:0:
256,192,98994,12,0,103549,2:0:0:0:
