osu file format v14

[General]
AudioFilename: fatto.mp3
AudioLeadIn: 0
PreviewTime: -1
Countdown: 1
SampleSet: Normal
StackLeniency: 0.7
Mode: 0
LetterboxInBreaks: 1
WidescreenStoryboard: 0

[Editor]
DistanceSpacing: 1
BeatDivisor: 4
GridSize: 4
TimelineZoom: 1.2

[Metadata]
Title:Fa tosite Tougenkyou
TitleUnicode:ファッとして桃源郷
Artist:Shinjo Kanae (CV: Mimori Suzuko)
ArtistUnicode:新庄かなえ(CV: 三森すずこ)
Creator:yuuch
Version:Tougenkyou
Source:てーきゅう
Tags:teekyuu
BeatmapID:904551
BeatmapSetID:417760

[Difficulty]
HPDrainRate:7
CircleSize:4
OverallDifficulty:8
ApproachRate:9.3
SliderMultiplier:1.80000000596046
SliderTickRate:1

[Events]
//Background and Video events
0,0,"fa.png",0,0
//Break Periods
//Storyboard Layer 0 (Background)
//Storyboard Layer 1 (Fail)
//Storyboard Layer 2 (Pass)
//Storyboard Layer 3 (Foreground)
//Storyboard Sound Samples

[TimingPoints]
86,375,4,1,0,70,1,0
7203,-76.9230769230769,4,1,0,70,0,0
7578,-83.3333333333333,4,1,0,70,0,0
13953,-66.6666666666667,4,1,0,70,0,0
14328,-83.3333333333333,4,1,0,70,0,0
24078,-133.333333333333,4,1,0,70,0,0
24453,-50,4,1,0,70,0,0
25578,-83.3333333333333,4,1,0,70,0,0

[HitObjects]
120,216,86,6,0,P|112:172|112:112,1,90.000000298023
108,284,461,2,0,P|100:240|100:180,1,90.000000298023,8|0,0:0|0:0,0:0:0:0:
180,52,836,2,0,L|184:112,1,45.0000001490115
272,168,1023,2,0,L|276:228,1,45.0000001490115
320,312,1211,1,8,0:0:0:0:
120,176,1398,5,0,0:0:0:0:
344,64,1586,1,0,0:0:0:0:
344,64,1773,2,2,L|336:172,1,90.000000298023
360,352,2148,5,0,0:0:0:0:
160,216,2336,1,0,0:0:0:0:
384,104,2524,1,2,0:0:0:0:
384,104,2711,2,2,L|376:212,1,90.000000298023,0|0,0:0|0:0,0:0:0:0:
260,312,3086,6,0,L|148:308,1,90.000000298023
152,320,3461,1,0,0:0:0:0:
312,136,3648,1,0,0:0:0:0:
112,64,3836,1,0,0:0:0:0:
112,64,4023,6,2,L|120:160,1,90.000000298023
140,280,4398,5,0,0:0:0:0:
332,196,4586,1,8,0:0:0:0:
180,96,4773,1,2,0:0:0:0:
168,304,4961,1,0,0:0:0:0:
356,184,5148,5,0,0:0:0:0:
200,84,5336,1,8,0:0:0:0:
196,296,5523,1,2,0:0:0:0:
376,168,5711,1,0,0:0:0:0:
224,68,5898,1,2,0:0:0:0:
224,68,6086,6,0,L|120:64,1,90.000000298023,8|0,0:0|0:0,0:0:0:0:
16,172,6461,2,0,L|120:176,1,90.000000298023
312,88,6836,1,8,0:0:0:0:
312,88,7211,6,0,L|308:168,1,58.4999975157976,2|0,0:0|0:0,0:0:0:0:
248,212,7398,6,0,L|244:292,1,58.4999975157976,2|0,0:0|0:0,0:0:0:0:
132,344,7586,2,0,L|116:204,1,107.999997061729
64,148,7867,1,0,0:0:0:0:
64,148,7961,6,0,P|88:88|80:40,1,107.999997061729,8|0,0:0|0:0,0:0:0:0:
212,52,8242,1,0,0:0:0:0:
216,56,8336,2,0,L|348:60,1,107.999997061729
404,120,8617,1,0,0:0:0:0:
428,176,8711,2,0,B|424:224|424:224|396:296,1,107.999997061729,8|0,0:0|0:0,0:0:0:0:
332,336,9086,5,0,0:0:0:0:
80,212,9273,1,0,0:0:0:0:
380,112,9461,1,8,0:0:0:0:
208,40,9649,1,0,0:0:0:0:
208,40,9742,1,0,0:0:0:0:
208,40,9836,2,0,L|196:164,1,107.999997061729
236,312,10117,1,0,0:0:0:0:
236,312,10211,6,0,P|268:268|276:244,1,53.9999985308646,8|0,0:0|0:0,0:0:0:0:
344,180,10398,5,2,0:0:0:0:
364,132,10492,1,0,0:0:0:0:
360,80,10586,2,0,L|232:64,1,107.999997061729,2|0,0:0|0:0,0:0:0:0:
112,72,10867,1,0,0:0:0:0:
64,32,10961,6,0,L|72:192,1,107.999997061729,8|0,0:0|0:0,0:0:0:0:
132,280,11242,1,0,0:0:0:0:
160,336,11336,6,0,P|172:260|172:212,1,107.999997061729
208,80,11711,2,0,L|328:76,1,107.999997061729,8|0,0:0|0:0,0:0:0:0:
400,56,12086,5,0,0:0:0:0:
344,260,12274,1,2,0:0:0:0:
224,144,12461,1,8,0:0:0:0:
452,32,12648,1,2,0:0:0:0:
372,320,12836,5,0,0:0:0:0:
156,128,13023,1,2,0:0:0:0:
156,128,13117,1,0,0:0:0:0:
156,128,13211,2,0,P|148:56|160:16,1,107.999997061729,8|0,0:0|0:0,0:0:0:0:
320,80,13586,6,0,L|304:208,1,107.999997061729
232,272,13867,1,0,0:0:0:0:
200,332,13961,2,0,B|288:332|288:332|340:288,1,135.000005596876,8|0,0:0|0:0,0:0:0:0:
208,144,14336,5,0,0:0:0:0:
32,68,14523,1,0,0:0:0:0:
32,68,14711,2,0,L|36:192,1,107.999997061729,8|2,0:0|0:0,0:0:0:0:
92,276,14992,1,0,0:0:0:0:
132,320,15086,6,0,L|244:316,1,107.999997061729,8|2,0:0|0:0,0:0:0:0:
340,256,15367,1,0,0:0:0:0:
372,208,15461,6,0,P|364:152|388:88,1,107.999997061729,8|2,0:0|0:0,0:0:0:0:
272,40,15742,1,0,0:0:0:0:
272,40,15836,6,0,L|120:44,1,107.999997061729,8|2,0:0|0:0,0:0:0:0:
60,36,16211,1,0,0:0:0:0:
160,296,16398,1,0,0:0:0:0:
276,120,16586,5,0,0:0:0:0:
40,176,16773,1,2,0:0:0:0:
40,176,16867,1,0,0:0:0:0:
40,176,16961,1,8,0:0:0:0:
264,288,17148,1,0,0:0:0:0:
192,40,17336,5,0,0:0:0:0:
144,280,17523,1,0,0:0:0:0:
292,164,17711,1,2,0:0:0:0:
60,48,17898,1,0,0:0:0:0:
60,48,18086,6,0,L|64:184,1,107.999997061729,8|2,0:0|0:0,0:0:0:0:
172,320,18461,2,0,P|176:256|168:184,1,107.999997061729,8|0,0:0|0:0,0:0:0:0:
284,28,18836,6,0,L|288:164,1,107.999997061729,0|2,0:0|0:0,0:0:0:0:
340,268,19117,1,0,0:0:0:0:
384,316,19211,6,0,P|388:252|380:180,1,107.999997061729,8|0,0:0|0:0,0:0:0:0:
160,80,19586,1,0,0:0:0:0:
112,288,19773,5,2,0:0:0:0:
112,288,19867,1,0,0:0:0:0:
112,288,19961,2,0,L|108:348,1,53.9999985308646,8|0,0:0|0:0,0:0:0:0:
232,296,20148,5,2,0:0:0:0:
272,304,20242,1,0,0:0:0:0:
308,284,20336,2,0,L|368:288,1,53.9999985308646,8|0,0:0|0:0,0:0:0:0:
136,204,20523,5,2,0:0:0:0:
104,148,20617,1,0,0:0:0:0:
148,100,20711,2,0,L|152:40,1,53.9999985308646,8|0,0:0|0:0,0:0:0:0:
280,60,20898,5,2,0:0:0:0:
372,28,20992,1,0,0:0:0:0:
432,104,21086,2,0,L|424:224,1,107.999997061729
300,340,21461,6,0,P|296:276|308:200,1,107.999997061729,2|0,0:0|0:0,0:0:0:0:
88,228,21836,6,8,P|96:160|84:84,1,107.999997061729,0|0,0:0|0:0,0:0:0:0:
228,112,22211,6,0,P|224:48|236:-28,1,107.999997061729,2|0,0:0|0:0,0:0:0:0:
416,72,22586,6,0,L|408:192,1,107.999997061729
384,304,22867,1,0,0:0:0:0:
384,304,22961,2,0,B|324:292|324:292|232:292,1,107.999997061729,10|0,0:0|0:0,0:0:0:0:
172,232,23336,6,0,P|184:160|172:80,1,107.999997061729
68,36,23617,1,0,0:0:0:0:
68,36,23711,2,0,L|68:160,1,107.999997061729,10|0,0:0|0:0,0:0:0:0:
344,312,24086,6,0,P|348:248|376:224,1,101.250004197657,2|0,0:0|0:0,0:0:0:0:
428,240,24461,2,0,B|300:208|300:208|216:216,1,180.000000596046,8|0,0:0|0:0,0:0:0:0:
104,192,24836,6,0,B|92:152|92:152|116:8,1,180.000000596046,2|0,0:0|0:0,0:0:0:0:
184,60,25117,1,0,0:0:0:0:
184,60,25211,2,0,P|108:120|40:48,1,180.000000596046,8|0,0:0|0:0,0:0:0:0:
320,40,25586,5,0,0:0:0:0:
376,132,25773,5,2,0:0:0:0:
376,132,25867,1,0,0:0:0:0:
376,132,25961,2,0,L|368:204,1,53.9999985308646,8|0,0:0|0:0,0:0:0:0:
276,256,26148,5,2,0:0:0:0:
236,260,26242,1,0,0:0:0:0:
208,288,26336,2,0,L|136:280,1,53.9999985308646,8|0,0:0|0:0,0:0:0:0:
52,172,26523,5,2,0:0:0:0:
40,120,26617,1,0,0:0:0:0:
76,80,26711,2,0,L|160:92,1,53.9999985308646,8|0,0:0|0:0,0:0:0:0:
272,92,26898,5,2,0:0:0:0:
344,40,26992,1,0,0:0:0:0:
416,92,27086,2,0,L|408:176,1,53.9999985308646,8|0,0:0|0:0,0:0:0:0:
376,260,27273,5,2,0:0:0:0:
304,224,27366,1,0,0:0:0:0:
244,280,27461,2,0,L|156:284,1,53.9999985308646,8|0,0:0|0:0,0:0:0:0:
76,328,27648,5,2,0:0:0:0:
284,36,28023,6,4,L|280:156,1,107.999997061729,4|0,0:0|0:0,0:0:0:0:
