osu file format v14

[General]
AudioFilename: audio.mp3
AudioLeadIn: 0
PreviewTime: 7573
Countdown: 0
SampleSet: Normal
StackLeniency: 0.7
Mode: 0
LetterboxInBreaks: 0
WidescreenStoryboard: 1

[Editor]
Bookmarks: 19573
DistanceSpacing: 1.4
BeatDivisor: 4
GridSize: 4
TimelineZoom: 1.399999

[Metadata]
Title:Fa Tosite Tougenkyou
TitleUnicode:ファッとして桃源郷
Artist:Shinjo Kanae (CV: Mimori Suzuko)
ArtistUnicode:新庄かなえ(CV: 三森すずこ)
Creator:Minorsonek
Version:Teekyuu
Source:てーきゅう
Tags:
BeatmapID:1321678
BeatmapSetID:626341

[Difficulty]
HPDrainRate:6
CircleSize:4
OverallDifficulty:9
ApproachRate:9.4
SliderMultiplier:2
SliderTickRate:1

[Events]
//Background and Video events
0,0,"bg.jpg",0,0
//Break Periods
//Storyboard Layer 0 (Background)
//Storyboard Layer 1 (Fail)
//Storyboard Layer 2 (Pass)
//Storyboard Layer 3 (Foreground)
//Storyboard Sound Samples

[TimingPoints]
102,375,4,1,0,100,1,0
6102,-83.3333333333333,4,2,0,60,0,0
7602,-76.9230769230769,4,1,0,80,0,1
16602,-83.3333333333333,4,1,0,80,0,0
24102,-55.5555555555556,4,1,0,70,0,0
25602,-133.333333333333,4,2,0,50,0,0

[Colours]
Combo1 : 0,128,255
Combo2 : 255,0,128
Combo3 : 255,255,0
Combo4 : 255,0,255

[HitObjects]
116,320,102,5,4,0:0:0:0:
396,64,477,1,4,0:0:0:0:
186,128,852,1,4,0:0:0:0:
326,256,1039,1,4,0:0:0:0:
186,128,1227,1,4,0:0:0:0:
326,256,1414,5,0,0:0:0:0:
392,152,1602,2,0,P|439:138|488:145,2,100,4|0|8,0:0|0:0|0:0,0:0:0:0:
326,256,2164,1,0,0:0:0:0:
392,360,2352,2,0,P|439:373|488:366,2,100,4|0|8,0:0|0:0|0:0,0:0:0:0:
254,251,2914,5,0,0:0:0:0:
24,296,3102,1,4,0:0:0:0:
184,124,3289,1,0,0:0:0:0:
155,357,3477,1,12,0:0:0:0:
41,152,3664,1,0,0:0:0:0:
254,251,3852,5,4,0:0:0:0:
300,244,3945,1,0,0:0:0:0:
344,222,4039,1,0,0:0:0:0:
374,183,4133,1,0,0:0:0:0:
383,134,4227,1,0,0:0:0:0:
368,87,4320,1,0,0:0:0:0:
333,51,4414,1,0,0:0:0:0:
286,36,4508,1,0,0:0:0:0:
238,31,4602,5,0,0:0:0:0:
52,96,4789,1,0,0:0:0:0:
240,164,4977,1,0,0:0:0:0:
53,228,5164,1,0,0:0:0:0:
256,332,5352,2,0,P|312:336|368:308,1,100
456,236,5727,2,0,P|400:232|344:260,1,100
156,344,6102,6,0,P|156:304|164:280,1,59.9999981689454,2|0,0:0|0:0,0:0:0:0:
287,162,6289,2,0,P|261:177|241:199,1,59.9999981689454,2|0,0:0|0:0,0:0:0:0:
88,232,6477,2,0,P|108:197|126:180,1,59.9999981689454,2|0,0:0|0:0,0:0:0:0:
285,125,6664,2,0,P|255:117|226:119,1,59.9999981689454,2|0,0:0|0:0,0:0:0:0:
72,88,6852,2,0,P|106:67|131:62,1,59.9999981689454,2|0,0:0|0:0,0:0:0:0:
296,86,7039,2,0,P|269:71|236:64,1,59.9999981689454,2|0,0:0|0:0,0:0:0:0:
136,156,7227,1,2,0:0:0:0:
160,210,7320,1,0,0:0:0:0:
205,248,7414,1,2,0:0:0:0:
263,261,7508,1,0,0:0:0:0:
321,248,7602,5,4,0:0:0:0:
412,84,7789,1,0,0:0:0:0:
240,100,7977,2,8,P|176:128|120:116,1,129.999994049073,10|8,0:0|0:0,0:0:0:0:
91,82,8258,1,0,0:0:0:0:
76,40,8352,1,4,0:0:0:0:
192,4,8539,1,0,0:0:0:0:
272,100,8727,2,8,P|336:128|392:116,1,129.999994049073,10|8,0:0|0:0,0:0:0:0:
472,32,9102,5,4,0:0:0:0:
392,115,9289,1,0,0:0:0:0:
472,32,9477,1,14,0:0:0:0:
452,272,9664,1,0,0:0:0:0:
472,32,9852,1,4,0:0:0:0:
328,200,10039,2,4,P|296:232|288:272,1,64.9999970245363,4|0,0:0|0:0,0:0:0:0:
240,352,10227,2,4,P|240:312|220:280,1,64.9999970245363,14|0,0:0|0:0,0:0:0:0:
152,200,10414,1,2,0:0:0:0:
16,72,10602,6,0,P|84:44|148:44,1,129.999994049073,4|0,0:0|0:0,0:0:0:0:
272,160,10977,1,10,0:0:0:0:
360,40,11164,1,0,0:0:0:0:
356,220,11352,2,0,P|306:260|242:264,1,129.999994049073,4|0,0:0|0:0,0:0:0:0:
92,140,11727,1,10,0:0:0:0:
120,352,11914,1,2,0:0:0:0:
0,228,12102,5,4,0:0:0:0:
201,313,12289,1,0,0:0:0:0:
288,111,12477,1,14,0:0:0:0:
85,24,12664,1,0,0:0:0:0:
201,313,12852,2,4,P|272:345|332:333,1,129.999994049073
361,137,13227,1,14,0:0:0:0:
365,92,13320,1,4,0:0:0:0:
343,52,13414,1,6,0:0:0:0:
303,32,13508,1,6,0:0:0:0:
259,26,13602,5,4,0:0:0:0:
84,120,13789,1,0,0:0:0:0:
268,208,13977,2,0,P|332:192|400:212,1,129.999994049073,10|0,0:0|0:0,0:0:0:0:
420,238,14258,1,0,0:0:0:0:
442,274,14352,1,4,0:0:0:0:
356,384,14539,1,0,0:0:0:0:
256,292,14727,1,10,0:0:0:0:
125,269,14914,5,0,0:0:0:0:
111,224,15008,1,0,0:0:0:0:
97,181,15102,1,4,0:0:0:0:
224,152,15289,1,0,0:0:0:0:
234,106,15383,1,0,0:0:0:0:
243,61,15477,1,4,0:0:0:0:
398,172,15664,1,4,0:0:0:0:
412,215,15758,1,0,0:0:0:0:
426,260,15852,2,0,P|364:312|300:320,1,129.999994049073,4|0,0:0|0:0,0:0:0:0:
136,192,16227,1,14,0:0:0:0:
188,332,16414,1,12,0:0:0:0:
367,93,16602,5,0,0:0:0:0:
319,273,16789,1,0,0:0:0:0:
145,93,16977,1,0,0:0:0:0:
193,273,17164,1,0,0:0:0:0:
411,53,17352,5,0,0:0:0:0:
344,305,17539,1,0,0:0:0:0:
100,53,17727,1,0,0:0:0:0:
167,305,17914,1,0,0:0:0:0:
446,147,18102,5,0,0:0:0:0:
88,226,18289,1,0,0:0:0:0:
424,226,18477,1,0,0:0:0:0:
66,147,18664,1,0,0:0:0:0:
374,342,18852,5,0,0:0:0:0:
136,40,19039,1,0,0:0:0:0:
136,342,19227,1,0,0:0:0:0:
374,40,19414,1,0,0:0:0:0:
385,356,19602,6,0,P|437:312|445:248,1,119.999996337891,4|0,0:0|0:0,0:0:0:0:
446,219,19883,1,0,0:0:0:0:
443,177,19977,1,10,0:0:0:0:
256,144,20164,1,0,0:0:0:0:
219,163,20258,1,0,0:0:0:0:
184,190,20352,2,0,P|129:223|72:200,1,119.999996337891,4|0,0:0|0:0,0:0:0:0:
44,176,20633,1,0,0:0:0:0:
14,142,20727,1,10,0:0:0:0:
256,24,20914,1,0,0:0:0:0:
256,84,21007,1,0,0:0:0:0:
256,144,21101,5,0,0:0:0:0:
484,320,21477,1,6,0:0:0:0:
32,320,21852,1,4,0:0:0:0:
256,24,22227,1,6,0:0:0:0:
256,192,22602,12,0,23914,0:0:0:0:
204,136,24102,6,4,B|320:176|348:252|256:304|168:252|192:176|320:132,3,359.999989013672
428,60,25602,5,4,0:0:0:0:
411,93,25695,1,0,0:0:0:0:
401,129,25789,1,0,0:0:0:0:
400,167,25883,1,0,0:0:0:0:
406,204,25977,1,10,0:0:0:0:
419,239,26070,1,0,0:0:0:0:
440,270,26164,1,0,0:0:0:0:
466,296,26258,1,0,0:0:0:0:
496,316,26352,5,4,0:0:0:0:
461,331,26445,1,0,0:0:0:0:
426,342,26539,1,0,0:0:0:0:
389,348,26633,1,0,0:0:0:0:
351,349,26727,1,10,0:0:0:0:
314,344,26820,1,0,0:0:0:0:
278,335,26914,1,0,0:0:0:0:
243,321,27008,1,0,0:0:0:0:
211,297,27102,6,0,L|199:241,1,37.5000014305115,4|0,0:0|0:0,0:0:0:0:
164,82,27289,2,0,L|176:138,1,37.5000014305115,4|0,0:0|0:0,0:0:0:0:
129,281,27477,2,0,L|160:232,1,37.5000014305115,4|0,0:0|0:0,0:0:0:0:
247,95,27664,2,0,L|215:143,1,37.5000014305115,4|0,0:0|0:0,0:0:0:0:
113,191,27852,1,0,0:0:0:0:
388,28,28039,5,0,0:0:0:0:
360,156,28227,1,0,0:0:0:0:
371,191,28320,1,0,0:0:0:0:
382,227,28414,1,0,0:0:0:0:
352,348,28602,1,0,0:0:0:0:
192,124,28977,5,0,0:0:0:0:
256,192,29070,12,0,30476,0:0:0:0:
