osu file format v14

[General]
AudioFilename: audio.mp3
AudioLeadIn: 0
PreviewTime: 7507
Countdown: 0
SampleSet: Normal
StackLeniency: 0.3
Mode: 0
LetterboxInBreaks: 0
WidescreenStoryboard: 0

[Editor]
DistanceSpacing: 0.6
BeatDivisor: 4
GridSize: 8
TimelineZoom: 1.2

[Metadata]
Title:Fa Tosite Tougenkyou
TitleUnicode:ファッとして桃源郷
Artist:Shinjo Kanae (CV: Mimori Suzuko)
ArtistUnicode:新庄かなえ(CV:三森すずこ)
Creator:AMX
Version:Lolis
Source:てーきゅう
Tags:
BeatmapID:1421096
BeatmapSetID:672256

[Difficulty]
HPDrainRate:6.5
CircleSize:4.2
OverallDifficulty:8.4
ApproachRate:9
SliderMultiplier:1.4
SliderTickRate:1

[Events]
//Background and Video events
0,0,"tekyu_9_3.jpg",0,0
//Break Periods
//Storyboard Layer 0 (Background)
//Storyboard Layer 1 (Fail)
//Storyboard Layer 2 (Pass)
//Storyboard Layer 3 (Foreground)
//Storyboard Sound Samples

[TimingPoints]
101.157468496502,375,4,1,0,35,1,0
1782,-133.333333333333,4,1,0,35,0,0
2163,-100,4,1,0,35,0,0
2538,-133.333333333333,4,1,0,35,0,0
2913,-100,4,1,0,35,0,0
6101,-100,4,1,0,40,0,0
6288,-100,4,1,0,45,0,0
6476,-100,4,1,0,50,0,0
6663,-100,4,1,0,55,0,0
6851,-100,4,1,0,60,0,0
7038,-100,4,1,0,65,0,0
7226,-100,4,1,0,65,0,0
7601,-76.9230769230769,4,1,0,70,0,0
24101,-66.6666666666667,4,1,0,70,0,0
25601,-76.9230769230769,4,1,0,70,0,0
29163,-76.9230769230769,4,1,0,5,0,0

[HitObjects]
440,346,101,5,0,0:0:0:0:
118,269,476,1,0,0:0:0:0:
224,256,851,5,0,0:0:0:0:
181,384,1038,1,0,0:0:0:0:
162,151,1226,1,0,0:0:0:0:
23,277,1413,6,0,P|27:236|46:200,1,70
118,269,1788,2,0,L|111:321,1,52.5000020027161
224,75,2163,2,0,P|187:56|146:54,1,70
162,151,2538,2,0,L|209:173,1,52.5000020027161
392,152,2913,5,0,0:0:0:0:
344,40,3101,1,0,0:0:0:0:
328,216,3288,1,0,0:0:0:0:
472,40,3476,1,0,0:0:0:0:
288,128,3663,1,0,0:0:0:0:
424,272,3851,2,0,L|416:224,3,35
504,192,4226,2,0,L|498:226,3,35
504,312,4601,5,0,0:0:0:0:
432,376,4788,1,0,0:0:0:0:
336,352,4976,1,0,0:0:0:0:
280,272,5163,1,0,0:0:0:0:
192,312,5351,5,0,0:0:0:0:
424,272,5538,1,0,0:0:0:0:
200,192,5726,1,0,0:0:0:0:
247,384,5913,1,0,0:0:0:0:
336,176,6101,6,0,L|344:240,1,35
264,96,6288,2,0,L|256:160,1,35
344,48,6476,2,0,L|352:112,1,35
200,0,6663,2,0,L|195:34,1,35
416,0,6851,5,0,0:0:0:0:
416,0,6944,1,0,0:0:0:0:
416,0,7038,2,0,P|440:32|448:56,1,35
359,276,7226,1,0,0:0:0:0:
341,245,7319,1,0,0:0:0:0:
334,211,7413,1,0,0:0:0:0:
336,176,7507,1,0,0:0:0:0:
345,137,7601,6,0,P|411:144|465:136,1,90.9999958343508
237,329,7976,2,0,P|171:322|117:330,1,90.9999958343508
120,332,8257,1,0,0:0:0:0:
97,347,8351,1,0,0:0:0:0:
309,384,8538,1,0,0:0:0:0:
158,216,8726,1,0,0:0:0:0:
0,369,8913,1,0,0:0:0:0:
115,127,9101,6,0,P|160:124|205:131,1,90.9999958343508
422,178,9476,2,0,P|376:175|331:182,1,90.9999958343508
94,306,9851,2,0,P|139:303|184:310,1,90.9999958343508
314,364,10226,1,0,0:0:0:0:
319,318,10319,1,0,0:0:0:0:
323,273,10413,1,0,0:0:0:0:
327,228,10507,1,0,0:0:0:0:
331,182,10601,5,0,0:0:0:0:
158,281,10788,1,0,0:0:0:0:
158,281,10882,1,0,0:0:0:0:
158,281,10976,1,0,0:0:0:0:
429,327,11163,1,0,0:0:0:0:
429,327,11257,1,0,0:0:0:0:
429,327,11351,5,0,0:0:0:0:
331,182,11538,1,0,0:0:0:0:
211,359,11726,1,0,0:0:0:0:
459,184,11913,1,0,0:0:0:0:
158,281,12101,5,0,0:0:0:0:
504,272,12288,1,0,0:0:0:0:
211,359,12476,1,0,0:0:0:0:
459,184,12663,1,0,0:0:0:0:
152,280,12851,5,0,0:0:0:0:
498,271,13038,1,0,0:0:0:0:
204,357,13226,1,0,0:0:0:0:
453,183,13413,1,0,0:0:0:0:
280,80,13601,6,0,B|268:141|280:204|285:211,1,90.9999958343508
352,32,13976,2,0,P|272:0|208:24,1,136.499993751526
160,64,14351,2,0,P|160:120|144:168,1,90.9999958343508
18,344,14726,1,0,0:0:0:0:
39,178,14913,5,0,0:0:0:0:
53,139,15006,1,0,0:0:0:0:
69,102,15100,1,0,0:0:0:0:
224,306,15288,1,0,0:0:0:0:
217,266,15381,1,0,0:0:0:0:
210,226,15475,1,0,0:0:0:0:
18,344,15663,1,0,0:0:0:0:
254,384,15851,2,0,P|301:337|302:287,1,90.9999958343508
351,143,16226,1,0,0:0:0:0:
210,226,16413,1,0,0:0:0:0:
463,162,16601,5,0,0:0:0:0:
214,143,16788,1,0,0:0:0:0:
502,92,16976,1,0,0:0:0:0:
155,83,17163,1,0,0:0:0:0:
395,33,17351,5,0,0:0:0:0:
342,288,17538,1,0,0:0:0:0:
295,6,17726,1,0,0:0:0:0:
244,302,17913,1,0,0:0:0:0:
189,9,18101,5,0,0:0:0:0:
64,325,18288,1,0,0:0:0:0:
70,65,18476,1,0,0:0:0:0:
165,384,18663,1,0,0:0:0:0:
326,91,18851,5,0,0:0:0:0:
316,383,19038,1,0,0:0:0:0:
268,30,19226,2,0,P|322:7|353:10,1,90.9999958343508
512,154,19601,5,0,0:0:0:0:
342,288,19788,1,0,0:0:0:0:
344,248,19881,1,0,0:0:0:0:
346,207,19975,1,0,0:0:0:0:
199,229,20163,1,0,0:0:0:0:
197,189,20256,1,0,0:0:0:0:
195,148,20350,1,0,0:0:0:0:
70,153,20538,5,0,0:0:0:0:
72,113,20631,1,0,0:0:0:0:
74,72,20725,1,0,0:0:0:0:
289,20,20913,1,0,0:0:0:0:
287,60,21006,1,0,0:0:0:0:
285,101,21101,6,0,P|211:134|131:112,1,136.499993751526
284,110,21476,2,0,P|210:141|138:109,1,136.499993751526
284,117,21851,2,0,P|204:150|149:108,1,136.499993751526
283,124,22226,2,0,P|201:154|164:128,1,136.499993751526
223,65,22601,6,0,L|231:274,1,181.999991668702
121,384,23163,1,0,0:0:0:0:
15,230,23351,2,0,P|79:219|115:222,1,90.9999958343508
90,74,23726,2,0,P|44:79|0:76,1,90.9999958343508
357,128,24101,6,0,P|445:119|494:181,1,157.500006008148
486,159,24476,2,0,P|429:109|353:116,1,157.500006008148
354,105,24851,2,0,P|444:116|493:178,1,157.500006008148
484,159,25226,2,0,P|428:106|352:93,1,157.500006008148
263,89,25601,6,0,L|256:40,1,45.4999979171754
168,120,25788,2,0,L|175:70,1,45.4999979171754
241,171,25976,2,0,L|248:216,1,45.4999979171754
158,211,26163,2,0,L|152:256,1,45.4999979171754
440,328,26351,6,0,L|432:377,1,45.4999979171754
344,298,26538,2,0,L|351:347,1,45.4999979171754
417,247,26726,2,0,L|423:202,1,45.4999979171754
335,207,26913,2,0,L|328:162,1,45.4999979171754
408,64,27101,6,0,L|400:120,1,45.4999979171754
312,8,27288,2,0,L|320:64,1,45.4999979171754
248,104,27476,2,0,L|240:160,1,45.4999979171754
169,53,27663,2,0,L|176:8,1,45.4999979171754
144,144,27851,1,0,0:0:0:0:
142,161,28038,5,0,0:0:0:0:
268,361,28226,1,0,0:0:0:0:
270,321,28319,1,0,0:0:0:0:
272,280,28413,1,0,0:0:0:0:
474,374,28601,1,0,0:0:0:0:
412,87,28976,5,0,0:0:0:0:
256,192,29069,12,0,30101,0:0:0:0:
