osu file format v14

[General]
AudioFilename: ongeki.ogg
AudioLeadIn: 0
PreviewTime: 455
Countdown: 0
SampleSet: Normal
StackLeniency: 0.7
Mode: 1
LetterboxInBreaks: 0
WidescreenStoryboard: 1

[Editor]
DistanceSpacing: 0.5
BeatDivisor: 4
GridSize: 32
TimelineZoom: 2.5

[Metadata]
Title:O.N.G.E.K.I.
TitleUnicode:怨撃
Artist:Shinji Hosoe
ArtistUnicode:細江慎治
Creator:MTNTWarz
Version:Futsuu
Source:オンゲキ bright MEMORY
Tags:taikoseania op45667 kyex sampling masters mega ongeki bright memory sega gekichumai ゲキ!チュウマイ performai electronic instrumental gabber hardcore memories of o.n.g.e.k.i. lunatic
BeatmapID:3687691
BeatmapSetID:1798257

[Difficulty]
HPDrainRate:7
CircleSize:5
OverallDifficulty:4
ApproachRate:5
SliderMultiplier:1.4
SliderTickRate:1

[Events]
//Background and Video events
0,0,"BGBG.jpg",0,0
//Break Periods
//Storyboard Layer 0 (Background)
//Storyboard Layer 1 (Fail)
//Storyboard Layer 2 (Pass)
//Storyboard Layer 3 (Foreground)
//Storyboard Layer 4 (Overlay)
//Storyboard Sound Samples

[TimingPoints]
445,272.727272727273,4,1,0,60,1,0
10263,-100,4,1,0,70,0,0
27717,-100,4,1,0,50,0,0
29899,-100,4,1,0,80,0,1
46263,-100,4,1,0,80,0,0
47080,-100,4,1,0,60,0,0
47353,-100,4,1,0,60,0,0
64808,-100,4,1,0,80,0,1
81172,-100,4,1,0,60,0,0
82262,-100,4,1,0,70,0,0
90990,-100,4,1,0,80,0,1
107354,-100,4,1,0,70,0,0

[HitObjects]
256,192,445,5,0,0:0:0:0:
256,192,854,1,0,0:0:0:0:
256,192,1535,1,8,0:0:0:0:
256,192,1945,1,8,0:0:0:0:
256,192,2626,12,0,4672,0:0:0:0:
256,192,4808,5,0,0:0:0:0:
256,192,5081,1,0,0:0:0:0:
256,192,5354,1,8,0:0:0:0:
256,192,5899,1,8,0:0:0:0:
256,192,6308,1,8,0:0:0:0:
256,192,6990,12,0,9172,0:0:0:0:
256,192,10263,5,4,0:0:0:0:
256,192,10672,1,4,0:0:0:0:
256,192,11081,1,4,0:0:0:0:
256,192,11354,1,8,0:0:0:0:
256,192,12445,1,4,0:0:0:0:
256,192,12854,1,4,0:0:0:0:
256,192,13263,1,4,0:0:0:0:
256,192,13535,1,8,0:0:0:0:
256,192,14626,1,4,0:0:0:0:
256,192,15035,1,4,0:0:0:0:
256,192,15445,1,4,0:0:0:0:
256,192,15717,1,8,0:0:0:0:
256,192,16808,1,4,0:0:0:0:
256,192,17217,1,4,0:0:0:0:
256,192,17626,1,4,0:0:0:0:
256,192,17899,1,4,0:0:0:0:
256,192,18308,1,4,0:0:0:0:
256,192,18717,1,8,0:0:0:0:
256,192,18990,1,12,0:0:0:0:
256,192,19399,1,12,0:0:0:0:
256,192,19808,1,12,0:0:0:0:
256,192,20081,1,0,0:0:0:0:
256,192,20899,1,0,0:0:0:0:
256,192,21172,1,12,0:0:0:0:
256,192,21581,1,12,0:0:0:0:
256,192,21990,1,12,0:0:0:0:
256,192,22263,1,8,0:0:0:0:
256,192,22672,1,0,0:0:0:0:
256,192,23081,1,8,0:0:0:0:
256,192,23354,1,12,0:0:0:0:
256,192,23763,1,12,0:0:0:0:
256,192,24172,1,12,0:0:0:0:
256,192,24445,1,0,0:0:0:0:
256,192,25263,1,0,0:0:0:0:
256,192,25535,1,12,0:0:0:0:
256,192,25945,1,12,0:0:0:0:
256,192,26354,1,12,0:0:0:0:
256,192,26626,1,4,0:0:0:0:
256,192,27035,1,4,0:0:0:0:
256,192,27717,12,0,29490,0:0:0:0:
256,192,29626,5,4,0:0:0:0:
256,192,29899,1,12,0:0:0:0:
256,192,30445,1,8,0:0:0:0:
256,192,30717,1,8,0:0:0:0:
256,192,30990,1,0,0:0:0:0:
256,192,31126,1,8,0:0:0:0:
256,192,31399,1,0,0:0:0:0:
256,192,31535,1,8,0:0:0:0:
256,192,31672,1,0,0:0:0:0:
256,192,31808,1,8,0:0:0:0:
256,192,32081,1,0,0:0:0:0:
256,192,32217,1,8,0:0:0:0:
256,192,32626,1,8,0:0:0:0:
256,192,32899,1,8,0:0:0:0:
256,192,33172,1,0,0:0:0:0:
256,192,33445,1,8,0:0:0:0:
256,192,33581,1,0,0:0:0:0:
256,192,33854,1,8,0:0:0:0:
256,192,33990,1,0,0:0:0:0:
256,192,34263,1,8,0:0:0:0:
256,192,34808,1,8,0:0:0:0:
256,192,35081,1,8,0:0:0:0:
256,192,35354,1,0,0:0:0:0:
256,192,35490,1,8,0:0:0:0:
256,192,35763,1,0,0:0:0:0:
256,192,35899,1,8,0:0:0:0:
256,192,36035,1,0,0:0:0:0:
256,192,36172,1,8,0:0:0:0:
256,192,36445,1,0,0:0:0:0:
256,192,36581,1,8,0:0:0:0:
256,192,36990,1,8,0:0:0:0:
256,192,37263,1,8,0:0:0:0:
256,192,37535,1,0,0:0:0:0:
256,192,37945,1,0,0:0:0:0:
256,192,38354,1,0,0:0:0:0:
256,192,38626,1,12,0:0:0:0:
256,192,39172,1,8,0:0:0:0:
256,192,39445,1,8,0:0:0:0:
256,192,39717,1,0,0:0:0:0:
256,192,39854,1,8,0:0:0:0:
256,192,40126,1,0,0:0:0:0:
256,192,40263,1,8,0:0:0:0:
256,192,40399,1,0,0:0:0:0:
256,192,40535,1,8,0:0:0:0:
256,192,40808,1,0,0:0:0:0:
256,192,40945,1,8,0:0:0:0:
256,192,41354,1,8,0:0:0:0:
256,192,41626,1,8,0:0:0:0:
256,192,41899,1,0,0:0:0:0:
256,192,42172,1,8,0:0:0:0:
256,192,42308,1,0,0:0:0:0:
256,192,42581,1,8,0:0:0:0:
256,192,42717,1,0,0:0:0:0:
256,192,42990,1,8,0:0:0:0:
256,192,43808,1,8,0:0:0:0:
256,192,43945,1,8,0:0:0:0:
256,192,44081,1,0,0:0:0:0:
256,192,44217,1,8,0:0:0:0:
256,192,44490,1,0,0:0:0:0:
256,192,44626,1,8,0:0:0:0:
256,192,44763,1,0,0:0:0:0:
256,192,44899,1,8,0:0:0:0:
256,192,45172,1,0,0:0:0:0:
256,192,45308,1,8,0:0:0:0:
256,192,45717,1,8,0:0:0:0:
256,192,45990,1,8,0:0:0:0:
256,192,46263,1,4,0:0:0:0:
256,192,47081,1,8,0:0:0:0:
256,192,47217,1,8,0:0:0:0:
256,192,47354,1,4,0:0:0:0:
256,192,47626,1,8,0:0:0:0:
256,192,47899,1,8,0:0:0:0:
256,192,48445,1,0,0:0:0:0:
256,192,48717,1,0,0:0:0:0:
256,192,48990,1,8,0:0:0:0:
256,192,49126,1,0,0:0:0:0:
256,192,49263,1,8,0:0:0:0:
256,192,49535,1,0,0:0:0:0:
256,192,49808,1,8,0:0:0:0:
256,192,50081,1,8,0:0:0:0:
256,192,50626,1,0,0:0:0:0:
256,192,50763,1,8,0:0:0:0:
256,192,51172,1,8,0:0:0:0:
256,192,51308,1,0,0:0:0:0:
256,192,51445,1,8,0:0:0:0:
256,192,51717,1,0,0:0:0:0:
256,192,51990,1,8,0:0:0:0:
256,192,52263,1,8,0:0:0:0:
256,192,52808,1,0,0:0:0:0:
256,192,53081,1,0,0:0:0:0:
256,192,53354,1,8,0:0:0:0:
256,192,53490,1,0,0:0:0:0:
256,192,53626,1,8,0:0:0:0:
256,192,53899,1,0,0:0:0:0:
256,192,54172,1,8,0:0:0:0:
256,192,54445,1,8,0:0:0:0:
256,192,54990,1,0,0:0:0:0:
256,192,55263,1,0,0:0:0:0:
256,192,55535,1,0,0:0:0:0:
256,192,55672,1,8,0:0:0:0:
256,192,56081,1,4,0:0:0:0:
256,192,56354,1,8,0:0:0:0:
256,192,56626,1,8,0:0:0:0:
256,192,57172,1,0,0:0:0:0:
256,192,57445,1,0,0:0:0:0:
256,192,57717,1,8,0:0:0:0:
256,192,57854,1,0,0:0:0:0:
256,192,57990,1,8,0:0:0:0:
256,192,58263,1,0,0:0:0:0:
256,192,58535,1,8,0:0:0:0:
256,192,58808,1,8,0:0:0:0:
256,192,59354,1,0,0:0:0:0:
256,192,59490,1,8,0:0:0:0:
256,192,59899,1,8,0:0:0:0:
256,192,60035,1,0,0:0:0:0:
256,192,60172,1,8,0:0:0:0:
256,192,60445,1,0,0:0:0:0:
256,192,60717,1,8,0:0:0:0:
256,192,60990,1,8,0:0:0:0:
256,192,61535,1,0,0:0:0:0:
256,192,61808,1,0,0:0:0:0:
256,192,62081,1,8,0:0:0:0:
256,192,62217,1,0,0:0:0:0:
256,192,62354,1,8,0:0:0:0:
256,192,62626,1,12,0:0:0:0:
256,192,62763,1,4,0:0:0:0:
256,192,63172,1,12,0:0:0:0:
256,192,63308,1,4,0:0:0:0:
256,192,63717,1,8,0:0:0:0:
256,192,63854,1,8,0:0:0:0:
256,192,63990,1,8,0:0:0:0:
256,192,64263,1,0,0:0:0:0:
256,192,64535,1,8,0:0:0:0:
256,192,64808,1,4,0:0:0:0:
256,192,65081,1,8,0:0:0:0:
256,192,65354,1,8,0:0:0:0:
256,192,65899,1,0,0:0:0:0:
256,192,66035,1,0,0:0:0:0:
256,192,66172,1,8,0:0:0:0:
256,192,66445,1,8,0:0:0:0:
256,192,66581,1,0,0:0:0:0:
256,192,66717,1,8,0:0:0:0:
256,192,66854,1,8,0:0:0:0:
256,192,66990,1,0,0:0:0:0:
256,192,67263,1,8,0:0:0:0:
256,192,67535,1,8,0:0:0:0:
256,192,68081,1,0,0:0:0:0:
256,192,68217,1,8,0:0:0:0:
256,192,68490,1,0,0:0:0:0:
256,192,68626,1,8,0:0:0:0:
256,192,68763,1,0,0:0:0:0:
256,192,68899,1,8,0:0:0:0:
256,192,69172,1,0,0:0:0:0:
256,192,69445,1,8,0:0:0:0:
256,192,69717,1,8,0:0:0:0:
256,192,70263,1,0,0:0:0:0:
256,192,70399,1,0,0:0:0:0:
256,192,70535,1,8,0:0:0:0:
256,192,70808,1,8,0:0:0:0:
256,192,70945,1,0,0:0:0:0:
256,192,71081,1,8,0:0:0:0:
256,192,71217,1,8,0:0:0:0:
256,192,71354,1,0,0:0:0:0:
256,192,71626,1,8,0:0:0:0:
256,192,71899,1,8,0:0:0:0:
256,192,72445,1,0,0:0:0:0:
256,192,72717,1,0,0:0:0:0:
256,192,72990,1,0,0:0:0:0:
256,192,73126,1,8,0:0:0:0:
256,192,73535,1,4,0:0:0:0:
256,192,73808,1,8,0:0:0:0:
256,192,74081,1,8,0:0:0:0:
256,192,74626,1,0,0:0:0:0:
256,192,74763,1,0,0:0:0:0:
256,192,74899,1,8,0:0:0:0:
256,192,75172,1,8,0:0:0:0:
256,192,75308,1,0,0:0:0:0:
256,192,75445,1,8,0:0:0:0:
256,192,75581,1,8,0:0:0:0:
256,192,75717,1,0,0:0:0:0:
256,192,75990,1,8,0:0:0:0:
256,192,76263,1,8,0:0:0:0:
256,192,76808,1,0,0:0:0:0:
256,192,76945,1,8,0:0:0:0:
256,192,77217,1,0,0:0:0:0:
256,192,77354,1,8,0:0:0:0:
256,192,77490,1,0,0:0:0:0:
256,192,77626,1,8,0:0:0:0:
256,192,77899,1,0,0:0:0:0:
256,192,78172,1,8,0:0:0:0:
256,192,78445,1,8,0:0:0:0:
256,192,78990,1,0,0:0:0:0:
256,192,79126,1,0,0:0:0:0:
256,192,79263,1,8,0:0:0:0:
256,192,79535,1,8,0:0:0:0:
256,192,79672,1,0,0:0:0:0:
256,192,79808,1,8,0:0:0:0:
256,192,79945,1,8,0:0:0:0:
256,192,80081,1,0,0:0:0:0:
256,192,80354,1,0,0:0:0:0:
256,192,80626,1,8,0:0:0:0:
256,192,81172,1,4,0:0:0:0:
256,192,81581,1,4,0:0:0:0:
256,192,81990,1,4,0:0:0:0:
256,192,82263,1,12,0:0:0:0:
256,192,83354,1,4,0:0:0:0:
256,192,83899,1,4,0:0:0:0:
256,192,84445,1,12,0:0:0:0:
256,192,85535,1,4,0:0:0:0:
256,192,86081,1,4,0:0:0:0:
256,192,86626,1,12,0:0:0:0:
256,192,87717,1,4,0:0:0:0:
256,192,88263,1,4,0:0:0:0:
256,192,88808,1,12,0:0:0:0:
256,192,89899,1,4,0:0:0:0:
256,192,90308,1,12,0:0:0:0:
256,192,90990,1,4,0:0:0:0:
256,192,91808,1,8,0:0:0:0:
256,192,92081,1,0,0:0:0:0:
256,192,92490,1,8,0:0:0:0:
256,192,92899,1,8,0:0:0:0:
256,192,93172,1,0,0:0:0:0:
256,192,93445,1,0,0:0:0:0:
256,192,93581,1,8,0:0:0:0:
256,192,93854,1,8,0:0:0:0:
256,192,93990,1,8,0:0:0:0:
256,192,94263,1,0,0:0:0:0:
256,192,94399,1,0,0:0:0:0:
256,192,94535,1,8,0:0:0:0:
256,192,94808,1,0,0:0:0:0:
256,192,94945,1,0,0:0:0:0:
256,192,95081,1,8,0:0:0:0:
256,192,95354,1,8,0:0:0:0:
256,192,96172,1,8,0:0:0:0:
256,192,96445,1,0,0:0:0:0:
256,192,96854,1,8,0:0:0:0:
256,192,97263,1,0,0:0:0:0:
256,192,97535,1,8,0:0:0:0:
256,192,97808,1,8,0:0:0:0:
256,192,97945,1,0,0:0:0:0:
256,192,98217,1,0,0:0:0:0:
256,192,98354,1,8,0:0:0:0:
256,192,98626,1,0,0:0:0:0:
256,192,98763,1,0,0:0:0:0:
256,192,98899,1,8,0:0:0:0:
256,192,99172,1,0,0:0:0:0:
256,192,99308,1,0,0:0:0:0:
256,192,99445,1,8,0:0:0:0:
256,192,99717,1,4,0:0:0:0:
256,192,100535,1,8,0:0:0:0:
256,192,100808,1,0,0:0:0:0:
256,192,101217,1,8,0:0:0:0:
256,192,101626,1,8,0:0:0:0:
256,192,101899,1,0,0:0:0:0:
256,192,102172,1,0,0:0:0:0:
256,192,102308,1,8,0:0:0:0:
256,192,102581,1,8,0:0:0:0:
256,192,102717,1,8,0:0:0:0:
256,192,102990,1,0,0:0:0:0:
256,192,103126,1,0,0:0:0:0:
256,192,103263,1,8,0:0:0:0:
256,192,103535,1,0,0:0:0:0:
256,192,103672,1,0,0:0:0:0:
256,192,103808,1,8,0:0:0:0:
256,192,104081,1,8,0:0:0:0:
256,192,104899,1,8,0:0:0:0:
256,192,105172,1,0,0:0:0:0:
256,192,105581,1,8,0:0:0:0:
256,192,105990,1,0,0:0:0:0:
256,192,106263,1,8,0:0:0:0:
256,192,106535,1,8,0:0:0:0:
256,192,106672,1,0,0:0:0:0:
256,192,106945,1,0,0:0:0:0:
256,192,107081,1,8,0:0:0:0:
256,192,107354,1,0,0:0:0:0:
256,192,108445,1,4,0:0:0:0:
256,192,109263,1,8,0:0:0:0:
256,192,109535,1,0,0:0:0:0:
256,192,109808,1,0,0:0:0:0:
256,192,109945,1,8,0:0:0:0:
256,192,110354,1,8,0:0:0:0:
256,192,110626,1,0,0:0:0:0:
256,192,110899,1,0,0:0:0:0:
256,192,111035,1,8,0:0:0:0:
256,192,111445,1,8,0:0:0:0:
256,192,111717,1,0,0:0:0:0:
256,192,111990,1,0,0:0:0:0:
256,192,112126,1,8,0:0:0:0:
256,192,112399,1,8,0:0:0:0:
256,192,112535,1,0,0:0:0:0:
256,192,112672,1,0,0:0:0:0:
256,192,112808,1,12,0:0:0:0:
256,192,113626,1,8,0:0:0:0:
256,192,113899,1,8,0:0:0:0:
256,192,114172,1,0,0:0:0:0:
256,192,114308,1,8,0:0:0:0:
256,192,114717,1,8,0:0:0:0:
256,192,114990,1,8,0:0:0:0:
256,192,115263,1,0,0:0:0:0:
256,192,115399,1,8,0:0:0:0:
256,192,115672,1,0,0:0:0:0:
256,192,115808,1,8,0:0:0:0:
256,192,115945,1,8,0:0:0:0:
256,192,116081,1,4,0:0:0:0:
256,192,116899,1,4,0:0:0:0:
256,192,117172,1,12,0:0:0:0:
256,192,117717,1,0,0:0:0:0:
256,192,117990,1,8,0:0:0:0:
256,192,118126,1,8,0:0:0:0:
256,192,118263,1,0,0:0:0:0:
256,192,118535,1,0,0:0:0:0:
256,192,118672,1,8,0:0:0:0:
256,192,119081,1,8,0:0:0:0:
256,192,119217,1,8,0:0:0:0:
256,192,119354,1,0,0:0:0:0:
256,192,119763,1,8,0:0:0:0:
256,192,119899,1,0,0:0:0:0:
256,192,120035,1,0,0:0:0:0:
256,192,120172,1,8,0:0:0:0:
256,192,120445,1,0,0:0:0:0:
256,192,120854,1,8,0:0:0:0:
256,192,121126,1,8,0:0:0:0:
256,192,121263,1,0,0:0:0:0:
256,192,121399,1,0,0:0:0:0:
256,192,121535,1,12,0:0:0:0:
256,192,121945,1,8,0:0:0:0:
256,192,122081,1,0,0:0:0:0:
256,192,122217,1,8,0:0:0:0:
256,192,122354,1,0,0:0:0:0:
256,192,122626,1,8,0:0:0:0:
256,192,122899,1,0,0:0:0:0:
256,192,123035,1,8,0:0:0:0:
256,192,123445,1,8,0:0:0:0:
256,192,123717,1,0,0:0:0:0:
256,192,123854,1,0,0:0:0:0:
256,192,124263,1,8,0:0:0:0:
256,192,124399,1,8,0:0:0:0:
256,192,124808,1,0,0:0:0:0:
256,192,124945,1,0,0:0:0:0:
256,192,125354,1,8,0:0:0:0:
256,192,125490,1,8,0:0:0:0:
256,192,125899,1,4,0:0:0:0:
256,192,126445,1,8,0:0:0:0:
256,192,126717,1,8,0:0:0:0:
256,192,126990,1,4,0:0:0:0:
256,192,127126,1,4,0:0:0:0:
256,192,127535,1,4,0:0:0:0:
256,192,127672,1,4,0:0:0:0:
256,192,128081,1,4,0:0:0:0:
256,192,128626,1,8,0:0:0:0:
256,192,128899,1,8,0:0:0:0:
256,192,129172,1,4,0:0:0:0:
256,192,129308,1,4,0:0:0:0:
256,192,129717,1,4,0:0:0:0:
256,192,129854,1,4,0:0:0:0:
256,192,130263,1,12,0:0:0:0:
256,192,130672,1,4,0:0:0:0:
256,192,131081,1,12,0:0:0:0:
256,192,131490,1,12,0:0:0:0:
256,192,131899,1,12,0:0:0:0:
256,192,132172,1,12,0:0:0:0:
256,192,132445,1,4,0:0:0:0:
256,192,132854,1,4,0:0:0:0:
256,192,133263,1,12,0:0:0:0:
