osu file format v14

[General]
AudioFilename: ongeki.ogg
AudioLeadIn: 0
PreviewTime: 455
Countdown: 0
SampleSet: Normal
StackLeniency: 0.7
Mode: 1
LetterboxInBreaks: 0
WidescreenStoryboard: 0

[Editor]
DistanceSpacing: 0.5
BeatDivisor: 8
GridSize: 32
TimelineZoom: 2.5

[Metadata]
Title:O.N.G.E.K.I.
TitleUnicode:怨撃
Artist:Shinji Hosoe
ArtistUnicode:細江慎治
Creator:MTNTWarz
Version:Fight the Music!
Source:オンゲキ bright MEMORY
Tags:taikoseania op45667 kyex sampling masters mega ongeki bright memory sega gekichumai ゲキ!チュウマイ performai electronic instrumental gabber hardcore memories of o.n.g.e.k.i. lunatic
BeatmapID:3686274
BeatmapSetID:1798257

[Difficulty]
HPDrainRate:6.5
CircleSize:5
OverallDifficulty:6.5
ApproachRate:5
SliderMultiplier:1.4
SliderTickRate:1

[Events]
//Background and Video events
0,0,"BGBG.jpg",0,0
//Break Periods
//Storyboard Layer 0 (Background)
//Storyboard Layer 1 (Fail)
//Storyboard Layer 2 (Pass)
//Storyboard Layer 3 (Foreground)
//Storyboard Layer 4 (Overlay)
//Storyboard Sound Samples

[TimingPoints]
445,272.727272727273,4,1,0,60,1,0
445,-125,4,1,0,60,0,0
2626,-83.3333333333333,4,1,0,60,0,0
3717,-125,4,1,0,60,0,0
6990,-83.3333333333333,4,1,0,60,0,0
8081,-125,4,1,0,60,0,0
10263,-90.9090909090909,4,1,0,70,0,0
11354,-111.111111111111,4,1,0,70,0,0
12445,-90.9090909090909,4,1,0,70,0,0
13535,-111.111111111111,4,1,0,70,0,0
14626,-90.9090909090909,4,1,0,70,0,0
15717,-111.111111111111,4,1,0,70,0,0
16807,-90.90909,4,1,0,70,0,0
17216,-94.223564,4,1,0,70,0,0
17625,-97.78888,4,1,0,70,0,0
17762,-99.04423,4,1,0,70,0,0
17898,-100.3227,4,1,0,70,0,0
18034,-101.63461,4,1,0,70,0,0
18307,-104.37444,4,1,0,70,0,0
18444,-105.8058,4,1,0,70,0,0
18580,-107.26608,4,1,0,70,0,0
18716,-108.767235,4,1,0,70,0,0
18784,-109.533676,4,1,0,70,0,0
18853,-110.32252,4,1,0,70,0,0
18921,-111.111115,4,1,0,70,0,0
18990,-90.9090909090909,4,1,0,70,0,0
20081,-111.111111111111,4,1,0,70,0,0
21172,-90.9090909090909,4,1,0,70,0,0
22263,-111.111111111111,4,1,0,70,0,0
23354,-90.9090909090909,4,1,0,70,0,0
24445,-111.111111111111,4,1,0,70,0,0
25534,-90.90909,4,1,0,70,0,0
25944,-92.59594,4,1,0,70,0,0
26353,-94.34224,4,1,0,70,0,0
26625,-95.54051,4,1,0,70,0,0
27034,-97.40074,4,1,0,70,0,0
27444,-99.339676,4,1,0,70,0,0
27489,-99.5572,4,1,0,70,0,0
27534,-99.77567,4,1,0,70,0,0
27580,-100,4,1,0,70,0,0
27717,-66.6666666666667,4,1,0,50,0,0
28808,-125,4,1,0,70,0,0
29899,-100,4,1,0,80,0,1
37534,-100,4,1,0,80,0,1
37807,-103.44827,4,1,0,80,0,1
37944,-105.26992,4,1,0,80,0,1
38216,-109.08364,4,1,0,80,0,1
38353,-111.111115,4,1,0,80,0,1
38490,-100,4,1,0,80,0,1
42989,-100,4,1,0,80,0,1
43125,-101.6907,4,1,0,80,0,1
43398,-105.26316,4,1,0,80,0,1
43534,-107.138176,4,1,0,80,0,1
43807,-111.111115,4,1,0,80,0,1
43945,-100,4,1,0,80,0,1
46263,-100,4,1,0,80,0,0
47080,-100,4,1,0,60,0,0
47148,-102.554474,4,1,0,60,0,0
47216,-105.24287,4,1,0,60,0,0
47284,-108.07601,4,1,0,60,0,0
47353,-111.111115,4,1,0,60,0,0
54989,-111.111115,4,1,0,60,0,0
55125,-112.35584,4,1,0,60,0,0
55262,-113.63826,4,1,0,60,0,0
55398,-114.94059,4,1,0,60,0,0
55534,-116.27313,4,1,0,60,0,0
55671,-117.64706,4,1,0,60,0,0
55945,-100,4,1,0,60,0,0
62626,-90.9090909090909,4,1,0,60,0,0
63716,-111.111115,4,1,0,60,0,0
63853,-109.58216,4,1,0,63,0,0
63989,-108.10543,4,1,0,65,0,0
64125,-106.66797,4,1,0,67,0,0
64262,-105.25808,4,1,0,70,0,0
64534,-102.566505,4,1,0,75,0,0
64808,-100,4,1,0,80,0,1
72444,-100,4,1,0,80,0,1
72580,-104.16029,4,1,0,80,0,1
72716,-108.68178,4,1,0,80,0,1
72853,-113.651535,4,1,0,80,0,1
72989,-119.05595,4,1,0,80,0,1
73125,-125,4,1,0,80,0,1
73399,-100,4,1,0,80,0,1
81172,-83.3333333333333,4,1,0,60,0,0
82262,-100,4,1,0,70,0,0
83354,-83.3333333333333,4,1,0,70,0,0
84444,-100,4,1,0,70,0,0
85535,-83.3333333333333,4,1,0,70,0,0
86626,-100,4,1,0,70,0,0
87717,-83.3333333333333,4,1,0,70,0,0
88808,-100,4,1,0,70,0,0
89899,-83.3333333333333,4,1,0,70,0,0
90716,-100,4,1,0,70,0,0
90853,-95.22148,4,1,0,75,0,0
90921,-93.01533,4,1,0,78,0,0
90990,-90.90909,4,1,0,80,0,1
107354,-90.9090909090909,4,1,0,70,0,0
108444,-100,4,1,0,70,0,0
112262,-100,4,1,0,70,0,0
112330,-98.76767,4,1,0,70,0,0
112398,-97.56534,4,1,0,70,0,0
112466,-96.39193,4,1,0,70,0,0
112534,-95.246414,4,1,0,70,0,0
112603,-94.11156,4,1,0,70,0,0
112671,-93.01929,4,1,0,70,0,0
112739,-91.95208,4,1,0,70,0,0
112807,-90.90909,4,1,0,70,0,0
113081,-100,4,1,0,70,0,0
116899,-125,4,1,0,70,0,0
117172,-100,4,1,0,70,0,0
120716,-100,4,1,0,70,0,0
120853,-98.35277,4,1,0,70,0,0
120921,-97.55516,4,1,0,70,0,0
120989,-96.77038,4,1,0,70,0,0
121057,-95.99812,4,1,0,70,0,0
121125,-95.2381,4,1,0,70,0,0
121194,-94.479095,4,1,0,70,0,0
121262,-93.742836,4,1,0,70,0,0
121330,-93.01797,4,1,0,70,0,0
121398,-92.304214,4,1,0,70,0,0
121466,-91.60135,4,1,0,70,0,0
121534,-90.90909,4,1,0,70,0,0
121808,-100,4,1,0,70,0,0
123716,-100,4,1,0,70,0,0
123853,-98.75985,4,1,0,70,0,0
123989,-97.5588,4,1,0,70,0,0
124057,-96.96916,4,1,0,70,0,0
124125,-96.386604,4,1,0,70,0,0
124194,-95.802605,4,1,0,70,0,0
124262,-95.23394,4,1,0,70,0,0
124398,-94.11663,4,1,0,70,0,0
124534,-93.02523,4,1,0,70,0,0
124603,-92.48114,4,1,0,70,0,0
124671,-91.95111,4,1,0,70,0,0
124739,-91.42714,4,1,0,70,0,0
124807,-90.90909,4,1,0,70,0,0
124944,-89.88301,4,1,0,70,0,0
125080,-88.88708,4,1,0,70,0,0
125148,-88.39734,4,1,0,70,0,0
125216,-87.91297,4,1,0,70,0,0
125284,-87.43388,4,1,0,70,0,0
125353,-86.95306,4,1,0,70,0,0
125421,-86.484344,4,1,0,70,0,0
125489,-86.02066,4,1,0,70,0,0
125557,-85.56191,4,1,0,70,0,0
125625,-85.10805,4,1,0,70,0,0
125694,-84.65239,4,1,0,70,0,0
125762,-84.208084,4,1,0,70,0,0
125830,-83.768425,4,1,0,70,0,0
125898,-83.33333,4,1,0,70,0,0
126172,-100,4,1,0,70,0,0
126989,-83.33333,4,1,0,70,0,0
127125,-85.101395,4,1,0,70,0,0
127262,-86.959984,4,1,0,70,0,0
127398,-88.88708,4,1,0,70,0,0
127534,-90.90151,4,1,0,70,0,0
127671,-93.02523,4,1,0,70,0,0
127807,-95.23394,4,1,0,70,0,0
127944,-97.56751,4,1,0,70,0,0
128080,-100,4,1,0,70,0,0
129172,-83.3333333333333,4,1,0,70,0,0
130262,-100,4,1,0,70,0,0
130398,-98.164474,4,1,0,70,0,0
130671,-94.676094,4,1,0,70,0,0
130807,-93.029205,4,1,0,70,0,0
131080,-89.89042,4,1,0,70,0,0
131216,-88.4045,4,1,0,70,0,0
131489,-85.56527,4,1,0,70,0,0
131625,-84.21784,4,1,0,70,0,0
131898,-81.63724,4,1,0,70,0,0
132171,-79.21008,4,1,0,70,0,0
132444,-76.92308,4,1,0,70,0,0

[HitObjects]
256,192,445,5,0,0:0:0:0:
256,192,854,1,0,0:0:0:0:
256,192,1263,1,0,0:0:0:0:
256,192,1535,1,8,0:0:0:0:
256,192,1945,1,8,0:0:0:0:
256,192,2354,1,8,0:0:0:0:
256,192,2626,12,0,4672,0:0:0:0:
256,192,4808,5,0,0:0:0:0:
256,192,5081,1,0,0:0:0:0:
256,192,5354,1,8,0:0:0:0:
256,192,5626,1,0,0:0:0:0:
256,192,5899,1,8,0:0:0:0:
256,192,6308,1,8,0:0:0:0:
256,192,6717,1,8,0:0:0:0:
256,192,6990,12,8,9172,0:0:0:0:
256,192,10263,5,4,0:0:0:0:
256,192,10672,1,4,0:0:0:0:
256,192,11081,1,4,0:0:0:0:
256,192,11354,1,8,0:0:0:0:
256,192,11490,1,8,0:0:0:0:
256,192,11626,1,0,0:0:0:0:
256,192,11763,1,8,0:0:0:0:
256,192,11899,1,0,0:0:0:0:
256,192,12035,1,0,0:0:0:0:
256,192,12172,1,8,0:0:0:0:
256,192,12308,1,8,0:0:0:0:
256,192,12445,1,4,0:0:0:0:
256,192,12854,1,4,0:0:0:0:
256,192,13263,1,4,0:0:0:0:
256,192,13535,1,8,0:0:0:0:
256,192,13672,1,8,0:0:0:0:
256,192,13808,1,0,0:0:0:0:
256,192,13945,1,8,0:0:0:0:
256,192,14081,1,0,0:0:0:0:
256,192,14217,1,8,0:0:0:0:
256,192,14354,1,0,0:0:0:0:
256,192,14399,1,0,0:0:0:0:
256,192,14445,1,0,0:0:0:0:
256,192,14490,1,8,0:0:0:0:
256,192,14558,1,8,0:0:0:0:
256,192,14626,1,4,0:0:0:0:
256,192,15035,1,4,0:0:0:0:
256,192,15445,1,4,0:0:0:0:
256,192,15717,1,8,0:0:0:0:
256,192,15854,1,8,0:0:0:0:
256,192,15990,1,0,0:0:0:0:
256,192,16126,1,8,0:0:0:0:
256,192,16263,1,0,0:0:0:0:
256,192,16399,1,0,0:0:0:0:
256,192,16535,1,8,0:0:0:0:
256,192,16672,1,8,0:0:0:0:
256,192,16808,1,4,0:0:0:0:
256,192,17217,1,4,0:0:0:0:
256,192,17626,1,4,0:0:0:0:
256,192,17763,1,8,0:0:0:0:
256,192,17899,1,4,0:0:0:0:
256,192,18035,1,8,0:0:0:0:
256,192,18308,1,4,0:0:0:0:
256,192,18445,1,8,0:0:0:0:
256,192,18581,1,8,0:0:0:0:
256,192,18717,1,0,0:0:0:0:
256,192,18785,1,0,0:0:0:0:
256,192,18854,1,0,0:0:0:0:
256,192,18922,1,0,0:0:0:0:
256,192,18990,1,12,0:0:0:0:
256,192,19399,1,12,0:0:0:0:
256,192,19808,1,12,0:0:0:0:
256,192,20081,1,0,0:0:0:0:
256,192,20354,1,8,0:0:0:0:
256,192,20490,1,8,0:0:0:0:
256,192,20763,1,0,0:0:0:0:
256,192,20899,1,8,0:0:0:0:
256,192,21035,1,0,0:0:0:0:
256,192,21104,1,0,0:0:0:0:
256,192,21172,1,12,0:0:0:0:
256,192,21581,1,12,0:0:0:0:
256,192,21990,1,12,0:0:0:0:
256,192,22263,1,0,0:0:0:0:
256,192,22285,1,0,0:0:0:0:
256,192,22535,1,8,0:0:0:0:
256,192,22558,1,8,0:0:0:0:
256,192,22672,1,0,0:0:0:0:
256,192,22695,1,0,0:0:0:0:
256,192,22945,1,8,0:0:0:0:
256,192,22967,1,8,0:0:0:0:
256,192,23081,1,8,0:0:0:0:
256,192,23104,1,8,0:0:0:0:
256,192,23354,1,12,0:0:0:0:
256,192,23763,1,12,0:0:0:0:
256,192,24172,1,12,0:0:0:0:
256,192,24445,1,0,0:0:0:0:
256,192,24717,1,8,0:0:0:0:
256,192,24854,1,8,0:0:0:0:
256,192,25126,1,0,0:0:0:0:
256,192,25263,1,8,0:0:0:0:
256,192,25399,1,0,0:0:0:0:
256,192,25467,1,0,0:0:0:0:
256,192,25535,1,12,0:0:0:0:
256,192,25945,1,12,0:0:0:0:
256,192,26354,1,12,0:0:0:0:
256,192,26626,1,4,0:0:0:0:
256,192,27035,1,4,0:0:0:0:
256,192,27445,1,8,0:0:0:0:
256,192,27490,1,8,0:0:0:0:
256,192,27535,1,0,0:0:0:0:
256,192,27717,12,8,29490,0:0:0:0:
256,192,29626,5,4,0:0:0:0:
256,192,29899,1,12,0:0:0:0:
256,192,30035,1,0,0:0:0:0:
256,192,30104,1,0,0:0:0:0:
256,192,30172,1,8,0:0:0:0:
256,192,30308,1,0,0:0:0:0:
256,192,30445,1,8,0:0:0:0:
256,192,30513,1,0,0:0:0:0:
256,192,30581,1,0,0:0:0:0:
256,192,30717,1,8,0:0:0:0:
256,192,30785,1,8,0:0:0:0:
256,192,30854,1,0,0:0:0:0:
256,192,30990,1,0,0:0:0:0:
256,192,31126,1,8,0:0:0:0:
256,192,31195,1,8,0:0:0:0:
256,192,31263,1,8,0:0:0:0:
256,192,31399,1,0,0:0:0:0:
256,192,31535,1,8,0:0:0:0:
256,192,31604,1,0,0:0:0:0:
256,192,31672,1,0,0:0:0:0:
256,192,31808,1,8,0:0:0:0:
256,192,31876,1,8,0:0:0:0:
256,192,31945,1,0,0:0:0:0:
256,192,32013,1,0,0:0:0:0:
256,192,32081,1,8,0:0:0:0:
256,192,32217,1,0,0:0:0:0:
256,192,32285,1,0,0:0:0:0:
256,192,32354,1,8,0:0:0:0:
256,192,32490,1,0,0:0:0:0:
256,192,32626,1,8,0:0:0:0:
256,192,32695,1,8,0:0:0:0:
256,192,32763,1,8,0:0:0:0:
256,192,32831,1,0,0:0:0:0:
256,192,32899,1,8,0:0:0:0:
256,192,32967,1,8,0:0:0:0:
256,192,33035,1,0,0:0:0:0:
256,192,33172,1,8,0:0:0:0:
256,192,33240,1,0,0:0:0:0:
256,192,33308,1,0,0:0:0:0:
256,192,33445,1,0,0:0:0:0:
256,192,33581,1,8,0:0:0:0:
256,192,33649,1,8,0:0:0:0:
256,192,33717,1,0,0:0:0:0:
256,192,33854,1,0,0:0:0:0:
256,192,33990,1,8,0:0:0:0:
256,192,34058,1,0,0:0:0:0:
256,192,34126,1,0,0:0:0:0:
256,192,34195,1,0,0:0:0:0:
256,192,34263,1,8,0:0:0:0:
256,192,34399,1,0,0:0:0:0:
256,192,34467,1,0,0:0:0:0:
256,192,34535,1,8,0:0:0:0:
256,192,34672,1,0,0:0:0:0:
256,192,34808,1,8,0:0:0:0:
256,192,34876,1,0,0:0:0:0:
256,192,34945,1,0,0:0:0:0:
256,192,35081,1,8,0:0:0:0:
256,192,35149,1,8,0:0:0:0:
256,192,35217,1,0,0:0:0:0:
256,192,35354,1,0,0:0:0:0:
256,192,35490,1,8,0:0:0:0:
256,192,35558,1,8,0:0:0:0:
256,192,35626,1,8,0:0:0:0:
256,192,35763,1,0,0:0:0:0:
256,192,35899,1,8,0:0:0:0:
256,192,35967,1,0,0:0:0:0:
256,192,36035,1,0,0:0:0:0:
256,192,36172,1,8,0:0:0:0:
256,192,36240,1,8,0:0:0:0:
256,192,36308,1,0,0:0:0:0:
256,192,36376,1,0,0:0:0:0:
256,192,36445,1,8,0:0:0:0:
256,192,36581,1,0,0:0:0:0:
256,192,36649,1,0,0:0:0:0:
256,192,36717,1,8,0:0:0:0:
256,192,36854,1,0,0:0:0:0:
256,192,36990,1,8,0:0:0:0:
256,192,37058,1,0,0:0:0:0:
256,192,37126,1,0,0:0:0:0:
256,192,37195,1,0,0:0:0:0:
256,192,37263,1,8,0:0:0:0:
256,192,37331,1,8,0:0:0:0:
256,192,37399,1,0,0:0:0:0:
256,192,37535,1,8,0:0:0:0:
256,192,37808,1,0,0:0:0:0:
256,192,37945,1,8,0:0:0:0:
256,192,38217,1,0,0:0:0:0:
256,192,38354,1,8,0:0:0:0:
256,192,38490,1,0,0:0:0:0:
256,192,38558,1,0,0:0:0:0:
256,192,38626,1,12,0:0:0:0:
256,192,38763,1,8,0:0:0:0:
256,192,38831,1,0,0:0:0:0:
256,192,38899,1,8,0:0:0:0:
256,192,39035,1,0,0:0:0:0:
256,192,39172,1,8,0:0:0:0:
256,192,39240,1,0,0:0:0:0:
256,192,39308,1,0,0:0:0:0:
256,192,39445,1,8,0:0:0:0:
256,192,39513,1,8,0:0:0:0:
256,192,39581,1,8,0:0:0:0:
256,192,39717,1,0,0:0:0:0:
256,192,39854,1,8,0:0:0:0:
256,192,39922,1,8,0:0:0:0:
256,192,39990,1,0,0:0:0:0:
256,192,40126,1,8,0:0:0:0:
256,192,40263,1,0,0:0:0:0:
256,192,40331,1,8,0:0:0:0:
256,192,40399,1,8,0:0:0:0:
256,192,40535,1,0,0:0:0:0:
256,192,40604,1,8,0:0:0:0:
256,192,40672,1,8,0:0:0:0:
256,192,40740,1,8,0:0:0:0:
256,192,40808,1,0,0:0:0:0:
256,192,40945,1,0,0:0:0:0:
256,192,41013,1,0,0:0:0:0:
256,192,41081,1,8,0:0:0:0:
256,192,41217,1,0,0:0:0:0:
256,192,41354,1,8,0:0:0:0:
256,192,41422,1,8,0:0:0:0:
256,192,41490,1,0,0:0:0:0:
256,192,41558,1,0,0:0:0:0:
256,192,41626,1,8,0:0:0:0:
256,192,41695,1,8,0:0:0:0:
256,192,41763,1,0,0:0:0:0:
256,192,41899,1,8,0:0:0:0:
256,192,41967,1,0,0:0:0:0:
256,192,42035,1,0,0:0:0:0:
256,192,42172,1,0,0:0:0:0:
256,192,42308,1,8,0:0:0:0:
256,192,42376,1,8,0:0:0:0:
256,192,42445,1,8,0:0:0:0:
256,192,42581,1,0,0:0:0:0:
256,192,42717,1,8,0:0:0:0:
256,192,42785,1,8,0:0:0:0:
256,192,42854,1,0,0:0:0:0:
256,192,42922,1,0,0:0:0:0:
256,192,42990,1,0,0:0:0:0:
256,192,43126,1,8,0:0:0:0:
256,192,43399,1,0,0:0:0:0:
256,192,43535,1,8,0:0:0:0:
256,192,43808,1,8,0:0:0:0:
256,192,43945,1,0,0:0:0:0:
256,192,44013,1,0,0:0:0:0:
256,192,44081,1,0,0:0:0:0:
256,192,44217,1,8,0:0:0:0:
256,192,44285,1,8,0:0:0:0:
256,192,44354,1,0,0:0:0:0:
256,192,44490,1,8,0:0:0:0:
256,192,44626,1,0,0:0:0:0:
256,192,44695,1,8,0:0:0:0:
256,192,44763,1,8,0:0:0:0:
256,192,44899,1,0,0:0:0:0:
256,192,44967,1,8,0:0:0:0:
256,192,45035,1,8,0:0:0:0:
256,192,45104,1,8,0:0:0:0:
256,192,45172,1,0,0:0:0:0:
256,192,45308,1,8,0:0:0:0:
256,192,45376,1,8,0:0:0:0:
256,192,45445,1,0,0:0:0:0:
256,192,45581,1,8,0:0:0:0:
256,192,45717,1,0,0:0:0:0:
256,192,45785,1,0,0:0:0:0:
256,192,45854,1,8,0:0:0:0:
256,192,45922,1,0,0:0:0:0:
256,192,45990,1,8,0:0:0:0:
256,192,46058,1,8,0:0:0:0:
256,192,46126,1,0,0:0:0:0:
256,192,46263,1,4,0:0:0:0:
256,192,47081,1,8,0:0:0:0:
256,192,47149,1,8,0:0:0:0:
256,192,47217,1,8,0:0:0:0:
256,192,47285,1,8,0:0:0:0:
256,192,47354,1,4,0:0:0:0:
256,192,47490,1,0,0:0:0:0:
256,192,47626,1,8,0:0:0:0:
256,192,47763,1,0,0:0:0:0:
256,192,47899,1,8,0:0:0:0:
256,192,48172,1,8,0:0:0:0:
256,192,48308,1,8,0:0:0:0:
256,192,48445,1,0,0:0:0:0:
256,192,48513,1,0,0:0:0:0:
256,192,48581,1,0,0:0:0:0:
256,192,48717,1,8,0:0:0:0:
256,192,48854,1,0,0:0:0:0:
256,192,48990,1,8,0:0:0:0:
256,192,49058,1,8,0:0:0:0:
256,192,49126,1,0,0:0:0:0:
256,192,49195,1,0,0:0:0:0:
256,192,49263,1,8,0:0:0:0:
256,192,49399,1,8,0:0:0:0:
256,192,49535,1,0,0:0:0:0:
256,192,49672,1,8,0:0:0:0:
256,192,49808,1,8,0:0:0:0:
256,192,49945,1,0,0:0:0:0:
256,192,50081,1,8,0:0:0:0:
256,192,50354,1,8,0:0:0:0:
256,192,50490,1,8,0:0:0:0:
256,192,50626,1,0,0:0:0:0:
256,192,50672,1,0,0:0:0:0:
256,192,50717,1,0,0:0:0:0:
256,192,50763,1,8,0:0:0:0:
256,192,50899,1,0,0:0:0:0:
256,192,51035,1,8,0:0:0:0:
256,192,51172,1,0,0:0:0:0:
256,192,51217,1,0,0:0:0:0:
256,192,51263,1,0,0:0:0:0:
256,192,51308,1,8,0:0:0:0:
256,192,51445,1,8,0:0:0:0:
256,192,51581,1,8,0:0:0:0:
256,192,51717,1,0,0:0:0:0:
256,192,51854,1,0,0:0:0:0:
256,192,51990,1,8,0:0:0:0:
256,192,52126,1,0,0:0:0:0:
256,192,52263,1,8,0:0:0:0:
256,192,52535,1,8,0:0:0:0:
256,192,52672,1,8,0:0:0:0:
256,192,52808,1,0,0:0:0:0:
256,192,52876,1,8,0:0:0:0:
256,192,52945,1,0,0:0:0:0:
256,192,53081,1,0,0:0:0:0:
256,192,53217,1,8,0:0:0:0:
256,192,53354,1,0,0:0:0:0:
256,192,53422,1,0,0:0:0:0:
256,192,53490,1,8,0:0:0:0:
256,192,53558,1,0,0:0:0:0:
256,192,53626,1,8,0:0:0:0:
256,192,53763,1,8,0:0:0:0:
256,192,53899,1,0,0:0:0:0:
256,192,54035,1,8,0:0:0:0:
256,192,54172,1,8,0:0:0:0:
256,192,54308,1,0,0:0:0:0:
256,192,54445,1,8,0:0:0:0:
256,192,54717,1,8,0:0:0:0:
256,192,54854,1,8,0:0:0:0:
256,192,54990,1,0,0:0:0:0:
256,192,55126,1,0,0:0:0:0:
256,192,55263,1,0,0:0:0:0:
256,192,55399,1,0,0:0:0:0:
256,192,55535,1,0,0:0:0:0:
256,192,55672,1,8,0:0:0:0:
256,192,55945,1,8,0:0:0:0:
256,192,56013,1,8,0:0:0:0:
256,192,56081,1,4,0:0:0:0:
256,192,56217,1,0,0:0:0:0:
256,192,56354,1,8,0:0:0:0:
256,192,56422,1,8,0:0:0:0:
256,192,56490,1,0,0:0:0:0:
256,192,56626,1,8,0:0:0:0:
256,192,56899,1,8,0:0:0:0:
256,192,57035,1,8,0:0:0:0:
256,192,57172,1,0,0:0:0:0:
256,192,57240,1,0,0:0:0:0:
256,192,57308,1,0,0:0:0:0:
256,192,57376,1,0,0:0:0:0:
256,192,57445,1,8,0:0:0:0:
256,192,57581,1,0,0:0:0:0:
256,192,57717,1,8,0:0:0:0:
256,192,57785,1,8,0:0:0:0:
256,192,57854,1,0,0:0:0:0:
256,192,57922,1,0,0:0:0:0:
256,192,57990,1,8,0:0:0:0:
256,192,58126,1,8,0:0:0:0:
256,192,58263,1,0,0:0:0:0:
256,192,58399,1,0,0:0:0:0:
256,192,58535,1,8,0:0:0:0:
256,192,58604,1,8,0:0:0:0:
256,192,58672,1,0,0:0:0:0:
256,192,58808,1,8,0:0:0:0:
256,192,59081,1,8,0:0:0:0:
256,192,59217,1,8,0:0:0:0:
256,192,59354,1,0,0:0:0:0:
256,192,59399,1,0,0:0:0:0:
256,192,59445,1,0,0:0:0:0:
256,192,59490,1,8,0:0:0:0:
256,192,59626,1,0,0:0:0:0:
256,192,59763,1,8,0:0:0:0:
256,192,59899,1,0,0:0:0:0:
256,192,59945,1,0,0:0:0:0:
256,192,59990,1,0,0:0:0:0:
256,192,60035,1,8,0:0:0:0:
256,192,60172,1,8,0:0:0:0:
256,192,60308,1,8,0:0:0:0:
256,192,60445,1,0,0:0:0:0:
256,192,60581,1,0,0:0:0:0:
256,192,60717,1,8,0:0:0:0:
256,192,60785,1,8,0:0:0:0:
256,192,60854,1,0,0:0:0:0:
256,192,60990,1,8,0:0:0:0:
256,192,61263,1,8,0:0:0:0:
256,192,61399,1,8,0:0:0:0:
256,192,61535,1,0,0:0:0:0:
256,192,61604,1,0,0:0:0:0:
256,192,61672,1,8,0:0:0:0:
256,192,61740,1,0,0:0:0:0:
256,192,61808,1,8,0:0:0:0:
256,192,61945,1,0,0:0:0:0:
256,192,62081,1,8,0:0:0:0:
256,192,62149,1,8,0:0:0:0:
256,192,62217,1,0,0:0:0:0:
256,192,62285,1,0,0:0:0:0:
256,192,62354,1,8,0:0:0:0:
256,192,62490,1,0,0:0:0:0:
256,192,62626,1,12,0:0:0:0:
256,192,62763,1,4,0:0:0:0:
256,192,63172,1,12,0:0:0:0:
256,192,63308,1,4,0:0:0:0:
256,192,63717,1,8,0:0:0:0:
256,192,63854,1,8,0:0:0:0:
256,192,63990,1,8,0:0:0:0:
256,192,64126,1,8,0:0:0:0:
256,192,64263,1,0,0:0:0:0:
256,192,64535,1,8,0:0:0:0:
256,192,64808,1,4,0:0:0:0:
256,192,64945,1,0,0:0:0:0:
256,192,65013,1,0,0:0:0:0:
256,192,65081,1,8,0:0:0:0:
256,192,65217,1,0,0:0:0:0:
256,192,65354,1,8,0:0:0:0:
256,192,65490,1,0,0:0:0:0:
256,192,65558,1,0,0:0:0:0:
256,192,65626,1,8,0:0:0:0:
256,192,65763,1,8,0:0:0:0:
256,192,65899,1,0,0:0:0:0:
256,192,65967,1,8,0:0:0:0:
256,192,66035,1,8,0:0:0:0:
256,192,66104,1,0,0:0:0:0:
256,192,66172,1,8,0:0:0:0:
256,192,66308,1,0,0:0:0:0:
256,192,66445,1,8,0:0:0:0:
256,192,66513,1,8,0:0:0:0:
256,192,66581,1,0,0:0:0:0:
256,192,66649,1,0,0:0:0:0:
256,192,66717,1,8,0:0:0:0:
256,192,66785,1,0,0:0:0:0:
256,192,66854,1,8,0:0:0:0:
256,192,66990,1,0,0:0:0:0:
256,192,67126,1,0,0:0:0:0:
256,192,67263,1,8,0:0:0:0:
256,192,67331,1,8,0:0:0:0:
256,192,67399,1,0,0:0:0:0:
256,192,67535,1,8,0:0:0:0:
256,192,67672,1,0,0:0:0:0:
256,192,67740,1,0,0:0:0:0:
256,192,67808,1,8,0:0:0:0:
256,192,67876,1,8,0:0:0:0:
256,192,67945,1,8,0:0:0:0:
256,192,68081,1,0,0:0:0:0:
256,192,68126,1,0,0:0:0:0:
256,192,68172,1,0,0:0:0:0:
256,192,68217,1,8,0:0:0:0:
256,192,68354,1,0,0:0:0:0:
256,192,68490,1,8,0:0:0:0:
256,192,68626,1,0,0:0:0:0:
256,192,68672,1,0,0:0:0:0:
256,192,68717,1,0,0:0:0:0:
256,192,68763,1,8,0:0:0:0:
256,192,68899,1,8,0:0:0:0:
256,192,69035,1,8,0:0:0:0:
256,192,69172,1,0,0:0:0:0:
256,192,69308,1,0,0:0:0:0:
256,192,69376,1,0,0:0:0:0:
256,192,69445,1,8,0:0:0:0:
256,192,69581,1,0,0:0:0:0:
256,192,69717,1,8,0:0:0:0:
256,192,69854,1,0,0:0:0:0:
256,192,69922,1,0,0:0:0:0:
256,192,69990,1,8,0:0:0:0:
256,192,70126,1,8,0:0:0:0:
256,192,70263,1,0,0:0:0:0:
256,192,70331,1,0,0:0:0:0:
256,192,70399,1,8,0:0:0:0:
256,192,70467,1,0,0:0:0:0:
256,192,70535,1,8,0:0:0:0:
256,192,70672,1,0,0:0:0:0:
256,192,70808,1,8,0:0:0:0:
256,192,70876,1,0,0:0:0:0:
256,192,70945,1,0,0:0:0:0:
256,192,71013,1,0,0:0:0:0:
256,192,71081,1,8,0:0:0:0:
256,192,71149,1,8,0:0:0:0:
256,192,71217,1,0,0:0:0:0:
256,192,71354,1,0,0:0:0:0:
256,192,71490,1,0,0:0:0:0:
256,192,71626,1,8,0:0:0:0:
256,192,71695,1,8,0:0:0:0:
256,192,71763,1,0,0:0:0:0:
256,192,71899,1,8,0:0:0:0:
256,192,72035,1,0,0:0:0:0:
256,192,72104,1,0,0:0:0:0:
256,192,72172,1,8,0:0:0:0:
256,192,72240,1,0,0:0:0:0:
256,192,72308,1,8,0:0:0:0:
256,192,72445,1,0,0:0:0:0:
256,192,72581,1,0,0:0:0:0:
256,192,72717,1,0,0:0:0:0:
256,192,72854,1,0,0:0:0:0:
256,192,72990,1,0,0:0:0:0:
256,192,73126,1,8,0:0:0:0:
256,192,73399,1,8,0:0:0:0:
256,192,73467,1,8,0:0:0:0:
256,192,73535,1,4,0:0:0:0:
256,192,73672,1,0,0:0:0:0:
256,192,73740,1,0,0:0:0:0:
256,192,73808,1,8,0:0:0:0:
256,192,73945,1,0,0:0:0:0:
256,192,74081,1,8,0:0:0:0:
256,192,74149,1,8,0:0:0:0:
256,192,74217,1,0,0:0:0:0:
256,192,74285,1,0,0:0:0:0:
256,192,74354,1,8,0:0:0:0:
256,192,74490,1,8,0:0:0:0:
256,192,74626,1,0,0:0:0:0:
256,192,74695,1,0,0:0:0:0:
256,192,74763,1,8,0:0:0:0:
256,192,74831,1,0,0:0:0:0:
256,192,74899,1,8,0:0:0:0:
256,192,74967,1,8,0:0:0:0:
256,192,75035,1,0,0:0:0:0:
256,192,75104,1,0,0:0:0:0:
256,192,75172,1,8,0:0:0:0:
256,192,75240,1,8,0:0:0:0:
256,192,75308,1,0,0:0:0:0:
256,192,75376,1,0,0:0:0:0:
256,192,75445,1,8,0:0:0:0:
256,192,75513,1,0,0:0:0:0:
256,192,75581,1,8,0:0:0:0:
256,192,75717,1,0,0:0:0:0:
256,192,75854,1,0,0:0:0:0:
256,192,75990,1,8,0:0:0:0:
256,192,76058,1,8,0:0:0:0:
256,192,76126,1,0,0:0:0:0:
256,192,76263,1,8,0:0:0:0:
256,192,76399,1,0,0:0:0:0:
256,192,76467,1,0,0:0:0:0:
256,192,76535,1,8,0:0:0:0:
256,192,76604,1,8,0:0:0:0:
256,192,76672,1,8,0:0:0:0:
256,192,76808,1,0,0:0:0:0:
256,192,76854,1,0,0:0:0:0:
256,192,76899,1,0,0:0:0:0:
256,192,76945,1,8,0:0:0:0:
256,192,77081,1,0,0:0:0:0:
256,192,77217,1,8,0:0:0:0:
256,192,77354,1,0,0:0:0:0:
256,192,77399,1,0,0:0:0:0:
256,192,77445,1,0,0:0:0:0:
256,192,77490,1,8,0:0:0:0:
256,192,77626,1,8,0:0:0:0:
256,192,77695,1,8,0:0:0:0:
256,192,77763,1,8,0:0:0:0:
256,192,77831,1,8,0:0:0:0:
256,192,77899,1,0,0:0:0:0:
256,192,78035,1,0,0:0:0:0:
256,192,78104,1,0,0:0:0:0:
256,192,78172,1,8,0:0:0:0:
256,192,78308,1,0,0:0:0:0:
256,192,78445,1,8,0:0:0:0:
256,192,78513,1,8,0:0:0:0:
256,192,78581,1,0,0:0:0:0:
256,192,78649,1,0,0:0:0:0:
256,192,78717,1,8,0:0:0:0:
256,192,78854,1,8,0:0:0:0:
256,192,78990,1,0,0:0:0:0:
256,192,79058,1,0,0:0:0:0:
256,192,79126,1,8,0:0:0:0:
256,192,79195,1,0,0:0:0:0:
256,192,79263,1,8,0:0:0:0:
256,192,79331,1,8,0:0:0:0:
256,192,79399,1,0,0:0:0:0:
256,192,79467,1,0,0:0:0:0:
256,192,79535,1,8,0:0:0:0:
256,192,79604,1,0,0:0:0:0:
256,192,79672,1,0,0:0:0:0:
256,192,79740,1,0,0:0:0:0:
256,192,79808,1,8,0:0:0:0:
256,192,79876,1,8,0:0:0:0:
256,192,79945,1,0,0:0:0:0:
256,192,80081,1,8,0:0:0:0:
256,192,80217,1,0,0:0:0:0:
256,192,80354,1,8,0:0:0:0:
256,192,80422,1,8,0:0:0:0:
256,192,80490,1,0,0:0:0:0:
256,192,80626,1,8,0:0:0:0:
256,192,80695,1,8,0:0:0:0:
256,192,80763,1,0,0:0:0:0:
256,192,80831,1,0,0:0:0:0:
256,192,80899,1,8,0:0:0:0:
256,192,80967,1,0,0:0:0:0:
256,192,81035,1,8,0:0:0:0:
256,192,81172,1,4,0:0:0:0:
256,192,81581,1,4,0:0:0:0:
256,192,81990,1,4,0:0:0:0:
256,192,82263,1,12,0:0:0:0:
256,192,82399,1,4,0:0:0:0:
256,192,83354,1,4,0:0:0:0:
256,192,83626,1,4,0:0:0:0:
256,192,83899,1,4,0:0:0:0:
256,192,84172,1,4,0:0:0:0:
256,192,84445,1,12,0:0:0:0:
256,192,84581,1,4,0:0:0:0:
256,192,85535,1,4,0:0:0:0:
256,192,85808,1,4,0:0:0:0:
256,192,86081,1,4,0:0:0:0:
256,192,86354,1,4,0:0:0:0:
256,192,86626,1,12,0:0:0:0:
256,192,86763,1,12,0:0:0:0:
256,192,87717,1,4,0:0:0:0:
256,192,87990,1,4,0:0:0:0:
256,192,88263,1,4,0:0:0:0:
256,192,88535,1,4,0:0:0:0:
256,192,88808,1,12,0:0:0:0:
256,192,88945,1,12,0:0:0:0:
256,192,89899,1,4,0:0:0:0:
256,192,90308,1,12,0:0:0:0:
256,192,90717,1,0,0:0:0:0:
256,192,90854,1,8,0:0:0:0:
256,192,90922,1,8,0:0:0:0:
256,192,90990,1,4,0:0:0:0:
256,192,91126,1,8,0:0:0:0:
256,192,91263,1,0,0:0:0:0:
256,192,91331,1,0,0:0:0:0:
256,192,91399,1,8,0:0:0:0:
256,192,91467,1,8,0:0:0:0:
256,192,91535,1,0,0:0:0:0:
256,192,91604,1,0,0:0:0:0:
256,192,91672,1,8,0:0:0:0:
256,192,91740,1,0,0:0:0:0:
256,192,91808,1,8,0:0:0:0:
256,192,91945,1,0,0:0:0:0:
256,192,92081,1,8,0:0:0:0:
256,192,92149,1,0,0:0:0:0:
256,192,92217,1,0,0:0:0:0:
256,192,92354,1,0,0:0:0:0:
256,192,92490,1,8,0:0:0:0:
256,192,92558,1,8,0:0:0:0:
256,192,92626,1,0,0:0:0:0:
256,192,92763,1,8,0:0:0:0:
256,192,92899,1,0,0:0:0:0:
256,192,92967,1,0,0:0:0:0:
256,192,93035,1,0,0:0:0:0:
256,192,93104,1,0,0:0:0:0:
256,192,93172,1,8,0:0:0:0:
256,192,93308,1,0,0:0:0:0:
256,192,93445,1,8,0:0:0:0:
256,192,93513,1,0,0:0:0:0:
256,192,93581,1,8,0:0:0:0:
256,192,93649,1,8,0:0:0:0:
256,192,93717,1,0,0:0:0:0:
256,192,93785,1,0,0:0:0:0:
256,192,93854,1,8,0:0:0:0:
256,192,93922,1,0,0:0:0:0:
256,192,93990,1,8,0:0:0:0:
256,192,94126,1,0,0:0:0:0:
256,192,94263,1,8,0:0:0:0:
256,192,94331,1,0,0:0:0:0:
256,192,94399,1,0,0:0:0:0:
256,192,94467,1,0,0:0:0:0:
256,192,94535,1,8,0:0:0:0:
256,192,94672,1,0,0:0:0:0:
256,192,94808,1,8,0:0:0:0:
256,192,94876,1,8,0:0:0:0:
256,192,94945,1,0,0:0:0:0:
256,192,95013,1,0,0:0:0:0:
256,192,95081,1,8,0:0:0:0:
256,192,95217,1,8,0:0:0:0:
256,192,95354,1,0,0:0:0:0:
256,192,95490,1,8,0:0:0:0:
256,192,95626,1,0,0:0:0:0:
256,192,95695,1,0,0:0:0:0:
256,192,95763,1,8,0:0:0:0:
256,192,95831,1,8,0:0:0:0:
256,192,95899,1,0,0:0:0:0:
256,192,95967,1,0,0:0:0:0:
256,192,96035,1,8,0:0:0:0:
256,192,96104,1,0,0:0:0:0:
256,192,96172,1,8,0:0:0:0:
256,192,96308,1,0,0:0:0:0:
256,192,96445,1,8,0:0:0:0:
256,192,96513,1,0,0:0:0:0:
256,192,96581,1,0,0:0:0:0:
256,192,96717,1,0,0:0:0:0:
256,192,96854,1,8,0:0:0:0:
256,192,96922,1,8,0:0:0:0:
256,192,96990,1,0,0:0:0:0:
256,192,97126,1,0,0:0:0:0:
256,192,97263,1,8,0:0:0:0:
256,192,97331,1,8,0:0:0:0:
256,192,97399,1,8,0:0:0:0:
256,192,97467,1,8,0:0:0:0:
256,192,97535,1,0,0:0:0:0:
256,192,97672,1,0,0:0:0:0:
256,192,97808,1,8,0:0:0:0:
256,192,97876,1,0,0:0:0:0:
256,192,97945,1,8,0:0:0:0:
256,192,98013,1,8,0:0:0:0:
256,192,98081,1,0,0:0:0:0:
256,192,98149,1,0,0:0:0:0:
256,192,98217,1,8,0:0:0:0:
256,192,98285,1,0,0:0:0:0:
256,192,98354,1,8,0:0:0:0:
256,192,98490,1,8,0:0:0:0:
256,192,98626,1,0,0:0:0:0:
256,192,98695,1,0,0:0:0:0:
256,192,98763,1,0,0:0:0:0:
256,192,98831,1,0,0:0:0:0:
256,192,98899,1,8,0:0:0:0:
256,192,99035,1,0,0:0:0:0:
256,192,99172,1,8,0:0:0:0:
256,192,99240,1,8,0:0:0:0:
256,192,99308,1,0,0:0:0:0:
256,192,99376,1,0,0:0:0:0:
256,192,99445,1,8,0:0:0:0:
256,192,99513,1,8,0:0:0:0:
256,192,99581,1,8,0:0:0:0:
256,192,99649,1,8,0:0:0:0:
256,192,99717,1,4,0:0:0:0:
256,192,99854,1,8,0:0:0:0:
256,192,99990,1,0,0:0:0:0:
256,192,100058,1,0,0:0:0:0:
256,192,100126,1,8,0:0:0:0:
256,192,100195,1,8,0:0:0:0:
256,192,100263,1,0,0:0:0:0:
256,192,100331,1,0,0:0:0:0:
256,192,100399,1,8,0:0:0:0:
256,192,100467,1,0,0:0:0:0:
256,192,100535,1,8,0:0:0:0:
256,192,100672,1,0,0:0:0:0:
256,192,100808,1,8,0:0:0:0:
256,192,100876,1,0,0:0:0:0:
256,192,100945,1,0,0:0:0:0:
256,192,101081,1,0,0:0:0:0:
256,192,101217,1,8,0:0:0:0:
256,192,101285,1,8,0:0:0:0:
256,192,101354,1,0,0:0:0:0:
256,192,101490,1,8,0:0:0:0:
256,192,101626,1,0,0:0:0:0:
256,192,101695,1,0,0:0:0:0:
256,192,101763,1,0,0:0:0:0:
256,192,101831,1,0,0:0:0:0:
256,192,101899,1,8,0:0:0:0:
256,192,102035,1,0,0:0:0:0:
256,192,102172,1,8,0:0:0:0:
256,192,102240,1,0,0:0:0:0:
256,192,102308,1,8,0:0:0:0:
256,192,102376,1,8,0:0:0:0:
256,192,102445,1,0,0:0:0:0:
256,192,102513,1,0,0:0:0:0:
256,192,102581,1,8,0:0:0:0:
256,192,102649,1,0,0:0:0:0:
256,192,102717,1,8,0:0:0:0:
256,192,102854,1,0,0:0:0:0:
256,192,102990,1,8,0:0:0:0:
256,192,103058,1,0,0:0:0:0:
256,192,103126,1,0,0:0:0:0:
256,192,103195,1,0,0:0:0:0:
256,192,103263,1,8,0:0:0:0:
256,192,103399,1,0,0:0:0:0:
256,192,103535,1,8,0:0:0:0:
256,192,103604,1,8,0:0:0:0:
256,192,103672,1,0,0:0:0:0:
256,192,103740,1,0,0:0:0:0:
256,192,103808,1,8,0:0:0:0:
256,192,103945,1,8,0:0:0:0:
256,192,104081,1,0,0:0:0:0:
256,192,104217,1,8,0:0:0:0:
256,192,104354,1,0,0:0:0:0:
256,192,104422,1,0,0:0:0:0:
256,192,104490,1,8,0:0:0:0:
256,192,104558,1,8,0:0:0:0:
256,192,104626,1,0,0:0:0:0:
256,192,104695,1,0,0:0:0:0:
256,192,104763,1,8,0:0:0:0:
256,192,104831,1,0,0:0:0:0:
256,192,104899,1,8,0:0:0:0:
256,192,105035,1,0,0:0:0:0:
256,192,105172,1,8,0:0:0:0:
256,192,105240,1,0,0:0:0:0:
256,192,105308,1,0,0:0:0:0:
256,192,105445,1,0,0:0:0:0:
256,192,105581,1,8,0:0:0:0:
256,192,105649,1,8,0:0:0:0:
256,192,105717,1,0,0:0:0:0:
256,192,105854,1,0,0:0:0:0:
256,192,105990,1,8,0:0:0:0:
256,192,106058,1,8,0:0:0:0:
256,192,106126,1,8,0:0:0:0:
256,192,106195,1,8,0:0:0:0:
256,192,106263,1,0,0:0:0:0:
256,192,106399,1,0,0:0:0:0:
256,192,106535,1,8,0:0:0:0:
256,192,106604,1,0,0:0:0:0:
256,192,106672,1,8,0:0:0:0:
256,192,106740,1,8,0:0:0:0:
256,192,106808,1,0,0:0:0:0:
256,192,106876,1,0,0:0:0:0:
256,192,106945,1,8,0:0:0:0:
256,192,107013,1,0,0:0:0:0:
256,192,107081,1,8,0:0:0:0:
256,192,107217,1,8,0:0:0:0:
256,192,107354,1,4,0:0:0:0:
256,192,108445,1,4,0:0:0:0:
256,192,108717,1,0,0:0:0:0:
256,192,108785,1,8,0:0:0:0:
256,192,108854,1,8,0:0:0:0:
256,192,108990,1,0,0:0:0:0:
256,192,109126,1,8,0:0:0:0:
256,192,109263,1,0,0:0:0:0:
256,192,109331,1,0,0:0:0:0:
256,192,109399,1,8,0:0:0:0:
256,192,109535,1,0,0:0:0:0:
256,192,109672,1,0,0:0:0:0:
256,192,109808,1,8,0:0:0:0:
256,192,109876,1,0,0:0:0:0:
256,192,109945,1,8,0:0:0:0:
256,192,110081,1,8,0:0:0:0:
256,192,110217,1,0,0:0:0:0:
256,192,110285,1,0,0:0:0:0:
256,192,110354,1,8,0:0:0:0:
256,192,110422,1,8,0:0:0:0:
256,192,110490,1,8,0:0:0:0:
256,192,110626,1,0,0:0:0:0:
256,192,110763,1,0,0:0:0:0:
256,192,110899,1,8,0:0:0:0:
256,192,110967,1,8,0:0:0:0:
256,192,111035,1,8,0:0:0:0:
256,192,111172,1,0,0:0:0:0:
256,192,111308,1,8,0:0:0:0:
256,192,111445,1,0,0:0:0:0:
256,192,111513,1,0,0:0:0:0:
256,192,111581,1,8,0:0:0:0:
256,192,111717,1,0,0:0:0:0:
256,192,111854,1,0,0:0:0:0:
256,192,111922,1,0,0:0:0:0:
256,192,111990,1,8,0:0:0:0:
256,192,112058,1,8,0:0:0:0:
256,192,112126,1,0,0:0:0:0:
256,192,112263,1,8,0:0:0:0:
256,192,112331,1,8,0:0:0:0:
256,192,112399,1,0,0:0:0:0:
256,192,112467,1,0,0:0:0:0:
256,192,112535,1,8,0:0:0:0:
256,192,112604,1,8,0:0:0:0:
256,192,112672,1,8,0:0:0:0:
256,192,112740,1,8,0:0:0:0:
256,192,112808,1,4,0:0:0:0:
256,192,113081,1,0,0:0:0:0:
256,192,113149,1,8,0:0:0:0:
256,192,113217,1,8,0:0:0:0:
256,192,113354,1,0,0:0:0:0:
256,192,113490,1,8,0:0:0:0:
256,192,113626,1,0,0:0:0:0:
256,192,113695,1,0,0:0:0:0:
256,192,113763,1,8,0:0:0:0:
256,192,113899,1,8,0:0:0:0:
256,192,114035,1,0,0:0:0:0:
256,192,114172,1,8,0:0:0:0:
256,192,114240,1,0,0:0:0:0:
256,192,114308,1,8,0:0:0:0:
256,192,114445,1,8,0:0:0:0:
256,192,114581,1,0,0:0:0:0:
256,192,114649,1,0,0:0:0:0:
256,192,114717,1,8,0:0:0:0:
256,192,114785,1,0,0:0:0:0:
256,192,114854,1,0,0:0:0:0:
256,192,114990,1,8,0:0:0:0:
256,192,115126,1,0,0:0:0:0:
256,192,115263,1,8,0:0:0:0:
256,192,115331,1,8,0:0:0:0:
256,192,115399,1,8,0:0:0:0:
256,192,115535,1,0,0:0:0:0:
256,192,115672,1,8,0:0:0:0:
256,192,115808,1,8,0:0:0:0:
256,192,115876,1,8,0:0:0:0:
256,192,115945,1,0,0:0:0:0:
256,192,116081,1,4,0:0:0:0:
256,192,116899,1,4,0:0:0:0:
256,192,117172,1,12,0:0:0:0:
256,192,117445,1,0,0:0:0:0:
256,192,117513,1,8,0:0:0:0:
256,192,117581,1,8,0:0:0:0:
256,192,117717,1,0,0:0:0:0:
256,192,117854,1,8,0:0:0:0:
256,192,117990,1,0,0:0:0:0:
256,192,118058,1,0,0:0:0:0:
256,192,118126,1,8,0:0:0:0:
256,192,118263,1,0,0:0:0:0:
256,192,118399,1,0,0:0:0:0:
256,192,118535,1,8,0:0:0:0:
256,192,118604,1,8,0:0:0:0:
256,192,118672,1,0,0:0:0:0:
256,192,118808,1,8,0:0:0:0:
256,192,118945,1,0,0:0:0:0:
256,192,119081,1,8,0:0:0:0:
256,192,119149,1,0,0:0:0:0:
256,192,119217,1,8,0:0:0:0:
256,192,119285,1,8,0:0:0:0:
256,192,119354,1,0,0:0:0:0:
256,192,119490,1,8,0:0:0:0:
256,192,119626,1,0,0:0:0:0:
256,192,119695,1,0,0:0:0:0:
256,192,119763,1,8,0:0:0:0:
256,192,119831,1,8,0:0:0:0:
256,192,119899,1,0,0:0:0:0:
256,192,119967,1,8,0:0:0:0:
256,192,120035,1,8,0:0:0:0:
256,192,120104,1,8,0:0:0:0:
256,192,120172,1,0,0:0:0:0:
256,192,120308,1,8,0:0:0:0:
256,192,120445,1,0,0:0:0:0:
256,192,120513,1,8,0:0:0:0:
256,192,120581,1,8,0:0:0:0:
256,192,120717,1,0,0:0:0:0:
256,192,120854,1,8,0:0:0:0:
256,192,120922,1,8,0:0:0:0:
256,192,120990,1,0,0:0:0:0:
256,192,121058,1,0,0:0:0:0:
256,192,121126,1,8,0:0:0:0:
256,192,121195,1,0,0:0:0:0:
256,192,121263,1,8,0:0:0:0:
256,192,121331,1,8,0:0:0:0:
256,192,121399,1,0,0:0:0:0:
256,192,121467,1,0,0:0:0:0:
256,192,121535,1,12,0:0:0:0:
256,192,121808,1,0,0:0:0:0:
256,192,121945,1,8,0:0:0:0:
256,192,122013,1,0,0:0:0:0:
256,192,122081,1,0,0:0:0:0:
256,192,122149,1,8,0:0:0:0:
256,192,122217,1,0,0:0:0:0:
256,192,122285,1,0,0:0:0:0:
256,192,122354,1,8,0:0:0:0:
256,192,122422,1,8,0:0:0:0:
256,192,122490,1,0,0:0:0:0:
256,192,122626,1,0,0:0:0:0:
256,192,122763,1,8,0:0:0:0:
256,192,122899,1,0,0:0:0:0:
256,192,122967,1,0,0:0:0:0:
256,192,123035,1,8,0:0:0:0:
256,192,123172,1,0,0:0:0:0:
256,192,123308,1,8,0:0:0:0:
256,192,123445,1,8,0:0:0:0:
256,192,123513,1,8,0:0:0:0:
256,192,123581,1,0,0:0:0:0:
256,192,123717,1,0,0:0:0:0:
256,192,123854,1,0,0:0:0:0:
256,192,123990,1,8,0:0:0:0:
256,192,124058,1,8,0:0:0:0:
256,192,124126,1,0,0:0:0:0:
256,192,124195,1,0,0:0:0:0:
256,192,124263,1,8,0:0:0:0:
256,192,124399,1,8,0:0:0:0:
256,192,124535,1,0,0:0:0:0:
256,192,124604,1,0,0:0:0:0:
256,192,124672,1,8,0:0:0:0:
256,192,124740,1,8,0:0:0:0:
256,192,124808,1,0,0:0:0:0:
256,192,124945,1,0,0:0:0:0:
256,192,125081,1,8,0:0:0:0:
256,192,125149,1,8,0:0:0:0:
256,192,125217,1,8,0:0:0:0:
256,192,125285,1,0,0:0:0:0:
256,192,125354,1,8,0:0:0:0:
256,192,125422,1,8,0:0:0:0:
256,192,125490,1,0,0:0:0:0:
256,192,125558,1,0,0:0:0:0:
256,192,125626,1,8,0:0:0:0:
256,192,125695,1,8,0:0:0:0:
256,192,125763,1,8,0:0:0:0:
256,192,125831,1,8,0:0:0:0:
256,192,125899,1,4,0:0:0:0:
256,192,126172,1,8,0:0:0:0:
256,192,126308,1,0,0:0:0:0:
256,192,126445,1,8,0:0:0:0:
256,192,126513,1,0,0:0:0:0:
256,192,126581,1,0,0:0:0:0:
256,192,126717,1,8,0:0:0:0:
256,192,126785,1,8,0:0:0:0:
256,192,126854,1,8,0:0:0:0:
256,192,126990,1,4,0:0:0:0:
256,192,127126,1,4,0:0:0:0:
256,192,127263,1,8,0:0:0:0:
256,192,127399,1,8,0:0:0:0:
256,192,127535,1,4,0:0:0:0:
256,192,127672,1,4,0:0:0:0:
256,192,127808,1,8,0:0:0:0:
256,192,127945,1,8,0:0:0:0:
256,192,128081,1,4,0:0:0:0:
256,192,128217,1,0,0:0:0:0:
256,192,128285,1,0,0:0:0:0:
256,192,128354,1,8,0:0:0:0:
256,192,128490,1,0,0:0:0:0:
256,192,128626,1,8,0:0:0:0:
256,192,128695,1,0,0:0:0:0:
256,192,128763,1,0,0:0:0:0:
256,192,128899,1,8,0:0:0:0:
256,192,128967,1,8,0:0:0:0:
256,192,129035,1,0,0:0:0:0:
256,192,129172,1,4,0:0:0:0:
256,192,129308,1,12,0:0:0:0:
256,192,129717,1,4,0:0:0:0:
256,192,129854,1,12,0:0:0:0:
256,192,129990,1,4,0:0:0:0:
256,192,130263,1,4,0:0:0:0:
256,192,130399,1,8,0:0:0:0:
256,192,130672,1,4,0:0:0:0:
256,192,130808,1,8,0:0:0:0:
256,192,131081,1,4,0:0:0:0:
256,192,131217,1,8,0:0:0:0:
256,192,131490,1,4,0:0:0:0:
256,192,131626,1,8,0:0:0:0:
256,192,131899,1,12,0:0:0:0:
256,192,132172,1,12,0:0:0:0:
256,192,132445,1,4,0:0:0:0:
256,192,132854,1,4,0:0:0:0:
256,192,133263,1,12,0:0:0:0:
