osu file format v14

[General]
AudioFilename: audio.mp3
AudioLeadIn: 0
PreviewTime: 2767
Countdown: 0
SampleSet: Soft
StackLeniency: 0.7
Mode: 0
LetterboxInBreaks: 0
WidescreenStoryboard: 0

[Editor]
Bookmarks: 3399,23609,43820,64030,84241
DistanceSpacing: 1.1
BeatDivisor: 4
GridSize: 32
TimelineZoom: 1

[Metadata]
Title:GIGA WRECKER Title Theme
TitleUnicode:GIGA WRECKER Title Theme
Artist:Shinji Hosoe
ArtistUnicode:細江 慎治
Creator:HighTec
Version:LCFC's Normal
Source:GIGA WRECKER
Tags:GAME FREAK inc. ARCHE LowComboFC OST Soundtrack
BeatmapID:1388270
BeatmapSetID:653715

[Difficulty]
HPDrainRate:3
CircleSize:3.5
OverallDifficulty:3
ApproachRate:3
SliderMultiplier:1.5
SliderTickRate:1

[Events]
//Background and Video events
0,0,"GigaWrecker_2017-08-12_16-51-43.jpg",0,0
//Break Periods
//Storyboard Layer 0 (Background)
//Storyboard Layer 1 (Fail)
//Storyboard Layer 2 (Pass)
//Storyboard Layer 3 (Foreground)
//Storyboard Sound Samples

[TimingPoints]
873,631.578947368421,4,2,0,45,1,0
3399,-100,4,2,0,65,0,0

[Colours]
Combo1 : 166,180,160
Combo2 : 108,232,207
Combo3 : 255,200,85
Combo4 : 255,85,85

[HitObjects]
84,233,2767,6,0,L|102:161,1,75,2|0,0:2|0:0,0:0:0:0:
75,83,3399,6,0,L|220:47,1,150,6|0,1:2|3:0,0:0:0:0:
300,71,4346,1,0,3:2:0:0:
379,93,4662,2,0,L|361:165,1,75,8|0,3:2|3:2,0:0:0:0:
339,245,5294,2,0,L|321:317,1,75,0|0,3:3|3:3,0:0:0:0:
400,341,5925,6,0,L|435:195,1,150,2|0,3:2|3:0,0:0:0:0:
361,165,6873,1,0,3:2:0:0:
279,178,7188,2,0,L|206:161,1,75,8|0,3:2|0:0,0:0:0:0:
123,160,7820,2,0,L|50:178,1,75,6|0,3:3|0:0,0:0:0:0:
26,258,8451,6,0,L|171:293,1,150,6|0,0:2|3:0,0:0:0:0:
252,278,9399,1,0,3:0:0:0:
333,262,9715,2,0,L|350:189,1,75,8|0,3:2|3:2,0:0:0:0:
373,109,10346,2,0,L|390:36,1,75,0|0,3:3|3:3,0:0:0:0:
309,22,10978,6,0,L|163:57,1,150,2|0,0:2|3:0,0:0:0:0:
82,43,11925,1,0,3:2:0:0:
28,105,12241,2,0,L|45:177,1,75,8|0,3:2|3:0,0:0:0:0:
119,214,12873,2,0,L|101:286,1,75,2|4,0:3|0:3,0:0:0:0:
156,347,13504,6,0,L|302:312,1,150,6|0,0:2|3:0,0:0:0:0:
382,330,14451,1,0,3:0:0:0:
462,349,14767,2,0,L|480:277,1,75,8|8,3:2|3:3,0:0:0:0:
460,239,15241,1,8,0:3:0:0:
460,239,15399,2,0,L|478:167,1,75,8|8,3:3|3:3,0:0:0:0:
437,94,16030,6,0,L|291:59,1,150,2|0,3:2|3:0,0:0:0:0:
212,86,16978,1,0,3:0:0:0:
134,114,17294,2,0,L|116:186,1,75,8|0,3:2|3:0,0:0:0:0:
54,242,17925,1,4,3:2:0:0:
83,319,18241,1,4,3:2:0:0:
155,364,18557,6,0,L|301:329,1,150,6|0,3:2|3:0,0:0:0:0:
342,257,19504,1,0,3:0:0:0:
259,251,19820,2,0,L|187:269,1,75,8|8,3:2|3:3,0:0:0:0:
149,249,20294,1,8,0:3:0:0:
149,249,20451,2,0,L|77:267,1,75,8|8,3:3|3:3,0:0:0:0:
50,188,21083,6,0,L|196:153,1,150,2|0,3:2|3:0,0:0:0:0:
277,165,22030,1,0,3:0:0:0:
358,177,22346,2,0,L|376:105,1,75,10|0,3:2|0:0,0:0:0:0:
457,118,22978,2,0,L|439:190,1,75,2|0,3:3|0:0,0:0:0:0:
459,270,23609,6,0,P|404:320|332:341,1,150,6|2,3:2|3:3,0:0:0:0:
264,294,24557,1,0,3:3:0:0:
195,339,24872,2,0,P|157:338|122:326,1,75,8|4,3:2|3:3,0:0:0:0:
102,245,25504,2,0,P|140:246|175:258,1,75,0|0,3:3|3:3,0:0:0:0:
244,212,26136,6,0,P|223:140|173:85,1,150,2|0,3:2|3:0,0:0:0:0:
90,79,27083,1,0,3:0:0:0:
39,144,27399,2,0,P|27:179|26:216,1,75,8|0,3:2|3:0,0:0:0:0:
102,245,28030,2,0,P|113:280|114:317,1,75,6|0,0:3|0:0,0:0:0:0:
195,339,28662,6,0,P|250:288|321:268,1,150,6|0,3:2|3:0,0:0:0:0:
375,330,29609,1,2,3:3:0:0:
457,321,29925,2,0,P|468:285|469:248,1,75,8|0,3:2|3:0,0:0:0:0:
408,193,30557,2,0,P|396:157|395:120,1,75,0|0,3:3|3:0,0:0:0:0:
460,70,31188,6,0,P|404:19|333:0,1,150,2|0,3:2|3:0,0:0:0:0:
273,55,32136,1,0,3:0:0:0:
191,41,32451,2,0,P|153:41|118:53,1,75,8|0,3:2|3:0,0:0:0:0:
95,133,33083,2,0,P|132:132|167:120,1,75,6|4,3:3|3:3,0:0:0:0:
233,170,33715,6,0,P|212:241|162:296,1,150,6|0,3:2|3:0,0:0:0:0:
79,293,34662,1,0,3:0:0:0:
39,220,34978,2,0,P|50:184|51:147,1,75,8|8,3:2|3:3,0:0:0:0:
28,113,35451,1,8,0:3:0:0:
28,113,35609,2,0,P|28:75|40:40,1,75,8|10,3:3|0:3,0:0:0:0:
118,12,36241,6,0,P|172:62|244:83,1,150,2|0,0:2|3:0,0:0:0:0:
322,56,37188,1,0,3:0:0:0:
395,92,37504,2,0,P|395:130|383:165,1,75,8|0,3:2|3:0,0:0:0:0:
311,207,38136,1,4,0:0:0:0:
260,272,38451,1,4,0:0:0:0:
181,280,38767,6,0,P|126:229|54:208,1,150,6|0,0:2|3:0,0:0:0:0:
19,283,39715,1,0,3:0:0:0:
12,365,40030,2,0,P|50:365|85:353,1,75,8|8,3:2|3:3,0:0:0:0:
112,322,40504,1,8,0:3:0:0:
112,322,40662,2,0,P|150:322|185:334,1,75,8|10,3:3|0:3,0:0:0:0:
253,380,41294,6,0,P|303:325|324:253,1,150,2|0,0:2|3:0,0:0:0:0:
287,180,42241,1,0,3:0:0:0:
330,109,42557,2,0,P|368:109|403:121,1,75,10|0,3:2|0:0,0:0:0:0:
468,170,43188,2,0,P|479:205|479:242,1,75,2|0,0:2|0:0,0:0:0:0:
410,288,43820,6,0,B|340:270|340:270|282:323,1,150,6|0,1:2|3:0,0:0:0:0:
206,354,44767,1,0,3:2:0:0:
144,298,45083,2,0,B|129:265|129:265|138:228,1,75,8|0,3:2|3:2,0:0:0:0:
186,159,45715,2,0,B|195:122|195:122|180:89,1,75,0|0,3:3|3:3,0:0:0:0:
101,63,46346,6,0,B|48:120|48:120|65:190,1,150,2|0,3:2|3:0,0:0:0:0:
138,227,47294,1,0,3:2:0:0:
200,280,47609,2,0,B|236:289|236:289|269:274,1,75,8|0,3:2|0:0,0:0:0:0:
320,207,48241,2,0,B|356:197|356:197|389:212,1,75,6|0,3:3|0:0,0:0:0:0:
460,257,48873,6,0,B|512:199|512:199|495:129,1,150,6|0,0:2|3:0,0:0:0:0:
416,103,49820,1,0,3:0:0:0:
366,36,50136,2,0,B|333:21|333:21|296:30,1,75,8|0,3:2|3:2,0:0:0:0:
238,90,50767,2,0,B|201:99|201:99|168:84,1,75,0|0,3:3|3:3,0:0:0:0:
88,109,51399,6,0,B|35:166|35:166|52:236,1,150,2|0,0:2|3:0,0:0:0:0:
133,254,52346,1,0,3:2:0:0:
213,271,52662,2,0,B|228:238|228:238|218:201,1,75,8|0,3:2|3:0,0:0:0:0:
286,153,53294,2,0,B|319:168|319:168|355:158,1,75,2|4,0:3|0:3,0:0:0:0:
374,77,53925,6,0,B|431:24|431:24|501:41,1,150,6|0,3:2|3:0,0:0:0:0:
479,121,54873,1,0,3:0:0:0:
457,200,55188,2,0,B|446:237|446:237|461:270,1,75,8|8,3:2|3:3,0:0:0:0:
440,306,55662,1,8,0:3:0:0:
440,306,55820,2,0,B|402:295|402:295|369:310,1,75,8|8,3:3|3:3,0:0:0:0:
296,346,56451,6,0,B|239:293|239:293|169:310,1,150,2|0,3:2|3:0,0:0:0:0:
95,347,57399,1,0,3:0:0:0:
25,303,57715,2,0,B|15:265|15:265|29:232,1,75,8|0,3:2|3:0,0:0:0:0:
81,168,58346,1,4,0:0:0:0:
73,85,58662,1,4,0:0:0:0:
137,33,58978,6,0,B|207:16|207:16|264:69,1,150,6|0,3:2|3:0,0:0:0:0:
251,150,59925,1,0,3:0:0:0:
324,186,60241,2,0,B|361:196|361:196|394:181,1,75,8|8,3:2|3:3,0:0:0:0:
426,154,60715,1,8,0:3:0:0:
426,154,60873,2,0,B|436:116|436:116|421:83,1,75,8|8,3:3|3:3,0:0:0:0:
345,50,61504,6,0,B|275:67|275:67|218:14,1,150,2|0,3:2|3:0,0:0:0:0:
135,15,62451,1,0,3:0:0:0:
75,72,62767,2,0,B|59:105|59:105|70:142,1,75,10|0,3:2|0:0,0:0:0:0:
132,195,63399,2,0,B|165:180|165:180|202:191,1,75,2|0,3:3|0:0,0:0:0:0:
249,258,64030,6,0,L|394:222,1,150,6|2,3:2|3:3,0:0:0:0:
476,234,64978,1,0,3:3:0:0:
500,155,65294,2,0,L|482:82,1,75,8|0,3:2|3:3,0:0:0:0:
409,43,65925,2,0,L|336:60,1,75,0|0,3:3|3:3,0:0:0:0:
289,128,66557,6,0,L|144:92,1,150,2|0,3:2|3:0,0:0:0:0:
61,104,67504,1,0,3:0:0:0:
35,182,67820,2,0,L|52:254,1,75,8|0,3:2|3:0,0:0:0:0:
129,284,68451,2,0,L|111:356,1,75,6|0,0:3|0:0,0:0:0:0:
192,374,69083,6,0,L|337:338,1,150,6|0,3:2|3:0,0:0:0:0:
370,261,70030,1,2,3:3:0:0:
296,224,70346,2,0,L|223:207,1,75,8|0,3:2|3:0,0:0:0:0:
159,260,70978,2,0,L|86:277,1,75,0|0,3:3|3:0,0:0:0:0:
20,226,71609,6,0,L|56:81,1,150,2|0,3:2|3:0,0:0:0:0:
137,66,72557,1,0,3:0:0:0:
218,51,72873,2,0,L|290:68,1,75,8|0,3:2|3:0,0:0:0:0:
331,140,73504,2,0,L|313:212,1,75,6|4,3:3|3:3,0:0:0:0:
234,237,74136,6,0,L|270:382,1,150,6|0,3:2|3:0,0:0:0:0:
347,353,75083,1,0,3:0:0:0:
424,380,75399,2,0,L|441:307,1,75,8|8,3:2|3:3,0:0:0:0:
427,267,75873,1,8,0:3:0:0:
427,267,76030,2,0,L|444:194,1,75,8|10,3:3|0:3,0:0:0:0:
402,122,76662,6,0,L|257:158,1,150,2|0,0:2|3:0,0:0:0:0:
178,131,77609,1,0,3:0:0:0:
95,139,77925,2,0,L|22:121,1,75,8|0,3:2|3:0,0:0:0:0:
57,47,78557,1,4,0:0:0:0:
138,61,78873,1,4,0:0:0:0:
178,131,79188,6,0,L|214:276,1,150,6|0,3:2|3:0,0:0:0:0:
174,349,80136,1,0,3:0:0:0:
99,313,80451,2,0,L|81:240,1,75,8|8,3:2|3:3,0:0:0:0:
91,199,80925,1,8,0:3:0:0:
91,199,81083,2,0,L|163:181,1,75,8|10,3:3|0:3,0:0:0:0:
227,235,81715,6,0,L|372:271,1,150,2|0,0:2|3:0,0:0:0:0:
443,228,82662,1,0,3:0:0:0:
472,151,82978,2,0,L|454:78,1,75,10|0,3:2|0:0,0:0:0:0:
387,29,83609,2,0,L|314:46,1,75,2|0,0:2|0:0,0:0:0:0:
232,30,84241,5,14,1:1:0:0:
