osu file format v14

[General]
AudioFilename: audio.mp3
AudioLeadIn: 0
PreviewTime: 2767
Countdown: 0
SampleSet: Soft
StackLeniency: 0.7
Mode: 0
LetterboxInBreaks: 0
WidescreenStoryboard: 0

[Editor]
DistanceSpacing: 1
BeatDivisor: 4
GridSize: 16
TimelineZoom: 1

[Metadata]
Title:GIGA WRECKER Title Theme
TitleUnicode:GIGA WRECKER Title Theme
Artist:Shinji Hosoe
ArtistUnicode:細江 慎治
Creator:HighTec
Version:ARms Creating and Handling Effect
Source:GIGA WRECKER
Tags:GAME FREAK inc. ARCHE LowComboFC OST Soundtrack
BeatmapID:1385711
BeatmapSetID:653715

[Difficulty]
HPDrainRate:6
CircleSize:4
OverallDifficulty:8
ApproachRate:9
SliderMultiplier:2
SliderTickRate:1

[Events]
//Background and Video events
0,0,"GigaWrecker_2017-08-12_16-51-43.jpg",0,0
//Break Periods
//Storyboard Layer 0 (Background)
//Storyboard Layer 1 (Fail)
//Storyboard Layer 2 (Pass)
//Storyboard Layer 3 (Foreground)
//Storyboard Sound Samples

[TimingPoints]
873,631.578947368421,4,2,0,45,1,0
3241,-100,4,2,0,5,0,0
3399,-100,4,2,0,65,0,0
12715,-100,4,2,0,35,0,0
12873,-100,4,2,0,65,0,0
23451,-100,4,2,0,5,0,0
23609,-100,4,2,0,65,0,0
32925,-100,4,2,0,35,0,0
33083,-100,4,2,0,65,0,0
43662,-100,4,2,0,5,0,0
43820,-100,4,2,0,65,0,0
53136,-100,4,2,0,35,0,0
53294,-100,4,2,0,65,0,0
63873,-100,4,2,0,5,0,0
64030,-100,4,2,0,65,0,0
73346,-100,4,2,0,35,0,0
73504,-100,4,2,0,65,0,0
84083,-100,4,2,0,5,0,0
84241,-100,4,2,0,65,0,0

[Colours]
Combo1 : 166,180,160
Combo2 : 108,232,207
Combo3 : 255,200,85
Combo4 : 255,85,85

[HitObjects]
47,161,2767,6,0,B|137:125|87:203|213:152,1,150,2|0,0:2|0:0,0:0:0:0:
229,82,3399,6,0,P|273:130|267:200,1,100,6|0,1:2|3:0,0:0:0:0:
231,236,3872,1,0,0:0:0:0:
318,238,4030,1,0,3:0:0:0:
364,164,4188,1,0,0:0:0:0:
410,243,4346,2,0,L|420:319,1,50,0|0,3:2|0:0,0:0:0:0:
231,236,4662,6,0,L|221:160,1,50,8|0,3:2|0:0,0:0:0:0:
194,203,4978,2,0,L|200:252,1,50,0|0,3:2|0:0,0:0:0:0:
365,74,5294,2,0,L|375:-2,1,50,0|0,3:3|0:0,0:0:0:0:
402,41,5610,2,0,L|395:90,1,50,0|0,3:3|0:0,0:0:0:0:
252,37,5925,6,0,B|162:1|212:79|86:28,1,150,2|0,3:2|0:0,0:0:0:0:
21,34,6557,1,0,3:0:0:0:
106,123,6715,1,0,0:0:0:0:
19,121,6873,1,0,3:2:0:0:
108,36,7030,1,0,0:2:0:0:
193,125,7188,5,8,3:2:0:0:
278,214,7346,1,0,0:0:0:0:
191,212,7504,1,0,0:0:0:0:
280,127,7661,1,0,0:0:0:0:
104,210,7820,2,0,B|68:300|146:250|95:376,1,150,6|0,3:3|3:0,0:0:0:0:
191,212,8451,6,0,P|239:168|309:174,1,100,6|0,0:2|3:3,0:0:0:0:
358,165,8925,1,0,0:0:0:0:
317,89,9083,1,0,3:0:0:0:
230,87,9241,1,0,0:0:0:0:
275,12,9399,2,0,L|351:2,1,50,0|0,3:0|0:0,0:0:0:0:
496,135,9715,6,0,L|420:145,1,50,8|0,3:2|0:0,0:0:0:0:
463,172,10031,2,0,L|512:165,1,50,0|0,3:2|0:0,0:0:0:0:
241,247,10346,2,0,L|192:241,1,50,0|0,3:3|0:0,0:0:0:0:
175,271,10662,2,0,L|225:278,1,50,0|0,3:3|0:0,0:0:0:0:
353,210,10978,6,0,B|389:120|311:170|362:44,1,150,2|0,0:2|0:0,0:0:0:0:
266,64,11609,1,0,3:0:0:0:
237,146,11767,1,0,0:0:0:0:
306,198,11925,1,0,3:2:0:0:
376,148,12083,1,0,0:2:0:0:
226,231,12241,5,8,3:2:0:0:
156,281,12399,1,0,0:0:0:0:
87,229,12557,1,0,3:0:0:0:
116,147,12715,2,0,L|112:122,1,25,8|8,0:2|0:2,0:0:0:0:
226,231,12873,5,2,0:3:0:0:
310,121,13030,1,4,0:3:0:0:
200,37,13188,1,4,0:3:0:0:
116,147,13346,1,8,0:3:0:0:
226,231,13504,6,0,B|316:195|266:273|392:222,1,150,6|0,0:2|0:0,0:0:0:0:
414,155,14136,1,0,3:0:0:0:
455,231,14294,1,0,0:0:0:0:
410,306,14451,2,0,L|360:312,1,50,0|0,3:0|0:0,0:0:0:0:
102,306,14767,6,0,L|151:312,1,50,8|0,3:2|0:0,0:0:0:0:
238,315,15083,1,8,3:3:0:0:
197,239,15241,1,8,0:3:0:0:
284,242,15399,1,8,3:3:0:0:
243,166,15557,1,0,0:0:0:0:
156,163,15715,2,0,L|106:156,1,50,8|0,3:3|0:0,0:0:0:0:
244,79,16030,6,0,B|334:43|284:121|410:70,1,150,2|0,3:2|0:0,0:0:0:0:
432,3,16662,1,0,3:0:0:0:
473,79,16820,1,0,0:0:0:0:
428,154,16978,1,0,3:0:0:0:
342,151,17136,1,0,0:0:0:0:
432,3,17294,5,8,3:2:0:0:
469,230,17609,1,0,3:0:0:0:
424,305,17767,1,0,0:0:0:0:
338,302,17925,2,0,L|288:295,1,50,4|0,3:2|0:0,0:0:0:0:
324,330,18241,2,0,L|274:323,1,50,4|0,3:2|0:0,0:0:0:0:
143,180,18557,6,0,B|107:270|185:220|134:346,1,150,6|0,3:2|0:0,0:0:0:0:
56,320,19188,1,0,3:0:0:0:
16,245,19346,1,0,0:0:0:0:
61,173,19504,2,0,L|68:123,1,50,0|0,3:0|0:0,0:0:0:0:
263,0,19820,6,0,L|256:50,1,50,8|0,3:2|0:0,0:0:0:0:
253,136,20136,1,8,3:3:0:0:
329,95,20294,1,8,0:3:0:0:
326,182,20452,1,8,3:3:0:0:
402,141,20610,1,0,0:0:0:0:
405,54,20767,2,0,L|412:4,1,50,8|0,3:3|0:0,0:0:0:0:
493,147,21083,6,0,B|529:237|451:187|502:313,1,150,2|0,3:2|0:0,0:0:0:0:
407,287,21715,1,0,3:0:0:0:
321,284,21873,1,0,0:0:0:0:
324,198,22030,1,0,3:0:0:0:
410,201,22188,1,0,0:0:0:0:
321,284,22346,6,0,B|231:248|281:326|155:275,1,150,10|0,3:2|0:0,0:0:0:0:
38,195,22978,2,0,B|126:161|76:239|179:196,1,150,2|0,3:3|0:0,0:0:0:0:
216,117,23609,6,0,P|260:165|254:235,1,100,6|0,3:2|3:0,0:0:0:0:
219,272,24083,1,0,0:0:0:0:
306,274,24241,1,2,3:3:0:0:
351,199,24399,1,0,0:0:0:0:
393,276,24557,2,0,L|469:266,1,50,0|0,3:3|0:0,0:0:0:0:
216,117,24872,6,0,L|292:127,1,50,8|0,3:2|0:0,0:0:0:0:
249,154,25188,2,0,L|200:147,1,50,4|0,3:3|0:0,0:0:0:0:
393,276,25504,2,0,L|442:270,1,50,0|0,3:3|0:0,0:0:0:0:
459,300,25820,2,0,L|409:307,1,50,0|0,3:3|0:0,0:0:0:0:
215,339,26136,6,0,B|125:303|175:381|49:330,1,150,2|0,3:2|0:0,0:0:0:0:
73,251,26767,1,0,3:0:0:0:
75,164,26925,1,0,0:0:0:0:
162,166,27083,1,0,3:0:0:0:
249,168,27241,1,0,0:0:0:0:
160,253,27399,5,8,3:2:0:0:
247,255,27557,1,0,0:0:0:0:
334,257,27715,1,0,3:0:0:0:
336,170,27873,1,0,0:0:0:0:
421,259,28030,2,0,B|463:155|385:205|421:115,1,150,6|0,0:3|0:0,0:0:0:0:
333,73,28662,6,0,P|285:29|215:35,1,100,6|0,3:2|3:0,0:0:0:0:
165,22,29136,1,0,0:0:0:0:
207,99,29294,1,0,3:0:0:0:
289,133,29451,1,0,3:0:0:0:
218,187,29609,2,0,L|208:263,1,50,2|0,3:3|0:0,0:0:0:0:
122,368,29925,6,0,L|132:292,1,50,8|0,3:2|0:0,0:0:0:0:
159,335,30241,2,0,L|152:384,1,50,0|0,3:0|0:0,0:0:0:0:
326,228,30557,2,0,L|336:152,1,50,0|0,3:3|0:0,0:0:0:0:
363,195,30873,2,0,L|356:244,1,50,0|0,3:0|0:0,0:0:0:0:
304,76,31188,6,0,B|200:34|250:112|160:76,1,150,2|0,3:2|0:0,0:0:0:0:
76,75,31820,1,0,3:0:0:0:
52,158,31978,1,0,0:0:0:0:
124,206,32136,1,0,3:0:0:0:
193,153,32294,1,0,0:0:0:0:
43,249,32451,5,8,3:2:0:0:
19,332,32609,1,0,3:0:0:0:
91,380,32767,1,0,3:0:0:0:
160,327,32925,2,0,L|164:352,1,25,8|8,0:2|0:2,0:0:0:0:
43,249,33083,5,6,3:3:0:0:
121,132,33241,1,4,0:3:0:0:
238,210,33399,1,4,3:3:0:0:
160,327,33557,1,8,3:3:0:0:
43,249,33715,6,0,B|9:161|87:211|44:108,1,150,6|0,3:2|0:0,0:0:0:0:
90,34,34346,1,0,3:0:0:0:
131,110,34504,1,0,0:0:0:0:
172,186,34662,2,0,L|248:196,1,50,0|0,3:0|0:0,0:0:0:0:
362,332,34978,6,0,L|313:338,1,50,8|0,3:2|0:0,0:0:0:0:
226,341,35294,1,8,3:3:0:0:
267,265,35452,1,8,0:3:0:0:
180,268,35610,1,8,3:3:0:0:
221,192,35768,1,0,0:0:0:0:
308,189,35926,2,0,L|358:182,1,50,10|0,0:3|0:0,0:0:0:0:
230,95,36241,6,0,B|140:59|190:137|64:86,1,150,2|0,0:2|0:0,0:0:0:0:
45,18,36873,1,0,3:0:0:0:
0,92,37030,1,0,0:0:0:0:
41,168,37187,1,0,3:0:0:0:
128,171,37345,1,0,0:0:0:0:
45,18,37504,5,8,3:2:0:0:
81,244,37820,1,0,3:0:0:0:
122,320,37977,1,0,0:0:0:0:
209,323,38136,2,0,L|259:316,1,50,4|0,3:2|0:0,0:0:0:0:
223,351,38452,2,0,L|273:344,1,50,4|0,3:2|0:0,0:0:0:0:
427,331,38767,6,0,B|463:241|385:291|436:165,1,150,6|0,0:2|0:0,0:0:0:0:
473,113,39399,1,0,3:0:0:0:
386,111,39557,1,0,0:0:0:0:
340,185,39715,2,0,L|330:261,1,50,0|0,3:0|0:0,0:0:0:0:
178,375,40030,6,0,L|185:325,1,50,8|0,3:2|0:0,0:0:0:0:
188,239,40346,1,8,3:3:0:0:
112,280,40504,1,8,0:3:0:0:
115,193,40662,1,8,3:3:0:0:
39,234,40820,1,0,0:0:0:0:
36,321,40978,2,0,L|29:371,1,50,10|0,0:3|0:0,0:0:0:0:
115,193,41294,6,0,B|151:103|73:153|124:27,1,150,2|0,0:2|0:0,0:0:0:0:
202,51,41925,1,0,3:0:0:0:
289,53,42083,1,0,0:0:0:0:
287,140,42241,1,0,3:0:0:0:
200,138,42399,1,0,0:0:0:0:
289,53,42557,6,0,B|334:50|334:50|381:83|381:83|468:73,1,150,10|0,3:2|0:0,0:0:0:0:
287,140,43188,2,0,B|242:137|242:137|195:170|195:170|108:160,1,150,2|0,0:2|0:0,0:0:0:0:
111,84,43820,6,0,P|67:132|73:202,1,100,6|0,1:2|3:0,0:0:0:0:
103,240,44294,1,0,0:0:0:0:
190,242,44451,1,0,3:0:0:0:
148,165,44609,1,0,0:0:0:0:
235,167,44767,2,0,L|311:157,1,50,0|0,3:2|0:0,0:0:0:0:
487,238,45083,6,0,L|411:248,1,50,8|0,3:2|0:0,0:0:0:0:
454,275,45399,2,0,L|503:268,1,50,0|0,3:2|0:0,0:0:0:0:
148,165,45715,2,0,L|98:171,1,50,0|0,3:3|0:0,0:0:0:0:
115,202,46031,2,0,L|164:195,1,50,0|0,3:3|0:0,0:0:0:0:
331,0,46346,6,0,B|295:90|373:40|322:166,1,150,2|0,3:2|0:0,0:0:0:0:
328,230,46978,1,0,3:0:0:0:
326,317,47136,1,0,0:0:0:0:
413,319,47294,1,0,3:2:0:0:
328,230,47451,1,0,0:2:0:0:
152,313,47609,5,8,3:2:0:0:
239,315,47766,1,0,0:0:0:0:
241,228,47925,1,0,0:0:0:0:
152,313,48083,1,0,0:0:0:0:
326,317,48241,2,0,B|416:281|366:359|492:308,1,150,6|0,3:3|3:0,0:0:0:0:
320,188,48873,6,0,P|272:144|202:150,1,100,6|0,0:2|3:3,0:0:0:0:
198,63,49346,1,0,0:0:0:0:
152,137,49504,1,0,3:0:0:0:
194,214,49662,1,0,0:0:0:0:
106,211,49820,2,0,L|96:287,1,50,0|0,3:0|0:0,0:0:0:0:
257,357,50136,6,0,L|263:307,1,50,8|0,3:2|0:0,0:0:0:0:
294,324,50452,2,0,L|287:373,1,50,0|0,3:2|0:0,0:0:0:0:
220,128,50767,2,0,L|227:79,1,50,0|0,3:3|0:0,0:0:0:0:
197,63,51083,2,0,L|190:112,1,50,0|0,3:3|0:0,0:0:0:0:
256,224,51399,6,0,B|346:188|296:266|422:215,1,150,2|0,0:2|0:0,0:0:0:0:
486,225,52030,1,0,3:0:0:0:
510,142,52188,1,0,0:0:0:0:
438,94,52346,1,0,3:2:0:0:
369,147,52504,1,0,0:2:0:0:
486,225,52662,5,8,3:2:0:0:
510,308,52820,1,0,0:0:0:0:
438,356,52978,1,0,3:0:0:0:
369,303,53136,2,0,L|344:307,1,25,8|8,0:2|0:2,0:0:0:0:
486,225,53294,5,2,0:3:0:0:
408,108,53451,1,4,0:3:0:0:
291,186,53609,1,4,0:3:0:0:
369,303,53767,1,8,0:3:0:0:
486,225,53925,6,0,B|522:135|444:185|495:59,1,150,6|0,3:2|0:0,0:0:0:0:
399,79,54557,1,0,3:0:0:0:
354,154,54715,1,0,0:0:0:0:
395,230,54873,2,0,L|319:240,1,50,0|0,3:0|0:0,0:0:0:0:
76,297,55188,6,0,L|125:303,1,50,8|0,3:2|0:0,0:0:0:0:
212,306,55504,1,8,3:3:0:0:
171,230,55662,1,8,0:3:0:0:
258,233,55820,1,8,3:3:0:0:
217,157,55978,1,0,0:0:0:0:
130,154,56136,2,0,L|80:147,1,50,8|0,3:3|0:0,0:0:0:0:
229,47,56451,6,0,B|319:83|269:5|395:56,1,150,2|0,3:2|0:0,0:0:0:0:
459,49,57083,1,0,3:0:0:0:
414,124,57241,1,0,0:0:0:0:
327,122,57399,1,0,3:0:0:0:
281,47,57557,1,0,0:0:0:0:
459,49,57715,5,8,3:2:0:0:
460,199,58030,1,0,3:0:0:0:
506,274,58188,1,0,0:0:0:0:
460,349,58346,2,0,L|410:342,1,50,4|0,3:2|0:0,0:0:0:0:
446,377,58662,2,0,L|396:370,1,50,4|0,3:2|0:0,0:0:0:0:
278,258,58978,6,0,B|188:222|238:300|112:249,1,150,6|0,3:2|0:0,0:0:0:0:
47,255,59609,1,0,3:0:0:0:
92,180,59767,1,0,0:0:0:0:
179,182,59925,2,0,L|189:106,1,50,0|0,3:0|0:0,0:0:0:0:
326,0,60241,6,0,L|320:49,1,50,8|0,3:2|0:0,0:0:0:0:
317,136,60557,1,8,3:3:0:0:
393,95,60715,1,8,0:3:0:0:
390,182,60873,1,8,3:3:0:0:
466,141,61031,1,0,0:0:0:0:
469,54,61189,2,0,L|476:4,1,50,8|0,3:3|0:0,0:0:0:0:
390,182,61504,6,0,B|354:272|432:222|381:348,1,150,2|0,3:2|0:0,0:0:0:0:
302,323,62136,1,0,3:0:0:0:
215,321,62294,1,0,0:0:0:0:
217,234,62451,1,0,3:0:0:0:
304,236,62609,1,0,0:0:0:0:
215,321,62767,6,0,B|128:286|178:364|74:322,1,150,10|0,3:2|0:0,0:0:0:0:
78,147,63399,2,0,B|165:112|115:190|219:148,1,150,2|0,3:3|0:0,0:0:0:0:
260,68,64030,6,0,P|304:116|298:186,1,100,6|0,3:2|3:0,0:0:0:0:
262,222,64503,1,0,0:0:0:0:
349,224,64661,1,2,3:3:0:0:
395,150,64819,1,0,0:0:0:0:
441,229,64978,2,0,L|451:305,1,50,0|0,3:3|0:0,0:0:0:0:
268,271,65294,6,0,L|258:195,1,50,8|0,3:2|0:0,0:0:0:0:
231,238,65610,2,0,L|237:287,1,50,0|0,3:3|0:0,0:0:0:0:
353,73,65925,2,0,L|347:24,1,50,0|0,3:3|0:0,0:0:0:0:
378,8,66241,2,0,L|384:57,1,50,0|0,3:3|0:0,0:0:0:0:
179,68,66557,6,0,B|92:33|142:111|38:69,1,150,2|0,3:2|0:0,0:0:0:0:
36,156,67188,1,0,3:0:0:0:
34,243,67346,1,0,0:0:0:0:
32,330,67504,1,0,3:0:0:0:
121,245,67662,1,0,0:0:0:0:
206,334,67820,5,8,3:2:0:0:
208,247,67978,1,0,0:0:0:0:
210,160,68136,1,0,3:0:0:0:
121,245,68294,1,0,0:0:0:0:
295,249,68451,2,0,B|382:214|332:292|436:250,1,150,6|0,0:3|0:0,0:0:0:0:
266,157,69083,6,0,P|218:113|148:119,1,100,6|0,3:2|3:0,0:0:0:0:
140,183,69557,1,0,0:0:0:0:
98,106,69715,1,0,3:0:0:0:
144,32,69873,1,0,0:0:0:0:
231,34,70030,2,0,L|307:24,1,50,2|0,3:3|0:0,0:0:0:0:
452,157,70346,6,0,L|376:167,1,50,8|0,3:2|0:0,0:0:0:0:
419,194,70662,2,0,L|468:187,1,50,0|0,3:0|0:0,0:0:0:0:
197,269,70978,2,0,L|148:263,1,50,0|0,3:3|0:0,0:0:0:0:
131,293,71293,2,0,L|181:300,1,50,0|0,3:0|0:0,0:0:0:0:
309,79,71609,6,0,B|266:182|344:132|308:222,1,150,2|0,3:2|0:0,0:0:0:0:
264,294,72241,1,0,3:0:0:0:
180,274,72399,1,0,0:0:0:0:
173,187,72557,1,0,3:0:0:0:
253,153,72715,1,0,0:0:0:0:
99,231,72873,5,8,3:2:0:0:
15,211,73031,1,0,3:0:0:0:
8,124,73189,1,0,3:0:0:0:
88,90,73346,2,0,L|84:65,1,25,8|8,0:2|0:2,0:0:0:0:
99,231,73504,5,6,3:3:0:0:
240,220,73662,1,4,0:3:0:0:
229,79,73820,1,4,3:3:0:0:
88,90,73978,1,8,3:3:0:0:
99,231,74136,6,0,B|135:321|57:271|108:397,1,150,6|0,3:2|0:0,0:0:0:0:
186,376,74767,1,0,3:0:0:0:
232,302,74925,1,0,0:0:0:0:
273,378,75083,2,0,L|323:372,1,50,0|0,3:0|0:0,0:0:0:0:
414,219,75399,6,0,L|365:225,1,50,8|0,3:2|0:0,0:0:0:0:
278,228,75715,1,8,3:3:0:0:
319,152,75873,1,8,0:3:0:0:
232,155,76031,1,8,3:3:0:0:
273,79,76189,1,0,0:0:0:0:
360,76,76347,2,0,L|410:69,1,50,10|0,0:3|0:0,0:0:0:0:
232,155,76662,6,0,B|142:119|192:197|66:146,1,150,2|0,0:2|0:0,0:0:0:0:
1,152,77294,1,0,3:0:0:0:
42,228,77451,1,0,0:0:0:0:
129,230,77609,1,0,3:0:0:0:
175,156,77767,1,0,0:0:0:0:
1,152,77925,5,8,3:2:0:0:
303,234,78241,1,0,3:0:0:0:
349,160,78399,1,0,0:0:0:0:
308,84,78557,2,0,L|258:77,1,50,4|0,3:2|0:0,0:0:0:0:
294,112,78873,2,0,L|244:105,1,50,4|0,3:2|0:0,0:0:0:0:
119,64,79188,6,0,B|83:154|161:104|110:230,1,150,6|0,3:2|0:0,0:0:0:0:
31,205,79820,1,0,3:0:0:0:
72,281,79978,1,0,0:0:0:0:
159,283,80136,2,0,L|169:359,1,50,0|0,3:0|0:0,0:0:0:0:
324,202,80451,6,0,L|318:153,1,50,8|0,3:2|0:0,0:0:0:0:
315,66,80767,1,8,3:3:0:0:
391,107,80925,1,8,0:3:0:0:
388,20,81083,1,8,3:3:0:0:
464,61,81241,1,0,0:0:0:0:
467,148,81399,2,0,L|474:198,1,50,10|0,0:3|0:0,0:0:0:0:
317,152,81715,6,0,B|227:116|277:194|151:143,1,150,2|0,0:2|0:0,0:0:0:0:
171,238,82346,1,0,3:0:0:0:
169,325,82504,1,0,0:0:0:0:
256,327,82662,1,0,3:0:0:0:
258,240,82820,1,0,0:0:0:0:
169,325,82978,6,0,B|124:322|124:322|77:355|77:355|-10:345,1,150,10|0,3:2|0:0,0:0:0:0:
258,240,83609,2,0,B|303:237|303:237|350:270|350:270|437:260,1,150,2|0,0:2|0:0,0:0:0:0:
173,151,84241,5,14,1:1:0:0:
