osu file format v14

[General]
AudioFilename: audio.mp3
AudioLeadIn: 0
PreviewTime: 2767
Countdown: 0
SampleSet: Soft
StackLeniency: 0.7
Mode: 0
LetterboxInBreaks: 0
WidescreenStoryboard: 0

[Editor]
DistanceSpacing: 1.5
BeatDivisor: 8
GridSize: 16
TimelineZoom: 1

[Metadata]
Title:GIGA WRECKER Title Theme
TitleUnicode:GIGA WRECKER Title Theme
Artist:Shinji Hosoe
ArtistUnicode:細江 慎治
Creator:HighTec
Version:Hard
Source:GIGA WRECKER
Tags:GAME FREAK inc. ARCHE LowComboFC OST Soundtrack
BeatmapID:1388269
BeatmapSetID:653715

[Difficulty]
HPDrainRate:5
CircleSize:3.5
OverallDifficulty:6
ApproachRate:8
SliderMultiplier:2
SliderTickRate:1

[Events]
//Background and Video events
0,0,"GigaWrecker_2017-08-12_16-51-43.jpg",0,0
//Break Periods
//Storyboard Layer 0 (Background)
//Storyboard Layer 1 (Fail)
//Storyboard Layer 2 (Pass)
//Storyboard Layer 3 (Foreground)
//Storyboard Sound Samples

[TimingPoints]
873,631.578947368421,4,2,0,45,1,0
3241,-100,4,2,0,5,0,0
3399,-100,4,2,0,65,0,0
23451,-100,4,2,0,5,0,0
23609,-100,4,2,0,65,0,0
28504,-100,4,2,0,5,0,0
28662,-100,4,2,0,65,0,0
43662,-100,4,2,0,5,0,0
43820,-100,4,2,0,65,0,0
63873,-100,4,2,0,5,0,0
64030,-100,4,2,0,65,0,0
84083,-100,4,2,0,5,0,0
84241,-100,4,2,0,65,0,0

[Colours]
Combo1 : 166,180,160
Combo2 : 108,232,207
Combo3 : 255,200,85
Combo4 : 255,85,85

[HitObjects]
69,141,2767,6,0,B|131:108|131:182|220:131,1,150,2|0,0:2|0:0,0:0:0:0:
271,76,3399,6,0,P|298:136|282:179,1,100,6|0,1:2|3:0,0:0:0:0:
227,218,3872,1,0,0:0:0:0:
163,268,4030,1,0,3:0:0:0:
163,268,4346,2,0,L|83:259,1,50,0|0,3:2|0:0,0:0:0:0:
47,223,4662,6,0,L|56:143,1,50,8|0,3:2|0:0,0:0:0:0:
64,97,4978,2,0,L|73:17,1,50,0|0,3:2|0:0,0:0:0:0:
144,21,5294,2,0,L|224:30,1,50,0|0,3:3|0:0,0:0:0:0:
270,38,5610,2,0,L|350:47,1,50,0|0,3:3|0:0,0:0:0:0:
279,125,5925,6,0,B|216:92|216:165|127:115,1,150,2|0,3:2|0:0,0:0:0:0:
60,92,6557,1,0,3:0:0:0:
72,173,6715,1,0,0:0:0:0:
83,254,6873,1,0,3:2:0:0:
83,254,7188,5,8,3:2:0:0:
164,242,7346,1,0,0:0:0:0:
245,231,7504,1,0,0:0:0:0:
245,231,7820,2,0,B|308:265|308:191|397:241,1,150,6|0,3:3|3:0,0:0:0:0:
449,299,8451,6,0,P|475:238|460:195,1,100,6|0,0:2|3:3,0:0:0:0:
448,127,8925,1,0,0:0:0:0:
437,46,9083,1,0,3:0:0:0:
437,46,9399,2,0,L|357:55,1,50,0|0,3:0|0:0,0:0:0:0:
332,106,9715,6,0,L|341:186,1,50,8|0,3:2|0:0,0:0:0:0:
349,232,10031,2,0,L|358:312,1,50,0|0,3:2|0:0,0:0:0:0:
274,285,10346,2,0,L|265:205,1,50,0|0,3:3|0:0,0:0:0:0:
226,170,10662,2,0,L|217:90,1,50,0|0,3:3|0:0,0:0:0:0:
138,90,10978,6,0,B|104:153|178:153|128:242,1,150,2|0,0:2|0:0,0:0:0:0:
72,281,11609,1,0,3:0:0:0:
148,311,11767,1,0,0:0:0:0:
224,341,11925,1,0,3:2:0:0:
224,341,12241,5,8,3:2:0:0:
253,265,12399,1,0,0:0:0:0:
284,189,12557,1,0,3:0:0:0:
284,189,12873,5,2,0:3:0:0:
359,219,13031,1,4,0:3:0:0:
389,143,13188,1,4,0:3:0:0:
284,189,13504,6,0,B|221:156|221:230|132:179,1,150,6|0,0:2|0:0,0:0:0:0:
65,155,14136,1,0,3:0:0:0:
78,236,14294,1,0,0:0:0:0:
153,266,14451,1,0,3:0:0:0:
128,104,14767,1,8,3:2:0:0:
128,104,15083,5,8,3:3:0:0:
203,134,15241,1,8,0:3:0:0:
233,58,15398,1,8,3:3:0:0:
158,29,15556,1,0,0:0:0:0:
128,104,15715,1,8,3:3:0:0:
203,134,16030,6,0,B|266:101|266:174|355:124,1,150,2|0,3:2|0:0,0:0:0:0:
415,75,16662,1,0,3:0:0:0:
427,156,16820,1,0,0:0:0:0:
366,219,16978,1,0,3:0:0:0:
366,219,17294,5,8,3:2:0:0:
366,219,17609,1,0,3:0:0:0:
432,76,17925,1,4,3:2:0:0:
432,76,18241,1,4,3:2:0:0:
291,97,18557,6,0,B|229:64|229:138|140:87,1,150,6|0,3:2|0:0,0:0:0:0:
67,62,19188,1,0,3:0:0:0:
79,143,19346,1,0,0:0:0:0:
155,173,19504,1,0,3:0:0:0:
291,97,19820,1,8,3:2:0:0:
291,97,20136,5,8,3:3:0:0:
261,173,20294,1,8,0:3:0:0:
336,203,20451,1,8,3:3:0:0:
366,127,20609,1,0,0:0:0:0:
291,97,20768,1,8,3:3:0:0:
261,173,21083,6,0,B|228:236|301:236|251:325,1,150,2|0,3:2|0:0,0:0:0:0:
197,371,21715,1,0,3:0:0:0:
184,290,21873,1,0,0:0:0:0:
121,341,22030,1,0,3:0:0:0:
121,341,22346,6,0,B|88:278|162:278|112:189,1,150,10|0,3:2|0:0,0:0:0:0:
186,148,22978,2,0,B|249:115|249:189|338:138,1,150,2|0,3:3|0:0,0:0:0:0:
384,85,23609,6,0,P|410:146|394:189,1,100,6|0,3:2|3:0,0:0:0:0:
339,225,24083,1,0,0:0:0:0:
275,275,24241,1,2,3:3:0:0:
275,275,24557,2,0,L|195:284,1,50,0|0,3:3|0:0,0:0:0:0:
150,286,24872,6,0,L|141:206,1,50,8|0,3:2|0:0,0:0:0:0:
133,160,25188,2,0,L|124:80,1,50,4|0,3:3|0:0,0:0:0:0:
208,107,25504,2,0,L|288:98,1,50,0|0,3:3|0:0,0:0:0:0:
334,90,25820,2,0,L|414:81,1,50,0|0,3:3|0:0,0:0:0:0:
454,131,26136,6,0,B|420:194|494:194|444:283,1,150,2|0,3:2|0:0,0:0:0:0:
481,353,26767,1,0,3:0:0:0:
400,341,26925,1,0,0:0:0:0:
319,330,27083,1,0,3:0:0:0:
319,330,27399,5,8,3:2:0:0:
331,249,27557,1,0,0:0:0:0:
343,168,27715,1,0,3:0:0:0:
343,168,28030,2,0,B|280:134|280:208|191:158,1,150,6|0,0:3|0:0,0:0:0:0:
132,100,28662,6,0,P|106:161|121:204,1,100,6|0,3:2|3:0,0:0:0:0:
125,274,29136,1,0,0:0:0:0:
137,354,29294,1,0,3:0:0:0:
137,354,29609,2,0,L|217:345,1,50,2|0,3:3|0:0,0:0:0:0:
250,306,29925,6,0,L|241:226,1,50,8|0,3:2|0:0,0:0:0:0:
233,180,30241,2,0,L|224:100,1,50,0|0,3:0|0:0,0:0:0:0:
308,127,30557,2,0,L|317:207,1,50,0|0,3:3|0:0,0:0:0:0:
356,242,30873,2,0,L|365:322,1,50,0|0,3:0|0:0,0:0:0:0:
288,340,31188,6,0,B|351:307|351:380|440:330,1,150,2|0,3:2|0:0,0:0:0:0:
500,286,31820,1,0,3:0:0:0:
425,258,31978,1,0,0:0:0:0:
349,229,32136,1,0,3:0:0:0:
349,229,32451,5,8,3:2:0:0:
378,153,32609,1,0,3:0:0:0:
407,78,32767,1,0,3:0:0:0:
407,78,33083,5,6,3:3:0:0:
482,107,33241,1,4,0:3:0:0:
454,182,33399,1,4,3:3:0:0:
407,78,33715,6,0,B|344:45|344:118|255:68,1,150,6|0,3:2|0:0,0:0:0:0:
181,53,34346,1,0,3:0:0:0:
194,133,34504,1,0,0:0:0:0:
270,162,34662,1,0,3:0:0:0:
119,104,34978,1,8,3:2:0:0:
119,104,35294,5,8,3:3:0:0:
194,133,35452,1,8,0:3:0:0:
166,209,35610,1,8,3:3:0:0:
90,180,35768,1,0,0:0:0:0:
119,104,35925,1,10,0:3:0:0:
194,133,36241,6,0,B|257:100|257:174|346:123,1,150,2|0,0:2|0:0,0:0:0:0:
403,79,36873,1,0,3:0:0:0:
416,159,37030,1,0,0:0:0:0:
353,209,37188,1,0,3:0:0:0:
353,209,37504,5,8,3:2:0:0:
353,209,37820,1,0,3:0:0:0:
403,79,38136,1,4,3:2:0:0:
403,79,38451,1,4,3:2:0:0:
249,106,38767,6,0,B|186:73|186:147|97:96,1,150,6|0,0:2|0:0,0:0:0:0:
25,72,39399,1,0,3:0:0:0:
38,152,39557,1,0,0:0:0:0:
50,232,39715,1,0,3:0:0:0:
105,100,40030,1,8,3:2:0:0:
105,100,40346,5,8,3:3:0:0:
180,129,40504,1,8,0:3:0:0:
150,203,40662,1,8,3:3:0:0:
74,175,40820,1,0,0:0:0:0:
105,100,40978,1,10,0:3:0:0:
180,129,41294,6,0,B|243:95|243:169|332:119,1,150,2|0,0:2|0:0,0:0:0:0:
395,78,41925,1,0,3:0:0:0:
407,158,42083,1,0,0:0:0:0:
344,209,42241,1,0,3:0:0:0:
344,209,42557,6,0,B|299:210|299:210|261:241|261:241|199:246,1,150,10|0,3:2|0:0,0:0:0:0:
120,263,43188,2,0,B|121:218|121:218|153:179|153:179|154:123,1,150,2|0,0:2|0:0,0:0:0:0:
100,61,43820,6,0,P|161:35|204:50,1,100,6|0,1:2|3:0,0:0:0:0:
266,74,44294,1,0,0:0:0:0:
341,103,44451,1,0,3:0:0:0:
341,103,44767,2,0,L|421:112,1,50,0|0,3:2|0:0,0:0:0:0:
403,188,45083,6,0,L|323:179,1,50,8|0,3:2|0:0,0:0:0:0:
277,171,45399,2,0,L|197:162,1,50,0|0,3:2|0:0,0:0:0:0:
152,158,45715,2,0,L|143:238,1,50,0|0,3:3|0:0,0:0:0:0:
134,284,46031,2,0,L|125:364,1,50,0|0,3:3|0:0,0:0:0:0:
214,317,46346,6,0,B|277:283|277:357|366:307,1,150,2|0,3:2|0:0,0:0:0:0:
428,264,46978,1,0,3:0:0:0:
352,235,47136,1,0,0:0:0:0:
276,205,47294,1,0,3:2:0:0:
276,205,47609,5,8,3:2:0:0:
305,129,47767,1,0,0:0:0:0:
335,52,47925,1,0,0:0:0:0:
335,52,48241,2,0,B|272:19|272:93|183:42,1,150,6|0,3:3|3:0,0:0:0:0:
110,29,48873,6,0,P|109:73|142:115,1,100,6|0,0:2|3:3,0:0:0:0:
210,155,49346,1,0,0:0:0:0:
285,184,49503,1,0,3:0:0:0:
285,184,49820,2,0,L|294:104,1,50,0|0,3:0|0:0,0:0:0:0:
370,124,50136,6,0,L|361:204,1,50,8|0,3:2|0:0,0:0:0:0:
353,250,50452,2,0,L|344:330,1,50,0|0,3:2|0:0,0:0:0:0:
428,286,50767,2,0,L|437:206,1,50,0|0,3:3|0:0,0:0:0:0:
476,172,51083,2,0,L|485:92,1,50,0|0,3:3|0:0,0:0:0:0:
390,75,51399,6,0,B|327:41|327:115|238:65,1,150,2|0,0:2|0:0,0:0:0:0:
198,7,52030,1,0,3:0:0:0:
170,82,52188,1,0,0:0:0:0:
141,158,52346,1,0,3:2:0:0:
141,158,52662,5,8,3:2:0:0:
216,187,52820,1,0,0:0:0:0:
292,215,52978,1,0,3:0:0:0:
292,215,53294,5,2,0:3:0:0:
367,244,53452,1,4,0:3:0:0:
339,320,53610,1,4,0:3:0:0:
292,215,53925,6,0,B|229:182|229:256|140:205,1,150,6|0,3:2|0:0,0:0:0:0:
73,183,54557,1,0,3:0:0:0:
136,133,54715,1,0,0:0:0:0:
61,104,54873,1,0,3:0:0:0:
186,48,55188,1,8,3:2:0:0:
186,48,55504,5,8,3:3:0:0:
262,76,55662,1,8,0:3:0:0:
231,151,55820,1,8,3:3:0:0:
155,122,55978,1,0,0:0:0:0:
186,48,56135,1,8,3:3:0:0:
262,76,56451,6,0,B|325:43|325:117|414:67,1,150,2|0,3:2|0:0,0:0:0:0:
470,20,57083,1,0,3:0:0:0:
482,99,57241,1,0,0:0:0:0:
429,157,57399,1,0,3:0:0:0:
429,157,57715,5,8,3:2:0:0:
429,157,58030,1,0,3:0:0:0:
316,47,58346,1,4,3:2:0:0:
316,47,58662,1,4,3:2:0:0:
264,178,58978,6,0,B|231:241|305:241|255:330,1,150,6|0,3:2|0:0,0:0:0:0:
186,292,59609,1,0,3:0:0:0:
112,262,59767,1,0,0:0:0:0:
174,213,59925,1,0,3:0:0:0:
291,247,60241,1,8,3:2:0:0:
291,247,60557,5,8,3:3:0:0:
366,276,60715,1,8,0:3:0:0:
336,350,60873,1,8,3:3:0:0:
259,321,61031,1,0,0:0:0:0:
291,247,61188,1,8,3:3:0:0:
366,276,61504,6,0,B|400:213|326:213|376:124,1,150,2|0,3:2|0:0,0:0:0:0:
433,82,62136,1,0,3:0:0:0:
359,53,62294,1,0,0:0:0:0:
297,102,62451,1,0,3:0:0:0:
297,102,62767,6,0,B|234:69|234:143|145:93,1,150,10|0,3:2|0:0,0:0:0:0:
78,80,63399,2,0,B|45:143|119:143|68:232,1,150,2|0,3:3|0:0,0:0:0:0:
17,276,64030,6,0,P|77:302|121:286,1,100,6|0,3:2|3:0,0:0:0:0:
175,243,64504,1,0,0:0:0:0:
238,191,64662,1,2,3:3:0:0:
238,191,64978,2,0,L|318:182,1,50,0|0,3:3|0:0,0:0:0:0:
251,110,65294,6,0,L|170:101,1,50,8|0,3:2|0:0,0:0:0:0:
125,93,65610,2,0,L|45:84,1,50,0|0,3:3|0:0,0:0:0:0:
29,150,65925,2,0,L|38:230,1,50,0|0,3:3|0:0,0:0:0:0:
46,276,66241,2,0,L|55:356,1,50,0|0,3:3|0:0,0:0:0:0:
135,291,66557,6,0,B|197:258|197:331|286:281,1,150,2|0,3:2|0:0,0:0:0:0:
348,237,67188,1,0,3:0:0:0:
272,208,67346,1,0,0:0:0:0:
194,179,67504,1,0,3:0:0:0:
194,179,67820,5,8,3:2:0:0:
223,102,67978,1,0,0:0:0:0:
252,25,68136,1,0,3:0:0:0:
252,25,68451,2,0,B|315:-8|315:66|404:15,1,150,6|0,0:3|0:0,0:0:0:0:
465,76,69083,6,0,P|405:115|360:112,1,100,6|0,3:2|3:0,0:0:0:0:
284,105,69557,1,0,0:0:0:0:
202,90,69715,1,0,3:0:0:0:
202,90,70030,2,0,L|193:170,1,50,2|0,3:3|0:0,0:0:0:0:
190,221,70346,6,0,L|270:212,1,50,8|0,3:2|0:0,0:0:0:0:
315,204,70662,2,0,L|395:195,1,50,0|0,3:0|0:0,0:0:0:0:
396,271,70978,2,0,L|316:280,1,50,0|0,3:3|0:0,0:0:0:0:
283,321,71294,2,0,L|203:330,1,50,0|0,3:0|0:0,0:0:0:0:
148,328,71609,6,0,B|115:265|189:265|138:176,1,150,2|0,3:2|0:0,0:0:0:0:
66,156,72241,1,0,3:0:0:0:
129,103,72399,1,0,0:0:0:0:
192,50,72557,1,0,3:0:0:0:
192,50,72873,5,8,3:2:0:0:
245,113,73031,1,0,3:0:0:0:
298,176,73189,1,0,3:0:0:0:
298,176,73504,5,6,3:3:0:0:
373,205,73662,1,4,0:3:0:0:
343,280,73820,1,4,3:3:0:0:
298,176,74136,6,0,B|235:143|235:217|146:166,1,150,6|0,3:2|0:0,0:0:0:0:
78,141,74767,1,0,3:0:0:0:
141,91,74925,1,0,0:0:0:0:
220,94,75083,1,0,3:0:0:0:
90,220,75399,1,8,3:2:0:0:
90,220,75715,5,8,3:3:0:0:
165,249,75873,1,8,0:3:0:0:
135,324,76031,1,8,3:3:0:0:
59,295,76188,1,0,0:0:0:0:
90,220,76346,1,10,0:3:0:0:
165,249,76662,6,0,B|228:216|228:290|317:239,1,150,2|0,0:2|0:0,0:0:0:0:
373,198,77294,1,0,3:0:0:0:
386,278,77451,1,0,0:0:0:0:
323,328,77609,1,0,3:0:0:0:
323,328,77925,5,8,3:2:0:0:
323,328,78241,1,0,3:0:0:0:
373,198,78557,1,4,3:2:0:0:
373,198,78873,1,4,3:2:0:0:
236,220,79188,6,0,B|203:157|276:157|226:68,1,150,6|0,3:2|0:0,0:0:0:0:
153,46,79820,1,0,3:0:0:0:
166,126,79978,1,0,0:0:0:0:
90,97,80136,1,0,3:0:0:0:
230,76,80451,1,8,3:2:0:0:
230,76,80767,5,8,3:3:0:0:
305,105,80925,1,8,0:3:0:0:
275,179,81083,1,8,3:3:0:0:
199,151,81240,1,0,0:0:0:0:
230,76,81398,1,10,0:3:0:0:
305,105,81715,6,0,B|368:71|368:145|457:95,1,150,2|0,0:2|0:0,0:0:0:0:
476,179,82346,1,0,3:0:0:0:
489,259,82504,1,0,0:0:0:0:
413,229,82662,1,0,3:0:0:0:
413,229,82978,6,0,B|368:230|368:230|329:261|329:261|267:266,1,150,10|0,3:2|0:0,0:0:0:0:
191,281,83609,2,0,B|192:236|192:236|224:197|224:197|228:135,1,150,2|0,0:2|0:0,0:0:0:0:
143,154,84241,5,14,1:1:0:0:
