osu file format v14

[General]
AudioFilename: audio.mp3
AudioLeadIn: 0
PreviewTime: 39019
Countdown: 0
SampleSet: None
StackLeniency: 0.3
Mode: 0
LetterboxInBreaks: 0
WidescreenStoryboard: 1

[Editor]
Bookmarks: 53789,68673,83442,90827,105596,120366
DistanceSpacing: 1.5
BeatDivisor: 4
GridSize: 4
TimelineZoom: 2.2

[Metadata]
Title:The Life and Times of Dino Spumoni(Shingiwa Satellite ver.)
TitleUnicode:The Life and Times of Dino Spumoni(死際サテライトver.)
Artist:Shinigiwa Satellite
ArtistUnicode:死際サテライト
Creator:Xenok
Version:Find Your Way!
Source:
Tags:Metalcore Touhou project double bpm metal merami meramipop daiyouseii- unknown anon find your way
BeatmapID:1475640
BeatmapSetID:696681

[Difficulty]
HPDrainRate:5
CircleSize:3.9
OverallDifficulty:9
ApproachRate:9.7
SliderMultiplier:2.7
SliderTickRate:1

[Events]
//Background and Video events
0,0,"yamame.jpg",0,0
//Break Periods
//Storyboard Layer 0 (Background)
//Storyboard Layer 1 (Fail)
//Storyboard Layer 2 (Pass)
//Storyboard Layer 3 (Foreground)
//Storyboard Sound Samples

[TimingPoints]
366,461.538461538462,4,3,1,100,1,0
1058,-100,4,3,1,100,0,0
9481,-200,4,3,1,100,0,0
10058,-10000,4,2,1,100,0,0
10116,-10000,4,2,1,5,0,0
10519,-10000,4,2,1,100,0,0
10577,-10000,4,2,1,5,0,0
10981,-100,4,3,1,100,0,0
13173,-200,4,3,1,100,0,0
13750,-50,4,2,1,100,0,0
13808,-50,4,2,1,5,0,0
14212,-50,4,2,1,100,0,0
14269,-50,4,2,1,5,0,0
14673,-100,4,3,1,100,0,0
16866,-100,4,3,1,80,0,0
31750,-133.333333333333,4,3,1,80,0,0
39135,-142.857142857143,4,3,1,80,0,1
39366,-142.857142857143,4,2,1,5,0,1
39481,-142.857142857143,4,3,1,80,0,1
39712,-142.857142857143,4,2,1,5,0,1
39827,-142.857142857143,4,3,1,80,0,1
39942,-142.857142857143,4,2,1,5,0,1
40058,-142.857142857143,4,3,1,80,0,1
40289,-142.857142857143,4,2,1,5,0,1
40404,-142.857142857143,4,3,1,80,0,1
40635,-142.857142857143,4,2,1,5,0,1
40750,-142.857142857143,4,3,1,80,0,1
40865,-142.857142857143,4,2,1,5,0,1
40981,-142.857142857143,4,3,1,80,0,1
41212,-142.857142857143,4,2,1,5,0,1
41327,-142.857142857143,4,3,1,80,0,1
41558,-142.857142857143,4,2,1,5,0,1
41673,-142.857142857143,4,3,1,80,0,1
41788,-142.857142857143,4,2,1,5,0,1
41904,-142.857142857143,4,3,1,80,0,1
43058,-142.857142857143,4,2,1,5,0,1
43173,-142.857142857143,4,3,1,80,0,1
43404,-142.857142857143,4,2,1,5,0,1
43519,-142.857142857143,4,3,1,80,0,1
43634,-142.857142857143,4,2,1,5,0,1
43750,-142.857142857143,4,3,1,80,0,1
43981,-142.857142857143,4,2,1,5,0,1
44096,-142.857142857143,4,3,1,80,0,1
46519,-66.6666666666667,4,3,1,80,0,1
53789,-100,4,3,1,80,0,0
61750,-10000,4,2,1,80,0,0
61808,-10000,4,2,1,5,0,0
62212,-10000,4,2,1,80,0,0
62269,-10000,4,2,1,5,0,0
62673,-100,4,3,1,80,0,0
65442,-100,4,2,1,80,0,0
65500,-100,4,2,1,5,0,0
65904,-100,4,2,1,80,0,0
65962,-100,4,2,1,5,0,0
66366,-100,4,3,1,80,0,0
68673,-400,4,3,1,80,0,0
69366,-200,4,3,1,80,0,0
69712,-200,4,2,1,5,0,0
69827,-200,4,3,1,80,0,0
70519,-10000,4,2,1,100,0,0
70577,-10000,4,2,1,5,0,0
70866,-10000,4,2,1,100,0,0
70923,-10000,4,2,1,5,0,0
71212,-200,4,3,1,80,0,0
71558,-200,4,2,1,5,0,0
71673,-200,4,3,1,80,0,0
72366,-400,4,3,1,80,0,0
73059,-200,4,3,1,80,0,0
73404,-200,4,2,1,5,0,0
73519,-200,4,3,1,80,0,0
74327,-200,4,2,1,5,0,0
74442,-200,4,3,1,80,0,0
74673,-200,4,2,1,5,0,0
74788,-200,4,3,1,80,0,0
75250,-200,4,2,1,5,0,0
75365,-200,4,3,1,80,0,0
76058,-400,4,2,1,5,0,0
76519,-400,4,3,1,80,0,0
76751,-200,4,3,1,80,0,0
76981,-10000,4,3,1,80,0,0
77096,-10000,4,3,1,5,0,0
77212,-200,4,3,1,80,0,0
77327,-10000,4,3,1,80,0,0
77442,-10000,4,3,1,5,0,0
77558,-200,4,3,1,80,0,0
77673,-10000,4,3,1,80,0,0
78596,-200,4,3,1,80,0,0
78827,-10000,4,3,1,80,0,0
78942,-10000,4,3,1,5,0,0
79058,-200,4,3,1,80,0,0
79173,-10000,4,3,1,80,0,0
79288,-10000,4,3,1,5,0,0
79404,-200,4,3,1,80,0,0
79519,-10000,4,3,1,80,0,0
79635,-10000,4,2,1,5,0,0
79750,-285.714285714286,4,2,1,5,0,0
80212,-50,4,2,1,80,0,0
80269,-50,4,2,1,5,0,0
80442,-200,4,3,1,80,0,0
80789,-200,4,2,1,5,0,0
80904,-200,4,3,1,80,0,0
81135,-200,4,2,1,5,0,0
81250,-200,4,3,1,80,0,0
81481,-200,4,2,1,5,0,0
81596,-200,4,3,1,80,0,0
81712,-200,4,2,1,5,0,0
81827,-200,4,3,1,80,0,0
82058,-200,4,2,1,5,0,0
82173,-200,4,3,1,80,0,0
83442,-200,4,3,1,80,0,0
83673,-200,4,3,1,5,0,0
83789,-200,4,3,1,80,0,0
84019,-200,4,3,1,5,0,0
84135,-200,4,3,1,80,0,0
84654,-200,4,3,1,5,0,0
84712,-200,4,3,1,80,0,0
84942,-200,4,3,1,5,0,0
85058,-200,4,3,1,80,0,0
85173,-200,4,3,1,5,0,0
85289,-200,4,3,1,80,0,0
85519,-200,4,3,1,5,0,0
85635,-200,4,3,1,80,0,0
85866,-200,4,3,1,5,0,0
85981,-200,4,3,1,80,0,0
86096,-200,4,3,1,5,0,0
86212,-200,4,3,1,80,0,0
87366,-200,4,3,1,5,0,0
87481,-200,4,3,1,80,0,0
87712,-200,4,3,1,5,0,0
87827,-200,4,3,1,80,0,0
90827,-80,4,3,1,80,0,1
98212,-133.333333333333,4,3,1,80,0,1
98442,-133.333333333333,4,3,1,5,0,1
98558,-133.333333333333,4,3,1,80,0,1
98789,-133.333333333333,4,3,1,5,0,1
98904,-133.333333333333,4,3,1,80,0,1
99019,-133.333333333333,4,3,1,5,0,1
99135,-133.333333333333,4,3,1,80,0,1
99366,-133.333333333333,4,3,1,5,0,1
99481,-133.333333333333,4,3,1,80,0,1
99712,-133.333333333333,4,3,1,5,0,1
99827,-133.333333333333,4,3,1,80,0,1
99942,-133.333333333333,4,3,1,5,0,1
100058,-133.333333333333,4,3,1,80,0,1
100289,-133.333333333333,4,3,1,5,0,1
100404,-133.333333333333,4,3,1,80,0,1
100635,-133.333333333333,4,3,1,5,0,1
100750,-133.333333333333,4,3,1,80,0,1
100866,-133.333333333333,4,3,1,5,0,1
100981,-133.333333333333,4,3,1,80,0,1
102135,-133.333333333333,4,3,1,5,0,1
102250,-133.333333333333,4,3,1,80,0,1
102481,-133.333333333333,4,3,1,5,0,1
102596,-133.333333333333,4,3,1,80,0,1
102712,-133.333333333333,4,3,1,5,0,1
102827,-133.333333333333,4,3,1,80,0,1
103981,-133.333333333333,4,3,1,5,0,1
104096,-133.333333333333,4,3,1,80,0,1
104327,-133.333333333333,4,3,1,5,0,1
104442,-133.333333333333,4,3,1,80,0,1
105596,-66.6666666666667,4,3,1,80,0,1
112981,-100,4,3,1,80,0,0

[Colours]
Combo1 : 221,18,237
Combo2 : 21,234,154
Combo3 : 198,74,74
Combo4 : 16,215,250

[HitObjects]
100,124,366,5,4,0:0:0:0:
108,145,827,1,4,0:0:0:0:
112,155,1058,5,8,0:0:0:0:
124,147,1115,1,8,0:0:0:0:
136,139,1173,1,8,0:0:0:0:
148,131,1231,1,8,0:0:0:0:
160,123,1289,5,2,0:0:0:0:
124,311,1404,1,8,0:0:0:0:
37,86,1519,1,2,0:0:0:0:
237,194,1635,1,8,0:0:0:0:
1,195,1750,1,2,0:0:0:0:
197,29,1866,1,8,0:0:0:0:
112,220,1981,1,8,0:0:0:0:
87,18,2096,6,0,B|120:5|120:5|225:12,1,135,6|2,0:1|0:0,0:0:0:0:
31,97,2442,2,0,B|136:104,1,67.5,2|0,0:0|0:0,0:0:0:0:
368,102,2673,6,0,B|300:97,1,67.5,12|2,0:0|0:0,0:0:0:0:
400,224,2904,1,0,0:0:0:0:
456,37,3019,2,0,B|425:19|425:19|320:11,1,135,2|2,0:0|0:0,0:0:0:0:
512,155,3366,2,0,B|444:150,1,67.5,2|0,0:0|0:0,0:0:0:0:
114,210,3596,6,0,B|219:217,1,67.5,12|0,0:0|0:0,0:0:0:0:
374,337,3827,1,0,0:0:0:0:
306,288,3942,2,0,B|201:295,1,67.5
0,156,4173,1,0,0:0:0:0:
68,107,4288,2,0,B|173:114,1,67.5
336,140,4519,6,0,B|231:147,1,67.5,12|0,0:0|0:0,0:0:0:0:
355,0,4750,1,0,0:0:0:0:
497,212,4866,2,0,B|466:230|466:230|361:238,1,135,2|2,0:0|0:0,0:0:0:0:
406,68,5212,1,0,0:0:0:0:
458,142,5327,1,0,0:0:0:0:
298,59,5442,5,12,0:0:0:0:
417,63,5558,1,0,0:0:0:0:
354,164,5673,1,0,0:0:0:0:
153,73,5789,6,0,B|220:68,1,67.5,4|2,0:1|0:0,0:0:0:0:
120,187,6019,1,2,0:0:0:0:
29,6,6135,2,0,B|96:1,1,67.5,2|0,0:0|0:0,0:0:0:0:
346,216,6366,6,0,B|278:220,1,67.5,12|2,0:0|0:0,0:0:0:0:
72,314,6596,1,2,0:0:0:0:
140,263,6712,2,0,B|207:267,1,67.5,2|0,0:0|0:0,0:0:0:0:
512,178,6942,1,2,0:0:0:0:
444,127,7058,2,0,B|376:131,1,67.5,2|0,0:0|0:0,0:0:0:0:
144,100,7289,6,0,B|211:104,1,67.5,12|2,0:0|0:0,0:0:0:0:
54,19,7519,1,2,0:0:0:0:
77,158,7635,2,0,B|108:176|108:176|213:184,1,135,2|2,0:0|0:0,0:0:0:0:
24,273,7981,2,0,B|91:277,1,67.5,2|0,0:0|0:0,0:0:0:0:
357,160,8212,6,0,B|289:164,1,67.5,12|2,0:0|0:0,0:0:0:0:
473,104,8442,1,2,0:0:0:0:
405,54,8558,2,0,B|337:49,1,67.5,2|2,0:0|0:0,0:0:0:0:
444,325,8789,1,2,0:0:0:0:
493,252,8904,1,2,0:0:0:0:
454,173,9019,1,2,0:0:0:0:
367,167,9135,5,12,0:0:0:0:
449,337,9250,1,0,0:0:0:0:
469,163,9366,1,8,0:0:0:0:
316,241,9481,6,0,L|213:286,1,101.25,6|6,0:1|0:1,0:0:0:0:
77,252,10058,6,0,L|76:256,7,3.375,2|0|0|0|0|0|0|0,0:0|0:0|0:0|0:0|0:0|0:0|0:0|0:0,0:0:0:0:
151,199,10519,6,0,L|152:203,7,3.375,2|0|0|0|0|0|0|0,0:0|0:0|0:0|0:0|0:0|0:0|0:0|0:0,0:0:0:0:
149,278,10981,5,8,0:0:0:0:
188,81,11096,1,8,0:0:0:0:
13,185,11212,1,8,0:0:0:0:
234,167,11327,6,0,L|307:161,1,67.5,6|0,0:1|0:0,0:0:0:0:
115,123,11558,1,2,0:0:0:0:
188,81,11673,2,0,L|261:75,1,67.5,2|0,0:0|0:0,0:0:0:0:
455,110,11904,6,0,L|381:104,1,67.5,12|0,0:0|0:0,0:0:0:0:
476,7,12135,1,0,0:0:0:0:
512,180,12250,2,0,B|478:193|478:193|373:186,1,135,2|0,0:0|0:0,0:0:0:0:
335,292,12596,2,0,L|261:286,1,67.5,2|0,0:0|0:0,0:0:0:0:
136,279,12827,5,12,0:0:0:0:
287,177,12942,1,0,0:0:0:0:
213,363,13058,1,8,0:0:0:0:
175,194,13173,6,0,L|157:90,1,101.25,6|6,0:1|0:1,0:0:0:0:
119,11,13750,6,0,B|150:4|150:4|202:8,7,67.5,2|0|2|0|2|0|2|0,0:0|0:0|0:0|0:0|0:0|0:0|0:0|0:0,0:0:0:0:
310,74,14212,6,0,B|279:67|279:67|227:71,7,67.5,2|0|0|0|0|0|0|0,0:0|0:0|0:0|0:0|0:0|0:0|0:0|0:0,0:0:0:0:
269,145,14673,5,8,0:0:0:0:
114,23,14789,1,8,0:0:0:0:
313,0,14904,1,8,0:0:0:0:
132,108,15019,6,0,L|57:102,1,67.5,6|0,0:1|0:0,0:0:0:0:
72,270,15250,1,2,0:0:0:0:
148,233,15366,2,0,L|215:228,1,67.5,2|0,0:0|0:0,0:0:0:0:
441,164,15596,6,0,L|373:159,1,67.5,12|2,0:0|0:0,0:0:0:0:
476,26,15827,1,2,0:0:0:0:
498,234,15942,2,0,B|464:247|464:247|359:240,1,135,2|2,0:0|0:0,0:0:0:0:
388,12,16289,1,2,0:0:0:0:
420,94,16404,1,2,0:0:0:0:
368,164,16519,5,12,0:0:0:0:
301,0,16635,1,8,0:0:0:0:
430,98,16750,1,8,0:0:0:0:
239,67,16866,6,0,P|167:62|100:78,1,135,6|2,0:1|0:0,0:0:0:0:
222,143,17212,2,0,P|179:138|139:146,1,67.5,2|0,0:0|0:0,0:0:0:0:
268,281,17442,1,12,0:0:0:0:
201,235,17558,1,2,0:0:0:0:
193,312,17673,5,2,0:0:0:0:
271,207,17789,2,0,P|296:175|308:135,1,67.5,2|4,0:0|0:0,0:0:0:0:
297,281,18019,2,0,P|331:259|356:225,1,67.5,2|2,0:0|0:0,0:0:0:0:
296,359,18250,2,0,P|335:350|370:327,1,67.5,2|12,0:0|0:0,0:0:0:0:
222,325,18481,1,2,0:0:0:0:
290,365,18596,1,2,0:0:0:0:
291,287,18712,6,0,P|285:229|275:205,1,67.5,2|4,0:0|0:0,0:0:0:0:
334,384,18942,1,0,0:0:0:0:
374,309,19058,2,0,P|378:250|372:225,1,67.5,2|0,0:0|0:0,0:0:0:0:
410,96,19289,6,0,P|424:152|423:178,1,67.5,12|0,0:0|0:0,0:0:0:0:
415,8,19519,1,2,0:0:0:0:
486,54,19635,2,0,P|509:107|513:133,1,67.5,2|4,0:0|0:0,0:0:0:0:
284,70,19866,1,2,0:0:0:0:
334,137,19982,2,0,P|338:195|332:220,1,67.5,2|0,0:0|0:0,0:0:0:0:
36,151,20212,5,12,0:0:0:0:
123,142,20327,1,2,0:0:0:0:
87,221,20442,1,2,0:0:0:0:
72,72,20558,6,0,P|134:56|220:61,1,135,2|2,0:0|0:0,0:0:0:0:
123,142,20904,2,0,P|157:135|216:145,1,67.5,2|0,0:0|0:0,0:0:0:0:
19,267,21135,1,12,0:0:0:0:
87,221,21250,1,2,0:0:0:0:
14,186,21366,5,2,0:0:0:0:
92,302,21481,2,0,P|114:348|117:381,1,67.5,2|4,0:0|0:0,0:0:0:0:
132,229,21712,2,0,P|168:265|183:294,1,67.5,2|2,0:0|0:0,0:0:0:0:
203,361,21942,1,0,0:0:0:0:
190,164,22058,5,12,0:0:0:0:
132,229,22173,1,2,0:0:0:0:
248,99,22289,1,2,0:0:0:0:
162,81,22404,6,0,P|106:75|69:79,1,67.5,2|4,0:0|0:0,0:0:0:0:
273,94,22635,1,2,0:0:0:0:
221,28,22750,2,0,P|170:3|134:-5,1,67.5,2|2,0:0|0:0,0:0:0:0:
60,168,22981,6,0,P|91:157|125:151,1,67.5,12|2,0:0|0:0,0:0:0:0:
11,344,23212,1,2,0:0:0:0:
61,276,23327,2,0,P|86:254|115:237,1,67.5,2|4,0:0|0:0,0:0:0:0:
196,202,23558,1,2,0:0:0:0:
282,216,23673,1,2,0:0:0:0:
314,298,23789,1,2,0:0:0:0:
193,211,23904,5,12,0:0:0:0:
162,129,24019,1,2,0:0:0:0:
217,60,24135,1,2,0:0:0:0:
304,73,24250,6,0,P|369:59|448:69,1,135,2|2,0:0|0:0,0:0:0:0:
342,143,24596,2,0,P|385:138|438:152,1,67.5,2|0,0:0|0:0,0:0:0:0:
318,245,24827,2,0,P|356:225|411:220,1,67.5,12|2,0:0|0:0,0:0:0:0:
330,349,25058,2,0,P|359:317|409:294,1,67.5,2|2,0:0|0:0,0:0:0:0:
246,331,25289,6,0,P|263:291|301:252,1,67.5,4|2,0:0|0:0,0:0:0:0:
163,347,25519,2,0,P|165:303|188:254,1,67.5,2|0,0:0|0:0,0:0:0:0:
221,216,25750,1,12,0:0:0:0:
152,348,25866,2,0,P|150:304|169:253,1,67.5,2|2,0:0|0:0,0:0:0:0:
176,66,26096,6,0,P|159:101|143:249,1,135,2|2,0:0|0:0,0:0:0:0:
163,271,26442,1,0,0:0:0:0:
178,51,26558,2,0,P|153:94|142:144,1,67.5,0|12,0:0|0:0,0:0:0:0:
224,187,26789,2,0,P|224:153|232:120,1,67.5,2|2,0:0|0:0,0:0:0:0:
321,232,27019,2,0,P|310:200|306:166,1,67.5,2|4,0:0|0:0,0:0:0:0:
396,107,27250,6,0,P|388:139|387:173,1,67.5,2|0,0:0|0:0,0:0:0:0:
343,34,27481,2,0,P|324:62|312:93,1,67.5,2|12,0:0|0:0,0:0:0:0:
232,120,27712,2,0,P|232:86|240:53,1,67.5,2|2,0:0|0:0,0:0:0:0:
146,113,27942,6,0,P|150:146|191:245,1,135,2|2,0:0|0:0,0:0:0:0:
272,290,28289,2,0,P|283:241|273:189,1,67.5,2|0,0:0|0:0,0:0:0:0:
327,348,28519,2,0,P|354:305|362:253,1,67.5,12|2,0:0|0:0,0:0:0:0:
358,144,28750,2,0,P|368:175|370:209,1,67.5,2|2,0:0|0:0,0:0:0:0:
411,79,28981,6,0,P|432:105|445:136,1,67.5,4|2,0:0|0:0,0:0:0:0:
352,150,29212,2,0,P|362:181|364:215,1,67.5,2|0,0:0|0:0,0:0:0:0:
417,73,29442,2,0,P|438:99|451:130,1,67.5,12|2,0:0|0:0,0:0:0:0:
346,156,29673,1,2,0:0:0:0:
423,67,29789,2,0,P|444:93|476:194,1,135,2|2,0:0|0:0,0:0:0:0:
341,161,30135,2,0,P|351:192|353:226,1,67.5,2|0,0:0|0:0,0:0:0:0:
265,202,30366,6,0,P|254:170|252:136,1,67.5,12|2,0:0|0:0,0:0:0:0:
270,59,30596,1,2,0:0:0:0:
213,259,30712,2,0,P|191:232|178:201,1,67.5,2|4,0:0|0:0,0:0:0:0:
97,187,30942,2,0,P|99:220|109:252,1,67.5,2|2,0:0|0:0,0:0:0:0:
167,328,31173,1,2,0:0:0:0:
167,328,31231,1,2,0:0:0:0:
167,328,31289,5,8,0:0:0:0:
231,139,31404,1,8,0:0:0:0:
100,251,31519,1,8,0:0:0:0:
264,308,31635,1,8,0:0:0:0:
133,157,31750,6,0,P|110:153|62:169,2,50.6250019311906,6|2|2,0:1|0:0|0:0,0:0:0:0:
63,72,32096,2,0,P|114:65|184:82,1,101.250003862381,2|2,0:0|0:0,0:0:0:0:
231,139,32442,2,0,P|252:108|256:85,1,50.6250019311906,2|0,0:0|0:0,0:0:0:0:
343,54,32673,6,0,P|351:79|350:103,2,50.6250019311906,14|0|2,0:0|0:0|0:0,0:0:0:0:
436,117,33019,2,0,P|434:65|421:17,1,101.250003862381,2|2,0:0|0:0,0:0:0:0:
384,196,33365,2,0,P|417:212|441:212,1,50.6250019311906,2|0,0:0|0:0,0:0:0:0:
460,299,33596,5,6,0:0:0:0:
460,299,33712,2,0,P|435:303|410:298,1,50.6250019311906,2|2,0:0|0:0,0:0:0:0:
328,267,33942,2,0,P|277:257|227:265,1,101.250003862381
303,347,34289,2,0,P|278:342|253:346,1,50.6250019311906,2|0,0:0|0:0,0:0:0:0:
163,327,34519,6,0,L|147:267,1,50.6250019311906,12|2,0:0|0:0,0:0:0:0:
188,107,34750,1,2,0:0:0:0:
70,297,34866,2,0,L|75:235,1,50.6250019311906,8|2,0:0|0:0,0:0:0:0:
202,99,35097,1,2,0:0:0:0:
167,331,35212,2,0,L|151:271,1,50.6250019311906,8|2,0:0|0:0,0:0:0:0:
85,110,35442,6,0,P|55:107|15:120,2,50.6250019311906,6|0|0,0:1|0:0|0:0,0:0:0:0:
9,31,35789,2,0,P|57:22|117:32,1,101.250003862381
115,195,36135,2,0,P|90:199|65:195,1,50.6250019311906
175,131,36366,6,0,P|190:150|200:174,2,50.6250019311906,6|2|2,0:0|0:0|0:0,0:0:0:0:
156,262,36712,2,0,P|212:268|275:245,1,101.250003862381,2|2,0:0|0:0,0:0:0:0:
320,195,37058,2,0,P|345:191|369:196,1,50.6250019311906,2|0,0:0|0:0,0:0:0:0:
440,129,37289,6,0,P|418:116|393:110,2,50.6250019311906,14|2|2,0:0|0:0|0:0,0:0:0:0:
499,64,37635,2,0,P|446:34|381:26,1,101.250003862381,2|2,0:0|0:0,0:0:0:0:
293,113,37981,5,2,0:0:0:0:
280,110,38038,1,2,0:0:0:0:
268,108,38096,1,2,0:0:0:0:
255,106,38154,1,2,0:0:0:0:
243,103,38211,5,8,0:0:0:0:
301,243,38327,1,8,0:0:0:0:
288,7,38442,1,8,0:0:0:0:
156,194,38558,1,8,0:0:0:0:
390,200,38673,1,8,0:0:0:0:
171,24,38789,1,8,0:0:0:0:
209,286,38904,1,8,0:0:0:0:
376,85,39019,1,8,0:0:0:0:
109,106,39135,6,0,P|66:146|52:202,1,94.4999971160889,6|0,0:1|0:0,0:0:0:0:
191,278,39481,2,0,P|177:220|136:180,1,94.4999971160889,2|0,0:0|0:0,0:0:0:0:
2,264,39827,2,0,P|58:280|84:277,1,47.2499985580445,2|0,0:0|0:0,0:0:0:0:
155,193,40058,6,0,P|211:176|266:191,1,94.4999971160889,12|0,0:0|0:0,0:0:0:0:
262,350,40404,2,0,P|219:309|205:254,1,94.4999971160889,2|0,0:0|0:0,0:0:0:0:
345,179,40750,2,0,P|331:236|315:256,1,47.2499985580445,2|0,0:0|0:0,0:0:0:0:
155,193,40981,6,0,P|168:135|209:95,1,94.4999971160889,6|0,0:0|0:0,0:0:0:0:
345,179,41327,2,0,P|288:195|233:180,1,94.4999971160889,2|0,0:0|0:0,0:0:0:0:
238,21,41673,2,0,P|280:61|290:85,1,47.2499985580445,2|0,0:0|0:0,0:0:0:0:
345,179,41904,6,0,L|342:244,1,47.2499985580445,12|2,0:0|0:0,0:0:0:0:
261,349,42135,1,2,0:0:0:0:
152,145,42250,2,0,L|155:210,1,47.2499985580445,8|2,0:0|0:0,0:0:0:0:
266,358,42481,1,2,0:0:0:0:
377,112,42596,2,0,L|374:177,1,47.2499985580445,8|2,0:0|0:0,0:0:0:0:
70,245,42827,6,0,P|53:188|68:133,1,94.4999971160889,6|0,0:1|0:0,0:0:0:0:
227,137,43173,2,0,P|186:179|131:193,1,94.4999971160889,2|0,0:0|0:0,0:0:0:0:
56,55,43519,2,0,P|113:68|133:84,1,47.2499985580445,2|0,0:0|0:0,0:0:0:0:
227,137,43750,6,0,P|283:153|338:138,1,94.4999971160889,12|0,0:0|0:0,0:0:0:0:
434,88,44096,1,2,0:0:0:0:
406,68,44212,2,0,L|414:137,1,47.2499985580445,2|0,0:0|0:0,0:0:0:0:
487,248,44442,2,0,L|479:179,1,47.2499985580445
327,40,44673,6,0,P|265:55|221:100,1,94.4999971160889,6|0,0:0|0:0,0:0:0:0:
310,246,45019,2,0,P|328:185|311:125,1,94.4999971160889,2|0,0:0|0:0,0:0:0:0:
140,130,45365,2,0,P|183:176|210:187,1,47.2499985580445,2|0,0:0|0:0,0:0:0:0:
247,190,45539,1,0,0:0:0:0:
247,190,45596,5,8,0:0:0:0:
106,32,45712,1,8,0:0:0:0:
125,249,45827,1,0,0:0:0:0:
240,65,45942,1,8,0:0:0:0:
42,155,46058,1,0,0:0:0:0:
221,287,46173,5,8,0:0:0:0:
230,58,46289,1,8,0:0:0:0:
32,152,46404,1,8,0:0:0:0:
328,110,46519,6,0,P|393:118|431:151,1,101.250003862381,6|0,0:1|0:0,0:0:0:0:
251,281,46750,1,8,0:0:0:0:
350,206,46866,2,0,P|375:267|366:316,1,101.250003862381,2|0,0:0|0:0,0:0:0:0:
109,350,47096,1,2,0:0:0:0:
139,229,47212,2,0,P|179:176|226:160,1,101.250003862381,8|0,0:0|0:0,0:0:0:0:
444,140,47442,5,2,0:0:0:0:
326,102,47558,1,2,0:0:0:0:
353,224,47673,2,0,P|407:261|457:262,1,101.250003862381,8|0,0:0|0:0,0:0:0:0:
326,102,47904,5,2,0:0:0:0:
208,64,48020,1,2,0:0:0:0:
235,186,48135,1,8,0:0:0:0:
341,90,48250,1,2,0:0:0:0:
115,148,48366,5,2,0:0:0:0:
235,186,48481,1,2,0:0:0:0:
208,64,48596,1,8,0:0:0:0:
142,270,48712,2,0,P|142:334|164:378,1,101.250003862381,2|0,0:0|0:0,0:0:0:0:
355,224,48942,5,2,0:0:0:0:
262,308,49057,1,8,0:0:0:0:
235,186,49172,1,2,0:0:0:0:
374,346,49289,5,2,0:0:0:0:
254,308,49404,1,2,0:0:0:0:
347,224,49519,2,0,P|411:224|455:246,1,101.250003862381,8|0,0:0|0:0,0:0:0:0:
247,308,49750,6,0,L|235:183,1,101.250003862381,2|2,0:0|0:0,0:0:0:0:
359,105,49981,2,0,L|349:205,1,101.250003862381,8|2,0:0|0:0,0:0:0:0:
127,175,50212,6,0,P|191:175|235:197,1,101.250003862381,6|0,0:1|0:0,0:0:0:0:
150,365,50442,1,8,0:0:0:0:
71,292,50558,2,0,P|126:260|175:257,1,101.250003862381,2|0,0:0|0:0,0:0:0:0:
359,331,50789,1,2,0:0:0:0:
263,380,50905,2,0,P|251:316|265:269,1,101.250003862381,8|0,0:0|0:0,0:0:0:0:
466,117,51135,5,2,0:0:0:0:
512,234,51250,1,2,0:0:0:0:
388,215,51366,2,0,P|330:186|300:147,1,101.250003862381,8|0,0:0|0:0,0:0:0:0:
114,39,51596,5,2,0:0:0:0:
205,122,51712,1,2,0:0:0:0:
86,159,51827,1,8,0:0:0:0:
116,20,51942,1,2,0:0:0:0:
166,238,52058,5,2,0:0:0:0:
194,118,52174,1,2,0:0:0:0:
75,155,52289,1,8,0:0:0:0:
176,249,52404,2,0,P|239:252|285:233,1,101.250003862381,2|0,0:0|0:0,0:0:0:0:
374,58,52635,5,2,0:0:0:0:
402,178,52750,1,8,0:0:0:0:
283,141,52866,1,2,0:0:0:0:
283,141,52923,1,2,0:0:0:0:
283,141,52981,5,8,0:0:0:0:
469,105,53096,1,8,0:0:0:0:
339,281,53212,1,8,0:0:0:0:
262,35,53327,1,8,0:0:0:0:
495,194,53442,1,8,0:0:0:0:
238,225,53558,1,8,0:0:0:0:
375,37,53673,1,8,0:0:0:0:
464,301,53789,6,0,B|396:290|396:290|367:269|367:269|338:280,1,135,6|2,0:1|0:0,0:0:0:0:
196,351,54135,2,0,B|232:352|232:352|259:337,1,67.5,2|0,0:0|0:0,0:0:0:0:
17,384,54366,1,12,0:0:0:0:
10,306,54481,1,2,0:0:0:0:
3,228,54596,1,2,0:0:0:0:
29,371,54712,6,0,L|19:236,1,135,2|2,0:0|0:0,0:0:0:0:
9,82,55058,2,0,L|13:149,1,67.5,2|0,0:0|0:0,0:0:0:0:
198,43,55289,1,12,0:0:0:0:
132,1,55404,1,2,0:0:0:0:
56,16,55519,1,2,0:0:0:0:
198,180,55635,6,0,B|194:124|194:124|208:107|208:107|205:51,1,135,2|2,0:0|0:0,0:0:0:0:
278,222,55981,2,0,L|273:154,1,67.5,2|0,0:0|0:0,0:0:0:0:
179,334,56212,1,12,0:0:0:0:
189,257,56327,1,2,0:0:0:0:
198,180,56442,1,2,0:0:0:0:
249,381,56558,6,0,B|348:365|348:365|376:384,1,135,2|2,0:0|0:0,0:0:0:0:
112,346,56904,2,0,L|178:333,1,67.5,2|0,0:0|0:0,0:0:0:0:
435,296,57135,1,12,0:0:0:0:
358,288,57250,1,2,0:0:0:0:
280,280,57366,1,2,0:0:0:0:
424,285,57481,6,0,L|289:273,1,135,6|2,0:1|0:0,0:0:0:0:
473,354,57827,2,0,P|441:366|408:367,1,67.5,2|0,0:0|0:0,0:0:0:0:
115,351,58058,1,12,0:0:0:0:
38,341,58173,1,2,0:0:0:0:
30,349,58289,1,2,0:0:0:0:
200,355,58404,6,0,B|204:299|204:299|190:282|190:282|193:226,1,135,2|2,0:0|0:0,0:0:0:0:
287,32,58750,2,0,B|289:59|289:59|286:72|286:72|288:98,1,67.5,2|0,0:0|0:0,0:0:0:0:
402,224,58981,1,12,0:0:0:0:
480,220,59096,1,2,0:0:0:0:
487,228,59212,1,2,0:0:0:0:
320,221,59327,6,0,B|221:205|221:205|193:224,1,135,2|2,0:0|0:0,0:0:0:0:
440,148,59673,2,0,L|373:138,1,67.5,2|0,0:0|0:0,0:0:0:0:
97,101,59904,1,12,0:0:0:0:
82,25,60019,1,2,0:0:0:0:
72,16,60135,1,2,0:0:0:0:
30,149,60250,6,0,B|34:205|34:205|20:222|20:222|23:278,1,135,2|2,0:0|0:0,0:0:0:0:
156,51,60596,1,2,0:0:0:0:
221,153,60712,1,0,0:0:0:0:
461,49,60827,5,12,0:0:0:0:
235,70,60942,1,2,0:0:0:0:
366,259,61058,1,8,0:0:0:0:
354,124,61173,6,4,L|366:259,1,135,6|2,0:1|0:1,0:0:0:0:
348,57,61519,2,4,L|354:124,1,67.5,6|2,0:1|0:1,0:0:0:0:
377,346,61750,6,0,L|377:349,7,3.375,2|0|0|0|0|0|0|0,0:0|0:0|0:0|0:0|0:0|0:0|0:0|0:0,0:0:0:0:
365,258,62212,6,0,L|364:254,7,3.375,2|0|0|0|0|0|0|0,0:0|0:0|0:0|0:0|0:0|0:0|0:0|0:0,0:0:0:0:
296,307,62673,5,8,0:0:0:0:
141,353,62789,1,8,0:0:0:0:
5,262,62904,1,8,0:0:0:0:
296,307,63019,6,0,B|240:300|240:300|226:283|226:283|170:277,1,135,6|2,0:1|0:0,0:0:0:0:
430,380,63366,2,0,L|497:384,1,67.5,2|0,0:0|0:0,0:0:0:0:
290,147,63596,1,12,0:0:0:0:
294,224,63712,1,2,0:0:0:0:
286,70,63827,1,2,0:0:0:0:
304,214,63942,6,0,L|298:79,1,135,2|2,0:0|0:0,0:0:0:0:
450,249,64289,2,0,P|417:241|383:244,1,67.5,2|0,0:0|0:0,0:0:0:0:
150,282,64519,1,12,0:0:0:0:
227,272,64635,1,2,0:0:0:0:
235,280,64750,1,2,0:0:0:0:
43,199,64866,6,0,B|27:100|27:100|46:72,1,135,6|2,0:1|0:0,0:0:0:0:
206,148,65212,2,0,B|138:141,1,67.5,6|0,0:1|0:0,0:0:0:0:
354,187,65442,6,0,L|387:183,1,33.75,2|0,0:0|0:0,0:0:0:0:
361,180,65558,2,0,L|394:176,1,33.75
370,171,65673,2,0,L|403:167,1,33.75
377,164,65789,2,0,L|410:160,1,33.75
382,89,65904,6,0,L|348:85,1,33.75,2|0,0:0|0:0,0:0:0:0:
375,82,66020,2,0,L|341:78,1,33.75
366,73,66135,2,0,L|332:69,1,33.75
359,66,66251,2,0,L|325:62,1,33.75
239,45,66366,5,8,0:0:0:0:
255,210,66481,1,8,0:0:0:0:
271,375,66596,1,8,0:0:0:0:
239,45,66712,6,0,B|132:35|132:35|108:50,1,135,6|2,0:1|0:0,0:0:0:0:
263,293,67058,2,0,L|330:286,1,67.5,2|0,0:0|0:0,0:0:0:0:
476,107,67289,1,12,0:0:0:0:
426,169,67404,1,2,0:0:0:0:
398,95,67519,1,2,0:0:0:0:
447,297,67635,6,0,B|443:240|443:240|427:225|427:225|425:169,1,135,2|2,0:0|0:0,0:0:0:0:
448,33,67981,1,2,0:0:0:0:
320,81,68097,1,2,0:0:0:0:
389,367,68212,5,8,0:0:0:0:
347,156,68327,1,10,0:0:0:0:
382,374,68442,1,8,0:0:0:0:
340,163,68557,1,10,0:0:0:0:
360,269,68673,6,0,B|336:263|336:263|312:269|312:269|281:266|281:266,1,67.5,2|0,3:0|2:0,2:0:0:0:
294,274,69366,1,2,0:0:0:0:
257,173,69481,1,2,0:0:0:0:
218,75,69596,2,0,L|241:46,1,33.75,8|0,0:0|0:0,0:0:0:0:
85,237,69827,1,2,0:0:0:0:
154,156,69942,1,2,0:0:0:0:
121,337,70174,1,2,0:0:0:0:
85,237,70289,1,2,0:0:0:0:
76,244,70519,6,0,L|57:243,1,13.5
167,165,70866,6,0,L|182:164,1,13.5
154,156,71212,1,2,0:0:0:0:
261,149,71327,1,2,0:0:0:0:
368,144,71442,2,0,L|392:175,1,33.75,8|0,0:0|0:0,0:0:0:0:
311,54,71673,1,2,0:0:0:0:
418,49,71789,1,2,0:0:0:0:
319,240,72019,1,2,0:0:0:0:
261,149,72135,1,2,0:0:0:0:
256,155,72366,6,0,B|278:151|278:151|296:143|296:143|323:145,1,67.5,6|0,0:1|2:0,0:0:0:0:
328,149,73058,1,2,0:0:0:0:
365,249,73173,1,2,0:0:0:0:
402,350,73289,2,0,L|443:369,1,33.75,8|0,0:0|0:0,0:0:0:0:
260,232,73519,1,2,0:0:0:0:
365,249,73634,1,2,0:0:0:0:
193,315,73866,1,2,0:0:0:0:
260,232,73981,1,2,0:0:0:0:
251,226,74212,6,0,L|267:269,1,33.75,2|0,0:0|0:0,0:0:0:0:
115,97,74442,1,2,0:0:0:0:
220,122,74558,2,0,L|262:131,1,33.75,2|0,0:0|0:0,0:0:0:0:
41,176,74789,1,2,0:0:0:0:
115,97,74905,1,2,0:0:0:0:
120,90,74962,1,2,0:0:0:0:
126,84,75019,1,2,0:0:0:0:
132,78,75077,1,2,0:0:0:0:
137,72,75135,6,0,L|90:73,1,33.75,8|0,0:0|0:0,0:0:0:0:
353,68,75366,1,2,0:0:0:0:
245,70,75481,1,8,0:0:0:0:
192,164,75596,1,2,0:0:0:0:
409,161,75712,5,8,0:0:0:0:
245,70,75827,1,8,0:0:0:0:
246,256,75942,1,8,0:0:0:0:
353,68,76058,6,0,B|376:61|376:61|398:58|398:58|422:46,1,67.5,0|0,2:0|2:0,0:0:0:0:
423,43,76750,1,2,0:0:0:0:
389,146,76866,1,2,0:0:0:0:
356,248,76981,2,0,L|359:253,1,6.75,8|0,0:0|0:0,0:0:0:0:
212,88,77212,1,2,0:0:0:0:
316,65,77327,2,0,L|324:63,1,6.75,2|0,0:0|0:0,0:0:0:0:
254,269,77558,1,2,0:0:0:0:
288,166,77673,2,0,L|294:148,1,13.5,2|0,0:0|2:0,0:0:0:0:
297,148,78596,5,2,0:0:0:0:
190,125,78712,1,2,0:0:0:0:
84,103,78827,2,0,L|72:101,1,6.75,8|0,0:0|0:0,0:0:0:0:
263,45,79058,1,2,0:0:0:0:
190,125,79173,2,0,L|183:131,1,6.75,2|0,0:0|0:0,0:0:0:0:
331,253,79404,1,2,0:0:0:0:
297,148,79519,2,0,L|295:138,1,6.75,2|0,0:0|0:0,0:0:0:0:
222,227,79750,6,0,B|225:253|225:253|231:268|231:268|230:307,1,70.8749978370667,0|0,0:0|2:0,0:0:0:0:
259,373,80212,6,0,B|223:375|223:375|186:363,3,67.5
112,334,80442,5,2,0:0:0:0:
99,226,80558,1,2,0:0:0:0:
87,118,80673,2,0,L|58:98,1,33.75,8|0,0:0|0:0,0:0:0:0:
187,162,80904,1,2,0:0:0:0:
99,226,81019,2,0,L|70:244,1,33.75,2|0,0:0|0:0,0:0:0:0:
199,271,81250,1,2,0:0:0:0:
187,162,81365,2,0,L|183:121,1,33.75,2|0,0:0|0:0,0:0:0:0:
311,38,81596,6,0,L|315:79,1,33.75,2|0,0:0|0:0,0:0:0:0:
436,291,81827,5,2,0:0:0:0:
423,184,81942,2,0,L|419:143,1,33.75,2|0,0:0|0:0,0:0:0:0:
172,21,82173,5,2,0:0:0:0:
183,128,82288,1,2,0:0:0:0:
183,136,82345,1,2,0:0:0:0:
184,144,82403,1,2,0:0:0:0:
185,153,82461,1,2,0:0:0:0:
186,161,82519,5,8,0:0:0:0:
175,147,82576,1,8,0:0:0:0:
165,134,82634,1,8,0:0:0:0:
155,120,82692,1,8,0:0:0:0:
145,107,82749,5,2,0:0:0:0:
109,278,82866,1,8,0:0:0:0:
273,57,82981,1,8,0:0:0:0:
306,290,83096,5,2,0:0:0:0:
390,311,83212,1,2,0:0:0:0:
450,248,83327,1,2,0:0:0:0:
425,164,83442,6,0,P|392:161|359:153,1,67.5,4|0,0:1|0:0,0:0:0:0:
310,214,83789,2,0,P|276:217|243:225,1,67.5
194,164,84135,1,0,0:0:0:0:
194,164,84366,2,0,L|196:79,1,84.375
116,114,84712,6,0,P|82:110|50:120,1,67.5
97,221,85058,2,0,L|92:187,1,33.75
24,275,85289,2,0,L|32:341,1,67.5
105,301,85635,2,0,P|137:309|171:307,1,67.5
214,373,85981,2,0,L|247:370,1,33.75
395,354,86212,1,0,0:0:0:0:
421,279,86673,5,0,0:0:0:0:
421,279,86904,1,0,0:0:0:0:
447,203,87135,2,0,P|450:170|448:136,1,67.5,4|0,0:1|0:0,0:0:0:0:
379,98,87481,2,0,P|348:111|320:130,1,67.5
322,209,87827,2,0,P|348:229|379:243,1,67.5
297,288,88519,5,2,0:0:0:0:
297,288,88750,1,0,0:0:0:0:
279,368,88866,1,0,0:0:0:0:
279,368,88923,1,0,0:0:0:0:
279,368,88981,5,0,0:0:0:0:
133,322,89327,1,0,0:0:0:0:
245,218,89673,5,0,0:0:0:0:
245,218,89789,1,0,0:0:0:0:
0,244,89904,5,8,0:0:0:0:
219,302,90019,1,10,0:0:0:0:
362,105,90135,1,8,0:0:0:0:
142,163,90250,1,10,0:0:0:0:
303,325,90366,1,8,0:0:0:0:
232,68,90481,1,8,0:0:0:0:
110,273,90596,1,8,0:0:0:0:
333,215,90712,1,8,0:0:0:0:
507,363,90827,6,0,L|509:278,1,84.375,6|0,0:1|0:0,0:0:0:0:
223,285,91058,1,8,0:0:0:0:
303,325,91173,2,0,P|344:319|384:304,1,84.375,2|0,0:0|0:0,0:0:0:0:
162,157,91404,1,2,0:0:0:0:
81,197,91519,2,0,P|39:191|0:176,1,84.375,8|0,0:0|0:0,0:0:0:0:
292,49,91750,2,0,B|359:44|359:44|389:62|389:62|455:57,1,168.75,2|8,0:0|0:0,0:0:0:0:
223,285,92096,6,0,B|155:280|155:280|125:298|125:298|59:293,1,168.75,0|2,0:0|0:0,0:0:0:0:
271,365,92442,2,0,L|186:359,1,84.375,8|2,0:0|0:0,0:0:0:0:
341,139,92673,2,0,L|425:144,1,84.375,2|2,0:0|0:0,0:0:0:0:
183,202,92904,1,8,0:0:0:0:
152,123,93019,2,0,B|143:81|143:81|153:41,1,84.375,2|0,0:0|0:0,0:0:0:0:
375,224,93250,1,2,0:0:0:0:
406,303,93365,2,0,B|415:345|415:345|404:384,1,84.375,8|2,0:0|0:0,0:0:0:0:
161,323,93596,2,0,L|328:338,1,168.75,2|8,0:0|0:0,0:0:0:0:
320,320,93942,5,0,0:0:0:0:
94,251,94058,2,0,P|53:264|11:269,1,84.375,2|2,0:0|0:0,0:0:0:0:
269,138,94289,2,0,P|309:150|351:155,1,84.375,8|2,0:0|0:0,0:0:0:0:
182,231,94519,6,0,L|173:62,1,168.75,6|8,0:1|0:0,0:0:0:0:
425,192,94866,2,0,L|416:360,1,168.75,2|2,0:0|0:0,0:0:0:0:
366,122,95212,2,0,P|404:105|445:108,1,84.375,8|0,0:0|0:0,0:0:0:0:
276,335,95442,2,0,B|191:315|203:367|107:335,1,168.75,2|8,0:0|0:0,0:0:0:0:
99,314,95789,1,0,0:0:0:0:
23,102,95904,6,0,P|23:59|26:17,1,84.375,2|2,0:0|0:0,0:0:0:0:
49,213,96135,1,8,0:0:0:0:
121,14,96250,5,2,0:0:0:0:
121,14,96308,1,2,0:0:0:0:
121,14,96366,1,8,0:0:0:0:
320,53,96481,1,8,0:0:0:0:
209,54,96596,5,2,0:0:0:0:
211,244,96712,1,8,0:0:0:0:
375,146,96827,1,8,0:0:0:0:
264,147,96942,1,2,0:0:0:0:
281,346,97058,5,2,0:0:0:0:
277,338,97116,1,2,0:0:0:0:
284,332,97174,1,2,0:0:0:0:
291,337,97232,1,2,0:0:0:0:
289,345,97289,5,2,0:0:0:0:
504,319,97404,1,8,0:0:0:0:
289,345,97519,1,8,0:0:0:0:
392,277,97635,1,8,0:0:0:0:
405,384,97750,1,2,0:0:0:0:
171,303,97866,1,2,0:0:0:0:
184,196,97981,1,2,0:0:0:0:
171,303,98096,1,2,0:0:0:0:
197,89,98212,6,0,P|247:89|293:68,1,101.250003862381,6|0,0:1|0:0,0:0:0:0:
359,108,98558,2,0,P|404:87|455:87,1,101.250003862381,2|0,0:0|0:0,0:0:0:0:
424,169,98904,2,0,L|421:219,1,50.6250019311906,2|0,0:0|0:0,0:0:0:0:
347,338,99135,2,0,L|342:236,1,101.250003862381,12|0,0:1|0:0,0:0:0:0:
234,129,99481,6,0,L|229:230,1,101.250003862381,2|0,0:0|0:0,0:0:0:0:
157,256,99827,2,0,P|131:256|107:249,1,50.6250019311906,2|0,0:0|0:0,0:0:0:0:
164,83,100058,2,0,P|202:51|252:47,1,101.250003862381,6|0,0:1|0:0,0:0:0:0:
315,3,100404,2,0,L|416:0,1,101.250003862381,2|0,0:0|0:0,0:0:0:0:
482,41,100750,2,0,P|485:65|485:91,1,50.6250019311906,2|0,0:0|0:0,0:0:0:0:
352,198,100981,5,12,0:1:0:0:
279,164,101096,2,0,P|254:166|230:172,1,50.6250019311906,2|2,0:0|0:0,0:0:0:0:
30,259,101327,1,8,0:0:0:0:
102,225,101442,2,0,P|127:226|151:232,1,50.6250019311906,2|2,0:0|0:0,0:0:0:0:
268,350,101673,1,8,0:0:0:0:
163,346,101789,1,2,0:0:0:0:
37,180,101904,6,0,L|30:78,1,101.250003862381,6|0,0:1|0:0,0:0:0:0:
97,40,102250,2,0,P|146:42|190:18,1,101.250003862381,2|0,0:0|0:0,0:0:0:0:
161,117,102596,2,0,P|159:142|159:167,1,50.6250019311906,2|0,0:0|0:0,0:0:0:0:
321,248,102827,2,0,P|306:176|239:146,1,151.875005793572,12|2,0:1|0:0,0:0:0:0:
236,231,103519,5,2,0:0:0:0:
236,231,103750,2,0,L|245:331,1,101.250003862381,6|0,0:1|0:0,0:0:0:0:
397,205,104096,2,0,L|387:104,1,101.250003862381,2|0,0:0|0:0,0:0:0:0:
378,31,104442,1,2,0:0:0:0:
314,148,104558,5,2,0:0:0:0:
314,148,104616,1,2,0:0:0:0:
314,148,104673,5,8,0:0:0:0:
105,94,104789,1,8,0:0:0:0:
371,210,104904,1,8,0:0:0:0:
162,264,105020,1,8,0:0:0:0:
219,56,105135,1,8,0:0:0:0:
245,362,105250,1,8,0:0:0:0:
188,154,105365,1,8,0:0:0:0:
350,322,105481,1,8,0:0:0:0:
394,88,105596,6,0,P|428:32|474:11,1,101.250003862381,6|0,0:1|0:0,0:0:0:0:
503,114,105827,1,8,0:0:0:0:
303,122,105942,2,0,P|305:56|329:13,1,101.250003862381,2|0,0:0|0:0,0:0:0:0:
503,114,106173,1,2,0:0:0:0:
454,207,106289,2,0,P|396:237|346:238,1,101.250003862381,8|0,0:0|0:0,0:0:0:0:
117,255,106519,5,2,0:0:0:0:
229,304,106635,1,2,0:0:0:0:
216,181,106750,2,0,P|182:123|140:95,1,101.250003862381,8|0,0:0|0:0,0:0:0:0:
137,384,106981,5,2,0:0:0:0:
235,311,107097,1,2,0:0:0:0:
123,262,107212,1,8,0:0:0:0:
240,317,107327,1,2,0:0:0:0:
216,181,107442,5,2,0:0:0:0:
117,255,107558,1,2,0:0:0:0:
229,304,107673,1,8,0:0:0:0:
104,132,107789,2,0,P|80:68|86:19,1,101.250003862381,2|0,0:0|0:0,0:0:0:0:
314,107,108019,5,2,0:0:0:0:
216,181,108135,1,8,0:0:0:0:
202,59,108250,1,2,0:0:0:0:
319,224,108366,5,2,0:0:0:0:
206,177,108480,1,2,0:0:0:0:
304,103,108596,2,0,P|367:79|416:85,1,101.250003862381,8|0,0:0|0:0,0:0:0:0:
333,346,108827,5,2,0:0:0:0:
319,224,108943,1,2,0:0:0:0:
431,272,109058,1,8,0:0:0:0:
329,356,109173,1,2,0:0:0:0:
442,274,109289,6,0,P|466:210|460:161,1,101.250003862381,6|0,0:1|0:0,0:0:0:0:
197,189,109519,1,8,0:0:0:0:
257,303,109635,2,0,P|309:259|329:214,1,101.250003862381,2|0,0:0|0:0,0:0:0:0:
86,55,109866,1,2,0:0:0:0:
68,179,109981,2,0,P|80:246|109:285,1,101.250003862381,8|0,0:0|0:0,0:0:0:0:
307,134,110212,5,2,0:0:0:0:
197,189,110327,1,2,0:0:0:0:
206,70,110442,2,0,P|257:25|305:12,1,101.250003862381,8|0,0:0|0:0,0:0:0:0:
299,256,110673,5,2,0:0:0:0:
307,134,110788,1,2,0:0:0:0:
408,201,110904,1,8,0:0:0:0:
295,263,111019,1,2,0:0:0:0:
409,70,111135,5,2,0:0:0:0:
300,125,111250,1,2,0:0:0:0:
401,192,111366,1,8,0:0:0:0:
408,61,111481,2,0,P|357:16|309:3,1,101.250003862381,2|0,0:0|0:0,0:0:0:0:
192,179,111712,5,2,0:0:0:0:
300,125,111827,1,8,0:0:0:0:
199,58,111943,1,2,0:0:0:0:
199,58,112000,1,2,0:0:0:0:
199,58,112058,5,8,0:0:0:0:
188,286,112173,1,8,0:0:0:0:
401,192,112289,1,2,0:0:0:0:
107,112,112404,1,8,0:0:0:0:
105,372,112519,1,2,0:0:0:0:
192,179,112635,1,8,0:0:0:0:
29,236,112750,1,8,0:0:0:0:
288,314,112866,1,8,0:0:0:0:
366,124,112981,5,6,0:1:0:0:
339,204,113096,2,0,L|407:200,1,67.5,2|2,0:0|0:0,0:0:0:0:
415,56,113327,2,0,B|381:42|381:42|276:49,1,135,2|2,0:0|0:0,0:0:0:0:
435,279,113673,2,0,L|354:284,1,67.5,2|0,0:0|0:0,0:0:0:0:
141,236,113904,6,0,L|208:240,1,67.5,8|2,0:0|0:0,0:0:0:0:
144,131,114135,1,2,0:0:0:0:
75,296,114250,2,0,B|105:313|105:313|210:321,1,135,2|2,0:0|0:0,0:0:0:0:
0,172,114596,2,0,L|67:176,1,67.5,2|0,0:0|0:0,0:0:0:0:
413,228,114827,6,0,L|345:223,1,67.5,2|2,0:0|0:0,0:0:0:0:
184,168,115058,1,2,0:0:0:0:
252,119,115173,2,0,B|357:126,1,67.5,2|0,0:0|0:0,0:0:0:0:
511,379,115404,1,2,0:0:0:0:
450,321,115519,2,0,B|345:313,1,67.5,2|0,0:0|0:0,0:0:0:0:
62,269,115750,6,0,B|166:261,1,67.5,8|2,0:0|0:0,0:0:0:0:
270,203,115981,1,2,0:0:0:0:
46,107,116096,2,0,B|150:114,1,67.5,8|2,0:0|0:0,0:0:0:0:
282,207,116327,1,2,0:0:0:0:
33,291,116442,2,0,B|137:283,1,67.5,8|2,0:0|0:0,0:0:0:0:
425,162,116673,6,0,B|320:154,1,67.5,6|2,0:1|0:0,0:0:0:0:
414,51,116904,1,2,0:0:0:0:
491,236,117019,2,0,B|457:249|457:249|352:242,1,135,2|2,0:0|0:0,0:0:0:0:
495,349,117366,2,0,B|390:341,1,67.5,2|0,0:0|0:0,0:0:0:0:
96,269,117596,6,0,B|200:261,1,67.5,8|2,0:0|0:0,0:0:0:0:
275,147,117827,1,2,0:0:0:0:
207,98,117942,2,0,B|102:105,1,67.5,2|0,0:0|0:0,0:0:0:0:
0,249,118173,1,2,0:0:0:0:
60,191,118288,2,0,B|164:183,1,67.5,2|0,0:0|0:0,0:0:0:0:
387,241,118519,6,0,B|282:233,1,67.5,2|2,0:0|0:0,0:0:0:0:
383,350,118750,1,2,0:0:0:0:
495,170,118866,2,0,B|464:152|464:152|359:144,1,135,2|2,0:0|0:0,0:0:0:0:
248,134,119212,1,2,0:0:0:0:
231,132,119269,1,2,0:0:0:0:
214,131,119327,1,2,0:0:0:0:
197,130,119385,1,2,0:0:0:0:
180,129,119442,5,8,0:0:0:0:
252,250,119558,1,8,0:0:0:0:
187,7,119673,1,8,0:0:0:0:
98,243,119789,1,8,0:0:0:0:
308,105,119904,1,8,0:0:0:0:
57,92,120020,1,8,0:0:0:0:
308,105,120135,5,2,0:0:0:0:
393,113,120250,1,2,0:0:0:0:
446,179,120366,5,6,0:1:0:0:
