osu file format v14

[General]
AudioFilename: audio.mp3
AudioLeadIn: 0
PreviewTime: 176399
Countdown: 1
SampleSet: None
StackLeniency: 0.7
Mode: 0
LetterboxInBreaks: 0
WidescreenStoryboard: 0

[Editor]
Bookmarks: 37124
DistanceSpacing: 1.5
BeatDivisor: 4
GridSize: 8
TimelineZoom: 1.7

[Metadata]
Title:Omoikane injekushon
TitleUnicode:思兼インジェクション
Artist:Shinigiwa Satellite
ArtistUnicode:Shinigiwa Satellite
Creator:kjlfaklf
Version:DEAD AGAIN
Source:
Tags:touhou_arrange post_hardcore metalcore female_vocal
BeatmapID:1215046
BeatmapSetID:573573

[Difficulty]
HPDrainRate:4
CircleSize:3.8
OverallDifficulty:8
ApproachRate:9.6
SliderMultiplier:1.6
SliderTickRate:1

[Events]
//Background and Video events
0,0,"1481893620928.png",0,0
//Break Periods
//Storyboard Layer 0 (Background)
//Storyboard Layer 1 (Fail)
//Storyboard Layer 2 (Pass)
//Storyboard Layer 3 (Foreground)
//Storyboard Sound Samples

[TimingPoints]
299,333.333333333333,4,2,0,30,1,0
299,-133.333333333333,4,2,0,30,0,0
2298,-100,4,2,0,30,0,0
2798,-133.333333333333,4,2,0,30,0,0
7632,-100,4,2,0,30,0,0
8132,-133.333333333333,4,2,0,30,0,0
8298,-166.666666666667,4,2,0,15,0,0
10949,300,4,2,0,80,1,0
10949,-76.9230769230769,4,2,0,80,0,0
12299,-52.6315789473684,4,2,0,80,0,0
12449,-76.9230769230769,4,2,0,80,0,0
16949,-66.6666666666667,4,2,0,80,0,0
17099,-76.9230769230769,4,2,0,80,0,0
18749,-62.5,4,2,0,80,0,0
19349,-76.9230769230769,4,2,0,80,0,0
20549,-62.5,4,2,0,80,0,0
21749,-76.9230769230769,4,2,0,80,0,0
24149,-62.5,4,2,0,80,0,0
25349,-76.9230769230769,4,2,0,80,0,0
26549,-58.8235294117647,4,2,0,80,0,0
26699,-76.9230769230769,4,2,0,80,0,0
29849,-90.9090909090909,4,2,0,80,0,0
30149,-100,4,2,0,80,0,0
31949,-83.3333333333333,4,2,0,80,0,0
32249,-100,4,2,0,80,0,0
34349,-83.3333333333333,4,2,0,80,0,0
34949,-100,4,2,0,80,0,0
39149,-83.3333333333333,4,2,0,80,0,0
39749,-100,4,2,0,80,0,0
49349,-83.3333333333333,4,2,0,80,0,0
55049,-66.6666666666667,4,2,0,80,0,0
58049,-83.3333333333333,4,2,0,80,0,0
68549,-76.9230769230769,4,2,0,80,0,0
69449,-66.6666666666667,4,2,0,80,0,0
74549,-83.3333333333333,4,2,0,80,0,0
76049,-66.6666666666667,4,2,0,80,0,0
82949,-58.8235294117647,4,2,0,80,0,0
83099,-66.6666666666667,4,2,0,80,0,0
85349,-76.9230769230769,4,2,0,80,0,0
86549,-71.4285714285714,4,2,0,80,0,0
87299,-76.9230769230769,4,2,0,80,0,0
90149,-71.4285714285714,4,2,0,80,0,0
90749,-76.9230769230769,4,2,0,80,0,0
92249,-71.4285714285714,4,2,0,80,0,0
92849,-76.9230769230769,4,2,0,80,0,0
93149,-66.6666666666667,4,2,0,80,0,0
93599,-76.9230769230769,4,2,0,80,0,0
97349,-66.6666666666667,4,2,0,80,0,0
100649,-76.9230769230769,4,2,0,80,0,0
102149,-66.6666666666667,4,2,0,80,0,0
105899,-58.8235294117647,4,2,0,80,0,0
106949,-66.6666666666667,4,2,0,80,0,0
108149,-83.3333333333333,4,2,0,80,0,0
108299,-66.6666666666667,4,2,0,80,0,0
110549,-83.3333333333333,4,2,0,80,0,0
111749,-76.9230769230769,4,2,0,80,0,0
114299,-83.3333333333333,4,2,0,80,0,0
115349,-100,4,2,0,80,0,0
116549,-76.9230769230769,4,2,0,80,0,0
118649,-90.9090909090909,4,2,0,80,0,0
118949,-100,4,2,0,80,0,0
120749,-90.9090909090909,4,2,0,80,0,0

[HitObjects]
124,106,299,6,0,P|110:153|109:213,2,60.0000022888184
203,75,798,1,0,0:0:0:0:
190,158,965,2,0,P|188:207|203:265,2,60.0000022888184
258,107,1465,1,0,0:0:0:0:
267,191,1632,2,0,P|278:238|307:291,2,60.0000022888184
319,124,2131,1,0,0:0:0:0:
350,203,2298,6,0,P|361:250|328:324,2,80
319,124,2798,2,0,P|309:112|303:93,1,30.0000011444092
319,124,2965,6,0,P|314:84|326:41,2,60.0000022888184
384,176,3465,1,0,0:0:0:0:
397,93,3632,2,0,P|402:53|425:14,2,60.0000022888184
446,160,4131,1,0,0:0:0:0:
480,83,4298,2,0,P|495:45|527:14,2,60.0000022888184
446,160,4798,1,0,0:0:0:0:
377,209,4965,5,0,0:0:0:0:
454,245,5132,1,0,0:0:0:0:
369,124,5298,1,0,0:0:0:0:
436,253,5465,2,0,P|440:269|441:291,1,30.0000011444092
436,253,5632,6,0,P|434:274|412:324,2,60.0000022888184
388,185,6132,1,0,0:0:0:0:
354,260,6298,2,0,P|346:279|312:322,2,60.0000022888184
325,181,6799,1,0,0:0:0:0:
272,245,6965,2,0,P|259:262|215:294,2,60.0000022888184
264,161,7466,1,0,0:0:0:0:
196,209,7632,6,0,P|172:224|142:287,2,80
264,161,8132,2,0,P|281:144|293:126,1,30.0000011444092
264,161,8298,6,0,P|284:146|327:289,1,287.999991210938
319,213,10949,6,0,L|105:180,1,207.999990478516
280,59,11399,1,0,0:0:0:0:
301,73,11474,1,0,0:0:0:0:
324,86,11549,2,0,P|365:106|442:92,1,103.999995239258
385,16,11849,1,0,0:0:0:0:
367,178,11999,1,0,0:0:0:0:
281,58,12149,2,0,L|225:62,1,51.999997619629
255,77,12299,2,0,L|140:85,1,75.9999979705811
103,87,12449,1,0,0:0:0:0:
298,141,12599,1,0,0:0:0:0:
137,19,12749,1,0,0:0:0:0:
83,214,12899,1,0,0:0:0:0:
110,6,13049,1,0,0:0:0:0:
109,226,13199,1,0,0:0:0:0:
329,228,13349,5,0,0:0:0:0:
354,232,13424,1,0,0:0:0:0:
380,236,13499,2,0,B|406:231|406:231|461:122,1,103.999995239258
285,149,13799,1,0,0:0:0:0:
264,165,13874,1,0,0:0:0:0:
240,210,13949,1,0,0:0:0:0:
221,9,14099,1,0,0:0:0:0:
378,138,14249,2,0,L|388:249,1,103.999995239258
462,77,14549,6,0,L|396:83,1,51.999997619629
283,94,14699,1,0,0:0:0:0:
491,232,14849,1,0,0:0:0:0:
340,24,14999,1,0,0:0:0:0:
235,258,15149,1,0,0:0:0:0:
475,84,15299,1,0,0:0:0:0:
370,319,15449,1,0,0:0:0:0:
220,110,15599,1,0,0:0:0:0:
100,198,15749,5,0,0:0:0:0:
100,198,15899,2,0,L|85:89,1,103.999995239258
196,237,16199,1,0,0:0:0:0:
183,260,16274,1,0,0:0:0:0:
171,282,16349,1,0,0:0:0:0:
183,135,16499,1,0,0:0:0:0:
266,321,16649,2,0,P|292:339|366:335,1,103.999995239258
354,157,16949,6,0,B|345:166|345:166|324:275,1,120.000004577637
269,74,17249,1,0,0:0:0:0:
467,125,17399,1,0,0:0:0:0:
241,189,17549,2,0,L|132:192,1,103.999995239258
269,74,17849,1,0,0:0:0:0:
324,271,17999,1,0,0:0:0:0:
136,191,18149,2,0,P|106:169|82:103,1,103.999995239258
95,279,18449,1,0,0:0:0:0:
177,103,18599,1,0,0:0:0:0:
201,95,18674,1,0,0:0:0:0:
226,88,18749,6,0,L|362:100,1,128
184,7,19049,2,0,L|320:19,1,128
342,20,19274,1,0,0:0:0:0:
374,23,19349,1,0,0:0:0:0:
110,111,19499,5,0,0:0:0:0:
374,199,19649,1,0,0:0:0:0:
110,287,19799,1,0,0:0:0:0:
235,39,19949,1,0,0:0:0:0:
323,303,20099,1,0,0:0:0:0:
22,199,20249,1,0,0:0:0:0:
309,102,20399,1,0,0:0:0:0:
205,319,20549,5,0,0:0:0:0:
20,288,20699,2,0,B|-3:308|-3:308|15:351|76:327|76:327|129:302|171:304|210:322,1,256
235,327,21074,1,0,0:0:0:0:
267,327,21149,1,0,0:0:0:0:
298,142,21299,1,0,0:0:0:0:
169,263,21449,1,0,0:0:0:0:
354,294,21599,1,0,0:0:0:0:
474,150,21749,2,0,B|488:133|488:133|501:50,1,103.999995239258
375,175,22049,5,0,0:0:0:0:
401,272,22199,1,0,0:0:0:0:
474,150,22349,1,0,0:0:0:0:
277,148,22499,1,0,0:0:0:0:
330,344,22649,1,0,0:0:0:0:
348,76,22799,1,0,0:0:0:0:
399,271,22949,5,0,0:0:0:0:
499,246,23099,2,0,L|399:271,1,103.999995239258
247,231,23399,1,0,0:0:0:0:
221,224,23474,1,0,0:0:0:0:
196,218,23549,1,0,0:0:0:0:
287,79,23699,1,0,0:0:0:0:
398,189,23849,1,0,0:0:0:0:
247,231,23999,1,0,0:0:0:0:
397,78,24149,1,0,0:0:0:0:
430,309,24299,5,0,0:0:0:0:
247,231,24449,2,0,B|260:198|260:198|342:136,1,128
359,341,24749,2,0,B|324:345|324:345|229:305,1,128
398,189,25049,2,0,B|419:217|419:217|432:319,1,128
247,231,25349,5,0,0:0:0:0:
279,110,25499,2,0,P|296:57|276:-2,1,103.999995239258
152,57,25799,1,0,0:0:0:0:
177,56,25874,1,0,0:0:0:0:
203,56,25949,1,0,0:0:0:0:
279,110,26099,1,0,0:0:0:0:
169,193,26249,2,0,P|152:246|172:305,1,103.999995239258
366,263,26549,6,0,B|353:251|353:251|224:245,1,136.000002593994
416,384,26849,1,0,0:0:0:0:
446,158,26999,1,0,0:0:0:0:
234,245,27149,1,0,0:0:0:0:
460,275,27299,1,0,0:0:0:0:
372,64,27449,2,0,P|335:63|264:94,1,103.999995239258
98,229,27749,5,0,0:0:0:0:
309,309,27899,1,0,0:0:0:0:
180,104,28049,1,0,0:0:0:0:
100,315,28199,1,0,0:0:0:0:
102,340,28274,1,0,0:0:0:0:
105,366,28349,1,0,0:0:0:0:
198,264,28499,1,0,0:0:0:0:
80,69,28649,1,0,0:0:0:0:
307,64,28799,1,0,0:0:0:0:
332,67,28874,1,0,0:0:0:0:
383,73,28949,5,0,0:0:0:0:
222,131,29099,1,0,0:0:0:0:
377,204,29249,1,0,0:0:0:0:
282,61,29399,1,0,0:0:0:0:
252,217,29549,1,0,0:0:0:0:
245,242,29624,1,0,0:0:0:0:
238,267,29699,1,0,0:0:0:0:
231,292,29774,1,0,0:0:0:0:
224,317,29849,2,0,P|205:336|99:338,1,132.00000402832
151,263,30149,5,0,0:0:0:0:
151,104,30449,2,0,L|244:95,1,80
25,46,30749,1,0,0:0:0:0:
104,38,31049,5,0,0:0:0:0:
71,111,31199,2,0,P|55:155|56:200,1,80
112,240,31499,1,0,0:0:0:0:
179,177,31649,2,0,L|273:172,1,80
111,239,31949,2,0,P|90:195|94:148,1,95.9999970703126
246,114,32249,2,0,P|267:158|263:205,1,80
203,236,32549,5,0,0:0:0:0:
203,236,32699,2,0,P|237:261|347:209,1,160
415,339,33149,6,0,L|326:361,1,80
318,280,33449,2,0,L|407:258,1,80
298,201,33749,2,0,L|387:179,1,80
355,102,34049,2,0,L|277:121,1,80
381,28,34349,6,0,P|417:50|426:148,1,143.999995605469
428,143,34649,2,0,P|409:186|413:233,1,95.9999970703126
497,201,34949,1,0,0:0:0:0:
324,218,35099,1,0,0:0:0:0:
324,218,35399,5,0,0:0:0:0:
223,77,35549,2,0,P|194:57|135:50,1,80
158,140,35849,2,0,L|172:257,1,80
241,250,36149,2,0,L|250:170,1,80
324,139,36449,1,0,0:0:0:0:
314,219,36599,1,0,0:0:0:0:
304,299,36749,2,0,P|338:342|390:355,1,80
389,265,37049,6,0,P|437:252|486:267,1,80
437,349,37349,2,0,P|359:352|303:298,1,160
341,181,37949,1,0,0:0:0:0:
379,64,38249,1,0,0:0:0:0:
379,64,38399,1,0,0:0:0:0:
301,103,38549,6,0,L|212:95,1,80
214,175,38849,2,0,L|303:183,1,80
366,150,39149,6,0,P|383:106|342:30,1,95.9999970703126
293,182,39449,2,0,P|322:218|367:232,1,95.9999970703126
211,220,39749,1,0,0:0:0:0:
115,230,39899,1,0,0:0:0:0:
194,55,40199,5,0,0:0:0:0:
251,133,40349,1,0,0:0:0:0:
60,153,40649,5,0,0:0:0:0:
99,65,40799,1,0,0:0:0:0:
115,230,40949,2,0,B|103:270|103:270|75:314,1,80
60,153,41249,1,0,0:0:0:0:
155,144,41399,1,0,0:0:0:0:
305,212,41549,2,0,P|342:238|408:242,1,80
399,65,41849,2,0,L|378:142,1,80
486,272,42149,5,0,0:0:0:0:
486,272,42299,2,0,L|464:195,1,80
287,192,42599,1,0,0:0:0:0:
375,245,42749,1,0,0:0:0:0:
288,89,43049,5,0,0:0:0:0:
199,139,43199,1,0,0:0:0:0:
376,142,43349,2,0,L|485:171,1,80
355,219,43649,2,0,L|464:248,1,80
411,316,43949,6,0,L|334:296,1,80
274,237,44249,2,0,P|251:288|262:343,1,80
220,180,44549,1,0,0:0:0:0:
297,163,44699,1,0,0:0:0:0:
220,180,44999,1,0,0:0:0:0:
297,163,45149,2,0,L|381:169,1,80
302,83,45449,5,0,0:0:0:0:
217,157,45599,1,0,0:0:0:0:
325,80,45749,1,0,0:0:0:0:
213,134,45899,1,0,0:0:0:0:
348,77,46049,2,0,L|432:83,1,80
376,168,46349,2,0,L|297:163,1,80
245,248,46649,2,0,L|325:254,1,80
425,256,46949,1,0,0:0:0:0:
243,348,47099,1,0,0:0:0:0:
423,356,47399,5,0,0:0:0:0:
331,174,47549,1,0,0:0:0:0:
200,217,47849,5,0,0:0:0:0:
419,168,47999,1,0,0:0:0:0:
295,129,48299,5,0,0:0:0:0:
228,343,48449,1,0,0:0:0:0:
295,129,48749,2,0,P|296:72|266:29,1,80
213,148,49049,2,0,P|245:199|282:213,1,80
346,198,49349,5,0,0:0:0:0:
346,198,49499,2,0,L|440:181,1,95.9999970703126
378,107,49799,1,0,0:0:0:0:
408,271,49949,2,0,P|381:311|317:342,1,95.9999970703126
225,311,50249,1,0,0:0:0:0:
214,198,50399,2,0,P|261:201|304:224,1,95.9999970703126
201,83,50699,1,0,0:0:0:0:
109,150,50849,2,0,P|61:146|19:124,1,95.9999970703126
122,265,51149,2,0,B|126:295|126:295|184:349,1,95.9999970703126
305,190,51449,2,0,B|277:178|277:178|201:201,1,95.9999970703126
277,384,51749,5,0,0:0:0:0:
315,301,51899,1,0,0:0:0:0:
253,115,52199,1,0,0:0:0:0:
225,310,52349,1,0,0:0:0:0:
225,310,52649,1,0,0:0:0:0:
408,237,52799,2,0,P|441:168|439:139,1,95.9999970703126
253,124,53099,2,0,L|341:161,1,95.9999970703126
381,70,53549,5,0,0:0:0:0:
166,231,53699,1,0,0:0:0:0:
440,150,53849,1,0,0:0:0:0:
194,45,53999,1,0,0:0:0:0:
355,259,54149,5,0,0:0:0:0:
355,259,54299,2,0,P|368:287|359:366,1,95.9999970703126
269,222,54599,1,0,0:0:0:0:
429,203,54749,2,0,P|442:175|433:96,1,95.9999970703126
236,123,55049,6,0,L|354:147,1,120.000004577637
449,19,55349,2,0,L|331:42,1,120.000004577637
142,204,55649,1,0,0:0:0:0:
353,164,55799,1,0,0:0:0:0:
214,1,55949,1,0,0:0:0:0:
252,210,56249,6,0,P|247:282|211:331,1,120.000004577637
170,128,56549,1,0,0:0:0:0:
363,180,56699,1,0,0:0:0:0:
337,83,56999,5,0,0:0:0:0:
195,224,57149,1,0,0:0:0:0:
389,277,57449,5,0,0:0:0:0:
225,112,57599,1,0,0:0:0:0:
276,306,57749,1,0,0:0:0:0:
419,165,57899,1,0,0:0:0:0:
154,153,58049,2,0,L|51:166,1,95.9999970703126
212,229,58349,5,0,0:0:0:0:
284,136,58499,1,0,0:0:0:0:
191,64,58649,1,0,0:0:0:0:
118,157,58799,1,0,0:0:0:0:
294,218,58949,5,0,0:0:0:0:
294,218,59099,2,0,P|308:259|306:313,1,95.9999970703126
368,160,59399,1,0,0:0:0:0:
268,30,59549,2,0,L|149:23,1,95.9999970703126
252,144,59849,1,0,0:0:0:0:
61,156,59999,2,0,L|180:149,1,95.9999970703126
304,224,60299,1,0,0:0:0:0:
200,64,60449,1,0,0:0:0:0:
195,255,60599,1,0,0:0:0:0:
308,33,60749,6,0,P|348:5|430:10,1,95.9999970703126
398,188,61049,2,0,L|381:94,1,95.9999970703126
489,155,61349,1,0,0:0:0:0:
472,250,61499,2,0,P|432:278|350:273,1,95.9999970703126
223,258,61799,1,0,0:0:0:0:
223,258,61949,2,0,P|261:230|308:224,1,95.9999970703126
404,94,62249,1,0,0:0:0:0:
298,179,62399,2,0,L|312:50,1,95.9999970703126
394,190,62699,2,0,L|408:61,1,95.9999970703126
202,168,63149,6,0,B|187:222|187:222|186:289,1,95.9999970703126
291,134,63449,2,0,B|288:134|272:71|194:71,1,95.9999970703126
276,229,63749,1,0,0:0:0:0:
276,229,63899,2,0,B|279:229|295:292|373:292,1,95.9999970703126
433,258,64199,1,0,0:0:0:0:
330,380,64349,2,0,L|216:389,1,95.9999970703126
180,236,64649,2,0,L|276:229,1,95.9999970703126
138,322,64949,1,0,0:0:0:0:
126,157,65099,1,0,0:0:0:0:
235,316,65249,1,0,0:0:0:0:
44,273,65399,1,0,0:0:0:0:
210,169,65549,6,0,L|310:163,1,95.9999970703126
180,83,65849,2,0,P|142:112|125:156,1,95.9999970703126
334,248,66149,1,0,0:0:0:0:
276,78,66299,1,0,0:0:0:0:
419,185,66599,5,0,0:0:0:0:
190,140,66749,1,0,0:0:0:0:
334,248,67049,5,0,0:0:0:0:
380,20,67199,1,0,0:0:0:0:
419,185,67349,1,0,0:0:0:0:
276,78,67499,1,0,0:0:0:0:
482,81,67649,1,0,0:0:0:0:
334,248,67949,5,0,0:0:0:0:
190,140,68099,1,0,0:0:0:0:
419,185,68249,2,0,P|439:243|412:320,1,143.999995605469
313,352,68549,6,0,L|178:331,1,103.999995239258
4,304,68849,1,0,0:0:0:0:
334,248,68999,1,0,0:0:0:0:
100,95,69149,1,0,0:0:0:0:
313,352,69299,1,0,0:0:0:0:
343,347,69374,1,0,0:0:0:0:
374,343,69449,2,0,P|418:307|434:230,1,120.000004577637
314,129,69749,6,0,L|342:302,1,120.000004577637
407,53,70049,1,0,0:0:0:0:
201,86,70199,1,0,0:0:0:0:
427,172,70349,1,0,0:0:0:0:
220,204,70499,1,0,0:0:0:0:
160,198,70574,1,0,0:0:0:0:
111,165,70649,1,0,0:0:0:0:
84,112,70724,1,0,0:0:0:0:
86,52,70799,1,0,0:0:0:0:
23,245,70949,6,0,B|15:287|15:287|27:406,1,120.000004577637
220,204,71249,1,0,0:0:0:0:
86,52,71399,1,0,0:0:0:0:
131,273,71549,1,0,0:0:0:0:
309,135,71699,1,0,0:0:0:0:
344,131,71774,1,0,0:0:0:0:
380,128,71849,1,0,0:0:0:0:
205,93,71999,1,0,0:0:0:0:
340,212,72149,5,0,0:0:0:0:
342,271,72224,1,0,0:0:0:0:
315,324,72299,1,0,0:0:0:0:
266,357,72374,1,0,0:0:0:0:
206,361,72449,1,0,0:0:0:0:
45,180,72599,5,0,0:0:0:0:
90,196,72674,1,0,0:0:0:0:
136,211,72749,1,0,0:0:0:0:
181,227,72824,1,0,0:0:0:0:
227,243,72899,1,0,0:0:0:0:
453,181,73049,5,0,0:0:0:0:
227,122,73199,1,0,0:0:0:0:
370,264,73349,2,0,P|383:350|357:382,1,120.000004577637
276,207,73649,5,0,0:0:0:0:
374,45,73799,1,0,0:0:0:0:
370,264,73949,5,0,0:0:0:0:
186,42,74099,1,0,0:0:0:0:
150,40,74174,1,0,0:0:0:0:
114,38,74249,2,0,B|52:55|52:55|14:98,1,120.000004577637
148,218,74549,6,0,B|180:237|214:239|256:222|256:222|281:213|317:211|356:228,1,191.999994140625
203,126,74999,2,0,P|136:111|82:129,1,95.9999970703126
298,342,75299,1,0,0:0:0:0:
368,98,75449,1,0,0:0:0:0:
411,78,75524,1,0,0:0:0:0:
457,87,75599,1,0,0:0:0:0:
490,121,75674,1,0,0:0:0:0:
497,168,75749,2,0,P|488:222|425:267,1,95.9999970703126
290,151,76049,6,0,L|435:183,1,120.000004577637
424,336,76349,2,0,L|306:310,1,120.000004577637
270,302,76574,1,0,0:0:0:0:
235,294,76649,1,0,0:0:0:0:
46,252,76799,5,0,0:0:0:0:
25,197,76874,1,0,0:0:0:0:
50,144,76949,1,0,0:0:0:0:
105,125,77024,1,0,0:0:0:0:
157,151,77099,1,0,0:0:0:0:
210,179,77174,1,0,0:0:0:0:
272,194,77249,1,0,0:0:0:0:
328,184,77324,1,0,0:0:0:0:
383,162,77399,1,0,0:0:0:0:
387,103,77474,1,0,0:0:0:0:
349,59,77549,1,0,0:0:0:0:
290,54,77624,1,0,0:0:0:0:
245,91,77699,1,0,0:0:0:0:
238,149,77774,1,0,0:0:0:0:
272,194,77849,5,0,0:0:0:0:
293,276,77924,1,0,0:0:0:0:
230,334,77999,1,0,0:0:0:0:
150,303,78074,1,0,0:0:0:0:
140,219,78149,6,0,L|158:97,1,120.000004577637
63,25,78449,1,0,0:0:0:0:
28,263,78599,1,0,0:0:0:0:
258,236,78749,1,0,0:0:0:0:
96,109,78899,1,0,0:0:0:0:
68,131,78974,1,0,0:0:0:0:
40,154,79049,2,0,P|30:220|53:296,1,120.000004577637
142,211,79349,5,0,0:0:0:0:
197,49,79499,1,0,0:0:0:0:
68,131,79649,5,0,0:0:0:0:
278,202,79799,1,0,0:0:0:0:
303,24,79949,5,0,0:0:0:0:
217,324,80099,1,0,0:0:0:0:
415,193,80249,5,0,0:0:0:0:
423,134,80324,1,0,0:0:0:0:
404,78,80399,1,0,0:0:0:0:
360,38,80474,1,0,0:0:0:0:
302,23,80549,2,0,L|144:42,1,120.000004577637
316,142,80849,1,0,0:0:0:0:
493,15,80999,1,0,0:0:0:0:
302,23,81149,5,0,0:0:0:0:
387,238,81299,1,0,0:0:0:0:
380,273,81374,1,0,0:0:0:0:
374,308,81449,2,0,B|351:329|351:329|233:348,1,120.000004577637
212,153,81749,1,0,0:0:0:0:
388,114,81899,1,0,0:0:0:0:
190,260,82049,5,0,0:0:0:0:
162,15,82199,1,0,0:0:0:0:
67,127,82349,5,0,0:0:0:0:
54,184,82424,1,0,0:0:0:0:
79,238,82499,1,0,0:0:0:0:
130,267,82574,1,0,0:0:0:0:
190,260,82649,1,0,0:0:0:0:
247,244,82724,1,0,0:0:0:0:
306,249,82799,1,0,0:0:0:0:
360,275,82874,1,0,0:0:0:0:
401,319,82949,2,0,B|416:335|439:342|439:342|464:279|454:227,1,136.000002593994
443,82,83249,5,0,0:0:0:0:
247,244,83399,1,0,0:0:0:0:
456,253,83549,5,0,0:0:0:0:
218,165,83699,1,0,0:0:0:0:
214,153,83774,1,0,0:0:0:0:
210,142,83849,1,0,0:0:0:0:
177,327,83999,1,0,0:0:0:0:
168,336,84074,1,0,0:0:0:0:
161,345,84149,5,0,0:0:0:0:
103,354,84224,1,0,0:0:0:0:
56,319,84299,1,0,0:0:0:0:
50,261,84374,1,0,0:0:0:0:
87,216,84449,1,0,0:0:0:0:
145,211,84524,1,0,0:0:0:0:
194,179,84599,1,0,0:0:0:0:
207,122,84674,1,0,0:0:0:0:
178,72,84749,5,0,0:0:0:0:
178,72,85349,6,0,L|154:189,1,103.999995239258
115,375,85649,1,0,0:0:0:0:
115,375,85799,1,0,0:0:0:0:
311,310,85949,2,0,P|361:308|408:351,1,103.999995239258
239,374,86249,1,0,0:0:0:0:
291,216,86399,1,0,0:0:0:0:
129,251,86549,6,0,B|126:266|130:288|130:288|203:268|225:241,1,111.999996582031
180,93,86849,2,0,B|168:83|147:76|147:76|128:149|140:181,1,111.999996582031
291,216,87149,2,0,B|305:210|322:195|322:195|268:142|234:137,1,111.999996582031
43,194,87449,5,0,0:0:0:0:
129,251,87599,1,0,0:0:0:0:
100,108,87749,2,0,P|139:53|194:39,1,103.999995239258
271,189,88049,2,0,B|251:186|251:186|189:131,1,103.999995239258
361,213,88349,2,0,P|322:268|267:282,1,103.999995239258
337,117,88649,1,0,0:0:0:0:
455,240,88799,1,0,0:0:0:0:
404,46,88949,1,0,0:0:0:0:
271,189,89099,1,0,0:0:0:0:
460,144,89249,5,0,0:0:0:0:
214,90,89399,1,0,0:0:0:0:
350,302,89549,5,0,0:0:0:0:
330,349,89624,1,0,0:0:0:0:
285,373,89699,1,0,0:0:0:0:
235,363,89774,1,0,0:0:0:0:
203,324,89849,1,0,0:0:0:0:
203,273,89924,1,0,0:0:0:0:
219,225,89999,1,0,0:0:0:0:
200,178,90074,1,0,0:0:0:0:
154,156,90149,6,0,P|129:117|148:31,1,111.999996582031
94,222,90449,1,0,0:0:0:0:
214,90,90599,1,0,0:0:0:0:
45,34,90749,2,0,L|19:166,1,103.999995239258
130,329,91049,1,0,0:0:0:0:
242,175,91199,1,0,0:0:0:0:
94,222,91349,5,0,0:0:0:0:
352,197,91499,1,0,0:0:0:0:
102,110,91649,1,0,0:0:0:0:
343,308,91799,1,0,0:0:0:0:
32,315,91949,6,0,P|-13:257|-18:212,1,103.999995239258
102,110,92249,2,0,L|92:221,1,111.999996582031
203,62,92549,1,0,0:0:0:0:
9,46,92699,1,0,0:0:0:0:
192,173,92849,2,0,P|238:192|270:243,1,103.999995239258
180,382,93149,2,0,B|170:324|170:324|181:264,1,120.000004577637
135,101,93449,2,0,P|103:150|107:208,1,120.000004577637
140,247,93674,5,0,0:0:0:0:
189,262,93749,1,0,0:0:0:0:
238,250,93824,1,0,0:0:0:0:
275,214,93899,1,0,0:0:0:0:
313,180,93974,1,0,0:0:0:0:
364,176,94049,1,0,0:0:0:0:
409,201,94124,1,0,0:0:0:0:
430,248,94199,1,0,0:0:0:0:
420,298,94274,1,0,0:0:0:0:
382,333,94349,5,0,0:0:0:0:
332,340,94424,1,0,0:0:0:0:
286,317,94499,1,0,0:0:0:0:
259,274,94574,1,0,0:0:0:0:
258,222,94649,1,0,0:0:0:0:
284,178,94724,1,0,0:0:0:0:
297,128,94799,1,0,0:0:0:0:
281,80,94874,1,0,0:0:0:0:
240,50,94949,6,0,B|210:37|210:37|119:34,1,103.999995239258
73,114,95249,1,0,0:0:0:0:
254,193,95399,1,0,0:0:0:0:
96,311,95549,6,0,P|71:249|75:203,1,103.999995239258
203,290,95849,2,0,P|208:239|233:194,1,103.999995239258
307,326,96149,2,0,P|336:284|380:257,1,103.999995239258
457,126,96449,2,0,L|254:112,1,155.999992858887
249,111,96749,1,0,0:0:0:0:
437,20,96899,1,0,0:0:0:0:
367,216,97049,2,0,P|382:288|440:322,1,103.999995239258
428,139,97349,6,0,B|384:157|361:184|361:184|328:170|296:175|296:175|257:208|200:192,1,240.000009155274
52,31,97799,1,0,0:0:0:0:
108,251,97949,2,0,B|87:291|87:291|23:335,1,120.000004577637
77,138,98249,1,0,0:0:0:0:
220,281,98399,5,0,0:0:0:0:
246,294,98474,1,0,0:0:0:0:
273,307,98549,1,0,0:0:0:0:
331,300,98624,1,0,0:0:0:0:
366,254,98699,1,0,0:0:0:0:
359,196,98774,1,0,0:0:0:0:
312,161,98849,1,0,0:0:0:0:
282,111,98924,1,0,0:0:0:0:
293,53,98999,5,0,0:0:0:0:
345,14,99074,1,0,0:0:0:0:
409,19,99149,1,0,0:0:0:0:
453,66,99224,1,0,0:0:0:0:
455,131,99299,1,0,0:0:0:0:
414,180,99374,1,0,0:0:0:0:
352,201,99449,1,0,0:0:0:0:
289,181,99524,1,0,0:0:0:0:
223,188,99599,1,0,0:0:0:0:
172,230,99674,1,0,0:0:0:0:
155,293,99749,6,0,B|138:320|138:320|97:342|34:348,1,120.000004577637
127,126,100049,2,0,B|158:127|158:127|198:151|235:203,1,120.000004577637
0,234,100349,1,0,0:0:0:0:
19,0,100499,1,0,0:0:0:0:
119,213,100649,5,0,0:0:0:0:
119,213,100799,2,0,L|105:338,1,103.999995239258
222,224,101099,2,0,L|240:348,1,103.999995239258
324,207,101399,2,0,L|374:322,1,103.999995239258
385,123,101699,1,0,0:0:0:0:
240,145,101849,2,0,L|55:124,1,155.999992858887
33,121,102149,5,0,0:0:0:0:
225,39,102299,2,0,L|380:56,1,120.000004577637
287,255,102599,1,0,0:0:0:0:
275,227,102674,1,0,0:0:0:0:
262,199,102749,2,0,L|143:186,1,120.000004577637
310,340,103049,2,0,P|365:292|367:221,1,120.000004577637
129,66,103349,2,0,L|142:185,1,120.000004577637
18,18,103649,5,0,0:0:0:0:
248,52,103799,1,0,0:0:0:0:
95,295,103949,5,0,0:0:0:0:
129,66,104099,1,0,0:0:0:0:
305,260,104249,5,0,0:0:0:0:
19,249,104399,1,0,0:0:0:0:
273,116,104549,5,0,0:0:0:0:
150,363,104699,2,0,L|-18:368,1,120.000004577637
202,197,104999,1,0,0:0:0:0:
217,222,105074,1,0,0:0:0:0:
233,248,105149,6,0,P|304:283|358:268,1,120.000004577637
471,17,105449,1,0,0:0:0:0:
306,191,105599,1,0,0:0:0:0:
180,45,105749,1,0,0:0:0:0:
142,238,105899,6,0,B|138:268|130:281|130:281|146:313|146:313|136:334|145:374,1,136.000002593994
306,191,106199,2,0,B|281:173|274:159|274:159|239:157|239:157|225:138|186:126,1,136.000002593994
264,356,106499,2,0,B|291:343|307:344|307:344|326:314|326:314|350:312|380:284,1,136.000002593994
112,158,106799,5,0,0:0:0:0:
389,205,106949,2,0,P|477:150|370:51,1,240.000009155274
232,169,107399,1,0,0:0:0:0:
235,198,107474,1,0,0:0:0:0:
238,228,107549,1,0,0:0:0:0:
401,126,107699,1,0,0:0:0:0:
231,37,107849,1,0,0:0:0:0:
371,258,107999,1,0,0:0:0:0:
106,199,108149,6,0,P|85:171|70:107,1,95.9999970703126
198,210,108449,1,0,0:0:0:0:
49,273,108599,1,0,0:0:0:0:
192,111,108749,2,0,B|236:109|236:109|265:113|265:113|323:108,1,120.000004577637
130,8,109049,1,0,0:0:0:0:
133,215,109199,1,0,0:0:0:0:
308,80,109349,5,0,0:0:0:0:
76,142,109499,1,0,0:0:0:0:
281,268,109649,1,0,0:0:0:0:
234,37,109799,1,0,0:0:0:0:
235,25,109874,1,0,0:0:0:0:
236,13,109949,1,0,0:0:0:0:
307,121,110099,1,0,0:0:0:0:
150,110,110249,1,0,0:0:0:0:
277,265,110399,1,0,0:0:0:0:
286,271,110474,1,0,0:0:0:0:
295,277,110549,2,0,P|341:277|396:168,1,143.999995605469
318,196,110849,5,0,0:0:0:0:
236,334,110999,1,0,0:0:0:0:
400,206,111149,1,0,0:0:0:0:
236,186,111299,1,0,0:0:0:0:
350,272,111449,1,0,0:0:0:0:
336,54,111599,1,0,0:0:0:0:
154,176,111749,5,0,0:0:0:0:
8,84,111899,2,0,B|-6:107|9:134|9:134|69:136|69:136|100:158|100:158|121:159|167:181,1,207.999990478516
183,171,112274,1,0,0:0:0:0:
214,167,112349,1,0,0:0:0:0:
39,303,112499,1,0,0:0:0:0:
123,98,112649,6,0,P|138:43|144:-8,1,103.999995239258
214,167,112949,2,0,P|254:126|285:85,1,103.999995239258
258,272,113249,2,0,P|313:257|360:237,1,103.999995239258
145,257,113549,5,0,0:0:0:0:
394,127,113699,1,0,0:0:0:0:
118,88,113849,5,0,0:0:0:0:
356,239,113999,1,0,0:0:0:0:
218,23,114149,5,0,0:0:0:0:
255,303,114299,2,0,P|206:341|141:353,1,95.9999970703126
141,197,114599,1,0,0:0:0:0:
141,197,114674,1,0,0:0:0:0:
141,197,114749,1,0,0:0:0:0:
107,42,114899,1,0,0:0:0:0:
22,174,115049,1,0,0:0:0:0:
53,327,115199,1,0,0:0:0:0:
162,306,115349,6,0,L|230:309,1,40
241,309,115499,1,0,0:0:0:0:
132,156,115649,1,0,0:0:0:0:
72,246,115799,1,0,0:0:0:0:
301,219,115949,2,0,L|308:168,1,40
328,20,116099,1,0,0:0:0:0:
437,173,116249,1,0,0:0:0:0:
192,66,116399,1,0,0:0:0:0:
222,332,116549,6,0,P|263:365|344:376,1,103.999995239258
217,231,116849,1,0,0:0:0:0:
395,323,116999,1,0,0:0:0:0:
133,286,117149,2,0,L|10:288,1,103.999995239258
212,131,117449,2,0,L|335:133,1,103.999995239258
346,132,117674,1,0,0:0:0:0:
377,133,117749,1,0,0:0:0:0:
213,27,117899,5,0,0:0:0:0:
255,219,118049,1,0,0:0:0:0:
362,54,118199,1,0,0:0:0:0:
138,144,118349,1,0,0:0:0:0:
118,191,118424,1,0,0:0:0:0:
118,243,118499,1,0,0:0:0:0:
136,292,118574,1,0,0:0:0:0:
170,330,118649,2,0,B|195:340|195:340|319:344,1,132.00000402832
373,312,118949,6,0,L|483:315,1,80
335,241,119249,1,0,0:0:0:0:
254,237,119399,1,0,0:0:0:0:
234,236,119474,1,0,0:0:0:0:
214,236,119549,2,0,P|190:171|204:129,1,80
279,19,119849,2,0,B|292:45|292:45|279:176,1,160
233,322,120299,1,0,0:0:0:0:
225,324,120374,1,0,0:0:0:0:
217,326,120449,2,0,P|176:336|118:312,1,80
93,164,120749,6,0,P|154:185|178:245,1,132.00000402832
100,242,121049,2,0,B|95:164|95:164|126:39,1,176.000005371094
188,228,121499,1,0,0:0:0:0:
314,250,121799,1,0,0:0:0:0:
293,255,121874,1,0,0:0:0:0:
272,260,121949,1,0,0:0:0:0:
