osu file format v14

[General]
AudioFilename: audio.mp3
AudioLeadIn: 0
PreviewTime: 158174
Countdown: 1
SampleSet: Normal
StackLeniency: 0.7
Mode: 1
LetterboxInBreaks: 0
WidescreenStoryboard: 0

[Editor]
Bookmarks: 2973,25169,47364,80660,102856,125052,158348,202740,224937,236036,269331
DistanceSpacing: 1.2
BeatDivisor: 4
GridSize: 32
TimelineZoom: 1.1

[Metadata]
Title:Eigetsu Monster
TitleUnicode:盈月モンスター
Artist:Shinigiwa Satellite
ArtistUnicode:死際サテライト
Creator:ShiitakeCat
Version:Take Me Down
Source:東方永夜抄 ~ Imperishable Night
Tags:Touhou Eiyashou IN th08 衛☆星太郎 Ei☆Seitarou めらみぽっぷ Merami Keine Kamishirasawa プレインアジア Plain Asia
BeatmapID:1644544
BeatmapSetID:783219

[Difficulty]
HPDrainRate:5
CircleSize:2
OverallDifficulty:5
ApproachRate:8
SliderMultiplier:1.40223956358339
SliderTickRate:1

[Events]
//Background and Video events
0,0,"Keine fall.jpg",0,0
//Break Periods
2,69762,74361
2,75311,79910
2,147450,152049
2,152999,157598
//Storyboard Layer 0 (Background)
//Storyboard Layer 1 (Fail)
//Storyboard Layer 2 (Pass)
//Storyboard Layer 3 (Foreground)
//Storyboard Layer 4 (Overlay)
//Storyboard Sound Samples

[TimingPoints]
2973,693.64161849711,4,1,0,70,1,0
2973,-100,4,1,0,50,0,0
80661,-100,4,1,0,70,0,0
224939,-100,4,1,0,50,0,0
236037,-100,4,1,0,70,0,0

[HitObjects]
256,192,2973,5,8,0:0:0:0:
256,192,4360,1,0,0:0:0:0:
256,192,5747,1,0,0:0:0:0:
256,192,8522,1,8,0:0:0:0:
256,192,9909,1,0,0:0:0:0:
256,192,11296,1,0,0:0:0:0:
256,192,12337,1,8,0:0:0:0:
256,192,13030,1,0,0:0:0:0:
256,192,14071,1,8,0:0:0:0:
256,192,15458,1,0,0:0:0:0:
256,192,16845,1,0,0:0:0:0:
256,192,19620,1,8,0:0:0:0:
256,192,21007,1,0,0:0:0:0:
256,192,22394,1,0,0:0:0:0:
256,192,23435,1,8,0:0:0:0:
256,192,24129,1,0,0:0:0:0:
256,192,25169,5,8,0:0:0:0:
256,192,25863,1,8,0:0:0:0:
256,192,26556,1,0,0:0:0:0:
256,192,27944,1,0,0:0:0:0:
256,192,29331,1,0,0:0:0:0:
256,192,30718,1,8,0:0:0:0:
256,192,31412,1,8,0:0:0:0:
256,192,32105,1,0,0:0:0:0:
256,192,33493,1,0,0:0:0:0:
256,192,34533,1,8,0:0:0:0:
256,192,35227,1,0,0:0:0:0:
256,192,36267,1,8,0:0:0:0:
256,192,36961,1,8,0:0:0:0:
256,192,37655,1,0,0:0:0:0:
256,192,39042,1,0,0:0:0:0:
256,192,40429,1,0,0:0:0:0:
256,192,41816,1,8,0:0:0:0:
256,192,42510,1,8,0:0:0:0:
256,192,43204,1,0,0:0:0:0:
256,192,44591,1,0,0:0:0:0:
256,192,45631,1,8,0:0:0:0:
256,192,46325,1,0,0:0:0:0:
256,192,47366,5,8,0:0:0:0:
256,192,48059,1,8,0:0:0:0:
256,192,48753,1,0,0:0:0:0:
256,192,50140,1,0,0:0:0:0:
256,192,51181,1,0,0:0:0:0:
256,192,52915,1,8,0:0:0:0:
256,192,53608,1,8,0:0:0:0:
256,192,54302,1,0,0:0:0:0:
256,192,55689,1,0,0:0:0:0:
256,192,56730,1,8,0:0:0:0:
256,192,57423,1,0,0:0:0:0:
256,192,58464,1,8,0:0:0:0:
256,192,59157,1,8,0:0:0:0:
256,192,59851,1,0,0:0:0:0:
256,192,61238,1,0,0:0:0:0:
256,192,62279,1,0,0:0:0:0:
256,192,64013,1,8,0:0:0:0:
256,192,64707,1,8,0:0:0:0:
256,192,65400,1,0,0:0:0:0:
256,192,66788,1,0,0:0:0:0:
256,192,67828,1,8,0:0:0:0:
256,192,68522,1,0,0:0:0:0:
256,192,69562,1,0,0:0:0:0:
256,192,75111,5,0,0:0:0:0:
256,192,80660,5,0,0:0:0:0:
256,192,81354,1,8,0:0:0:0:
256,192,82048,1,0,0:0:0:0:
256,192,82394,1,0,0:0:0:0:
256,192,82741,1,8,0:0:0:0:
256,192,83435,1,0,0:0:0:0:
256,192,84129,1,8,0:0:0:0:
256,192,84822,1,0,0:0:0:0:
256,192,85169,1,0,0:0:0:0:
256,192,85516,1,8,0:0:0:0:
256,192,86209,1,0,0:0:0:0:
256,192,86903,1,8,0:0:0:0:
256,192,87597,1,0,0:0:0:0:
256,192,87944,1,0,0:0:0:0:
256,192,88290,1,8,0:0:0:0:
256,192,88984,1,0,0:0:0:0:
256,192,89678,1,8,0:0:0:0:
256,192,90025,1,8,0:0:0:0:
256,192,90371,1,0,0:0:0:0:
256,192,90718,1,0,0:0:0:0:
256,192,91065,1,8,0:0:0:0:
256,192,91759,5,0,0:0:0:0:
256,192,92452,1,8,0:0:0:0:
256,192,92799,1,0,0:0:0:0:
256,192,93146,1,0,0:0:0:0:
256,192,93493,1,0,0:0:0:0:
256,192,93840,1,8,0:0:0:0:
256,192,94533,1,0,0:0:0:0:
256,192,95227,1,8,0:0:0:0:
256,192,95920,1,0,0:0:0:0:
256,192,96267,1,0,0:0:0:0:
256,192,96614,1,8,0:0:0:0:
256,192,97308,1,0,0:0:0:0:
256,192,98001,1,8,0:0:0:0:
256,192,98348,1,0,0:0:0:0:
256,192,98695,1,0,0:0:0:0:
256,192,99042,1,0,0:0:0:0:
256,192,99389,1,8,0:0:0:0:
256,192,100082,1,0,0:0:0:0:
256,192,100776,1,8,0:0:0:0:
256,192,101123,1,8,0:0:0:0:
256,192,101470,1,0,0:0:0:0:
256,192,101816,1,0,0:0:0:0:
256,192,102163,1,8,0:0:0:0:
256,192,102857,5,0,0:0:0:0:
256,192,103551,1,8,0:0:0:0:
256,192,103897,1,8,0:0:0:0:
256,192,104244,1,0,0:0:0:0:
256,192,104591,1,0,0:0:0:0:
256,192,104938,1,8,0:0:0:0:
256,192,105631,1,0,0:0:0:0:
256,192,106325,1,8,0:0:0:0:
256,192,107019,1,0,0:0:0:0:
256,192,107366,1,0,0:0:0:0:
256,192,107712,1,8,0:0:0:0:
256,192,108406,1,0,0:0:0:0:
256,192,109100,1,8,0:0:0:0:
256,192,109446,1,8,0:0:0:0:
256,192,109793,1,0,0:0:0:0:
256,192,110140,1,0,0:0:0:0:
256,192,110487,1,8,0:0:0:0:
256,192,111181,1,0,0:0:0:0:
256,192,111874,1,8,0:0:0:0:
256,192,112221,1,8,0:0:0:0:
256,192,112568,1,0,0:0:0:0:
256,192,112915,1,0,0:0:0:0:
256,192,113262,1,8,0:0:0:0:
256,192,113955,5,0,0:0:0:0:
256,192,114649,1,8,0:0:0:0:
256,192,114996,1,8,0:0:0:0:
256,192,115342,1,0,0:0:0:0:
256,192,115689,1,0,0:0:0:0:
256,192,116036,1,8,0:0:0:0:
256,192,116730,1,0,0:0:0:0:
256,192,117423,1,8,0:0:0:0:
256,192,118117,1,0,0:0:0:0:
256,192,118464,1,0,0:0:0:0:
256,192,118811,1,8,0:0:0:0:
256,192,119504,1,0,0:0:0:0:
256,192,120198,1,8,0:0:0:0:
256,192,120545,1,8,0:0:0:0:
256,192,120892,1,0,0:0:0:0:
256,192,121238,1,0,0:0:0:0:
256,192,121585,1,8,0:0:0:0:
256,192,121932,1,0,0:0:0:0:
256,192,122279,1,0,0:0:0:0:
256,192,122973,1,8,0:0:0:0:
256,192,123319,1,8,0:0:0:0:
256,192,123666,1,0,0:0:0:0:
256,192,124013,1,0,0:0:0:0:
256,192,124360,1,8,0:0:0:0:
256,192,125053,5,0,0:0:0:0:
256,192,125747,1,8,0:0:0:0:
256,192,126094,1,0,0:0:0:0:
256,192,126441,1,0,0:0:0:0:
256,192,126788,1,0,0:0:0:0:
256,192,127134,1,8,0:0:0:0:
256,192,127481,1,8,0:0:0:0:
256,192,127828,1,0,0:0:0:0:
256,192,128522,1,8,0:0:0:0:
256,192,129215,1,0,0:0:0:0:
256,192,129562,1,0,0:0:0:0:
256,192,129909,1,8,0:0:0:0:
256,192,130603,1,8,0:0:0:0:
256,192,131296,1,8,0:0:0:0:
256,192,131643,1,0,0:0:0:0:
256,192,131990,1,0,0:0:0:0:
256,192,132337,1,0,0:0:0:0:
256,192,132683,1,8,0:0:0:0:
256,192,133030,1,8,0:0:0:0:
256,192,133377,1,0,0:0:0:0:
256,192,134071,1,8,0:0:0:0:
256,192,134418,1,8,0:0:0:0:
256,192,134764,1,0,0:0:0:0:
256,192,135111,1,0,0:0:0:0:
256,192,135458,1,8,0:0:0:0:
256,192,136152,1,0,0:0:0:0:
256,192,136845,1,8,0:0:0:0:
256,192,137192,1,0,0:0:0:0:
256,192,137539,1,0,0:0:0:0:
256,192,137886,1,0,0:0:0:0:
256,192,138233,1,8,0:0:0:0:
256,192,138579,1,8,0:0:0:0:
256,192,138926,1,0,0:0:0:0:
256,192,139620,1,8,0:0:0:0:
256,192,140314,1,0,0:0:0:0:
256,192,140660,1,0,0:0:0:0:
256,192,141007,1,8,0:0:0:0:
256,192,141701,1,8,0:0:0:0:
256,192,142394,1,8,0:0:0:0:
256,192,142741,1,0,0:0:0:0:
256,192,143088,1,0,0:0:0:0:
256,192,143435,1,0,0:0:0:0:
256,192,143782,1,8,0:0:0:0:
256,192,144129,1,8,0:0:0:0:
256,192,144475,1,0,0:0:0:0:
256,192,145169,1,8,0:0:0:0:
256,192,145516,1,8,0:0:0:0:
256,192,145863,1,0,0:0:0:0:
256,192,146209,1,0,0:0:0:0:
256,192,146556,1,8,0:0:0:0:
256,192,147250,1,0,0:0:0:0:
256,192,152799,5,0,0:0:0:0:
256,192,158348,5,0,0:0:0:0:
256,192,158695,1,0,0:0:0:0:
256,192,159042,1,8,0:0:0:0:
256,192,159736,1,0,0:0:0:0:
256,192,160429,1,8,0:0:0:0:
256,192,160776,1,0,0:0:0:0:
256,192,161123,1,0,0:0:0:0:
256,192,161470,1,0,0:0:0:0:
256,192,161816,1,8,0:0:0:0:
256,192,162163,1,0,0:0:0:0:
256,192,162510,1,0,0:0:0:0:
256,192,163204,1,8,0:0:0:0:
256,192,163897,1,0,0:0:0:0:
256,192,164244,1,0,0:0:0:0:
256,192,164591,1,8,0:0:0:0:
256,192,165285,1,0,0:0:0:0:
256,192,165978,1,8,0:0:0:0:
256,192,166672,1,0,0:0:0:0:
256,192,167019,1,0,0:0:0:0:
256,192,167366,1,8,0:0:0:0:
256,192,167712,1,0,0:0:0:0:
256,192,168059,1,0,0:0:0:0:
256,192,168406,1,8,0:0:0:0:
256,192,168579,1,0,0:0:0:0:
256,192,168753,1,8,0:0:0:0:
256,192,168926,1,0,0:0:0:0:
256,192,169100,1,8,0:0:0:0:
256,192,169273,1,8,0:0:0:0:
256,192,169446,1,0,0:0:0:0:
256,192,169793,1,0,0:0:0:0:
256,192,170140,1,8,0:0:0:0:
256,192,170487,1,0,0:0:0:0:
256,192,170834,1,0,0:0:0:0:
256,192,171527,1,8,0:0:0:0:
256,192,171874,1,0,0:0:0:0:
256,192,172221,1,0,0:0:0:0:
256,192,172568,1,0,0:0:0:0:
256,192,172915,1,8,0:0:0:0:
256,192,173262,1,8,0:0:0:0:
256,192,173608,1,0,0:0:0:0:
256,192,173955,1,0,0:0:0:0:
256,192,174302,1,8,0:0:0:0:
256,192,174996,1,0,0:0:0:0:
256,192,175342,1,0,0:0:0:0:
256,192,175689,1,8,0:0:0:0:
256,192,176036,1,0,0:0:0:0:
256,192,176730,1,0,0:0:0:0:
256,192,177077,1,8,0:0:0:0:
256,192,177423,1,0,0:0:0:0:
256,192,177770,1,0,0:0:0:0:
256,192,178464,1,8,0:0:0:0:
256,192,178811,1,0,0:0:0:0:
256,192,179157,1,0,0:0:0:0:
256,192,179504,1,8,0:0:0:0:
256,192,179678,1,0,0:0:0:0:
256,192,179851,1,8,0:0:0:0:
256,192,180025,1,8,0:0:0:0:
256,192,180198,1,8,0:0:0:0:
256,192,180371,1,8,0:0:0:0:
256,192,180545,5,0,0:0:0:0:
256,192,180892,1,0,0:0:0:0:
256,192,181238,1,8,0:0:0:0:
256,192,181932,1,0,0:0:0:0:
256,192,182626,1,8,0:0:0:0:
256,192,182973,1,0,0:0:0:0:
256,192,183319,1,0,0:0:0:0:
256,192,183666,1,0,0:0:0:0:
256,192,184013,1,8,0:0:0:0:
256,192,184360,1,0,0:0:0:0:
256,192,184707,1,0,0:0:0:0:
256,192,185400,1,8,0:0:0:0:
256,192,186094,1,0,0:0:0:0:
256,192,186441,1,0,0:0:0:0:
256,192,186788,1,8,0:0:0:0:
256,192,187481,1,0,0:0:0:0:
256,192,188175,1,8,0:0:0:0:
256,160,188868,1,0,0:0:0:0:
256,192,189215,1,0,0:0:0:0:
256,192,189562,1,8,0:0:0:0:
256,192,189909,1,0,0:0:0:0:
256,192,190256,1,0,0:0:0:0:
256,192,190603,1,8,0:0:0:0:
256,192,190776,1,0,0:0:0:0:
256,192,190949,1,8,0:0:0:0:
256,192,191123,1,0,0:0:0:0:
256,192,191296,1,8,0:0:0:0:
256,192,191470,1,8,0:0:0:0:
256,192,191643,1,0,0:0:0:0:
256,192,191990,1,0,0:0:0:0:
256,192,192337,1,8,0:0:0:0:
256,192,192683,1,0,0:0:0:0:
256,192,193030,1,0,0:0:0:0:
256,192,193724,1,8,0:0:0:0:
256,192,194071,1,0,0:0:0:0:
256,192,194418,1,0,0:0:0:0:
256,192,194764,1,0,0:0:0:0:
256,192,195111,1,8,0:0:0:0:
256,192,195458,1,8,0:0:0:0:
256,192,195805,1,0,0:0:0:0:
256,192,196152,1,0,0:0:0:0:
256,192,196499,1,8,0:0:0:0:
256,192,197192,1,0,0:0:0:0:
256,192,197539,1,0,0:0:0:0:
256,192,197886,1,8,0:0:0:0:
256,192,198233,1,0,0:0:0:0:
256,192,198926,1,0,0:0:0:0:
256,192,199273,1,8,0:0:0:0:
256,192,199620,1,0,0:0:0:0:
256,192,199967,1,0,0:0:0:0:
256,192,200660,1,8,0:0:0:0:
256,192,201007,1,0,0:0:0:0:
256,192,201354,1,8,0:0:0:0:
256,192,201527,1,0,0:0:0:0:
256,192,201701,1,0,0:0:0:0:
256,192,202048,1,8,0:0:0:0:
256,192,202221,1,0,0:0:0:0:
256,192,202394,1,8,0:0:0:0:
256,192,202568,1,0,0:0:0:0:
256,192,202741,5,0,0:0:0:0:
256,192,203088,1,0,0:0:0:0:
256,192,203435,1,8,0:0:0:0:
256,192,204129,1,0,0:0:0:0:
256,192,204302,1,0,0:0:0:0:
256,192,204649,1,0,0:0:0:0:
256,192,204822,1,8,0:0:0:0:
256,192,204996,1,0,0:0:0:0:
256,192,205169,1,0,0:0:0:0:
256,192,205516,1,0,0:0:0:0:
256,192,205863,1,0,0:0:0:0:
256,192,206209,1,8,0:0:0:0:
256,192,206730,1,0,0:0:0:0:
256,192,206903,1,8,0:0:0:0:
256,192,207077,1,0,0:0:0:0:
256,192,207597,1,8,0:0:0:0:
256,192,207770,1,0,0:0:0:0:
256,192,208290,1,0,0:0:0:0:
256,192,208637,1,0,0:0:0:0:
256,192,208984,1,8,0:0:0:0:
256,192,209678,1,0,0:0:0:0:
256,192,209851,1,0,0:0:0:0:
256,192,210198,1,0,0:0:0:0:
256,192,210371,1,8,0:0:0:0:
256,192,210545,1,0,0:0:0:0:
256,192,210718,1,0,0:0:0:0:
256,192,211065,1,0,0:0:0:0:
256,192,211412,1,0,0:0:0:0:
256,192,211759,1,8,0:0:0:0:
256,192,212105,1,0,0:0:0:0:
256,192,212279,1,0,0:0:0:0:
256,192,212452,1,8,0:0:0:0:
256,192,212626,1,0,0:0:0:0:
256,192,213146,1,8,0:0:0:0:
256,192,213319,1,0,0:0:0:0:
256,192,213840,1,0,0:0:0:0:
256,192,214186,1,0,0:0:0:0:
256,192,214533,1,8,0:0:0:0:
256,192,215227,1,0,0:0:0:0:
256,192,215400,1,0,0:0:0:0:
256,192,215747,1,0,0:0:0:0:
256,192,215920,1,8,0:0:0:0:
256,192,216094,1,0,0:0:0:0:
256,192,216267,1,0,0:0:0:0:
256,192,216614,1,0,0:0:0:0:
256,192,216961,1,0,0:0:0:0:
256,192,217308,1,8,0:0:0:0:
256,192,217828,1,0,0:0:0:0:
256,192,218001,1,8,0:0:0:0:
256,192,218175,1,0,0:0:0:0:
256,192,218695,1,8,0:0:0:0:
256,192,218868,1,0,0:0:0:0:
256,192,219389,1,0,0:0:0:0:
256,192,219736,1,0,0:0:0:0:
256,192,220082,1,8,0:0:0:0:
256,192,220429,1,0,0:0:0:0:
256,192,220776,1,8,0:0:0:0:
256,192,221123,1,0,0:0:0:0:
256,192,221470,1,8,0:0:0:0:
256,192,221816,1,0,0:0:0:0:
256,192,222163,1,8,0:0:0:0:
256,192,222510,1,0,0:0:0:0:
256,192,222857,1,0,0:0:0:0:
256,192,223204,1,0,0:0:0:0:
256,192,223551,1,0,0:0:0:0:
256,192,223897,1,8,0:0:0:0:
256,192,224244,1,0,0:0:0:0:
256,192,224591,1,8,0:0:0:0:
256,192,224938,5,0,0:0:0:0:
256,192,225631,1,8,0:0:0:0:
256,192,226672,1,0,0:0:0:0:
256,192,227019,1,8,0:0:0:0:
256,192,227712,1,0,0:0:0:0:
256,192,228406,1,8,0:0:0:0:
256,192,229446,1,0,0:0:0:0:
256,192,229793,1,8,0:0:0:0:
256,192,230487,1,0,0:0:0:0:
256,192,231181,1,8,0:0:0:0:
256,192,232221,1,0,0:0:0:0:
256,192,232568,1,8,0:0:0:0:
256,192,233262,1,0,0:0:0:0:
256,192,233955,1,8,0:0:0:0:
256,192,234649,1,8,0:0:0:0:
256,192,234909,1,0,0:0:0:0:
256,192,235082,1,0,0:0:0:0:
256,192,235342,1,8,0:0:0:0:
256,192,236036,1,0,0:0:0:0:
256,192,236383,1,0,0:0:0:0:
256,192,236730,1,8,0:0:0:0:
256,192,237077,1,0,0:0:0:0:
256,192,237423,1,0,0:0:0:0:
256,192,238117,1,8,0:0:0:0:
256,192,238464,1,0,0:0:0:0:
256,192,238811,1,0,0:0:0:0:
256,192,239157,1,0,0:0:0:0:
256,192,239504,1,8,0:0:0:0:
256,192,239851,1,8,0:0:0:0:
256,192,240198,1,0,0:0:0:0:
256,192,240545,1,0,0:0:0:0:
256,192,240892,1,8,0:0:0:0:
256,192,241585,1,0,0:0:0:0:
256,192,241932,1,0,0:0:0:0:
256,192,242279,1,8,0:0:0:0:
256,192,242626,1,0,0:0:0:0:
256,192,243319,1,0,0:0:0:0:
256,192,243666,1,8,0:0:0:0:
256,192,244013,1,0,0:0:0:0:
256,192,244360,1,0,0:0:0:0:
256,192,245053,1,8,0:0:0:0:
256,192,245400,1,0,0:0:0:0:
256,192,245747,1,0,0:0:0:0:
256,192,246094,1,8,0:0:0:0:
256,192,246267,1,0,0:0:0:0:
256,192,246441,1,8,0:0:0:0:
256,192,246614,1,0,0:0:0:0:
256,192,246788,1,8,0:0:0:0:
256,192,246961,1,8,0:0:0:0:
256,192,247134,5,0,0:0:0:0:
256,192,247481,1,0,0:0:0:0:
256,192,247828,1,8,0:0:0:0:
256,192,248522,1,0,0:0:0:0:
256,192,249215,1,8,0:0:0:0:
256,192,249562,1,0,0:0:0:0:
256,192,249909,1,0,0:0:0:0:
256,192,250256,1,0,0:0:0:0:
256,192,250603,1,8,0:0:0:0:
256,192,250949,1,0,0:0:0:0:
256,192,251296,1,0,0:0:0:0:
256,192,251990,1,8,0:0:0:0:
256,192,252683,1,0,0:0:0:0:
256,192,253030,1,0,0:0:0:0:
256,192,253377,1,8,0:0:0:0:
256,192,254071,1,0,0:0:0:0:
256,192,254764,1,8,0:0:0:0:
256,192,255458,1,0,0:0:0:0:
256,192,255805,1,0,0:0:0:0:
256,192,256152,1,8,0:0:0:0:
256,192,256499,1,0,0:0:0:0:
256,192,256845,1,0,0:0:0:0:
256,192,257192,1,8,0:0:0:0:
256,192,257366,1,0,0:0:0:0:
256,192,257539,1,8,0:0:0:0:
256,192,257712,1,0,0:0:0:0:
256,192,257886,1,8,0:0:0:0:
256,192,258059,1,8,0:0:0:0:
256,192,258233,1,0,0:0:0:0:
256,192,258579,1,0,0:0:0:0:
256,192,258926,1,8,0:0:0:0:
256,192,259273,1,0,0:0:0:0:
256,192,259620,1,0,0:0:0:0:
256,192,260314,1,8,0:0:0:0:
256,192,260660,1,0,0:0:0:0:
256,192,261007,1,0,0:0:0:0:
256,192,261354,1,0,0:0:0:0:
256,192,261701,1,8,0:0:0:0:
256,192,262048,1,8,0:0:0:0:
256,192,262394,1,0,0:0:0:0:
256,192,262741,1,0,0:0:0:0:
256,192,263088,1,8,0:0:0:0:
256,192,263782,1,0,0:0:0:0:
256,192,264129,1,0,0:0:0:0:
256,192,264475,1,8,0:0:0:0:
256,192,264822,1,0,0:0:0:0:
256,192,265516,1,0,0:0:0:0:
256,192,265863,1,8,0:0:0:0:
256,192,266209,1,0,0:0:0:0:
256,192,266556,1,0,0:0:0:0:
256,192,266903,1,0,0:0:0:0:
256,192,267250,1,8,0:0:0:0:
256,192,267597,1,0,0:0:0:0:
256,192,267944,1,8,0:0:0:0:
256,192,268204,1,0,0:0:0:0:
256,192,268464,1,0,0:0:0:0:
256,192,268637,1,8,0:0:0:0:
256,192,269331,1,0,0:0:0:0:
256,192,269678,12,0,274187,0:0:0:0:
256,192,274880,5,8,0:0:0:0:
256,192,275920,1,0,0:0:0:0:
256,192,276961,1,0,0:0:0:0:
256,192,277655,1,8,0:0:0:0:
