osu file format v14

[General]
AudioFilename: audio.mp3
AudioLeadIn: 0
PreviewTime: 76241
Countdown: 0
SampleSet: Normal
StackLeniency: 1
Mode: 1
LetterboxInBreaks: 0
WidescreenStoryboard: 0

[Editor]
Bookmarks: 123540,126806
DistanceSpacing: 1
BeatDivisor: 6
GridSize: 32
TimelineZoom: 2.5

[Metadata]
Title:Zzz
TitleUnicode:Zzz
Artist:Shindig
ArtistUnicode:Shindig
Creator:Fallmorph
Version:Inner Oni
Source:
Tags:
BeatmapID:1954214
BeatmapSetID:935362

[Difficulty]
HPDrainRate:8
CircleSize:2
OverallDifficulty:6
ApproachRate:10
SliderMultiplier:1.4
SliderTickRate:1

[Events]
//Background and Video events
0,0,"bg.jpg",0,-50
//Break Periods
//Storyboard Layer 0 (Background)
//Storyboard Layer 1 (Fail)
//Storyboard Layer 2 (Pass)
//Storyboard Layer 3 (Foreground)
//Storyboard Layer 4 (Overlay)
//Storyboard Sound Samples

[TimingPoints]
32,483.870967741935,4,1,0,40,1,0
32,-100,4,1,0,40,0,0
15999,-133.333333333333,4,1,0,30,0,0
29951,-133.333333333333,4,3,0,30,0,0
30999,-100,4,1,0,40,0,0
54225,-133.333333333333,4,1,0,40,0,0
55193,-100,4,1,0,40,0,0
62451,-133.333333333333,4,1,0,30,0,0
76402,-133.333333333333,4,1,0,30,0,0
77451,-80,4,1,0,50,0,1
91967,-80,4,1,0,50,0,0
92935,-133.333333333333,4,1,0,50,0,1
93419,-80,4,1,0,50,0,1
107451,-80,4,1,0,50,0,0
108419,-133.333333333333,4,1,0,30,0,0
122209,-133.333333333333,4,1,0,5,0,0

[HitObjects]
256,192,32,5,0,0:0:0:0:
256,192,92,1,0,0:0:0:0:
256,192,152,1,8,0:0:0:0:
256,192,515,1,8,0:0:0:0:
256,192,838,1,0,0:0:0:0:
256,192,999,1,8,0:0:0:0:
256,192,1483,1,8,0:0:0:0:
256,192,1806,1,0,0:0:0:0:
256,192,1967,1,8,0:0:0:0:
256,192,2451,1,8,0:0:0:0:
256,192,2773,1,0,0:0:0:0:
256,192,2935,1,8,0:0:0:0:
256,192,3419,1,8,0:0:0:0:
256,192,3741,1,0,0:0:0:0:
256,192,3902,5,0,0:0:0:0:
256,192,3963,1,8,0:0:0:0:
256,192,4023,1,8,0:0:0:0:
256,192,4386,1,8,0:0:0:0:
256,192,4709,1,0,0:0:0:0:
256,192,4870,1,8,0:0:0:0:
256,192,5354,1,8,0:0:0:0:
256,192,5677,1,0,0:0:0:0:
256,192,5838,1,8,0:0:0:0:
256,192,6322,1,8,0:0:0:0:
256,192,6644,1,0,0:0:0:0:
256,192,6806,1,8,0:0:0:0:
256,192,7290,1,8,0:0:0:0:
256,192,7451,1,8,0:0:0:0:
256,192,7612,1,0,0:0:0:0:
256,192,7773,5,0,0:0:0:0:
256,192,7834,1,0,0:0:0:0:
256,192,7894,1,8,0:0:0:0:
256,192,8257,1,8,0:0:0:0:
256,192,8580,1,0,0:0:0:0:
256,192,8741,1,8,0:0:0:0:
256,192,9064,1,8,0:0:0:0:
256,192,9386,1,8,0:0:0:0:
256,192,9548,1,0,0:0:0:0:
256,192,9709,1,8,0:0:0:0:
256,192,10193,1,8,0:0:0:0:
256,192,10515,1,0,0:0:0:0:
256,192,10677,1,8,0:0:0:0:
256,192,10838,1,0,0:0:0:0:
256,192,10999,1,8,0:0:0:0:
256,192,11322,1,8,0:0:0:0:
256,192,11483,1,0,0:0:0:0:
256,192,11644,5,0,0:0:0:0:
256,192,11705,1,8,0:0:0:0:
256,192,11765,1,8,0:0:0:0:
256,192,12128,1,8,0:0:0:0:
256,192,12451,1,0,0:0:0:0:
256,192,12612,1,8,0:0:0:0:
256,192,12935,1,8,0:0:0:0:
256,192,13257,1,8,0:0:0:0:
256,192,13419,1,0,0:0:0:0:
256,192,13580,5,8,0:0:0:0:
256,192,13640,1,8,0:0:0:0:
256,192,13701,1,8,0:0:0:0:
256,192,13902,1,0,0:0:0:0:
256,192,14064,1,8,0:0:0:0:
256,192,14225,1,8,0:0:0:0:
256,192,14386,1,0,0:0:0:0:
256,192,14548,1,8,0:0:0:0:
256,192,14709,1,0,0:0:0:0:
256,192,14870,1,0,0:0:0:0:
256,192,15031,1,8,0:0:0:0:
256,192,15193,1,8,0:0:0:0:
256,192,15354,1,8,0:0:0:0:
256,192,15999,5,8,0:0:0:0:
256,192,16080,1,0,0:0:0:0:
256,192,16161,1,0,0:0:0:0:
256,192,16322,1,8,0:0:0:0:
256,192,16483,1,8,0:0:0:0:
256,192,17290,1,8,0:0:0:0:
256,192,17451,1,8,0:0:0:0:
256,192,18257,1,8,0:0:0:0:
256,192,18419,1,8,0:0:0:0:
256,192,19225,1,8,0:0:0:0:
256,192,19386,5,8,0:0:0:0:
256,192,19447,1,8,0:0:0:0:
256,192,19507,1,0,0:0:0:0:
256,192,20193,1,8,0:0:0:0:
256,192,20354,1,8,0:0:0:0:
256,192,21161,1,8,0:0:0:0:
256,192,21322,1,8,0:0:0:0:
256,192,22128,1,8,0:0:0:0:
256,192,22290,1,8,0:0:0:0:
256,192,23257,5,8,0:0:0:0:
256,192,23338,1,0,0:0:0:0:
256,192,23419,1,0,0:0:0:0:
256,192,23580,1,0,0:0:0:0:
256,192,23741,1,8,0:0:0:0:
256,192,23902,1,8,0:0:0:0:
256,192,24064,1,8,0:0:0:0:
256,192,24225,1,0,0:0:0:0:
256,192,24386,1,8,0:0:0:0:
256,192,24548,1,8,0:0:0:0:
256,192,24709,1,0,0:0:0:0:
256,192,24870,1,8,0:0:0:0:
256,192,25031,1,8,0:0:0:0:
256,192,25193,1,0,0:0:0:0:
256,192,25354,1,8,0:0:0:0:
256,192,25515,1,0,0:0:0:0:
256,192,25677,1,8,0:0:0:0:
256,192,25838,1,8,0:0:0:0:
256,192,25999,1,8,0:0:0:0:
256,192,26161,1,0,0:0:0:0:
256,192,26322,1,8,0:0:0:0:
256,192,26483,1,8,0:0:0:0:
256,192,26644,1,0,0:0:0:0:
256,192,26806,1,8,0:0:0:0:
256,192,26967,1,8,0:0:0:0:
256,192,27128,5,8,0:0:0:0:
256,192,27189,1,8,0:0:0:0:
256,192,27249,1,0,0:0:0:0:
256,192,27612,1,8,0:0:0:0:
256,192,27935,1,0,0:0:0:0:
256,192,28096,1,8,0:0:0:0:
256,192,28580,1,8,0:0:0:0:
256,192,29064,1,0,0:0:0:0:
256,192,29124,1,8,0:0:0:0:
256,192,29185,1,8,0:0:0:0:
256,192,29870,5,0,0:0:0:0:
256,192,30031,2,0,L|256:205,12,13.125000500679
256,192,30999,1,12,0:0:0:0:
256,192,31483,5,4,0:0:0:0:
256,192,31806,1,0,0:0:0:0:
256,192,31967,1,8,0:0:0:0:
256,192,32451,1,0,0:0:0:0:
256,192,32773,1,0,0:0:0:0:
256,192,32935,1,8,0:0:0:0:
256,192,33419,1,8,0:0:0:0:
256,192,33741,1,0,0:0:0:0:
256,192,33902,1,8,0:0:0:0:
256,192,34386,1,0,0:0:0:0:
256,192,34709,1,8,0:0:0:0:
256,192,34870,1,0,0:0:0:0:
256,192,35354,1,4,0:0:0:0:
256,192,35677,1,0,0:0:0:0:
256,192,35838,1,8,0:0:0:0:
256,192,36322,1,0,0:0:0:0:
256,192,36644,1,0,0:0:0:0:
256,192,36806,1,8,0:0:0:0:
256,192,37290,1,0,0:0:0:0:
256,192,37330,1,8,0:0:0:0:
256,192,37612,1,8,0:0:0:0:
256,192,37773,1,8,0:0:0:0:
256,192,38257,1,8,0:0:0:0:
256,192,38580,1,8,0:0:0:0:
256,192,38741,1,0,0:0:0:0:
256,192,39225,5,4,0:0:0:0:
256,192,39548,1,0,0:0:0:0:
256,192,39709,1,8,0:0:0:0:
256,192,40031,1,0,0:0:0:0:
256,192,40193,1,8,0:0:0:0:
256,192,40354,1,8,0:0:0:0:
256,192,40515,1,0,0:0:0:0:
256,192,40677,1,0,0:0:0:0:
256,192,40999,1,8,0:0:0:0:
256,192,41161,1,0,0:0:0:0:
256,192,41483,1,8,0:0:0:0:
256,192,41644,1,8,0:0:0:0:
256,192,41806,1,0,0:0:0:0:
256,192,41967,1,8,0:0:0:0:
256,192,42128,1,0,0:0:0:0:
256,192,42451,1,8,0:0:0:0:
256,192,42612,1,0,0:0:0:0:
256,192,43096,1,4,0:0:0:0:
256,192,43419,1,0,0:0:0:0:
256,192,43580,1,8,0:0:0:0:
256,192,43902,1,8,0:0:0:0:
256,192,44064,1,8,0:0:0:0:
256,192,44225,1,0,0:0:0:0:
256,192,44386,1,8,0:0:0:0:
256,192,44548,1,0,0:0:0:0:
256,192,44870,1,0,0:0:0:0:
256,192,45031,1,8,0:0:0:0:
256,192,45193,1,0,0:0:0:0:
256,192,45354,1,8,0:0:0:0:
256,192,45515,1,8,0:0:0:0:
256,192,45838,1,0,0:0:0:0:
256,192,45919,1,0,0:0:0:0:
256,192,45999,1,8,0:0:0:0:
256,192,46161,1,0,0:0:0:0:
256,192,46322,1,8,0:0:0:0:
256,192,46483,1,8,0:0:0:0:
256,192,46523,1,8,0:0:0:0:
256,192,46967,5,4,0:0:0:0:
256,192,47451,1,8,0:0:0:0:
256,192,47612,1,0,0:0:0:0:
256,192,47773,1,0,0:0:0:0:
256,192,47935,1,8,0:0:0:0:
256,192,48257,1,8,0:0:0:0:
256,192,48419,1,0,0:0:0:0:
256,192,48741,1,8,0:0:0:0:
256,192,48902,1,0,0:0:0:0:
256,192,49225,1,0,0:0:0:0:
256,192,49386,1,8,0:0:0:0:
256,192,49870,1,8,0:0:0:0:
256,192,50193,1,8,0:0:0:0:
256,192,50354,1,0,0:0:0:0:
256,192,50838,1,4,0:0:0:0:
256,192,51161,1,0,0:0:0:0:
256,192,51322,1,8,0:0:0:0:
256,192,51806,1,0,0:0:0:0:
256,192,52128,1,8,0:0:0:0:
256,192,52290,1,0,0:0:0:0:
256,192,52612,1,8,0:0:0:0:
256,192,52773,1,4,0:0:0:0:
256,192,53096,1,0,0:0:0:0:
256,192,53257,1,8,0:0:0:0:
256,192,54709,5,4,0:0:0:0:
256,192,55193,1,8,0:0:0:0:
256,192,55515,1,0,0:0:0:0:
256,192,55677,1,8,0:0:0:0:
256,192,55838,1,0,0:0:0:0:
256,192,55999,1,0,0:0:0:0:
256,192,56161,1,8,0:0:0:0:
256,192,56483,1,0,0:0:0:0:
256,192,56967,1,0,0:0:0:0:
256,192,57128,1,8,0:0:0:0:
256,192,57451,1,8,0:0:0:0:
256,192,57612,1,0,0:0:0:0:
256,192,57773,1,8,0:0:0:0:
256,192,57935,1,8,0:0:0:0:
256,192,58096,1,0,0:0:0:0:
256,192,58419,1,8,0:0:0:0:
256,192,58580,1,4,0:0:0:0:
256,192,58902,1,0,0:0:0:0:
256,192,59064,1,8,0:0:0:0:
256,192,59386,1,0,0:0:0:0:
256,192,59547,1,0,0:0:0:0:
256,192,59709,1,8,0:0:0:0:
256,192,59870,1,0,0:0:0:0:
256,192,60031,1,8,0:0:0:0:
256,192,60354,1,0,0:0:0:0:
256,192,60515,1,8,0:0:0:0:
256,192,60677,1,0,0:0:0:0:
256,192,60838,1,8,0:0:0:0:
256,192,60999,1,8,0:0:0:0:
256,192,61322,1,0,0:0:0:0:
256,192,61483,1,8,0:0:0:0:
256,192,61644,1,0,0:0:0:0:
256,192,61806,1,8,0:0:0:0:
256,192,62451,5,8,0:0:0:0:
256,192,62531,1,0,0:0:0:0:
256,192,62612,1,0,0:0:0:0:
256,192,62773,1,8,0:0:0:0:
256,192,62935,1,8,0:0:0:0:
256,192,63741,1,8,0:0:0:0:
256,192,63902,1,8,0:0:0:0:
256,192,64709,1,8,0:0:0:0:
256,192,64870,1,8,0:0:0:0:
256,192,65677,1,8,0:0:0:0:
256,192,65838,5,8,0:0:0:0:
256,192,65898,1,8,0:0:0:0:
256,192,65959,1,0,0:0:0:0:
256,192,66644,1,8,0:0:0:0:
256,192,66806,1,8,0:0:0:0:
256,192,67612,1,8,0:0:0:0:
256,192,67773,1,0,0:0:0:0:
256,192,68580,1,0,0:0:0:0:
256,192,68741,1,0,0:0:0:0:
256,192,69709,5,8,0:0:0:0:
256,192,69790,1,0,0:0:0:0:
256,192,69870,1,0,0:0:0:0:
256,192,70031,1,8,0:0:0:0:
256,192,70193,1,0,0:0:0:0:
256,192,70354,1,8,0:0:0:0:
256,192,70515,1,8,0:0:0:0:
256,192,70677,1,0,0:0:0:0:
256,192,70838,1,8,0:0:0:0:
256,192,70999,1,0,0:0:0:0:
256,192,71161,1,8,0:0:0:0:
256,192,71322,1,8,0:0:0:0:
256,192,71483,1,8,0:0:0:0:
256,192,71644,1,0,0:0:0:0:
256,192,71806,1,8,0:0:0:0:
256,192,71967,1,8,0:0:0:0:
256,192,72128,1,0,0:0:0:0:
256,192,72290,1,8,0:0:0:0:
256,192,72451,1,8,0:0:0:0:
256,192,72612,1,0,0:0:0:0:
256,192,72773,1,8,0:0:0:0:
256,192,72935,1,0,0:0:0:0:
256,192,73096,1,8,0:0:0:0:
256,192,73257,1,8,0:0:0:0:
256,192,73419,1,8,0:0:0:0:
256,192,73580,5,8,0:0:0:0:
256,192,73640,1,8,0:0:0:0:
256,192,73701,1,0,0:0:0:0:
256,192,74064,1,8,0:0:0:0:
256,192,74386,1,0,0:0:0:0:
256,192,74548,1,8,0:0:0:0:
256,192,75031,1,8,0:0:0:0:
256,192,75515,1,0,0:0:0:0:
256,192,75576,1,8,0:0:0:0:
256,192,75636,1,8,0:0:0:0:
256,192,76322,1,8,0:0:0:0:
256,192,76483,2,0,L|256:205,12,13.125000500679
256,192,77451,5,12,0:0:0:0:
256,192,77612,1,0,0:0:0:0:
256,192,77773,1,0,0:0:0:0:
256,192,77935,1,0,0:0:0:0:
256,192,77995,1,8,0:0:0:0:
256,192,78257,1,8,0:0:0:0:
256,192,78419,1,8,0:0:0:0:
256,192,78459,1,0,0:0:0:0:
256,192,78741,1,0,0:0:0:0:
256,192,78902,1,8,0:0:0:0:
256,192,79225,1,8,0:0:0:0:
256,192,79386,1,0,0:0:0:0:
256,192,79548,1,0,0:0:0:0:
256,192,79709,1,8,0:0:0:0:
256,192,79870,1,0,0:0:0:0:
256,192,80193,1,0,0:0:0:0:
256,192,80233,1,8,0:0:0:0:
256,192,80354,1,8,0:0:0:0:
256,192,80677,1,8,0:0:0:0:
256,192,80838,1,8,0:0:0:0:
256,192,80999,1,0,0:0:0:0:
256,192,81161,1,8,0:0:0:0:
256,192,81322,5,4,0:0:0:0:
256,192,81644,1,8,0:0:0:0:
256,192,81967,1,0,0:0:0:0:
256,192,82128,1,8,0:0:0:0:
256,192,82290,1,8,0:0:0:0:
256,192,82612,1,8,0:0:0:0:
256,192,82773,1,8,0:0:0:0:
256,192,82935,1,0,0:0:0:0:
256,192,83096,1,8,0:0:0:0:
256,192,83257,5,4,0:0:0:0:
256,192,83580,1,0,0:0:0:0:
256,192,83902,1,0,0:0:0:0:
256,192,84064,1,8,0:0:0:0:
256,192,84225,1,8,0:0:0:0:
256,192,84386,1,0,0:0:0:0:
256,192,84548,1,8,0:0:0:0:
256,192,84588,1,8,0:0:0:0:
256,192,84709,1,0,0:0:0:0:
256,192,84870,1,8,0:0:0:0:
256,192,85031,1,0,0:0:0:0:
256,192,85072,1,8,0:0:0:0:
256,192,85193,5,4,0:0:0:0:
256,192,85515,1,0,0:0:0:0:
256,192,85677,1,0,0:0:0:0:
256,192,85737,1,8,0:0:0:0:
256,192,85999,1,8,0:0:0:0:
256,192,86161,1,8,0:0:0:0:
256,192,86201,1,0,0:0:0:0:
256,192,86483,1,0,0:0:0:0:
256,192,86644,1,8,0:0:0:0:
256,192,86967,1,8,0:0:0:0:
256,192,87128,1,0,0:0:0:0:
256,192,87290,1,0,0:0:0:0:
256,192,87451,1,8,0:0:0:0:
256,192,87612,1,0,0:0:0:0:
256,192,87935,1,0,0:0:0:0:
256,192,87975,1,8,0:0:0:0:
256,192,88096,1,8,0:0:0:0:
256,192,88419,1,8,0:0:0:0:
256,192,88580,1,8,0:0:0:0:
256,192,88741,1,0,0:0:0:0:
256,192,88902,1,8,0:0:0:0:
256,192,89064,5,4,0:0:0:0:
256,192,89386,1,8,0:0:0:0:
256,192,89709,1,0,0:0:0:0:
256,192,89870,1,0,0:0:0:0:
256,192,89911,1,8,0:0:0:0:
256,192,90031,1,8,0:0:0:0:
256,192,90354,1,8,0:0:0:0:
256,192,90515,1,8,0:0:0:0:
256,192,90677,1,0,0:0:0:0:
256,192,90838,1,8,0:0:0:0:
256,192,90999,1,8,0:0:0:0:
256,192,91161,1,0,0:0:0:0:
256,192,91322,1,8,0:0:0:0:
256,192,91483,1,0,0:0:0:0:
256,192,91806,1,8,0:0:0:0:
256,192,91967,1,8,0:0:0:0:
256,192,92935,5,4,0:0:0:0:
256,192,93419,1,0,0:0:0:0:
256,192,93479,1,8,0:0:0:0:
256,192,93741,1,8,0:0:0:0:
256,192,93902,1,8,0:0:0:0:
256,192,93943,1,8,0:0:0:0:
256,192,94225,1,0,0:0:0:0:
256,192,94386,1,8,0:0:0:0:
256,192,94548,1,0,0:0:0:0:
256,192,94709,1,8,0:0:0:0:
256,192,94870,1,0,0:0:0:0:
256,192,95031,1,0,0:0:0:0:
256,192,95193,1,8,0:0:0:0:
256,192,95354,1,0,0:0:0:0:
256,192,95677,1,0,0:0:0:0:
256,192,95717,1,8,0:0:0:0:
256,192,95838,1,8,0:0:0:0:
256,192,96161,1,8,0:0:0:0:
256,192,96322,1,8,0:0:0:0:
256,192,96483,1,0,0:0:0:0:
256,192,96644,1,8,0:0:0:0:
256,192,96806,5,4,0:0:0:0:
256,192,97128,1,8,0:0:0:0:
256,192,97290,1,0,0:0:0:0:
256,192,97451,1,0,0:0:0:0:
256,192,97612,1,8,0:0:0:0:
256,192,97773,1,8,0:0:0:0:
256,192,98096,1,8,0:0:0:0:
256,192,98257,1,8,0:0:0:0:
256,192,98419,1,0,0:0:0:0:
256,192,98580,1,8,0:0:0:0:
256,192,98741,5,4,0:0:0:0:
256,192,99064,1,8,0:0:0:0:
256,192,99386,1,0,0:0:0:0:
256,192,99548,1,8,0:0:0:0:
256,192,99709,1,8,0:0:0:0:
256,192,99870,1,0,0:0:0:0:
256,192,100031,1,8,0:0:0:0:
256,192,100072,1,0,0:0:0:0:
256,192,100193,1,8,0:0:0:0:
256,192,100354,1,0,0:0:0:0:
256,192,100515,1,0,0:0:0:0:
256,192,100556,1,8,0:0:0:0:
256,192,100677,5,4,0:0:0:0:
256,192,100999,1,0,0:0:0:0:
256,192,101161,1,0,0:0:0:0:
256,192,101221,1,8,0:0:0:0:
256,192,101483,1,8,0:0:0:0:
256,192,101644,1,8,0:0:0:0:
256,192,101685,1,8,0:0:0:0:
256,192,101967,1,0,0:0:0:0:
256,192,102128,1,8,0:0:0:0:
256,192,102290,1,0,0:0:0:0:
256,192,102451,1,8,0:0:0:0:
256,192,102612,1,8,0:0:0:0:
256,192,102773,1,0,0:0:0:0:
256,192,102935,1,8,0:0:0:0:
256,192,103096,1,0,0:0:0:0:
256,192,103419,1,0,0:0:0:0:
256,192,103459,1,8,0:0:0:0:
256,192,103580,1,8,0:0:0:0:
256,192,103902,1,8,0:0:0:0:
256,192,104064,1,8,0:0:0:0:
256,192,104225,1,0,0:0:0:0:
256,192,104386,1,8,0:0:0:0:
256,192,104548,5,4,0:0:0:0:
256,192,104870,1,8,0:0:0:0:
256,192,105031,1,0,0:0:0:0:
256,192,105193,1,0,0:0:0:0:
256,192,105354,1,0,0:0:0:0:
256,192,105394,1,8,0:0:0:0:
256,192,105515,1,8,0:0:0:0:
256,192,105838,1,8,0:0:0:0:
256,192,105999,1,8,0:0:0:0:
256,192,106161,1,0,0:0:0:0:
256,192,106322,1,8,0:0:0:0:
256,192,106483,1,8,0:0:0:0:
256,192,106644,1,0,0:0:0:0:
256,192,106806,1,8,0:0:0:0:
256,192,106967,1,0,0:0:0:0:
256,192,107290,1,8,0:0:0:0:
256,192,107451,1,8,0:0:0:0:
256,192,108419,1,8,0:0:0:0:
256,192,108479,1,0,0:0:0:0:
256,192,108540,1,0,0:0:0:0:
256,192,112290,1,0,0:0:0:0:
256,192,112350,1,0,0:0:0:0:
256,192,112411,1,8,0:0:0:0:
256,192,114225,1,0,0:0:0:0:
256,192,115193,12,0,116040,0:0:0:0:
256,192,116161,5,8,0:0:0:0:
256,192,116221,1,0,0:0:0:0:
256,192,116281,1,0,0:0:0:0:
256,192,120031,1,0,0:0:0:0:
256,192,120092,1,0,0:0:0:0:
256,192,120152,1,8,0:0:0:0:
256,192,121967,1,0,0:0:0:0:
256,192,122027,1,8,0:0:0:0:
256,192,122088,1,8,0:0:0:0:
256,192,123540,12,0,126806,0:0:0:0:
