osu file format v14

[General]
AudioFilename: audio.mp3
AudioLeadIn: 0
PreviewTime: 31172
Countdown: 0
SampleSet: Soft
StackLeniency: 0.3
Mode: 0
LetterboxInBreaks: 0
WidescreenStoryboard: 1

[Editor]
Bookmarks: 2839,10839,32005,64005,80005,83839,86172,96005,113964,128005
DistanceSpacing: 5.9
BeatDivisor: 12
GridSize: 4
TimelineZoom: 0.6

[Metadata]
Title:Stutter
TitleUnicode:Stutter
Artist:Shindig
ArtistUnicode:Shindig
Creator:squirrelpascals
Version:Insane
Source:
Tags:zzz
BeatmapID:1516105
BeatmapSetID:716749

[Difficulty]
HPDrainRate:5.6
CircleSize:4
OverallDifficulty:7
ApproachRate:8
SliderMultiplier:1.5
SliderTickRate:1

[Events]
//Background and Video events
0,0,"home.jpg",0,0
//Break Periods
2,79211,80260
//Storyboard Layer 0 (Background)
//Storyboard Layer 1 (Fail)
//Storyboard Layer 2 (Pass)
//Storyboard Layer 3 (Foreground)
//Storyboard Sound Samples

[TimingPoints]
10,500,4,2,1,25,1,0
10,-200,4,2,1,25,0,0
3006,-100,4,2,1,25,0,0
4006,-200,4,2,1,25,0,0
7339,-100,4,2,1,25,0,0
8006,-200,4,2,1,25,0,0
11172,-100,4,2,1,25,0,0
16006,-200,4,2,1,40,0,0
27839,-200,4,2,2,40,0,0
31506,-200,4,2,3,40,0,0
32005,-66.6666666666667,4,2,4,50,0,0
32506,-66.6666666666667,4,2,3,50,0,0
33339,-100,4,2,3,50,0,0
35006,-66.6666666666667,4,2,3,50,0,0
38839,-66.6666666666667,4,2,3,30,0,0
38922,-66.6666666666667,4,2,3,40,0,0
39006,-66.6666666666667,4,2,3,50,0,0
44506,-66.6666666666667,4,2,3,5,0,0
44589,-66.6666666666667,4,2,3,50,0,0
44756,-66.6666666666667,4,2,3,5,0,0
44839,-100,4,2,3,50,0,0
46672,-100,4,2,3,30,0,0
46756,-100,4,2,3,35,0,0
46839,-100,4,2,3,40,0,0
46922,-100,4,2,3,45,0,0
47006,-133.333333333333,4,2,3,50,0,0
49006,-100,4,2,4,50,0,0
49339,-100,4,2,3,50,0,0
51006,-66.6666666666667,4,2,3,50,0,0
54839,-66.6666666666667,4,2,3,30,0,0
54922,-66.6666666666667,4,2,3,40,0,0
55006,-66.6666666666667,4,2,3,50,0,0
60506,-66.6666666666667,4,2,3,5,0,0
60589,-66.6666666666667,4,2,3,50,0,0
60756,-66.6666666666667,4,2,3,5,0,0
60839,-100,4,2,3,50,0,0
62672,-100,4,2,3,30,0,0
62756,-100,4,2,3,35,0,0
62839,-100,4,2,3,40,0,0
62922,-100,4,2,3,45,0,0
63006,-100,4,2,3,50,0,0
64005,-66.6666666666667,4,2,4,50,0,0
65005,-100,4,2,3,50,0,0
67172,-66.6666666666667,4,2,3,50,0,0
68339,-100,4,2,3,50,0,0
69506,-66.6666666666667,4,2,3,50,0,0
70839,-66.6666666666667,4,2,3,30,0,0
70922,-66.6666666666667,4,2,3,40,0,0
71006,-66.6666666666667,4,2,3,50,0,0
76256,-66.6666666666667,4,2,3,5,0,0
76339,-66.6666666666667,4,2,3,50,0,0
76506,-66.6666666666667,4,2,3,5,0,0
76589,-66.6666666666667,4,2,3,50,0,0
76756,-66.6666666666667,4,2,3,5,0,0
76839,-100,4,2,3,50,0,0
78672,-100,4,2,3,30,0,0
78756,-100,4,2,3,35,0,0
78839,-100,4,2,3,40,0,0
78922,-100,4,2,3,45,0,0
79006,-100,4,2,3,50,0,0
81006,-100,4,2,4,50,0,0
81172,-100,4,2,3,50,0,0
83172,-66.6666666666667,4,2,3,50,0,0
84339,-100,4,2,3,50,0,0
85506,-66.6666666666667,4,2,3,50,0,0
86839,-66.6666666666667,4,2,3,30,0,0
86922,-66.6666666666667,4,2,3,40,0,0
87006,-66.6666666666667,4,2,3,50,0,0
92256,-66.6666666666667,4,2,3,5,0,0
92339,-66.6666666666667,4,2,3,50,0,0
92506,-66.6666666666667,4,2,3,5,0,0
92589,-66.6666666666667,4,2,3,50,0,0
92756,-66.6666666666667,4,2,3,5,0,0
92839,-100,4,2,3,50,0,0
94672,-100,4,2,3,30,0,0
94756,-100,4,2,3,35,0,0
94839,-100,4,2,3,40,0,0
94922,-100,4,2,3,45,0,0
95006,-100,4,2,3,50,0,0
96006,-200,4,2,1,40,0,0
99006,-100,4,2,1,40,0,0
100006,-200,4,2,1,40,0,0
103506,-100,4,2,1,40,0,0
104006,-200,4,2,1,40,0,0
107172,-100,4,2,1,40,0,0
108339,-83.3333333333333,4,2,1,40,0,0
112006,-200,4,2,1,40,0,0
123839,-200,4,2,2,40,0,0
128505,-200,4,2,2,35,0,0
129005,-200,4,2,2,30,0,0
129506,-200,4,2,2,25,0,0
130006,-200,4,2,2,20,0,0
130506,-200,4,2,2,15,0,0
131006,-200,4,2,2,10,0,0
131506,-200,4,2,2,5,0,0

[Colours]
Combo1 : 160,214,231
Combo2 : 124,111,179
Combo3 : 84,78,101

[HitObjects]
102,72,10,6,0,P|56:237|187:147,1,425
194,65,3010,6,0,L|262:58,2,50,8|0|0,0:0|0:0|0:0,0:0:0:0:
287,146,3510,1,4,0:0:0:0:
287,146,3676,2,0,L|282:196,1,50,8|0,0:0|0:0,0:0:0:0:
378,207,4010,6,0,P|424:372|293:282,1,425,0|0,0:0|0:0,0:0:0:0:
282,195,7010,1,8,0:0:0:0:
282,195,7343,5,0,0:0:0:0:
196,264,7510,2,0,L|199:324,2,50,8|0|8,0:0|0:0|0:0,0:0:0:0:
187,153,8010,6,0,P|38:82|101:234,1,425
196,264,11010,5,4,0:0:0:0:
196,264,11093,1,0,0:0:0:0:
196,264,11176,6,0,L|255:271,1,50,8|0,0:0|0:0,0:0:0:0:
359,176,11510,1,8,0:0:0:0:
359,176,11593,1,0,0:0:0:0:
359,176,11676,6,0,L|300:183,1,50,4|0,0:0|0:0,0:0:0:0:
443,84,12010,6,0,L|440:111,3,18.75,0|0|0|0,0:0|0:0|0:0|0:0,0:0:0:0:
92,31,16010,5,2,0:0:0:0:
25,116,16510,1,0,0:0:0:0:
134,131,17010,2,0,L|123:212,1,75,2|0,0:0|0:0,0:0:0:0:
275,51,18010,5,0,0:0:0:0:
316,150,18510,1,2,0:0:0:0:
210,136,19010,2,0,L|200:209,1,75,2|0,0:0|0:0,0:0:0:0:
439,292,20010,5,2,0:0:0:0:
375,206,20510,1,0,0:0:0:0:
331,305,21010,2,0,L|339:387,1,75,2|0,0:0|0:0,0:0:0:0:
148,321,22010,5,0,0:0:0:0:
190,223,22510,1,2,0:0:0:0:
254,309,23010,2,0,L|261:383,1,75,2|0,0:0|0:0,0:0:0:0:
375,206,24010,6,0,L|367:131,1,75,2|0,0:0|0:0,0:0:0:0:
491,41,24843,1,0,0:0:0:0:
491,41,25010,2,0,L|483:115,1,75,8|0,0:0|0:0,0:0:0:0:
259,221,25843,5,0,0:0:0:0:
259,221,25926,1,0,0:0:0:0:
259,221,26010,2,0,L|251:146,1,75,0|2,0:0|0:0,0:0:0:0:
375,56,26843,1,8,0:0:0:0:
375,56,27010,2,0,L|367:130,1,75,8|0,0:0|0:0,0:0:0:0:
252,147,27676,5,0,0:0:0:0:
139,137,27842,1,8,0:0:0:0:
27,127,28010,2,8,P|31:141|32:159,1,25,10|0,0:0|0:0,0:0:0:0:
132,211,28510,6,0,L|140:125,2,75
252,147,29843,1,0,0:0:0:0:
252,147,29926,1,0,0:0:0:0:
252,147,30010,5,0,0:0:0:0:
139,137,30510,1,0,0:0:0:0:
27,127,31010,1,0,0:0:0:0:
217,278,31510,5,4,0:0:0:0:
38,262,31676,1,0,0:0:0:0:
208,362,31843,1,8,0:0:0:0:
29,346,32009,6,0,B|39:261|39:261|44:220|91:212,1,150.000005722046,6|0,0:0|0:0,0:0:0:0:
266,62,32510,2,0,B|261:96|220:101|220:101|135:111,1,150.000005722046,0|0,0:0|0:0,0:0:0:0:
0,124,33010,1,4,0:0:0:0:
121,112,33176,1,0,0:0:0:0:
51,12,33343,6,0,L|56:77,1,50,0|0,0:0|0:0,0:0:0:0:
121,112,33676,2,0,L|126:177,1,50,0|0,0:0|0:0,0:0:0:0:
191,212,34010,2,0,B|196:284|196:284|211:259,1,100,2|0,0:0|0:0,0:0:0:0:
294,171,34510,6,0,P|314:152|309:197,1,100,0|2,0:0|0:0,0:0:0:0:
399,87,35010,6,0,P|435:153|408:244,1,150.000005722046,4|0,0:0|0:0,0:0:0:0:
300,294,35510,1,0,0:0:0:0:
444,313,35676,1,8,0:0:0:0:
321,384,35843,1,8,0:0:0:0:
321,197,36010,6,0,B|326:177|341:162|341:162|297:118|314:54,1,150.000005722046,2|0,0:0|0:0,0:0:0:0:
394,0,36510,2,0,P|434:6|466:36,2,75.000002861023,0|0|0,0:0|0:0|0:0,0:0:0:0:
220,20,37010,6,0,L|56:38,1,150.000005722046,8|0,0:0|0:0,0:0:0:0:
34,210,37510,2,0,L|183:226,1,150.000005722046,0|0,0:0|0:0,0:0:0:0:
207,108,38010,6,0,L|43:126,1,150.000005722046,2|0,0:0|0:0,0:0:0:0:
21,298,38510,2,0,L|170:314,1,150.000005722046,0|4,0:0|0:0,0:0:0:0:
170,314,38926,1,4,0:0:0:0:
170,314,39010,5,4,0:0:0:0:
268,211,39176,1,4,0:0:0:0:
293,349,39343,1,4,0:0:0:0:
485,255,39510,5,4,0:0:0:0:
347,280,39677,1,4,0:0:0:0:
451,377,39843,1,4,0:0:0:0:
402,182,40010,6,0,B|396:142|396:142|418:88,1,75.000002861023,2|0,0:0|0:0,0:0:0:0:
484,62,40510,6,0,B|399:96|420:20|316:68,1,150.000005722046,0|0,0:0|0:0,0:0:0:0:
260,94,41010,1,4,0:0:0:0:
15,29,41343,5,0,0:0:0:0:
39,43,41510,2,0,L|55:126,1,75.000002861023,0|0,0:0|0:0,0:0:0:0:
168,240,41843,1,0,0:0:0:0:
145,212,42010,2,0,L|161:129,1,75.000002861023,2|0,0:0|0:0,0:0:0:0:
260,94,42343,1,0,0:0:0:0:
284,108,42510,2,0,L|300:191,2,75.000002861023,0|0|0,0:0|0:0|0:0,0:0:0:0:
412,43,43010,5,4,0:0:0:0:
412,43,43093,1,4,0:0:0:0:
412,43,43176,1,4,0:0:0:0:
399,192,43343,1,0,0:0:0:0:
475,121,43510,1,0,0:0:0:0:
434,309,43676,6,0,P|391:303|334:328,1,75.000002861023,8|8,0:0|0:0,0:0:0:0:
247,378,44010,5,2,0:0:0:0:
221,226,44176,1,0,0:0:0:0:
112,339,44343,2,0,P|90:302|48:289,1,75.000002861023,0|0,0:0|0:0,0:0:0:0:
56,289,44593,2,0,P|67:248|45:209,1,75.000002861023,0|0,0:0|0:0,0:0:0:0:
49,211,44843,6,0,L|54:161,1,50,0|4,0:0|0:0,0:0:0:0:
142,123,45176,2,0,L|149:57,1,50,0|0,0:0|0:0,0:0:0:0:
252,17,45510,2,0,B|244:95|244:95|281:69,1,100,0|0,0:0|0:0,0:0:0:0:
333,37,46010,5,2,0:0:0:0:
294,238,46176,1,2,0:0:0:0:
294,238,46676,5,4,0:0:0:0:
325,236,46760,1,4,0:0:0:0:
356,234,46843,1,4,0:0:0:0:
387,232,46926,1,4,0:0:0:0:
418,230,47010,6,0,B|445:255|445:255|317:263,1,159.375006079674,12|0,0:0|0:0,0:0:0:0:
87,108,49010,5,12,0:0:0:0:
148,201,49176,1,0,0:0:0:0:
224,119,49343,2,0,L|232:53,1,50,0|0,0:0|0:0,0:0:0:0:
93,58,49676,2,0,L|86:107,1,50,0|0,0:0|0:0,0:0:0:0:
148,201,50010,2,0,B|138:283|138:283|169:266,1,100,2|0,0:0|0:0,0:0:0:0:
273,237,50510,6,0,P|314:252|280:278,1,100,0|2,0:0|0:0,0:0:0:0:
378,184,51010,6,0,P|402:255|373:331,1,150.000005722046,4|0,0:0|0:0,0:0:0:0:
181,346,51510,1,0,0:0:0:0:
285,279,51676,1,8,0:0:0:0:
125,229,51843,1,8,0:0:0:0:
229,162,52010,6,0,B|225:75|225:75|223:31|165:15,1,150.000005722046,2|0,0:0|0:0,0:0:0:0:
74,75,52510,2,0,P|35:75|2:59,2,75.000002861023,0|0|0,0:0|0:0|0:0,0:0:0:0:
191,25,53010,6,0,L|371:44,1,150.000005722046,8|0,0:0|0:0,0:0:0:0:
422,215,53510,2,0,L|242:234,1,150.000005722046,0|0,0:0|0:0,0:0:0:0:
223,118,54010,6,0,L|403:137,1,150.000005722046,2|0,0:0|0:0,0:0:0:0:
454,308,54510,2,0,L|274:327,1,150.000005722046,0|4,0:0|0:0,0:0:0:0:
304,323,54926,1,4,0:0:0:0:
304,323,55010,5,4,0:0:0:0:
135,330,55176,1,4,0:0:0:0:
228,264,55343,1,4,0:0:0:0:
42,163,55510,5,4,0:0:0:0:
213,173,55676,1,4,0:0:0:0:
120,239,55843,1,4,0:0:0:0:
197,68,56010,6,0,B|235:57|235:57|276:64,1,75.000002861023,2|0,0:0|0:0,0:0:0:0:
366,38,56510,6,0,B|380:74|358:110|358:110|336:148|366:178|402:159,1,150.000005722046,0|0,0:0|0:0,0:0:0:0:
456,112,57010,1,4,0:0:0:0:
467,344,57343,5,0,0:0:0:0:
438,328,57510,2,0,L|429:252,1,75.000002861023,0|0,0:0|0:0,0:0:0:0:
278,310,57843,1,0,0:0:0:0:
307,294,58010,2,0,L|316:218,1,75.000002861023,2|0,0:0|0:0,0:0:0:0:
176,259,58343,1,0,0:0:0:0:
147,244,58510,2,0,L|138:168,2,75.000002861023,0|0|0,0:0|0:0|0:0,0:0:0:0:
240,122,59010,5,4,0:0:0:0:
240,122,59093,1,4,0:0:0:0:
240,122,59176,1,4,0:0:0:0:
68,93,59343,1,0,0:0:0:0:
149,28,59510,1,0,0:0:0:0:
39,190,59676,6,0,P|32:232|45:276,1,75.000002861023,8|8,0:0|0:0,0:0:0:0:
178,369,60010,5,2,0:0:0:0:
147,244,60176,1,0,0:0:0:0:
277,314,60343,2,0,P|318:323|344:359,1,75.000002861023,0|0,0:0|0:0,0:0:0:0:
341,351,60593,2,0,P|376:327|420:336,1,75.000002861023,0|0,0:0|0:0,0:0:0:0:
418,334,60843,6,0,L|484:355,1,50,0|4,0:0|0:0,0:0:0:0:
341,216,61176,2,0,L|407:237,1,50,0|0,0:0|0:0,0:0:0:0:
264,98,61510,2,0,B|340:122|340:122|328:95,1,100,0|0,0:0|0:0,0:0:0:0:
306,21,62010,5,2,0:0:0:0:
168,204,62176,1,2,0:0:0:0:
168,204,62676,5,4,0:0:0:0:
180,168,62760,1,4,0:0:0:0:
173,132,62843,1,4,0:0:0:0:
149,104,62926,1,4,0:0:0:0:
114,91,63010,6,0,L|109:31,2,50,12|0|0,0:0|0:0|0:0,0:0:0:0:
46,153,63510,2,0,L|56:268,1,100,0|0,0:0|0:0,0:0:0:0:
157,336,64009,22,0,B|294:289|241:389|391:329,1,225.000008583069,6|0,0:0|0:0,0:0:0:0:
420,94,64843,1,0,0:0:0:0:
347,167,65009,1,4,0:0:0:0:
445,194,65176,1,0,0:0:0:0:
322,67,65343,22,0,L|250:73,1,50,0|0,0:0|0:0,0:0:0:0:
218,163,65676,2,0,L|146:169,1,50,0|0,0:0|0:0,0:0:0:0:
114,259,66010,2,0,B|36:265|36:265|68:286,1,100,2|0,0:0|0:0,0:0:0:0:
224,376,66510,6,0,P|213:339|181:370,1,100,0|2,0:0|0:0,0:0:0:0:
278,228,67010,5,4,0:0:0:0:
336,333,67176,2,0,P|402:345|489:323,1,150.000005722046,0|0,0:0|0:0,0:0:0:0:
503,174,67676,1,8,0:0:0:0:
393,201,67843,1,8,0:0:0:0:
412,61,68010,5,2,0:0:0:0:
160,3,68343,1,0,0:0:0:0:
193,113,68510,2,0,P|204:140|203:172,2,50
82,82,69010,1,8,0:0:0:0:
26,311,69343,5,0,0:0:0:0:
26,311,69510,1,0,0:0:0:0:
141,250,69843,5,0,0:0:0:0:
141,250,70010,2,0,L|148:332,1,75.000002861023,2|2,0:0|0:0,0:0:0:0:
259,343,70343,5,0,0:0:0:0:
259,343,70510,2,0,L|419:330,1,150.000005722046,0|4,0:0|0:0,0:0:0:0:
408,330,70926,1,4,0:0:0:0:
408,330,71010,5,4,0:0:0:0:
506,190,71176,1,4,0:0:0:0:
359,242,71343,1,4,0:0:0:0:
365,72,71510,5,4,0:0:0:0:
267,212,71676,1,4,0:0:0:0:
414,160,71843,1,4,0:0:0:0:
271,55,72010,6,0,P|208:39|111:166,1,225.000008583069,2|0,0:0|0:0,0:0:0:0:
108,144,72843,1,0,0:0:0:0:
191,289,73010,1,4,0:0:0:0:
191,289,73343,5,0,0:0:0:0:
165,302,73510,2,0,L|155:381,1,75.000002861023,0|0,0:0|0:0,0:0:0:0:
294,238,73843,1,0,0:0:0:0:
320,251,74010,2,0,L|330:330,1,75.000002861023,2|0,0:0|0:0,0:0:0:0:
475,165,74343,1,0,0:0:0:0:
449,178,74510,2,0,L|447:261,2,75.000002861023
465,51,75010,5,4,0:0:0:0:
465,51,75093,1,4,0:0:0:0:
465,51,75176,1,4,0:0:0:0:
317,116,75343,1,0,0:0:0:0:
361,20,75510,1,0,0:0:0:0:
209,73,75676,6,0,P|164:77|125:69,1,75.000002861023,8|8,0:0|0:0,0:0:0:0:
5,24,76010,6,0,L|15:149,1,112.500004291535,2|0,0:0|0:0,0:0:0:0:
17,149,76343,2,0,P|62:168|48:215,1,75.000002861023,0|0,0:0|0:0,0:0:0:0:
65,202,76593,2,0,P|113:200|120:248,1,75.000002861023,0|0,0:0|0:0,0:0:0:0:
124,231,76843,22,0,L|115:300,1,50,0|8,0:0|0:0,0:0:0:0:
225,284,77176,2,0,L|216:353,1,50,0|0,0:0|0:0,0:0:0:0:
322,339,77510,2,0,B|330:274|330:274|310:230,1,100,0|0,0:0|0:0,0:0:0:0:
233,109,78010,5,2,0:0:0:0:
397,192,78176,1,2,0:0:0:0:
314,59,78343,1,0,0:0:0:0:
314,59,78676,5,4,0:0:0:0:
283,77,78759,1,4,0:0:0:0:
253,96,78842,1,4,0:0:0:0:
218,86,78926,1,4,0:0:0:0:
183,79,79011,1,12,0:0:0:0:
176,224,81010,5,12,0:0:0:0:
157,329,81176,1,0,0:0:0:0:
269,278,81343,2,0,L|261:328,1,50,0|0,0:0|0:0,0:0:0:0:
184,174,81676,2,0,L|176:224,1,50,0|0,0:0|0:0,0:0:0:0:
98,70,82010,2,0,B|84:147|84:147|60:116,1,100,2|0,0:0|0:0,0:0:0:0:
216,49,82510,6,0,P|254:64|216:78,1,100,0|2,0:0|0:0,0:0:0:0:
386,28,83010,5,4,0:0:0:0:
324,121,83176,2,0,P|307:178|331:269,1,150.000005722046,0|0,0:0|0:0,0:0:0:0:
512,173,83676,1,8,0:0:0:0:
392,189,83843,1,8,0:0:0:0:
505,320,84010,5,2,0:0:0:0:
260,349,84343,2,0,P|231:361|214:381,3,50,0|0|0|0,0:0|0:0|0:0|0:0,0:0:0:0:
88,327,85010,1,8,0:0:0:0:
127,163,85343,5,0,0:0:0:0:
127,163,85510,1,0,0:0:0:0:
3,41,85843,5,0,0:0:0:0:
3,41,86010,2,0,L|99:49,1,75.000002861023,2|2,0:0|0:0,0:0:0:0:
198,83,86343,5,0,0:0:0:0:
198,83,86510,2,0,L|371:65,1,150.000005722046,0|4,0:0|0:0,0:0:0:0:
347,67,86926,1,4,0:0:0:0:
347,67,87010,5,4,0:0:0:0:
426,196,87176,1,4,0:0:0:0:
460,45,87343,1,4,0:0:0:0:
332,170,87510,5,4,0:0:0:0:
469,284,87677,1,4,0:0:0:0:
504,134,87843,1,4,0:0:0:0:
347,318,88010,6,0,P|298:332|123:315,1,225.000008583069,2|0,0:0|0:0,0:0:0:0:
127,316,88843,1,0,0:0:0:0:
159,164,89010,1,4,0:0:0:0:
159,164,89343,5,0,0:0:0:0:
127,152,89510,2,0,L|111:57,1,75.000002861023,0|0,0:0|0:0,0:0:0:0:
254,101,89843,1,0,0:0:0:0:
285,88,90010,2,0,L|298:14,1,75.000002861023,2|0,0:0|0:0,0:0:0:0:
460,168,90343,1,0,0:0:0:0:
429,156,90510,2,0,L|419:61,2,75.000002861023
459,306,91010,5,4,0:0:0:0:
459,306,91093,1,4,0:0:0:0:
459,306,91176,1,4,0:0:0:0:
320,215,91343,1,0,0:0:0:0:
356,361,91510,1,0,0:0:0:0:
212,272,91676,6,0,P|168:263|114:273,1,75.000002861023,8|8,0:0|0:0,0:0:0:0:
10,308,92010,6,0,L|20:183,1,112.500004291535,2|0,0:0|0:0,0:0:0:0:
22,183,92343,2,0,P|67:164|53:117,1,75.000002861023,0|0,0:0|0:0,0:0:0:0:
70,130,92593,2,0,P|118:132|125:84,1,75.000002861023,0|0,0:0|0:0,0:0:0:0:
129,100,92843,22,0,L|120:31,1,50,0|8,0:0|0:0,0:0:0:0:
248,148,93176,2,0,L|239:79,1,50,0|0,0:0|0:0,0:0:0:0:
358,178,93510,2,0,B|366:242|366:242|345:289,1,100,0|0,0:0|0:0,0:0:0:0:
243,282,94010,5,2,0:0:0:0:
363,375,94176,1,2,0:0:0:0:
456,259,94343,1,0,0:0:0:0:
456,259,94676,5,4,0:0:0:0:
452,227,94760,1,4,0:0:0:0:
448,196,94843,1,4,0:0:0:0:
463,170,94926,1,4,0:0:0:0:
480,144,95010,1,12,0:0:0:0:
480,144,96010,6,0,P|386:8|339:142,1,375
335,136,98843,1,0,0:0:0:0:
400,211,99010,6,0,L|396:264,2,50,8|0|0,0:0|0:0|0:0,0:0:0:0:
266,203,99510,1,4,0:0:0:0:
266,203,99676,2,0,P|232:181|201:177,1,50,8|0,0:0|0:0,0:0:0:0:
108,195,100010,6,0,P|45:347|193:275,1,425
130,179,103010,1,8,0:0:0:0:
130,179,103343,5,0,0:0:0:0:
213,119,103510,2,0,L|218:66,2,50,8|0|8,0:0|0:0|0:0,0:0:0:0:
305,203,104010,6,0,P|453:131|390:284,1,425
300,346,107010,5,8,0:0:0:0:
300,346,107093,1,0,0:0:0:0:
300,346,107176,2,0,L|240:336,1,50,4|0,0:0|0:0,0:0:0:0:
139,257,107510,5,4,0:0:0:0:
139,257,107593,1,0,0:0:0:0:
139,257,107676,2,0,L|199:267,1,50,8|0,0:0|0:0,0:0:0:0:
52,195,108010,6,0,L|48:170,3,18.75
115,83,108343,6,0,B|173:100|173:100|223:81,2,89.9999972534181
300,35,109176,6,0,L|302:97,2,59.9999981689454
444,136,110218,6,0,L|390:127,1,49
463,159,110676,6,0,L|399:148,1,59.9999981689454
0,221,112010,5,2,0:0:0:0:
57,134,112510,1,0,0:0:0:0:
124,212,113010,2,0,L|130:289,1,75,2|0,0:0|0:0,0:0:0:0:
329,191,114010,5,0,0:0:0:0:
262,113,114510,1,2,0:0:0:0:
205,199,115010,2,0,L|211:276,1,75,2|0,0:0|0:0,0:0:0:0:
427,368,116010,5,2,0:0:0:0:
492,275,116510,1,0,0:0:0:0:
379,266,117010,2,0,L|298:259,1,75,2|0,0:0|0:0,0:0:0:0:
451,88,118010,5,0,0:0:0:0:
499,190,118510,1,2,0:0:0:0:
386,181,119010,2,0,L|305:174,1,75,2|0,0:0|0:0,0:0:0:0:
81,64,120010,6,0,L|92:150,1,75,2|0,0:0|0:0,0:0:0:0:
206,241,120843,1,8,0:0:0:0:
206,241,121010,2,0,L|189:153,1,75,8|0,0:0|0:0,0:0:0:0:
10,204,121843,5,0,0:0:0:0:
10,204,121926,1,0,0:0:0:0:
10,204,122010,2,0,L|21:290,1,75,0|2,0:0|0:0,0:0:0:0:
135,381,122843,1,8,0:0:0:0:
135,381,123010,2,0,L|118:293,1,75,8|0,0:0|0:0,0:0:0:0:
206,241,123676,5,0,0:0:0:0:
320,245,123843,1,8,0:0:0:0:
435,250,124010,2,0,P|418:248|406:244,1,25,10|0,0:0|0:0,0:0:0:0:
320,245,124510,6,0,L|326:162,2,75
206,241,125843,5,0,0:0:0:0:
206,241,125926,1,0,0:0:0:0:
206,241,126010,1,0,0:0:0:0:
320,245,126510,1,0,0:0:0:0:
435,250,127010,1,2,0:0:0:0:
256,192,128009,12,0,132010,0:0:0:0:
