osu file format v14

[General]
AudioFilename: audio.mp3
AudioLeadIn: 0
PreviewTime: 31172
Countdown: 0
SampleSet: Soft
StackLeniency: 0.3
Mode: 0
LetterboxInBreaks: 0
WidescreenStoryboard: 0

[Editor]
Bookmarks: 32005,64005,80005,86172,96005,128005
DistanceSpacing: 6
BeatDivisor: 16
GridSize: 32
TimelineZoom: 8

[Metadata]
Title:Stutter
TitleUnicode:Stutter
Artist:Shindig
ArtistUnicode:Shindig
Creator:squirrelpascals
Version:Go Home
Source:
Tags:zzz
BeatmapID:1514465
BeatmapSetID:716749

[Difficulty]
HPDrainRate:6
CircleSize:5.5
OverallDifficulty:9
ApproachRate:9
SliderMultiplier:2.1
SliderTickRate:1

[Events]
//Background and Video events
0,0,"home.jpg",0,0
//Break Periods
2,79210,80409
//Storyboard Layer 0 (Background)
//Storyboard Layer 1 (Fail)
//Storyboard Layer 2 (Pass)
//Storyboard Layer 3 (Foreground)
//Storyboard Sound Samples

[TimingPoints]
10,500,4,2,1,25,1,0
10,-500,4,2,1,25,0,0
2843,-500,4,2,1,5,0,0
3009,-133.333333333333,4,2,1,25,0,0
3093,-500,4,2,1,5,0,0
3176,-133.333333333333,4,2,1,25,0,0
3676,-100,4,2,1,25,0,0
4009,-500,4,2,1,25,0,0
6843,-500,4,2,1,5,0,0
7009,-133.333333333333,4,2,1,25,0,0
7093,-133.333333333333,4,2,1,5,0,0
7343,-133.333333333333,4,2,1,25,0,0
7593,-133.333333333333,4,2,1,5,0,0
7676,-133.333333333333,4,2,1,25,0,0
8009,-500,4,2,1,25,0,0
10843,-500,4,2,1,5,0,0
11176,-100,4,2,1,25,0,0
11260,-100,4,2,1,5,0,0
11343,-100,4,2,1,25,0,0
11760,-100,4,2,1,5,0,0
11843,-200,4,2,1,25,0,0
11926,-200,4,2,1,5,0,0
12010,-200,4,2,1,25,0,0
16010,-200,4,2,1,40,0,0
16343,-200,4,2,1,5,0,0
16510,-200,4,2,1,40,0,0
27843,-200,4,2,2,40,0,0
28009,-333.333333333333,4,2,2,40,0,0
28510,-333.333333333333,4,2,2,25,0,0
30343,-333.333333333333,4,2,2,5,0,0
30510,-333.333333333333,4,2,2,25,0,0
30843,-333.333333333333,4,2,2,5,0,0
31010,-333.333333333333,4,2,2,25,0,0
31509,-50,4,2,1,40,0,0
31593,-50,4,2,1,5,0,0
31676,-333.333333333333,4,2,1,40,0,0
31759,-333.333333333333,4,2,1,5,0,0
31843,-100,4,2,3,40,0,0
31926,-100,4,2,3,5,0,0
32009,-83.3333333333333,4,2,4,50,0,0
32510,-83.3333333333333,4,2,3,50,0,0
33343,-200,4,2,3,50,0,0
33510,-200,4,2,3,5,0,0
33676,-200,4,2,3,50,0,0
33843,-200,4,2,3,5,0,0
34009,-333.333333333333,4,2,3,50,0,0
35009,-83.3333333333333,4,2,3,50,0,0
35509,-200,4,2,3,50,0,0
35593,-83.3333333333333,4,2,3,5,0,0
35676,-83.3333333333333,4,2,3,50,0,0
35760,-83.3333333333333,4,2,3,5,0,0
35843,-83.3333333333333,4,2,3,50,0,0
35926,-83.3333333333333,4,2,3,5,0,0
36010,-83.3333333333333,4,2,3,50,0,0
38843,-83.3333333333333,4,2,3,30,0,0
38926,-83.3333333333333,4,2,3,40,0,0
39010,-83.3333333333333,4,2,3,50,0,0
40509,-100,4,2,3,50,0,0
43676,-200,4,2,3,50,0,0
43760,-200,4,2,3,5,0,0
43843,-200,4,2,3,50,0,0
43926,-200,4,2,3,5,0,0
44010,-200,4,2,3,50,0,0
44176,-50,4,2,3,50,0,0
44260,-50,4,2,3,5,0,0
44343,-66.6666666666667,4,2,3,50,0,0
44510,-66.6666666666667,4,2,3,5,0,0
44593,-133.333333333333,4,2,3,50,0,0
44843,-200,4,2,3,50,0,0
45343,-200,4,2,3,5,0,0
45509,-333.333333333333,4,2,3,50,0,0
45926,-333.333333333333,4,2,3,5,0,0
46009,-50,4,2,3,50,0,0
46176,-66.6666666666667,4,2,3,50,0,0
46676,-66.6666666666667,4,2,3,30,0,0
46760,-66.6666666666667,4,2,3,35,0,0
46843,-66.6666666666667,4,2,3,40,0,0
46926,-66.6666666666667,4,2,3,45,0,0
47009,-333.333333333333,4,2,3,50,0,0
49010,-333.333333333333,4,2,4,50,0,0
49343,-200,4,2,3,50,0,0
49510,-200,4,2,3,5,0,0
49676,-200,4,2,3,50,0,0
49843,-200,4,2,3,5,0,0
50009,-333.333333333333,4,2,3,50,0,0
51009,-83.3333333333333,4,2,3,50,0,0
51509,-200,4,2,3,50,0,0
51593,-200,4,2,3,5,0,0
51676,-83.3333333333333,4,2,3,50,0,0
51760,-83.3333333333333,4,2,3,5,0,0
51843,-83.3333333333333,4,2,3,50,0,0
51926,-83.3333333333333,4,2,3,5,0,0
52010,-83.3333333333333,4,2,3,50,0,0
54843,-83.3333333333333,4,2,3,30,0,0
54926,-83.3333333333333,4,2,3,40,0,0
55010,-83.3333333333333,4,2,3,50,0,0
56509,-100,4,2,3,50,0,0
59676,-200,4,2,3,50,0,0
59760,-200,4,2,3,5,0,0
59843,-200,4,2,3,50,0,0
59926,-200,4,2,3,5,0,0
60010,-200,4,2,3,50,0,0
60176,-50,4,2,3,50,0,0
60260,-50,4,2,3,5,0,0
60343,-66.6666666666667,4,2,3,50,0,0
60510,-66.6666666666667,4,2,3,5,0,0
60593,-133.333333333333,4,2,3,50,0,0
60760,-133.333333333333,4,2,3,5,0,0
60843,-200,4,2,3,50,0,0
61343,-200,4,2,3,5,0,0
61509,-333.333333333333,4,2,3,50,0,0
61926,-333.333333333333,4,2,3,5,0,0
62009,-66.6666666666667,4,2,3,50,0,0
62593,-66.6666666666667,4,2,3,5,0,0
62676,-66.6666666666667,4,2,3,30,0,0
62760,-66.6666666666667,4,2,3,35,0,0
62843,-66.6666666666667,4,2,3,40,0,0
62926,-66.6666666666667,4,2,3,45,0,0
63010,-66.6666666666667,4,2,3,50,0,0
63509,-133.333333333333,4,2,3,50,0,0
64009,-200,4,2,4,50,0,0
64509,-200,4,2,3,50,0,0
65343,-200,4,2,3,50,0,0
65510,-200,4,2,3,5,0,0
65676,-200,4,2,3,50,0,0
65843,-200,4,2,3,5,0,0
66009,-333.333333333333,4,2,3,50,0,0
67009,-83.3333333333333,4,2,3,50,0,0
67509,-200,4,2,3,50,0,0
67593,-200,4,2,3,5,0,0
67676,-83.3333333333333,4,2,3,50,0,0
67760,-83.3333333333333,4,2,3,5,0,0
67843,-83.3333333333333,4,2,3,50,0,0
67926,-83.3333333333333,4,2,3,5,0,0
68009,-100,4,2,3,50,0,0
70009,-133.333333333333,4,2,3,50,0,0
70760,-133.333333333333,4,2,3,20,0,0
70843,-133.333333333333,4,2,3,30,0,0
70926,-133.333333333333,4,2,3,40,0,0
71010,-133.333333333333,4,2,3,50,0,0
75676,-200,4,2,3,50,0,0
75760,-200,4,2,3,5,0,0
75843,-200,4,2,3,50,0,0
75926,-200,4,2,3,5,0,0
76009,-66.6666666666667,4,2,3,50,0,0
76260,-66.6666666666667,4,2,3,5,0,0
76343,-66.6666666666667,4,2,3,50,0,0
76510,-66.6666666666667,4,2,3,5,0,0
76593,-66.6666666666667,4,2,3,50,0,0
76760,-66.6666666666667,4,2,3,5,0,0
76843,-200,4,2,3,50,0,0
77343,-200,4,2,3,5,0,0
77509,-333.333333333333,4,2,3,50,0,0
77926,-333.333333333333,4,2,3,5,0,0
78009,-66.6666666666667,4,2,3,50,0,0
78676,-66.6666666666667,4,2,3,30,0,0
78760,-66.6666666666667,4,2,3,35,0,0
78843,-66.6666666666667,4,2,3,40,0,0
78926,-66.6666666666667,4,2,3,45,0,0
79010,-66.6666666666667,4,2,3,50,0,0
81010,-66.6666666666667,4,2,4,50,0,0
81343,-200,4,2,3,50,0,0
81510,-200,4,2,3,5,0,0
81676,-200,4,2,3,50,0,0
81843,-200,4,2,3,5,0,0
82009,-333.333333333333,4,2,3,50,0,0
83009,-83.3333333333333,4,2,3,50,0,0
83509,-200,4,2,3,50,0,0
83593,-200,4,2,3,5,0,0
83676,-83.3333333333333,4,2,3,50,0,0
83760,-83.3333333333333,4,2,3,5,0,0
83843,-83.3333333333333,4,2,3,50,0,0
83926,-83.3333333333333,4,2,3,5,0,0
84010,-83.3333333333333,4,2,3,50,0,0
85009,-100,4,2,3,50,0,0
86009,-133.333333333333,4,2,3,50,0,0
86760,-133.333333333333,4,2,3,20,0,0
86843,-133.333333333333,4,2,3,30,0,0
86926,-133.333333333333,4,2,3,40,0,0
87010,-133.333333333333,4,2,3,50,0,0
91676,-200,4,2,3,50,0,0
91760,-200,4,2,3,5,0,0
91843,-200,4,2,3,50,0,0
91926,-200,4,2,3,5,0,0
92009,-66.6666666666667,4,2,3,50,0,0
92260,-66.6666666666667,4,2,3,5,0,0
92343,-66.6666666666667,4,2,3,50,0,0
92510,-66.6666666666667,4,2,3,5,0,0
92593,-66.6666666666667,4,2,3,50,0,0
92760,-66.6666666666667,4,2,3,5,0,0
92843,-200,4,2,3,50,0,0
93343,-200,4,2,3,5,0,0
93509,-333.333333333333,4,2,3,50,0,0
93926,-333.333333333333,4,2,3,5,0,0
94009,-66.6666666666667,4,2,3,50,0,0
94260,-66.6666666666667,4,2,3,5,0,0
94343,-66.6666666666667,4,2,3,50,0,0
94676,-66.6666666666667,4,2,3,30,0,0
94760,-66.6666666666667,4,2,3,35,0,0
94843,-66.6666666666667,4,2,3,40,0,0
94926,-66.6666666666667,4,2,3,45,0,0
95010,-66.6666666666667,4,2,3,50,0,0
96009,-500,4,2,1,40,0,0
99009,-133.333333333333,4,2,1,40,0,0
99093,-133.333333333333,4,2,1,5,0,0
99176,-133.333333333333,4,2,1,40,0,0
99509,-100,4,2,1,40,0,0
100009,-500,4,2,1,40,0,0
102843,-500,4,2,1,5,0,0
103009,-133.333333333333,4,2,1,40,0,0
103093,-133.333333333333,4,2,1,5,0,0
103343,-133.333333333333,4,2,1,40,0,0
103593,-133.333333333333,4,2,1,5,0,0
103676,-133.333333333333,4,2,1,40,0,0
104009,-500,4,2,1,40,0,0
106843,-500,4,2,1,5,0,0
107010,-500,4,2,1,40,0,0
107176,-100,4,2,1,40,0,0
107260,-100,4,2,1,5,0,0
107343,-100,4,2,1,40,0,0
107760,-100,4,2,1,5,0,0
107843,-200,4,2,1,40,0,0
107926,-200,4,2,1,5,0,0
108010,-200,4,2,1,40,0,0
109176,-133.333333333333,4,2,1,40,0,0
110218,-200,4,2,1,40,0,0
112010,-200,4,2,1,40,0,0
112343,-200,4,2,1,5,0,0
112510,-200,4,2,1,40,0,0
116343,-200,4,2,1,5,0,0
116510,-200,4,2,1,40,0,0
120343,-200,4,2,1,5,0,0
120510,-200,4,2,1,40,0,0
123843,-200,4,2,2,40,0,0
124010,-333.333333333333,4,2,2,40,0,0
124510,-333.333333333333,4,2,2,40,0,0
126343,-333.333333333333,4,2,2,5,0,0
126510,-333.333333333333,4,2,2,40,0,0
126843,-333.333333333333,4,2,2,5,0,0
127010,-333.333333333333,4,2,2,40,0,0
128509,-333.333333333333,4,2,2,35,0,0
129009,-333.333333333333,4,2,2,30,0,0
129509,-333.333333333333,4,2,2,25,0,0
130009,-333.333333333333,4,2,2,20,0,0
130509,-333.333333333333,4,2,2,15,0,0
131010,-333.333333333333,4,2,2,10,0,0
131510,-333.333333333333,4,2,2,5,0,0

[Colours]
Combo1 : 160,214,231
Combo2 : 124,111,179
Combo3 : 84,78,101

[HitObjects]
467,174,10,6,0,B|461:163|461:163|446:224|383:244|304:228|282:172,1,238
298,110,3010,6,0,L|330:103,1,26.2500010013581,8|0,0:0|0:0,0:0:0:0:
221,155,3176,1,0,0:0:0:0:
288,101,3343,5,0,0:0:0:0:
212,51,3510,1,4,0:0:0:0:
288,189,3676,2,0,L|281:280,1,70,8|0,0:0|0:0,0:0:0:0:
70,314,4010,6,0,B|84:323|84:323|140:308|175:242|143:165|81:162,1,238
19,192,7010,6,0,L|16:224,1,26.2500010013581,8|0,0:0|0:0,0:0:0:0:
93,98,7343,1,0,0:0:0:0:
2,205,7510,6,0,L|-1:237,1,26.2500010013581,8|0,0:0|0:0,0:0:0:0:
85,182,7676,1,0,0:0:0:0:
12,76,7843,1,8,0:0:0:0:
208,172,8010,6,0,B|200:182|200:182|255:217|321:187|292:164|357:138|415:169,1,238
470,218,11010,21,4,0:0:0:0:
468,225,11093,1,0,0:0:0:0:
465,233,11176,2,0,L|469:271,1,35,8|0,0:0|0:0,0:0:0:0:
386,243,11343,1,0,0:0:0:0:
476,103,11509,5,8,0:0:0:0:
468,104,11593,1,0,0:0:0:0:
460,106,11676,2,0,P|435:99|415:101,1,35,4|0,0:0|0:0,0:0:0:0:
338,157,11843,6,0,L|344:141,1,17.5
378,29,12010,6,0,L|383:51,3,13.125
252,219,16010,6,0,P|268:167|297:146,1,70,2|0,0:0|0:0,0:0:0:0:
330,238,16509,1,0,0:0:0:0:
336,319,17009,1,2,0:0:0:0:
260,348,17509,1,0,0:0:0:0:
209,288,18010,2,0,P|171:261|106:282,2,105,0|2|2,0:0|0:0|0:0,0:0:0:0:
56,342,19509,1,0,0:0:0:0:
108,35,20010,22,0,B|94:53|94:53|98:100,1,70,2|0,0:0|0:0,0:0:0:0:
177,119,20509,1,0,0:0:0:0:
183,200,21009,1,2,0:0:0:0:
107,230,21509,1,0,0:0:0:0:
56,169,22010,2,0,P|35:195|43:277,2,105,0|2|2,0:0|0:0|0:0,0:0:0:0:
223,241,23509,1,0,0:0:0:0:
372,90,24010,22,0,B|377:39|377:39|347:13,1,70,2|0,0:0|0:0,0:0:0:0:
451,109,24509,1,0,0:0:0:0:
380,255,24843,5,0,0:0:0:0:
380,255,25009,1,10,0:0:0:0:
292,165,25343,1,0,0:0:0:0:
292,165,25510,2,0,L|301:243,1,70
264,318,25926,5,0,0:0:0:0:
264,318,26010,2,0,P|230:287|173:293,2,105,0|2|8,0:0|0:0|0:0,0:0:0:0:
334,126,27509,1,2,0:0:0:0:
265,109,27676,5,0,0:0:0:0:
300,234,27843,1,8,0:0:0:0:
83,98,28010,6,0,P|90:111|92:121,1,20.9999993591309,10|0,0:0|0:0,0:0:0:0:
91,133,28509,5,0,0:0:0:0:
203,125,29009,1,0,0:0:0:0:
288,160,29509,1,0,0:0:0:0:
363,107,29843,1,0,0:0:0:0:
361,116,29926,1,0,0:0:0:0:
360,126,30010,22,0,P|369:144|371:165,1,41.9999987182618
455,75,30510,2,0,P|461:55|474:38,1,41.9999987182618
347,3,31009,21,0,0:0:0:0:
134,216,31510,22,0,L|142:306,1,70,8|0,0:0|0:0,0:0:0:0:
53,140,31676,6,0,L|35:137,1,10.4999996795654
181,93,31843,22,0,L|225:84,1,35,8|0,0:0|0:0,0:0:0:0:
84,19,32009,22,0,P|40:51|52:177,1,167.999994873047,6|0,0:0|0:0,0:0:0:0:
198,237,32510,2,0,P|185:169|134:215,1,167.999994873047
190,343,33010,5,4,0:0:0:0:
66,296,33176,1,0,0:0:0:0:
216,257,33343,6,0,B|200:249|200:249|182:254,1,35
34,293,33676,2,0,B|51:289|51:289|66:296,1,35
190,343,34010,2,0,B|176:350|176:350|160:347|160:347|143:355|143:355|123:351,1,62.9999980773926,2|0,0:0|0:0,0:0:0:0:
374,57,34843,5,2,0:0:0:0:
358,155,35010,2,0,P|342:224|413:215,1,167.999994873047,4|0,0:0|0:0,0:0:0:0:
453,118,35510,22,0,L|457:87,1,17.5
234,199,35676,22,0,L|228:139,1,41.9999987182618,8|0,0:0|0:0,0:0:0:0:
432,265,35843,2,0,L|439:202,1,41.9999987182618,8|0,0:0|0:0,0:0:0:0:
308,364,36010,22,0,P|256:336|157:372,1,167.999994873047,2|0,0:0|0:0,0:0:0:0:
89,199,36509,1,0,0:0:0:0:
70,325,36676,1,0,0:0:0:0:
145,266,36843,1,0,0:0:0:0:
70,56,37010,22,0,P|37:120|72:221,1,167.999994873047,8|0,0:0|0:0,0:0:0:0:
312,188,37510,2,0,P|248:155|147:190,1,167.999994873047
272,325,38010,2,0,P|345:288|423:312,1,167.999994873047,2|0,2:0|0:0,0:0:0:0:
500,104,38510,2,0,P|436:71|335:106,1,167.999994873047,0|4,0:0|0:0,0:0:0:0:
355,159,38926,1,4,0:0:0:0:
362,223,39009,5,4,0:0:0:0:
125,149,39176,1,4,0:0:0:0:
267,128,39343,1,4,0:0:0:0:
124,261,39509,1,4,0:0:0:0:
191,47,39676,1,4,0:0:0:0:
43,2,39843,1,4,0:0:0:0:
17,165,40010,6,0,B|32:222|32:222|28:263,1,83.9999974365235,2|0,0:0|0:0,0:0:0:0:
30,247,40510,6,0,B|77:272|124:226|124:226|112:243|112:271,1,140
122,364,41009,1,4,0:0:0:0:
272,272,41343,5,0,0:0:0:0:
224,346,41510,2,0,P|270:303|348:330,1,140
473,202,42010,2,0,P|412:183|353:240,1,140,2|0,0:0|0:0,0:0:0:0:
200,71,42510,2,0,P|262:74|298:148,1,140
116,322,43009,5,4,0:0:0:0:
76,315,43093,1,4,0:0:0:0:
36,309,43176,1,4,0:0:0:0:
260,223,43343,1,0,0:0:0:0:
76,131,43509,1,0,0:0:0:0:
195,285,43676,6,0,L|194:306,1,17.5,8|0,0:0|0:0,0:0:0:0:
53,141,43843,2,0,L|50:165,1,17.5,8|0,0:0|0:0,0:0:0:0:
176,37,44009,5,2,0:0:0:0:
76,131,44176,2,0,L|173:136,1,70
236,210,44343,2,0,B|307:214|307:214|295:236|267:233,1,105.000004005432
88,276,44593,6,0,L|37:282,1,52.5000020027161
154,332,44843,6,0,B|169:334|169:334|182:349,1,35,0|8,0:0|0:0,0:0:0:0:
281,359,45176,2,0,B|266:366|266:366|261:392,1,35
209,271,45510,2,0,B|220:255|220:255|225:214,1,52.4999983978272,0|0,2:0|0:0,0:0:0:0:
398,45,46010,6,0,L|480:33,1,70,2|0,0:0|0:0,0:0:0:0:
342,120,46176,2,0,B|411:130|411:130|380:287,1,210.000008010865,2|0,0:0|0:0,0:0:0:0:
188,35,46676,5,4,0:0:0:0:
189,52,46759,1,4,0:0:0:0:
191,81,46843,1,4,0:0:0:0:
195,135,46926,1,4,0:0:0:0:
200,202,47010,6,0,B|176:199|176:199|178:206|178:206|152:203|152:203|155:208|155:208|127:205,1,89.2499972763062,12|0,0:0|0:0,0:0:0:0:
97,76,49009,21,12,0:0:0:0:
207,134,49176,1,0,0:0:0:0:
234,44,49343,6,0,B|219:36|219:36|197:41,1,35
64,75,49676,2,0,B|79:81|79:81|101:74,1,35
207,134,50010,2,0,B|195:128|195:128|180:135|180:135|164:131|164:131|148:138,1,62.9999980773926,2|0,0:0|0:0,0:0:0:0:
369,265,50843,5,2,0:0:0:0:
363,180,51010,2,0,P|314:197|298:313,1,167.999994873047,4|0,0:0|0:0,0:0:0:0:
442,283,51510,22,0,L|464:287,1,17.5
347,114,51676,22,0,L|334:67,1,41.9999987182618,8|0,0:0|0:0,0:0:0:0:
298,310,51843,2,0,L|288:369,1,41.9999987182618,8|0,0:0|0:0,0:0:0:0:
189,163,52010,22,0,P|115:156|44:240,1,167.999994873047,2|0,0:0|0:0,0:0:0:0:
150,343,52509,1,0,0:0:0:0:
76,379,52676,1,0,0:0:0:0:
146,259,52843,1,0,0:0:0:0:
389,362,53010,22,0,B|298:342|317:396|220:375,1,167.999994873047,8|0,0:0|0:0,0:0:0:0:
286,281,53510,2,0,B|369:240|364:296|453:253,1,167.999994873047,0|0,0:0|0:0,0:0:0:0:
350,164,54010,22,0,B|323:75|378:89|349:-6,1,167.999994873047,2|0,0:0|0:0,0:0:0:0:
246,54,54510,2,0,B|213:140|268:130|235:218,1,167.999994873047,0|4,0:0|0:0,0:0:0:0:
186,258,54926,1,4,0:0:0:0:
135,295,55009,21,4,0:0:0:0:
61,70,55176,1,4,0:0:0:0:
171,193,55343,1,4,0:0:0:0:
1,170,55509,1,4,0:0:0:0:
201,107,55676,1,4,0:0:0:0:
8,303,55843,1,4,0:0:0:0:
247,282,56010,6,0,P|281:258|326:272,1,83.9999974365235,2|0,0:0|0:0,0:0:0:0:
320,266,56510,6,0,B|333:255|336:236|336:236|359:257|367:294|342:343,1,140
194,351,57009,1,4,0:0:0:0:
120,117,57343,5,0,0:0:0:0:
50,198,57510,2,0,B|36:156|36:156|50:54,1,140
204,278,58010,2,0,B|218:237|218:237|204:141,1,140,2|0,0:0|0:0,0:0:0:0:
344,167,58510,2,0,B|330:125|330:125|344:23,1,140
468,139,59009,5,4,0:0:0:0:
471,179,59093,1,4,0:0:0:0:
473,219,59176,1,4,0:0:0:0:
308,322,59343,1,0,0:0:0:0:
484,351,59509,1,0,0:0:0:0:
295,204,59676,6,0,L|299:237,1,17.5,8|0,0:0|0:0,0:0:0:0:
160,352,59843,2,0,L|164:385,1,17.5,8|0,0:0|0:0,0:0:0:0:
388,291,60009,5,2,0:0:0:0:
286,134,60176,2,0,L|295:211,1,70
388,291,60343,2,0,B|386:362|386:362|364:350|366:322,1,105.000004005432
268,286,60593,6,0,L|205:303,1,52.5000020027161
115,271,60843,6,0,B|97:267|97:267|79:276,1,35,0|8,0:0|0:0,0:0:0:0:
0,343,61176,2,0,B|18:339|18:339|32:346,1,35
179,368,61510,2,0,B|146:353|146:353|128:362,1,52.4999983978272
0,223,62010,6,0,P|25:213|65:220,1,52.5000020027161,2|0,0:0|0:0,0:0:0:0:
145,152,62176,2,0,B|203:192|286:160|261:129|328:99|410:151,1,262.500010013581,2|0,0:0|0:0,0:0:0:0:
465,180,62676,1,4,0:0:0:0:
475,197,62759,1,4,0:0:0:0:
478,229,62843,1,4,0:0:0:0:
461,277,62925,1,4,0:0:0:0:
386,325,63009,5,12,0:0:0:0:
316,268,63176,1,0,0:0:0:0:
241,337,63343,1,0,0:0:0:0:
184,258,63510,2,0,L|189:211,1,26.2500010013581
92,312,63843,21,0,0:0:0:0:
27,115,64009,2,0,P|50:89|125:108,1,105.000004005432,6|0,0:0|0:0,0:0:0:0:
114,95,64843,5,0,0:0:0:0:
284,123,65009,1,4,0:0:0:0:
184,106,65176,1,0,0:0:0:0:
257,16,65343,6,0,B|264:35|264:35|261:51,1,35
222,202,65676,2,0,B|215:183|215:183|217:167,1,35
342,119,66010,2,0,B|330:113|330:113|315:120|315:120|299:116|299:116|283:123,1,62.9999980773926,2|0,0:0|0:0,0:0:0:0:
406,218,66843,5,2,0:0:0:0:
402,34,67010,2,0,P|356:25|343:120,1,167.999994873047,4|0,0:0|0:0,0:0:0:0:
467,134,67510,22,0,L|490:127,1,17.5
335,304,67676,22,0,L|293:300,1,41.9999987182618,8|0,0:0|0:0,0:0:0:0:
230,126,67843,2,0,L|272:130,1,41.9999987182618,8|0,0:0|0:0,0:0:0:0:
478,216,68010,6,0,B|509:259|486:319|486:319|466:310|429:314,1,140,2|0,0:0|0:0,0:0:0:0:
364,308,68509,1,0,0:0:0:0:
319,303,68676,1,0,0:0:0:0:
293,300,68843,1,0,0:0:0:0:
102,323,69009,5,12,0:0:0:0:
228,200,69343,21,0,0:0:0:0:
237,264,69509,1,0,0:0:0:0:
126,120,69843,21,0,0:0:0:0:
97,184,70010,2,0,L|105:250,1,52.5000020027161,2|2,0:0|0:0,0:0:0:0:
185,17,70343,5,0,0:0:0:0:
203,85,70510,2,0,P|233:91|276:51,1,78.7500030040742
305,30,70843,1,4,0:0:0:0:
303,59,70926,1,4,0:0:0:0:
302,130,71009,5,4,0:0:0:0:
429,65,71176,1,4,0:0:0:0:
358,273,71343,1,4,0:0:0:0:
188,180,71510,1,4,0:0:0:0:
230,350,71676,1,4,0:0:0:0:
302,130,71843,1,4,0:0:0:0:
97,202,72010,6,0,B|42:275|134:269|80:351,1,157.500006008148,2|0,0:0|0:0,0:0:0:0:
82,348,72843,1,0,0:0:0:0:
38,126,73009,5,4,0:0:0:0:
203,173,73343,5,0,0:0:0:0:
143,204,73509,1,0,0:0:0:0:
323,87,73843,5,0,0:0:0:0:
258,60,74009,1,2,0:0:0:0:
428,156,74343,5,0,0:0:0:0:
372,196,74509,1,0,0:0:0:0:
429,168,74676,5,0,0:0:0:0:
370,182,74843,1,0,0:0:0:0:
481,248,75009,5,4,0:0:0:0:
480,280,75093,1,4,0:0:0:0:
479,309,75176,1,4,0:0:0:0:
243,348,75343,1,0,0:0:0:0:
359,266,75509,1,0,0:0:0:0:
94,354,75676,6,0,L|117:362,1,17.5,8|0,0:0|0:0,0:0:0:0:
206,189,75843,2,0,L|186:192,1,17.5,8|0,0:0|0:0,0:0:0:0:
243,348,76010,6,0,B|261:361|267:378|267:378|293:344|284:291|241:271,1,157.500006008148,2|0,0:0|0:0,0:0:0:0:
195,91,76343,2,0,B|183:169|183:169|204:159|210:141,1,105.000004005432
348,158,76593,2,0,B|353:236|353:236|333:224|328:206,1,105.000004005432
442,307,76843,22,0,B|459:298|459:298|478:298,1,35,0|8,0:0|0:0,0:0:0:0:
394,383,77176,2,0,B|378:384|378:384|360:376,1,35
478,233,77510,2,0,B|488:272|488:272|482:286,1,52.4999983978272
334,153,78010,6,0,P|331:116|346:90,1,52.5000020027161,2|0,0:0|0:0,0:0:0:0:
214,23,78176,2,0,B|275:132|160:125|222:239,1,210.000008010865,2|0,0:0|0:0,0:0:0:0:
428,353,78676,5,4,0:0:0:0:
418,344,78759,1,4,0:0:0:0:
389,331,78843,1,4,0:0:0:0:
322,319,78926,1,4,0:0:0:0:
233,352,79010,5,12,0:0:0:0:
267,32,81009,21,12,0:0:0:0:
250,165,81176,1,0,0:0:0:0:
364,56,81343,6,0,B|348:53|348:53|330:60,1,35
192,96,81676,2,0,B|208:93|208:93|226:100,1,35
328,144,82010,2,0,B|335:159|335:159|332:175|332:175|339:190|339:190|334:202,1,62.9999980773926,2|0,0:0|0:0,0:0:0:0:
324,277,82843,5,2,0:0:0:0:
490,288,83010,2,0,P|467:281|424:316,1,83.9999974365235,4|0,0:0|0:0,0:0:0:0:
283,371,83343,1,0,0:0:0:0:
349,186,83510,22,0,L|347:168,1,17.5
271,378,83676,22,0,L|229:383,1,41.9999987182618,8|0,0:0|0:0,0:0:0:0:
433,326,83843,2,0,L|474:331,1,41.9999987182618,8|0,0:0|0:0,0:0:0:0:
235,157,84010,22,0,B|223:150|211:132|211:132|235:228|184:269,1,167.999994873047,2|0,0:0|0:0,0:0:0:0:
85,253,84510,1,0,0:0:0:0:
38,320,84676,1,0,0:0:0:0:
47,347,84843,1,0,0:0:0:0:
274,350,85009,5,12,0:0:0:0:
206,247,85343,5,0,0:0:0:0:
292,262,85509,1,0,0:0:0:0:
72,137,85843,5,0,0:0:0:0:
169,118,86010,2,0,L|172:175,1,52.5000020027161,2|2,0:0|0:0,0:0:0:0:
0,25,86343,5,0,0:0:0:0:
92,37,86510,2,0,P|111:60|96:117,1,78.7500030040742
72,137,86843,1,4,0:0:0:0:
99,130,86926,1,4,0:0:0:0:
169,118,87009,5,4,0:0:0:0:
224,218,87176,1,4,0:0:0:0:
377,22,87343,1,4,0:0:0:0:
328,237,87509,1,4,0:0:0:0:
252,65,87676,1,4,0:0:0:0:
444,150,87843,1,4,0:0:0:0:
414,319,88010,6,0,B|394:326|394:326|338:292|325:369|263:319,1,157.500006008148,2|0,0:0|0:0,0:0:0:0:
266,321,88843,1,0,0:0:0:0:
40,347,89009,5,4,0:0:0:0:
165,231,89343,5,0,0:0:0:0:
154,304,89509,1,0,0:0:0:0:
276,161,89843,5,0,0:0:0:0:
287,234,90009,1,2,0:0:0:0:
404,87,90343,5,0,0:0:0:0:
393,160,90509,1,0,0:0:0:0:
395,95,90676,21,0,0:0:0:0:
401,151,90842,1,0,0:0:0:0:
440,244,91010,21,4,0:0:0:0:
475,248,91093,1,4,0:0:0:0:
510,252,91176,1,4,0:0:0:0:
267,337,91343,1,0,0:0:0:0:
373,152,91509,1,0,0:0:0:0:
461,341,91676,6,0,L|458:369,1,17.5,8|0,0:0|0:0,0:0:0:0:
279,206,91843,2,0,L|276:234,1,17.5,8|0,0:0|0:0,0:0:0:0:
171,361,92010,6,0,B|190:343|221:332|253:342|277:371|277:371|283:346|254:326,1,157.500006008148,2|0,0:0|0:0,0:0:0:0:
65,237,92343,2,0,B|142:246|142:246|133:229|114:231,1,105.000004005432
144,115,92593,2,0,B|219:96|219:96|204:83|188:91,1,105.000004005432
49,35,92843,6,0,B|67:41|67:41|89:34,1,35,0|4,0:0|0:0,0:0:0:0:
160,87,93176,2,0,B|175:82|175:82|193:88,1,35
271,45,93510,2,0,B|285:49|285:49|323:34,1,52.4999983978272
459,95,94010,6,0,P|468:123|465:151,1,52.5000020027161,2|0,0:0|0:0,0:0:0:0:
276,232,94176,2,0,P|304:223|332:226,1,52.5000020027161,2|0,0:0|0:0,0:0:0:0:
474,348,94343,1,0,0:0:0:0:
474,348,94676,5,4,0:0:0:0:
458,331,94759,1,4,0:0:0:0:
414,312,94843,1,4,0:0:0:0:
334,313,94926,1,4,0:0:0:0:
247,357,95009,5,12,0:0:0:0:
247,357,96010,22,0,B|239:361|239:361|203:322|227:257|275:285|294:221|249:183,1,210
238,191,98843,1,0,0:0:0:0:
140,221,99010,6,0,L|106:217,1,26.2500010013581,8|0,0:0|0:0,0:0:0:0:
206,269,99176,1,0,0:0:0:0:
170,131,99343,1,0,0:0:0:0:
125,240,99510,5,4,0:0:0:0:
250,184,99676,2,0,L|327:179,1,70,8|0,0:0|0:0,0:0:0:0:
473,68,100010,6,0,B|463:74|463:74|443:15|379:-8|310:10|283:64,1,238
337,144,103010,6,0,L|333:186,1,26.2500010013581,8|0,0:0|0:0,0:0:0:0:
225,193,103343,1,0,0:0:0:0:
350,135,103510,6,0,L|346:177,1,26.2500010013581,8|0,0:0|0:0,0:0:0:0:
285,235,103676,1,0,0:0:0:0:
223,97,103843,1,8,0:0:0:0:
150,269,104010,6,0,B|138:272|138:272|161:217|145:166|114:137|70:137|36:169|34:195,1,238
45,288,107010,21,4,0:0:0:0:
47,294,107093,1,0,0:0:0:0:
49,300,107176,2,0,L|43:340,1,35,8|0,0:0|0:0,0:0:0:0:
177,335,107343,1,0,0:0:0:0:
116,234,107509,5,8,0:0:0:0:
122,233,107593,1,0,0:0:0:0:
128,232,107676,2,0,P|152:235|168:234,1,35,4|0,0:0|0:0,0:0:0:0:
268,208,107843,6,0,L|263:232,1,17.5
212,94,108009,6,0,L|214:119,3,13.125
289,62,108343,1,0,0:0:0:0:
368,100,108593,1,0,0:0:0:0:
422,194,108843,22,0,B|421:218|421:218|439:208,1,35
484,100,109176,22,0,L|492:163,2,52.5000020027161
18,67,110218,22,0,L|22:39,1,28.5
92,59,110676,22,0,L|105:17,1,35
330,242,112009,22,0,P|328:213|307:176,1,70,2|0,0:0|0:0,0:0:0:0:
403,219,112509,1,0,0:0:0:0:
447,282,113009,1,2,0:0:0:0:
402,343,113509,1,0,0:0:0:0:
328,317,114009,2,0,P|279:298|223:308,2,105,0|2|2,0:0|0:0|0:0,0:0:0:0:
65,367,115509,1,0,0:0:0:0:
277,71,116010,22,0,P|275:42|297:4,1,70,2|0,0:0|0:0,0:0:0:0:
352,81,116510,1,0,0:0:0:0:
366,156,117010,1,2,0:0:0:0:
299,192,117510,1,0,0:0:0:0:
243,138,118010,2,0,P|195:152|139:141,2,105,0|2|2,0:0|0:0|0:0,0:0:0:0:
410,43,119510,1,0,0:0:0:0:
62,96,120010,6,0,B|55:45|55:45|39:66,1,70,2|0,0:0|0:0,0:0:0:0:
148,123,120510,1,0,0:0:0:0:
85,277,120843,5,0,0:0:0:0:
85,277,121009,1,10,0:0:0:0:
191,325,121343,1,0,0:0:0:0:
191,325,121510,2,0,L|196:240,1,70
281,231,121926,5,0,0:0:0:0:
281,231,122010,2,0,P|308:196|370:200,2,105,0|2|8,0:0|0:0|0:0,0:0:0:0:
441,309,123510,6,0,L|444:269,1,35,2|0,0:0|0:0,0:0:0:0:
236,384,123843,1,8,0:0:0:0:
78,341,124010,6,0,P|79:324|77:315,1,20.9999993591309,10|0,0:0|0:0,0:0:0:0:
24,265,124510,5,0,0:0:0:0:
17,172,125010,1,0,0:0:0:0:
77,111,125510,1,0,0:0:0:0:
44,36,125843,1,0,0:0:0:0:
54,33,125926,1,0,0:0:0:0:
66,29,126010,6,0,P|81:37|111:36,1,41.9999987182618
176,101,126510,2,0,P|188:89|217:82,1,41.9999987182618
293,30,127010,21,2,0:0:0:0:
256,192,128009,12,0,132009,0:0:0:0:
