osu file format v14

[General]
AudioFilename: audio.mp3
AudioLeadIn: 0
PreviewTime: 55908
Countdown: 0
SampleSet: Soft
StackLeniency: 0.5
Mode: 0
LetterboxInBreaks: 0
WidescreenStoryboard: 0

[Editor]
Bookmarks: 25124,37673,43947,56496,81594,97673,106692,131790,135516,156888,161636,171028
DistanceSpacing: 1.9
BeatDivisor: 8
GridSize: 32
TimelineZoom: 3.400005

[Metadata]
Title:Rabbit Onesie
TitleUnicode:Rabbit Onesie
Artist:Shindig
ArtistUnicode:Shindig
Creator:squirrelpascals
Version:squirrelPiggles' Insane
Source:
Tags:Stingy Piggles354
BeatmapID:1599980
BeatmapSetID:760827

[Difficulty]
HPDrainRate:6
CircleSize:5
OverallDifficulty:9
ApproachRate:8
SliderMultiplier:1.4
SliderTickRate:1

[Events]
//Background and Video events
0,0,"rabbitforest.jpg",0,0
//Break Periods
2,50422,55354
2,129441,131040
//Storyboard Layer 0 (Background)
//Storyboard Layer 1 (Fail)
//Storyboard Layer 2 (Pass)
//Storyboard Layer 3 (Foreground)
//Storyboard Sound Samples

[TimingPoints]
26,392.156862745098,4,2,2,35,1,0
25124,-133.333333333333,4,2,2,35,0,0
36104,-200,4,2,2,35,0,0
37673,-133.333333333333,4,2,2,35,0,0
40418,-200,4,2,2,35,0,0
41202,-133.333333333333,4,2,2,35,0,0
46692,-200,4,2,2,35,0,0
47476,-133.333333333333,4,2,2,35,0,0
56104,-133.333333333333,4,2,1,35,0,0
56496,-100,4,2,1,50,0,0
63457,-100,4,2,1,5,0,0
63555,-100,4,2,1,50,0,0
68261,-76.9230769230769,4,2,1,50,0,0
68849,-66.6666666666667,4,2,1,5,0,0
69045,-100,4,2,1,50,0,0
80418,-66.6666666666667,4,2,1,30,0,0
80712,-66.6666666666667,4,2,1,5,0,0
80810,-66.6666666666667,4,2,1,50,0,0
81496,-66.6666666666667,4,2,1,5,0,0
81594,-100,4,2,1,50,0,1
93359,-66.6666666666667,4,2,1,50,0,0
93947,-66.6666666666667,4,2,1,5,0,0
94143,-100,4,2,1,50,0,1
105320,-200,4,2,1,50,0,1
105369,-200,4,2,1,5,0,1
105516,-200,4,2,1,35,0,1
105565,-200,4,2,1,5,0,1
105908,-200,4,2,1,50,0,1
106300,-75.0187546886722,4,2,1,50,0,1
106594,-75.0187546886722,4,2,1,5,0,1
106692,-100,4,2,2,35,0,0
106790,-100,4,2,2,15,0,0
106888,-100,4,2,2,20,0,0
106986,-100,4,2,2,25,0,0
107084,-100,4,2,2,35,0,0
107476,-200,4,2,2,35,0,0
122771,-200,4,2,2,5,0,0
122869,-200,4,2,2,35,0,0
123555,-200,4,2,2,5,0,0
123653,-200,4,2,2,35,0,0
124339,-200,4,2,2,5,0,0
124437,-200,4,2,2,35,0,0
125124,-200,4,2,2,5,0,0
125222,-200,4,2,2,35,0,0
131790,-100,4,2,3,35,0,0
138065,-100,4,2,2,35,0,0
138261,-133.333333333333,4,2,2,35,0,0
144339,-133.333333333333,4,2,3,35,0,0
144731,-100,4,2,3,35,0,0
151006,-100,4,2,2,35,0,0
153751,-100,4,2,2,35,0,0
156888,-181.818181818182,4,2,2,35,0,0
159241,-100,4,2,2,5,0,0
159297,521.739130434783,4,2,0,15,1,0
160759,521.739130434783,4,2,0,15,1,0

[Colours]
Combo1 : 180,122,199
Combo2 : 225,190,155
Combo3 : 87,208,190
Combo4 : 139,218,149

[HitObjects]
256,192,18849,12,0,22967,0:0:0:0:
26,285,25124,6,0,P|48:329|106:337,1,105.000004005432,4|0,0:0|0:0,0:0:0:0:
156,303,25712,1,0,0:0:0:0:
168,236,25908,2,0,P|164:186|211:149,1,105.000004005432,2|0,0:0|0:0,0:0:0:0:
269,168,26496,2,0,P|296:188|328:187,1,52.5000020027161,2|0,0:0|0:0,0:0:0:0:
452,56,27084,5,0,0:0:0:0:
383,59,27280,1,0,0:0:0:0:
314,62,27476,2,0,P|241:55|210:28,1,105.000004005432,2|0,0:0|0:0,0:0:0:0:
159,1,28065,2,0,P|147:30|150:64,1,52.5000020027161,2|0,0:0|0:0,0:0:0:0:
101,215,28653,5,0,0:0:0:0:
55,164,28849,1,0,0:0:0:0:
31,228,29045,2,0,L|25:289,1,52.5000020027161,2|0,0:0|0:0,0:0:0:0:
89,304,29437,2,0,L|95:365,1,52.5000020027161,0|0,0:0|0:0,0:0:0:0:
161,343,29829,2,0,P|213:363|385:353,1,210.000008010865,2|2,0:0|0:0,0:0:0:0:
436,168,31202,1,2,0:0:0:0:
482,217,31398,6,0,P|471:179|494:100,1,105.000004005432,4|0,0:0|0:0,0:0:0:0:
446,58,31986,1,0,0:0:0:0:
400,9,32182,2,0,P|411:47|388:126,1,105.000004005432,2|0,0:0|0:0,0:0:0:0:
342,149,32771,2,0,L|271:144,1,52.5000020027161,2|0,0:0|0:0,0:0:0:0:
69,86,33359,5,0,0:0:0:0:
135,68,33555,1,0,0:0:0:0:
183,116,33751,2,0,P|198:152|188:218,1,105.000004005432,2|0,0:0|0:0,0:0:0:0:
144,267,34339,2,0,P|134:302|139:337,1,52.5000020027161,2|0,0:0|0:0,0:0:0:0:
299,366,34927,5,0,0:0:0:0:
365,348,35124,1,0,0:0:0:0:
316,299,35320,2,0,L|253:292,1,52.5000020027161,2|0,0:0|0:0,0:0:0:0:
405,231,35712,2,0,L|468:224,1,52.5000020027161,2|0,0:0|0:0,0:0:0:0:
319,117,36104,6,0,L|325:164,2,35,2|0|0,0:0|0:0|0:0,0:0:0:0:
423,49,36692,2,0,P|407:53|392:61,1,35,2|0,0:0|0:0,0:0:0:0:
392,62,37280,1,0,0:0:0:0:
225,82,37673,6,0,B|200:93|200:93|166:91,1,52.5000020027161,4|0,0:0|0:0,0:0:0:0:
150,28,38065,5,0,0:0:0:0:
101,76,38261,1,0,0:0:0:0:
159,168,38457,2,0,P|134:159|117:140,2,52.5000020027161,2|0|0,0:0|0:0|0:0,0:0:0:0:
236,164,39045,5,2,0:0:0:0:
197,238,39241,2,0,P|172:246|155:265,1,52.5000020027161,0|0,0:0|0:0,0:0:0:0:
74,307,39633,5,0,0:0:0:0:
122,355,39830,1,0,0:0:0:0:
185,338,40026,1,2,0:0:0:0:
185,338,40418,6,0,L|189:373,2,35,0|2|0,0:0|0:0|0:0,0:0:0:0:
307,222,41202,1,0,0:0:0:0:
378,220,41398,1,0,0:0:0:0:
415,282,41594,6,0,P|400:308|379:323,1,52.5000020027161,2|0,0:0|0:0,0:0:0:0:
466,171,41986,2,0,P|450:196|448:222,1,52.5000020027161,0|0,0:0|0:0,0:0:0:0:
396,150,42378,6,0,P|391:124|378:102,2,52.5000020027161,2|0|0,0:0|0:0|0:0,0:0:0:0:
430,56,43163,6,0,P|409:39|336:51,1,105.000004005432,2|0,0:0|0:0,0:0:0:0:
243,162,43751,1,2,0:0:0:0:
191,216,43947,6,0,B|214:201|214:201|237:178,1,52.5000020027161,4|0,0:0|0:0,0:0:0:0:
284,95,44339,5,0,0:0:0:0:
351,82,44535,1,0,0:0:0:0:
390,182,44731,6,0,P|397:156|392:131,2,52.5000020027161,2|0|0,0:0|0:0|0:0,0:0:0:0:
434,238,45320,5,2,0:0:0:0:
362,248,45516,2,0,P|346:269|340:300,1,52.5000020027161
390,342,45908,5,0,0:0:0:0:
323,359,46105,1,0,0:0:0:0:
275,308,46301,1,2,0:0:0:0:
275,308,46692,6,0,L|254:336,2,35,0|2|0,0:0|0:0|0:0,0:0:0:0:
213,244,47476,6,0,P|197:219|195:193,1,52.5000020027161,0|0,0:0|0:0,0:0:0:0:
262,172,47869,2,0,P|247:146|226:131,1,52.5000020027161,2|0,0:0|0:0,0:0:0:0:
165,116,48261,5,2,0:0:0:0:
211,70,48457,1,0,0:0:0:0:
275,86,48653,1,0,0:0:0:0:
294,182,50222,5,0,0:0:0:0:
222,129,56104,5,0,0:0:0:0:
91,54,56496,6,0,P|48:123|70:208,2,140,2|8|4,0:0|0:0|0:0,0:0:0:0:
222,129,57476,1,2,0:0:0:0:
273,194,57673,1,8,0:0:0:0:
190,206,57869,1,0,0:0:0:0:
374,132,58065,6,0,P|397:209|354:286,2,140,2|8|4,0:0|0:0|0:0,0:0:0:0:
236,146,59045,1,0,0:0:0:0:
173,225,59242,1,8,0:0:0:0:
274,239,59438,1,0,0:0:0:0:
72,206,59633,6,0,P|69:286|131:349,2,140,2|8|4,0:0|0:0|0:0,0:0:0:0:
231,48,60614,1,2,0:0:0:0:
239,148,60810,1,8,0:0:0:0:
247,248,61006,1,0,0:0:0:0:
327,311,61202,5,2,0:0:0:0:
342,315,61594,1,8,0:0:0:0:
357,319,61986,5,4,0:0:0:0:
308,213,62182,1,0,0:0:0:0:
431,238,62378,1,8,0:0:0:0:
382,132,62574,1,4,0:0:0:0:
469,50,62771,6,0,P|415:19|327:29,2,140,2|8|4,0:0|0:0|0:0,0:0:0:0:
376,198,63751,1,2,0:0:0:0:
278,133,63947,1,8,0:0:0:0:
405,113,64143,1,0,0:0:0:0:
249,218,64339,5,2,0:0:0:0:
245,222,64731,2,0,L|235:315,2,70,8|2|4,0:0|0:0|0:0,0:0:0:0:
405,113,65320,1,0,0:0:0:0:
278,133,65516,1,8,0:0:0:0:
376,198,65712,1,0,0:0:0:0:
252,50,65908,6,0,P|202:47|163:71,1,70,2|0,0:0|0:0,0:0:0:0:
124,135,66300,2,0,P|79:157|57:197,1,70,8|0,0:0|0:0,0:0:0:0:
12,312,66692,5,4,0:0:0:0:
174,332,66888,2,0,P|165:298|143:271,1,70,2|8,0:0|0:0,0:0:0:0:
67,172,67280,1,0,0:0:0:0:
237,221,67476,2,0,P|245:187|267:160,1,70,2|0,0:0|0:0,0:0:0:0:
412,152,67869,5,0,0:0:0:0:
428,161,68261,2,0,B|451:184|428:207|428:207|404:230|428:253|428:253|451:276|428:299|428:299|413:314|419:344|443:342|458:326|458:326|480:304|500:313|497:338,1,272.999987503052,4|0,0:0|0:0,0:0:0:0:
304,353,69045,6,0,P|235:346|162:370,2,140,2|8|4,0:0|0:0|0:0,0:0:0:0:
272,187,70025,1,2,0:0:0:0:
178,173,70222,1,8,0:0:0:0:
213,262,70418,1,0,0:0:0:0:
291,58,70614,6,0,P|222:64|167:46,2,93.3333333333333,2|8|0,0:0|0:0|0:0,0:0:0:0:
291,58,71398,1,4,0:0:0:0:
289,238,71594,5,2,0:0:0:0:
172,254,71791,1,8,0:0:0:0:
215,144,71987,1,0,0:0:0:0:
244,331,72182,5,2,0:0:0:0:
248,335,72575,1,8,0:0:0:0:
147,358,72771,2,0,P|143:318|158:279,1,70,0|4,0:0|0:0,0:0:0:0:
88,207,73163,2,0,L|102:117,2,70,2|8|0,0:0|0:0|0:0,0:0:0:0:
231,64,73751,5,2,0:0:0:0:
197,152,73947,2,0,L|211:242,2,70,0|8|2,0:0|0:0|0:0,0:0:0:0:
340,322,74535,5,4,0:0:0:0:
307,234,74731,2,0,L|321:144,2,70,0|8|0,0:0|0:0|0:0,0:0:0:0:
463,68,75320,6,0,P|492:117|493:212,2,140,2|8|4,0:0|0:0|0:0,0:0:0:0:
429,280,76300,1,2,0:0:0:0:
363,229,76496,1,8,0:0:0:0:
278,258,76692,1,0,0:0:0:0:
345,344,76888,5,2,0:0:0:0:
191,287,77084,2,0,L|202:210,2,70,0|8|2,0:0|0:0|0:0,0:0:0:0:
273,371,77673,5,4,0:0:0:0:
105,307,77869,2,0,L|116:230,2,70,2|8|0,0:0|0:0|0:0,0:0:0:0:
234,137,78457,5,2,0:0:0:0:
152,142,78653,1,0,0:0:0:0:
243,109,78849,1,0,0:0:0:0:
350,234,79045,5,2,0:0:0:0:
271,210,79241,1,0,0:0:0:0:
368,210,79437,1,0,0:0:0:0:
425,364,79633,5,2,0:0:0:0:
359,315,79829,1,0,0:0:0:0:
490,286,80222,5,0,0:0:0:0:
359,315,80418,2,0,P|296:291|194:313,1,157.500006008148,2|0,0:0|0:0,0:0:0:0:
182,384,80810,1,4,0:0:0:0:
34,281,81202,6,0,P|67:334|68:272,1,157.500006008148,0|0,0:0|0:0,0:0:0:0:
39,162,81594,5,2,0:0:0:0:
171,218,81986,6,0,P|155:183|162:137,1,70,8|0,0:0|0:0,0:0:0:0:
200,35,82378,1,4,0:0:0:0:
64,64,82575,2,0,P|42:99|45:142,2,70,2|8|0,0:0|0:0|0:0,0:0:0:0:
156,152,83163,5,2,0:0:0:0:
350,63,83555,1,8,0:0:0:0:
456,145,83751,1,2,0:0:0:0:
360,157,83947,1,4,0:0:0:0:
441,48,84143,2,0,P|473:44|511:71,2,70,0|8|0,0:0|0:0|0:0,0:0:0:0:
456,145,84731,5,2,0:0:0:0:
179,278,85124,1,8,0:0:0:0:
222,168,85320,1,0,0:0:0:0:
295,260,85516,1,4,0:0:0:0:
383,180,85712,2,0,P|353:155|317:146,2,70,2|8|0,0:0|0:0|0:0,0:0:0:0:
485,303,86300,5,2,0:0:0:0:
481,318,86692,1,8,0:0:0:0:
477,332,87084,5,4,0:0:0:0:
371,381,87281,1,0,0:0:0:0:
385,249,87477,1,8,0:0:0:0:
279,298,87673,1,0,0:0:0:0:
289,181,87869,2,0,P|238:113|174:112,1,140,2|8,0:0|0:0,0:0:0:0:
188,107,88653,5,4,0:0:0:0:
72,273,88849,1,2,0:0:0:0:
84,157,89045,1,8,0:0:0:0:
179,225,89241,1,0,0:0:0:0:
289,181,89437,2,0,P|348:120|374:59,1,140,2|8,0:0|0:0,0:0:0:0:
370,70,90222,5,4,0:0:0:0:
406,260,90418,5,0,0:0:0:0:
450,150,90615,1,8,0:0:0:0:
289,277,90810,5,0,0:0:0:0:
406,260,91006,1,2,0:0:0:0:
395,249,91398,1,8,0:0:0:0:
384,238,91790,5,4,0:0:0:0:
310,144,91986,2,0,P|301:98|325:19,1,70,2|8,0:0|0:0,0:0:0:0:
233,30,92378,5,0,0:0:0:0:
159,124,92574,2,0,P|150:170|174:249,1,70,2|0,0:0|0:0,0:0:0:0:
108,23,92967,1,0,0:0:0:0:
108,23,93359,6,0,B|86:62|54:73|54:73|85:87|93:90|93:90|20:129|26:202|44:200|38:225|9:260,1,315.000012016297,4|0,0:0|0:0,0:0:0:0:
151,192,94143,6,0,P|207:235|306:243,2,140,2|8|4,0:0|0:0|0:0,0:0:0:0:
312,73,95123,1,2,0:0:0:0:
218,59,95320,1,8,0:0:0:0:
253,148,95516,1,0,0:0:0:0:
406,84,95712,6,0,P|391:22|364:-7,2,93.3333333333333,2|8|0,0:0|0:0|0:0,0:0:0:0:
369,147,96496,1,4,0:0:0:0:
345,311,96692,5,2,0:0:0:0:
310,222,96889,1,8,0:0:0:0:
404,236,97084,1,0,0:0:0:0:
251,297,97280,5,2,0:0:0:0:
238,290,97673,1,8,0:0:0:0:
136,308,97869,1,0,0:0:0:0:
216,196,98065,5,4,0:0:0:0:
152,124,98261,2,0,L|146:28,2,70,2|8|0,0:0|0:0|0:0,0:0:0:0:
407,97,98849,5,2,0:0:0:0:
312,77,99045,2,0,L|225:119,2,70,0|8|2,0:0|0:0|0:0,0:0:0:0:
414,318,99633,5,4,0:0:0:0:
349,245,99829,2,0,L|343:148,2,70,0|8|0,0:0|0:0|0:0,0:0:0:0:
212,191,100418,6,0,P|241:240|242:335,2,140,2|8|4,0:0|0:0|0:0,0:0:0:0:
131,155,101398,1,2,0:0:0:0:
60,204,101594,1,8,0:0:0:0:
66,289,101790,1,0,0:0:0:0:
53,118,101986,5,2,0:0:0:0:
138,241,102182,2,0,P|151:283|139:339,2,70,0|8|2,0:0|0:0|0:0,0:0:0:0:
134,106,102771,5,4,0:0:0:0:
219,229,102967,2,0,P|232:271|220:327,2,70,2|8|0,0:0|0:0|0:0,0:0:0:0:
295,333,103555,5,2,0:0:0:0:
394,287,103751,1,0,0:0:0:0:
296,364,103947,1,0,0:0:0:0:
404,178,104143,5,2,0:0:0:0:
394,287,104339,1,0,0:0:0:0:
375,164,104535,1,0,0:0:0:0:
490,209,104731,5,2,0:0:0:0:
472,86,104927,1,0,0:0:0:0:
203,99,105320,6,0,L|203:91,1,8.75,0|0,0:0|0:0,0:0:0:0:
300,47,105516,2,0,L|300:39,1,8.75,2|0,0:0|0:0,0:0:0:0:
106,152,105908,5,4,0:0:0:0:
65,48,106300,6,0,P|106:62|68:15,1,140
47,48,106692,6,0,L|6:55,4,35,4|0|0|0|2,0:0|0:0|0:0|0:0|0:0,0:0:0:0:
17,248,107476,6,0,P|34:245|65:249,3,35,2|0|0|0,0:0|0:0|0:0|0:0,0:0:0:0:
116,201,108261,2,0,P|132:205|159:222,3,35,2|0|0|0,0:0|0:0|0:0|0:0,0:0:0:0:
226,199,109045,2,0,P|239:210|256:236,3,35,2|0|0|0,0:0|0:0|0:0|0:0,0:0:0:0:
299,336,109829,5,8,0:0:0:0:
311,335,110025,1,0,0:0:0:0:
322,333,110222,2,0,L|328:297,1,35,0|0,0:0|0:0,0:0:0:0:
400,223,110614,5,8,0:0:0:0:
411,221,110810,1,0,0:0:0:0:
422,219,111007,2,0,L|427:183,1,35,0|0,0:0|0:0,0:0:0:0:
288,163,111398,5,8,0:0:0:0:
299,161,111594,1,0,0:0:0:0:
310,159,111791,2,0,L|315:123,1,35,0|0,0:0|0:0,0:0:0:0:
388,49,112183,5,8,0:0:0:0:
399,47,112379,1,0,0:0:0:0:
410,45,112576,2,0,L|415:9,1,35,0|0,0:0|0:0,0:0:0:0:
289,4,112967,5,2,0:0:0:0:
274,11,113163,2,0,P|254:33|243:58,1,52.5,2|0,0:0|0:0,0:0:0:0:
48,68,113947,6,0,P|28:90|17:115,1,52.5,2|0,0:0|0:0,0:0:0:0:
187,197,114731,6,0,P|207:219|218:244,1,52.5,2|0,0:0|0:0,0:0:0:0:
413,254,115515,6,0,P|433:276|444:301,1,52.5,2|0,0:0|0:0,0:0:0:0:
313,346,116104,5,8,0:0:0:0:
302,353,116300,2,0,L|237:351,1,52.5,0|2,0:0|0:0,0:0:0:0:
121,304,116888,5,8,0:0:0:0:
110,311,117084,2,0,L|45:309,1,52.5,0|2,0:0|0:0,0:0:0:0:
269,240,117673,5,8,0:0:0:0:
258,247,117869,2,0,L|193:245,1,52.5,0|2,0:0|0:0,0:0:0:0:
77,198,118457,5,8,0:0:0:0:
66,205,118653,2,0,L|1:203,1,52.5,0|2,0:0|0:0,0:0:0:0:
82,55,119241,5,4,0:0:0:0:
95,52,119437,1,0,0:0:0:0:
112,53,119633,2,0,P|130:69|136:88,1,35,0|0,0:0|0:0,0:0:0:0:
240,120,120025,5,2,0:0:0:0:
252,124,120221,1,0,0:0:0:0:
265,135,120417,2,0,P|270:158|264:177,1,35,0|0,0:0|0:0,0:0:0:0:
381,81,120810,5,2,0:0:0:0:
393,85,121006,1,0,0:0:0:0:
406,96,121202,2,0,P|411:119|405:138,1,35,0|0,0:0|0:0,0:0:0:0:
473,224,121594,5,2,0:0:0:0:
480,235,121790,1,0,0:0:0:0:
485,251,121986,2,0,P|476:273|460:285,1,35,0|0,0:0|0:0,0:0:0:0:
357,322,122378,5,0,0:0:0:0:
346,329,122575,2,0,L|308:327,1,35,2|0,0:0|0:0,0:0:0:0:
300,334,122869,1,0,0:0:0:0:
219,214,123163,5,0,0:0:0:0:
212,225,123360,2,0,L|213:262,1,35,2|0,0:0|0:0,0:0:0:0:
207,271,123654,1,0,0:0:0:0:
59,162,123947,5,0,0:0:0:0:
70,169,124144,2,0,L|107:167,1,35,2|0,0:0|0:0,0:0:0:0:
116,174,124438,1,0,0:0:0:0:
197,54,124732,5,0,0:0:0:0:
204,65,124927,2,0,L|202:102,1,35,2|0,0:0|0:0,0:0:0:0:
209,111,125223,1,0,0:0:0:0:
357,47,125516,6,0,L|355:84,1,35,0|2,0:0|0:0,0:0:0:0:
353,141,125908,1,2,0:0:0:0:
355,107,126104,1,0,0:0:0:0:
456,137,126300,6,0,L|457:174,1,35,0|2,0:0|0:0,0:0:0:0:
460,231,126692,1,2,0:0:0:0:
458,197,126888,1,0,0:0:0:0:
360,229,127084,6,0,L|358:266,1,35,0|2,0:0|0:0,0:0:0:0:
356,323,127476,1,2,0:0:0:0:
358,289,127672,1,0,0:0:0:0:
251,279,127868,6,0,L|252:316,1,35,0|2,0:0|0:0,0:0:0:0:
255,373,128260,1,2,0:0:0:0:
253,339,128456,1,0,0:0:0:0:
179,365,128653,6,0,P|149:346|74:341,1,105,4|0,0:0|0:0,0:0:0:0:
256,192,131790,5,2,0:0:0:0:
325,228,131986,2,0,P|300:261|260:271,1,70,2|0,0:0|0:0,0:0:0:0:
202,251,132378,5,2,0:0:0:0:
183,329,132575,2,0,P|152:315|129:217,1,140,8|0,0:0|0:0,0:0:0:0:
72,166,133163,2,0,P|99:146|195:175,1,140,8|0,0:0|0:0,0:0:0:0:
260,300,133751,6,0,P|291:286|311:258,1,70,2|0,0:0|0:0,0:0:0:0:
330,191,134143,6,0,P|326:224|454:215,1,210,8|0,0:0|0:0,0:0:0:0:
372,122,134927,5,2,0:0:0:0:
438,81,135125,5,2,0:0:0:0:
440,68,135321,1,0,0:0:0:0:
436,50,135517,1,2,0:0:0:0:
306,163,135713,5,8,0:0:0:0:
372,122,135909,5,0,0:0:0:0:
374,109,136105,1,0,0:0:0:0:
371,92,136301,1,2,0:0:0:0:
240,204,136497,5,0,0:0:0:0:
306,163,136693,5,0,0:0:0:0:
308,150,136889,1,2,0:0:0:0:
303,132,137085,1,0,0:0:0:0:
174,245,137281,5,8,0:0:0:0:
240,204,137477,5,0,0:0:0:0:
242,191,137673,1,0,0:0:0:0:
237,173,137869,1,8,0:0:0:0:
178,104,138065,5,2,0:0:0:0:
143,192,138261,6,0,L|72:153,1,78.7500030040742,2|2,0:0|0:0,0:0:0:0:
174,245,139045,2,0,L|103:206,1,78.7500030040742,2|2,0:0|0:0,0:0:0:0:
205,298,139829,2,0,L|134:259,1,78.7500030040742,2|2,0:0|0:0,0:0:0:0:
236,351,140614,2,0,L|165:312,1,78.7500030040742,2|2,0:0|0:0,0:0:0:0:
236,351,141202,5,2,0:0:0:0:
307,203,141594,2,0,L|303:162,2,26.2500010013581,2|0|0,0:0|0:0|0:0,0:0:0:0:
310,291,141986,5,8,0:0:0:0:
234,164,142378,2,0,L|230:123,2,26.2500010013581,2|0|0,0:0|0:0|0:0,0:0:0:0:
237,252,142770,5,8,0:0:0:0:
161,125,143163,2,0,L|157:84,2,26.2500010013581,2|0|0,0:0|0:0|0:0,0:0:0:0:
164,213,143555,5,8,0:0:0:0:
307,203,143947,2,0,L|303:162,2,26.2500010013581,2|0|8,0:0|0:0|0:0,0:0:0:0:
382,244,144339,5,2,0:0:0:0:
382,244,144535,2,0,L|393:313,1,52.5000020027161,2|0,0:0|0:0,0:0:0:0:
443,342,144927,1,2,0:0:0:0:
299,327,145124,6,0,P|280:296|315:196,1,140,8|0,0:0|0:0,0:0:0:0:
385,39,145712,2,0,P|404:70|369:170,1,140,8|0,0:0|0:0,0:0:0:0:
309,129,146300,1,2,0:0:0:0:
306,202,146496,1,0,0:0:0:0:
248,251,146692,6,0,P|171:260|108:233,1,140,8|0,0:0|0:0,0:0:0:0:
67,168,147280,1,0,0:0:0:0:
150,161,147476,5,2,0:0:0:0:
103,93,147673,2,0,P|136:78|178:81,1,70,2|0,0:0|0:0,0:0:0:0:
228,135,148065,1,2,0:0:0:0:
384,42,148261,6,0,P|307:33|244:60,1,140,8|0,0:0|0:0,0:0:0:0:
211,215,148849,2,0,P|288:224|351:197,1,140,2|0,0:0|0:0,0:0:0:0:
388,58,149437,2,0,L|406:150,1,70,2|0,0:0|0:0,0:0:0:0:
512,323,149829,6,0,P|481:251|426:210,1,140,8|0,0:0|0:0,0:0:0:0:
434,214,150614,6,0,P|364:205|334:214,1,70,2|2,0:0|0:0,2:0:0:0:
390,285,151006,5,0,0:0:0:0:
298,294,151202,1,2,0:0:0:0:
136,219,151790,5,0,0:0:0:0:
228,210,151986,1,10,0:0:0:0:
390,135,152575,5,0,0:0:0:0:
298,126,152771,1,2,0:0:0:0:
136,51,153359,5,0,0:0:0:0:
228,42,153555,1,2,0:0:0:0:
128,160,153751,5,0,0:0:0:0:
147,229,153947,1,2,0:0:0:0:
216,209,154143,1,2,0:0:0:0:
197,140,154339,1,0,0:0:0:0:
144,167,154535,5,0,0:0:0:0:
158,215,154731,1,2,0:0:0:0:
206,202,154927,1,2,0:0:0:0:
192,154,155123,1,0,0:0:0:0:
156,174,155320,5,0,0:0:0:0:
165,207,155516,1,2,0:0:0:0:
198,198,155712,1,2,0:0:0:0:
189,164,155908,1,0,0:0:0:0:
162,178,156104,5,0,0:0:0:0:
168,201,156300,1,2,0:0:0:0:
192,194,156496,1,2,0:0:0:0:
185,171,156692,1,0,0:0:0:0:
339,194,156888,6,0,B|408:202|369:288|414:323|414:323|372:317|372:317|347:332|347:332|314:318|314:318|281:336|281:336|319:290|258:226|320:196,1,462.000014099122,4|2,0:0|0:0,0:0:0:0:
