osu file format v14

[General]
AudioFilename: audio.mp3
AudioLeadIn: 0
PreviewTime: 55908
Countdown: 0
SampleSet: Soft
StackLeniency: 0.5
Mode: 0
LetterboxInBreaks: 0
WidescreenStoryboard: 1

[Editor]
Bookmarks: 25124,37673,43947,56496,81594,97673,106692,131790,135516,156888,161636,171028
DistanceSpacing: 1.9
BeatDivisor: 8
GridSize: 16
TimelineZoom: 2.400005

[Metadata]
Title:Rabbit Onesie
TitleUnicode:Rabbit Onesie
Artist:Shindig
ArtistUnicode:Shindig
Creator:squirrelpascals
Version:Advanced
Source:
Tags:Stingy Piggles354
BeatmapID:1599977
BeatmapSetID:760827

[Difficulty]
HPDrainRate:5
CircleSize:4
OverallDifficulty:7
ApproachRate:7
SliderMultiplier:1.4
SliderTickRate:1

[Events]
//Background and Video events
0,0,"rabbitforest.jpg",0,0
//Break Periods
2,50222,55054
2,128853,130890
//Storyboard Layer 0 (Background)
//Storyboard Layer 1 (Fail)
//Storyboard Layer 2 (Pass)
//Storyboard Layer 3 (Foreground)
//Storyboard Sound Samples

[TimingPoints]
26,392.156862745098,4,2,2,35,1,0
25124,-133.333333333333,4,2,2,35,0,0
56104,-133.333333333333,4,2,1,35,0,0
56496,-133.333333333333,4,2,1,50,0,0
64633,-133.333333333333,4,2,1,5,0,0
64731,-133.333333333333,4,2,1,50,0,0
68849,-133.333333333333,4,2,1,5,0,0
69045,-133.333333333333,4,2,1,50,0,0
80418,-133.333333333333,4,2,1,30,0,0
80810,-133.333333333333,4,2,1,50,0,0
81202,-133.333333333333,4,2,1,50,0,0
81496,-133.333333333333,4,2,1,5,0,0
81594,-133.333333333333,4,2,1,50,0,1
88163,-133.333333333333,4,2,1,5,0,1
88261,-133.333333333333,4,2,1,50,0,1
93359,-133.333333333333,4,2,1,50,0,0
93947,-133.333333333333,4,2,1,5,0,0
94143,-133.333333333333,4,2,1,50,0,1
105516,-133.333333333333,4,2,1,35,0,1
105908,-133.333333333333,4,2,1,50,0,1
106300,-133.333333333333,4,2,1,50,0,0
106692,-133.333333333333,4,2,2,35,0,0
131790,-133.333333333333,4,2,3,35,0,0
153751,-133.333333333333,4,2,2,35,0,0
156888,-133.333333333333,4,2,2,35,0,0
159297,521.739130434783,4,2,0,15,1,0
160759,521.739130434783,4,2,0,15,1,0

[Colours]
Combo1 : 180,122,199
Combo2 : 225,190,155
Combo3 : 87,208,190
Combo4 : 139,218,149

[HitObjects]
256,192,18849,12,0,22967,0:0:0:0:
101,282,25124,6,0,B|149:303|157:267|209:285,1,105.000004005432,4|0,0:0|0:0,0:0:0:0:
258,346,25712,1,0,0:0:0:0:
313,283,25908,2,0,B|359:266|367:302|415:281,1,105.000004005432,2|0,0:0|0:0,0:0:0:0:
482,231,26496,1,2,0:0:0:0:
435,33,27084,5,0,0:0:0:0:
435,33,27280,1,0,0:0:0:0:
435,33,27476,2,0,P|386:33|356:138,1,157.500006008148,2|2,0:0|0:0,0:0:0:0:
77,33,28653,5,0,0:0:0:0:
77,33,28849,1,0,0:0:0:0:
76,33,29045,2,0,P|137:45|149:106,2,105.000004005432,2|0|2,0:0|0:0|0:0,0:0:0:0:
0,230,30614,5,2,0:0:0:0:
168,308,31202,1,2,0:0:0:0:
168,308,31398,6,0,P|204:289|238:211,1,105.000004005432,4|0,0:0|0:0,0:0:0:0:
309,194,31986,1,0,0:0:0:0:
368,252,32182,2,0,P|379:302|414:340,1,105.000004005432,2|0,0:0|0:0,0:0:0:0:
489,300,32771,1,2,0:0:0:0:
511,93,33359,5,0,0:0:0:0:
511,93,33555,1,0,0:0:0:0:
511,93,33751,2,0,P|455:116|350:114,1,157.500006008148,2|2,0:0|0:0,0:0:0:0:
109,107,34927,5,0,0:0:0:0:
109,107,35123,1,0,0:0:0:0:
109,107,35319,2,0,P|145:134|223:154,2,105.000004005432,2|2|2,0:0|0:0|0:0,0:0:0:0:
39,154,36300,2,0,P|30:178|28:210,1,52.5000020027161,0|0,0:0|0:0,0:0:0:0:
76,273,36692,1,2,0:0:0:0:
364,358,37673,6,0,B|345:290|394:321|368:235,1,105.000004005432,4|0,0:0|0:0,0:0:0:0:
357,174,38261,1,0,0:0:0:0:
439,189,38457,2,0,B|458:121|409:152|435:66,1,105.000004005432,2|0,0:0|0:0,0:0:0:0:
446,5,39045,1,2,0:0:0:0:
207,86,39633,5,0,0:0:0:0:
207,86,39829,1,0,0:0:0:0:
207,86,40026,2,0,P|166:78|154:181,1,157.500006008148,2|2,0:0|0:0,0:0:0:0:
268,343,41202,5,0,0:0:0:0:
268,343,41398,1,0,0:0:0:0:
268,343,41595,2,0,P|273:313|210:271,2,105.000004005432,2|0|2,0:0|0:0|0:0,0:0:0:0:
20,236,43163,5,2,0:0:0:0:
104,84,43751,1,2,0:0:0:0:
104,84,43947,6,0,P|148:65|219:63,1,105.000004005432,4|0,0:0|0:0,0:0:0:0:
280,97,44535,1,0,0:0:0:0:
269,180,44731,2,0,P|313:199|384:201,1,105.000004005432,2|0,0:0|0:0,0:0:0:0:
445,167,45320,2,0,P|492:202|462:288,1,157.500006008148,2|0,0:0|0:0,0:0:0:0:
406,344,46104,5,0,0:0:0:0:
406,344,46300,2,0,L|296:334,1,105.000004005432,2|0,0:0|0:0,0:0:0:0:
233,285,46888,2,0,L|69:327,1,157.500006008148,2|0,0:0|0:0,0:0:0:0:
6,283,47673,5,0,0:0:0:0:
78,240,47869,2,0,L|200:208,2,105.000004005432,2|2|2,0:0|0:0|0:0,0:0:0:0:
70,294,56104,5,0,0:0:0:0:
70,294,56496,6,0,P|67:243|159:240,1,157.500006008148,2|0,0:0|0:0,0:0:0:0:
214,290,57280,1,4,0:0:0:0:
297,297,57476,2,0,L|374:303,2,52.5000020027161,2|8|0,0:0|0:0|0:0,0:0:0:0:
365,189,58065,6,0,P|381:140|293:113,1,157.500006008148,2|2,0:0|0:0,0:0:0:0:
220,135,58849,1,4,0:0:0:0:
234,53,59045,2,0,L|248:-22,2,52.5000020027161,0|8|0,0:0|0:0|0:0,0:0:0:0:
100,88,59633,6,0,P|29:78|15:149,1,157.500006008148,2|0,0:0|0:0,0:0:0:0:
80,200,60418,1,4,0:0:0:0:
43,305,60614,1,2,0:0:0:0:
153,280,60810,2,0,P|191:278|218:285,1,52.5000020027161,8|0,0:0|0:0,0:0:0:0:
250,147,61202,6,0,P|212:137|196:204,1,105.000004005432,2|8,0:0|0:0,0:0:0:0:
333,363,61986,2,0,L|340:295,2,52.5000020027161,4|0|8,0:0|0:0|0:0,0:0:0:0:
452,319,62575,1,4,0:0:0:0:
381,222,62771,6,0,P|372:186|467:156,1,157.500006008148,2|0,0:0|0:0,0:0:0:0:
481,62,63555,1,4,0:0:0:0:
398,48,63751,1,2,0:0:0:0:
314,60,63947,2,0,P|276:76|262:95,1,52.5000020027161,8|0,0:0|0:0,0:0:0:0:
174,160,64339,6,0,L|79:149,1,78.7500030040742,2|0,0:0|0:0,0:0:0:0:
69,147,64731,1,8,0:0:0:0:
13,209,64927,1,2,0:0:0:0:
86,250,65124,1,4,0:0:0:0:
65,333,65320,6,0,L|79:398,2,52.5000020027161,0|8|0,0:0|0:0|0:0,0:0:0:0:
157,344,65908,2,0,P|200:368|266:346,2,105.000004005432,2|8|4,0:0|0:0|0:0,0:0:0:0:
235,273,66888,2,0,P|286:275|323:310,1,105.000004005432,2|0,0:0|0:0,0:0:0:0:
416,363,67476,6,0,L|406:238,1,105.000004005432,2|0,0:0|0:0,0:0:0:0:
344,108,68261,6,0,P|339:65|231:73,1,157.500006008148,4|0,0:0|0:0,0:0:0:0:
151,155,69045,6,0,P|90:157|51:114,2,105.000004005432,2|8|4,0:0|0:0|0:0,0:0:0:0:
233,190,70025,1,2,0:0:0:0:
162,244,70222,2,0,L|172:315,1,52.5000020027161,8|0,0:0|0:0,0:0:0:0:
295,355,70614,6,0,P|344:356|376:321,2,70.0000026702882,2|8|0,0:0|0:0|0:0,0:0:0:0:
371,187,71397,5,4,0:0:0:0:
439,236,71594,2,0,L|429:307,2,52.5000020027161,2|8|0,0:0|0:0|0:0,0:0:0:0:
484,138,72182,6,0,P|474:88|434:56,1,105.000004005432,2|8,0:0|0:0,0:0:0:0:
345,44,72771,2,0,P|319:47|295:57,1,52.5000020027161,0|4,0:0|0:0,0:0:0:0:
209,20,73163,6,0,L|137:24,2,52.5000020027161,2|8|0,0:0|0:0|0:0,0:0:0:0:
294,57,73751,1,2,0:0:0:0:
350,125,73947,2,0,L|423:133,2,52.5000020027161,0|8|2,0:0|0:0|0:0,0:0:0:0:
192,216,74731,2,0,L|120:220,2,52.5000020027161,0|8|0,0:0|0:0|0:0,0:0:0:0:
277,297,75320,6,0,P|298:330|374:343,2,105.000004005432,2|8|4,0:0|0:0|0:0,0:0:0:0:
355,266,76300,2,0,L|362:208,2,52.5000020027161,2|8|0,0:0|0:0|0:0,0:0:0:0:
277,297,76888,1,2,0:0:0:0:
196,321,77084,2,0,L|189:379,2,52.5000020027161,0|8|2,0:0|0:0|0:0,0:0:0:0:
62,194,77869,2,0,L|55:246,2,52.5000020027161,2|8|0,0:0|0:0|0:0,0:0:0:0:
47,95,78457,5,2,0:0:0:0:
146,38,78653,1,0,0:0:0:0:
150,150,78849,2,0,P|184:170|208:172,1,52.5000020027161,0|2,0:0|0:0,0:0:0:0:
313,148,79241,5,0,0:0:0:0:
326,36,79437,2,0,P|361:19|385:19,1,52.5000020027161,0|2,0:0|0:0,0:0:0:0:
461,103,79829,1,0,0:0:0:0:
446,314,80222,5,0,0:0:0:0:
446,314,80418,2,0,P|446:356|460:326,1,105.000004005432,2|4,0:0|0:0,0:0:0:0:
398,194,81202,6,0,P|355:212|322:249,1,78.7500030040742,0|0,0:0|0:0,0:0:0:0:
323,265,81594,6,0,P|324:310|215:330,1,157.500006008148,2|0,0:0|0:0,0:0:0:0:
184,275,82378,1,4,0:0:0:0:
110,315,82575,2,0,L|119:377,2,52.5000020027161,2|8|0,0:0|0:0|0:0,0:0:0:0:
21,206,83163,6,0,P|19:160|128:140,1,157.500006008148,2|0,0:0|0:0,0:0:0:0:
193,126,83947,1,4,0:0:0:0:
152,52,84144,2,0,L|83:35,2,52.5000020027161,0|8|0,0:0|0:0|0:0,0:0:0:0:
322,22,84731,6,0,P|320:67|429:87,1,157.500006008148,2|0,0:0|0:0,0:0:0:0:
466,165,85515,1,4,0:0:0:0:
370,230,85712,1,0,0:0:0:0:
465,299,85908,2,0,P|440:323|410:339,1,52.5000020027161,8|0,0:0|0:0,0:0:0:0:
314,343,86300,6,0,P|306:306|246:312,1,105.000004005432,2|8,0:0|0:0,0:0:0:0:
23,327,87084,6,0,L|17:389,2,52.5000020027161,4|0|8,0:0|0:0|0:0,0:0:0:0:
103,271,87673,1,0,0:0:0:0:
182,211,87869,6,0,P|185:168|160:130,1,78.7500030040742,2|0,0:0|0:0,0:0:0:0:
145,124,88261,2,0,B|129:114|113:121|113:121|96:127|81:118|81:118|66:109|48:116|48:116|34:121,1,105.000004005432,8|4,0:0|0:0,0:0:0:0:
11,40,88849,1,2,0:0:0:0:
92,20,89045,2,0,P|118:20|142:30,1,52.5000020027161,8|0,0:0|0:0,0:0:0:0:
273,89,89437,6,0,L|399:72,2,105.000004005432,2|8|4,0:0|0:0|0:0,0:0:0:0:
238,209,90418,1,0,0:0:0:0:
345,197,90614,1,8,0:0:0:0:
368,300,90810,1,0,0:0:0:0:
472,271,91006,6,0,P|506:231|513:168,2,105.000004005432,2|8|4,0:0|0:0|0:0,0:0:0:0:
367,299,91986,2,0,P|316:285|256:305,1,105.000004005432,2|0,0:0|0:0,0:0:0:0:
157,290,92575,6,0,P|123:250|116:187,1,105.000004005432,2|0,0:0|0:0,0:0:0:0:
296,31,93359,2,0,B|327:25|339:53|323:80|292:83|292:83|224:91,1,157.500006008148,4|0,0:0|0:0,0:0:0:0:
100,102,94143,6,0,P|60:68|-3:61,2,105.000004005432,2|8|4,0:0|0:0|0:0,0:0:0:0:
70,181,95124,1,2,0:0:0:0:
116,250,95320,2,0,L|190:241,1,52.5000020027161,8|0,0:0|0:0,0:0:0:0:
276,230,95712,6,0,P|317:210|371:218,2,70.0000026702882,2|8|0,0:0|0:0|0:0,0:0:0:0:
132,355,96496,1,4,0:0:0:0:
56,318,96692,2,0,L|-15:327,2,52.5000020027161,2|8|0,0:0|0:0|0:0,0:0:0:0:
137,233,97280,6,0,P|147:191|107:137,1,105.000004005432,2|8,0:0|0:0,0:0:0:0:
50,79,97869,2,0,P|44:53|49:26,1,52.5000020027161,0|4,0:0|0:0,0:0:0:0:
139,24,98261,6,0,L|202:36,2,52.5000020027161,2|8|0,0:0|0:0|0:0,0:0:0:0:
202,118,98849,1,2,0:0:0:0:
283,106,99045,2,0,L|345:99,2,52.5000020027161,0|8|2,0:0|0:0|0:0,0:0:0:0:
441,24,99829,2,0,L|503:31,2,52.5000020027161,0|8|0,0:0|0:0|0:0,0:0:0:0:
483,113,100418,6,0,P|494:155|477:217,2,105.000004005432,2|8|4,0:0|0:0|0:0,0:0:0:0:
395,160,101398,2,0,L|388:222,2,52.5000020027161,2|8|0,0:0|0:0|0:0,0:0:0:0:
315,132,101986,1,2,0:0:0:0:
273,205,102182,2,0,L|264:270,2,52.5000020027161,0|8|2,0:0|0:0|0:0,0:0:0:0:
110,167,102967,1,2,0:0:0:0:
110,167,103163,2,0,L|103:229,1,52.5000020027161,8|0,0:0|0:0,0:0:0:0:
91,319,103555,5,2,0:0:0:0:
188,384,103751,1,0,0:0:0:0:
255,293,103947,2,0,P|277:286|317:288,1,52.5000020027161,0|2,0:0|0:0,0:0:0:0:
421,343,104339,5,0,0:0:0:0:
385,233,104535,2,0,P|384:209|396:171,1,52.5000020027161,0|2,0:0|0:0,0:0:0:0:
504,158,104927,1,0,0:0:0:0:
363,60,105320,5,0,0:0:0:0:
363,60,105516,2,0,L|246:67,1,105.000004005432,2|4,0:0|0:0,0:0:0:0:
60,108,106300,6,0,P|27:106|49:155,1,105.000004005432,0|4,0:0|0:0,0:0:0:0:
172,340,107476,6,0,P|159:318|154:281,3,52.5000020027161,2|0|0|0,0:0|0:0|0:0|0:0,0:0:0:0:
264,314,108261,2,0,P|261:288|272:252,3,52.5000020027161,2|0|0|0,0:0|0:0|0:0|0:0,0:0:0:0:
358,329,109045,2,0,P|366:304|391:277,3,52.5000020027161,2|0|0|0,0:0|0:0|0:0|0:0,0:0:0:0:
482,322,109829,6,0,L|484:267,1,52.5000020027161,8|0,0:0|0:0,0:0:0:0:
496,255,110222,2,0,L|498:200,1,52.5000020027161,0|0,0:0|0:0,0:0:0:0:
397,178,110614,6,0,L|399:123,1,52.5000020027161,8|0,0:0|0:0,0:0:0:0:
411,111,111007,2,0,L|413:56,1,52.5000020027161,0|0,0:0|0:0,0:0:0:0:
285,18,111398,6,0,L|287:73,1,52.5000020027161,8|0,0:0|0:0,0:0:0:0:
299,85,111791,2,0,L|301:140,1,52.5000020027161,0|0,0:0|0:0,0:0:0:0:
200,162,112183,6,0,L|202:217,1,52.5000020027161,8|0,0:0|0:0,0:0:0:0:
214,229,112576,2,0,L|216:284,1,52.5000020027161,0|0,0:0|0:0,0:0:0:0:
137,349,112967,5,2,0:0:0:0:
137,349,113163,2,0,P|99:334|45:338,2,78.7500030040742,2|0|0,0:0|0:0|0:0,0:0:0:0:
89,247,113947,2,0,P|56:222|2:212,2,78.7500030040742,2|0|0,0:0|0:0|0:0,0:0:0:0:
69,136,114731,2,0,P|43:104|-5:80,2,78.7500030040742,2|0|0,0:0|0:0|0:0,0:0:0:0:
164,83,115516,2,0,P|180:45|221:10,1,78.7500030040742,2|0,0:0|0:0,0:0:0:0:
345,42,116104,5,8,0:0:0:0:
360,37,116300,2,0,L|457:42,1,78.7500030040742,0|2,0:0|0:0,0:0:0:0:
374,165,116888,5,8,0:0:0:0:
389,160,117084,2,0,L|486:165,1,78.7500030040742,0|2,0:0|0:0,0:0:0:0:
335,260,117673,5,8,0:0:0:0:
320,255,117869,2,0,L|223:260,1,78.7500030040742,0|2,0:0|0:0,0:0:0:0:
306,383,118457,5,8,0:0:0:0:
291,378,118653,2,0,L|194:383,1,78.7500030040742,0|2,0:0|0:0,0:0:0:0:
34,324,119241,6,0,P|34:296|44:261,3,52.5000020027161,4|0|0|0,0:0|0:0|0:0|0:0,0:0:0:0:
125,279,120025,2,0,P|125:251|114:216,3,52.5000020027161,2|0|0|0,0:0|0:0|0:0|0:0,0:0:0:0:
46,186,120810,2,0,P|46:158|57:123,3,52.5000020027161,2|0|0|0,0:0|0:0|0:0|0:0,0:0:0:0:
138,141,121594,2,0,P|138:112|127:78,3,52.5000020027161,2|0|0|0,0:0|0:0|0:0|0:0,0:0:0:0:
207,27,122378,5,0,0:0:0:0:
221,30,122575,2,0,L|307:31,1,78.7500030040742,2|0,0:0|0:0,0:0:0:0:
466,104,123163,5,0,0:0:0:0:
452,107,123360,2,0,L|366:108,1,78.7500030040742,2|0,0:0|0:0,0:0:0:0:
193,168,123947,5,0,0:0:0:0:
207,171,124144,2,0,L|293:172,1,78.7500030040742,2|0,0:0|0:0,0:0:0:0:
452,245,124732,5,0,0:0:0:0:
438,248,124927,2,0,L|352:249,1,78.7500030040742,2|0,0:0|0:0,0:0:0:0:
200,306,125516,5,0,0:0:0:0:
200,306,125712,2,0,L|195:373,2,52.5000020027161,2|2|0,0:0|0:0|0:0,0:0:0:0:
76,247,126300,1,0,0:0:0:0:
76,247,126496,2,0,L|81:314,2,52.5000020027161,2|2|0,0:0|0:0|0:0,0:0:0:0:
189,156,127084,5,0,0:0:0:0:
189,156,127280,2,0,L|184:223,2,52.5000020027161,2|2|0,0:0|0:0|0:0,0:0:0:0:
65,97,127869,1,0,0:0:0:0:
65,97,128064,2,0,L|70:164,2,52.5000020027161,2|2|0,0:0|0:0|0:0,0:0:0:0:
157,32,128653,5,4,0:0:0:0:
407,57,131790,5,2,0:0:0:0:
465,117,131986,2,0,L|458:191,1,52.5000020027161,2|0,0:0|0:0,0:0:0:0:
357,211,132378,1,2,0:0:0:0:
415,271,132574,2,0,L|404:379,1,105.000004005432,8|0,0:0|0:0,0:0:0:0:
291,339,133163,6,0,P|231:338|164:379,1,105.000004005432,8|0,0:0|0:0,0:0:0:0:
92,322,133751,2,0,L|85:390,1,52.5000020027161,2|0,0:0|0:0,0:0:0:0:
160,242,134143,2,0,L|284:252,1,105.000004005432,8|0,0:0|0:0,0:0:0:0:
343,25,134927,5,2,0:0:0:0:
263,34,135124,2,0,L|177:40,1,52.5000020027161,2|0,0:0|0:0,0:0:0:0:
115,0,135516,1,2,0:0:0:0:
106,80,135713,2,0,L|95:206,1,105.000004005432,8|0,0:0|0:0,0:0:0:0:
46,268,136300,6,0,P|18:277|-8:297,2,52.5000020027161,2|0|0,0:0|0:0|0:0,0:0:0:0:
118,321,136888,2,0,L|112:384,1,52.5000020027161,2|0,0:0|0:0,0:0:0:0:
207,254,137280,2,0,L|333:243,1,105.000004005432,8|0,0:0|0:0,0:0:0:0:
364,168,137869,1,8,0:0:0:0:
449,214,138065,5,2,0:0:0:0:
399,291,138261,2,0,P|352:335|287:337,1,105.000004005432,2|2,0:0|0:0,0:0:0:0:
195,354,138849,2,0,B|211:323|211:323|203:211,1,105.000004005432,8|0,0:0|0:0,0:0:0:0:
125,187,139437,6,0,B|129:117|129:117|113:86,1,105.000004005432,8|0,0:0|0:0,0:0:0:0:
186,20,140026,2,0,L|263:23,1,52.5000020027161,2|0,0:0|0:0,0:0:0:0:
256,129,140418,2,0,P|303:102|382:116,1,105.000004005432,8|0,0:0|0:0,0:0:0:0:
472,262,141202,5,2,0:0:0:0:
420,333,141398,2,0,L|346:324,1,52.5000020027161,2|0,0:0|0:0,0:0:0:0:
255,291,141790,1,2,0:0:0:0:
279,377,141986,2,0,L|151:386,1,105.000004005432,8|0,0:0|0:0,0:0:0:0:
73,344,142575,6,0,P|96:286|34:254,1,105.000004005432,2|0,0:0|0:0,0:0:0:0:
27,149,143163,2,0,P|9:182|11:210,1,52.5000020027161,2|0,0:0|0:0,0:0:0:0:
142,162,143555,2,0,L|276:153,1,105.000004005432,8|0,0:0|0:0,0:0:0:0:
305,84,144143,1,8,0:0:0:0:
393,72,144339,5,2,0:0:0:0:
462,128,144535,2,0,L|456:194,1,52.5000020027161,2|0,0:0|0:0,0:0:0:0:
376,227,144927,1,2,0:0:0:0:
443,309,145123,2,0,P|390:308|336:346,1,105.000004005432,8|0,0:0|0:0,0:0:0:0:
265,263,145712,6,0,P|220:237|168:238,1,105.000004005432,8|0,0:0|0:0,0:0:0:0:
111,318,146300,2,0,L|122:385,1,52.5000020027161,2|0,0:0|0:0,0:0:0:0:
39,258,146692,2,0,L|54:127,1,105.000004005432,8|0,0:0|0:0,0:0:0:0:
260,6,147476,5,2,0:0:0:0:
208,81,147673,2,0,L|203:149,1,52.5000020027161,2|0,0:0|0:0,0:0:0:0:
198,232,148065,1,2,0:0:0:0:
283,185,148261,2,0,P|350:191|415:232,1,105.000004005432,8|0,0:0|0:0,0:0:0:0:
477,180,148849,6,0,L|468:311,1,105.000004005432,2|0,0:0|0:0,0:0:0:0:
401,346,149437,2,0,P|363:342|326:319,1,52.5000020027161,2|0,0:0|0:0,0:0:0:0:
253,299,149829,2,0,L|148:306,1,105.000004005432,8|0,0:0|0:0,0:0:0:0:
59,254,150418,1,8,0:0:0:0:
156,204,150614,5,2,0:0:0:0:
67,152,150810,2,0,L|72:85,1,52.5000020027161,2|0,0:0|0:0,0:0:0:0:
161,29,151202,1,2,0:0:0:0:
219,116,151398,2,0,P|269:90|335:95,1,105.000004005432,8|0,0:0|0:0,0:0:0:0:
414,33,151986,6,0,B|402:127|459:92|445:194,1,157.500006008148,8|2,0:0|0:0,0:0:0:0:
418,360,152967,2,0,P|355:346|286:354,1,105.000004005432,8|0,0:0|0:0,0:0:0:0:
94,364,153751,5,0,0:0:0:0:
104,352,153947,2,0,L|37:355,2,52.5000020027161,2|2|0,0:0|0:0|0:0,0:0:0:0:
164,277,154535,5,0,0:0:0:0:
174,265,154731,2,0,L|107:268,2,52.5000020027161,2|2|0,0:0|0:0|0:0,0:0:0:0:
245,197,155320,5,0,0:0:0:0:
259,191,155516,2,0,L|200:159,2,52.5000020027161,2|2|0,0:0|0:0|0:0,0:0:0:0:
349,158,156104,5,0,0:0:0:0:
364,153,156300,2,0,L|305:121,2,52.5000020027161,2|2|0,0:0|0:0|0:0,0:0:0:0:
460,153,156888,5,4,0:0:0:0:
