osu file format v14

[General]
AudioFilename: audio.mp3
AudioLeadIn: 0
PreviewTime: 62276
Countdown: 0
SampleSet: None
StackLeniency: 0.4
Mode: 0
LetterboxInBreaks: 0
WidescreenStoryboard: 1

[Editor]
Bookmarks: 68942,92646
DistanceSpacing: 0.9
BeatDivisor: 4
GridSize: 32
TimelineZoom: 1.3

[Metadata]
Title:New Friends
TitleUnicode:New Friends
Artist:Shindig
ArtistUnicode:Shindig
Creator:GreenHue
Version:KKip's Normal
Source:
Tags:squirrelpascals Canderos KKipalt Ultima Fox NightOwl Collective
BeatmapID:1685013
BeatmapSetID:761932

[Difficulty]
HPDrainRate:3
CircleSize:3
OverallDifficulty:4
ApproachRate:5
SliderMultiplier:1.1
SliderTickRate:1

[Events]
//Background and Video events
0,0,"New Friends BG.jpg",0,0
//Break Periods
2,109757,120127
//Storyboard Layer 0 (Background)
//Storyboard Layer 1 (Fail)
//Storyboard Layer 2 (Pass)
//Storyboard Layer 3 (Foreground)
//Storyboard Sound Samples

[TimingPoints]
128,370.37037037037,4,3,1,35,1,0
38646,-100,4,3,1,35,0,0
39016,-100,4,3,2,35,0,0
50498,-100,4,3,2,35,0,0
57905,-100,4,3,2,35,0,0
59387,-100,4,3,1,35,0,0
60220,-100,4,3,1,5,0,0
60313,-100,4,3,1,35,0,0
62350,-100,4,3,1,72,0,0
64294,-100,4,3,1,72,0,0
64387,-100,4,3,1,72,0,0
64479,-100,4,3,1,72,0,0
64572,-100,4,3,1,72,0,0
64665,-100,4,3,1,72,0,0
64757,-100,4,3,1,72,0,0
65220,-100,4,3,1,72,0,0
65313,-100,4,3,1,72,0,0
66794,-100,4,3,1,72,0,0
66887,-100,4,3,1,72,0,0
66979,-100,4,3,1,72,0,0
67535,-100,4,3,1,72,0,0
67627,-100,4,3,1,72,0,0
67720,-100,4,3,1,72,0,0
68276,-100,4,3,1,72,0,0
68553,-100,4,3,1,72,0,0
68646,-100,4,3,1,72,0,0
69016,-100,4,3,1,72,0,0
69850,-100,4,3,1,72,0,0
69942,-100,4,3,1,72,0,0
70127,-100,4,3,1,72,0,0
70220,-100,4,3,1,72,0,0
70313,-100,4,3,1,72,0,0
70405,-100,4,3,1,72,0,0
70498,-100,4,3,1,72,0,0
70868,-100,4,3,1,72,0,0
70961,-100,4,3,1,72,0,0
71053,-100,4,3,1,72,0,0
71146,-100,4,3,1,72,0,0
71239,-100,4,3,1,72,0,0
71887,-100,4,3,1,72,0,0
71979,-100,4,3,1,72,0,0
72072,-100,4,3,1,72,0,0
72165,-100,4,3,1,72,0,0
72257,-100,4,3,1,72,0,0
72720,-100,4,3,1,72,0,0
72813,-100,4,3,1,72,0,0
72905,-100,4,3,1,72,0,0
72998,-100,4,3,1,72,0,0
73276,-100,4,3,1,72,0,0
73368,-100,4,3,1,72,0,0
73461,-100,4,3,1,72,0,0
73553,-100,4,3,1,72,0,0
73831,-100,4,3,1,72,0,0
74109,-100,4,3,1,72,0,0
74202,-100,4,3,1,72,0,0
76146,-100,4,3,1,72,0,0
76239,-100,4,3,1,72,0,0
76331,-100,4,3,1,72,0,0
76424,-100,4,3,1,72,0,0
76516,-100,4,3,1,72,0,0
76609,-100,4,3,1,72,0,0
78646,-100,4,3,1,72,0,0
78739,-100,4,3,1,72,0,0
78831,-100,4,3,1,72,0,0
79479,-100,4,3,1,72,0,0
79572,-100,4,3,1,72,0,0
80405,-100,4,3,1,72,0,0
80498,-100,4,3,1,72,0,0
80776,-100,4,3,1,72,0,0
80868,-100,4,3,1,72,0,0
81146,-100,4,3,1,72,0,0
81239,-100,4,3,1,72,0,0
81609,-100,4,3,1,72,0,0
81794,-100,4,3,1,72,0,0
81979,-100,4,3,1,72,0,0
82072,-100,4,3,1,72,0,0
82165,-100,4,3,1,72,0,0
82257,-100,4,3,1,72,0,0
82350,-100,4,3,1,72,0,0
82442,-100,4,3,1,72,0,0
82535,-100,4,3,1,72,0,0
82627,-100,4,3,1,72,0,0
82720,-100,4,3,1,72,0,0
82813,-100,4,3,1,72,0,0
82905,-100,4,3,1,72,0,0
83090,-100,4,3,1,72,0,0
83461,-100,4,3,1,72,0,0
83553,-100,4,3,1,72,0,0
83646,-100,4,3,1,72,0,0
83831,-100,4,3,1,72,0,0
84479,-100,4,3,1,72,0,0
84572,-100,4,3,1,72,0,0
86424,-100,4,3,1,72,0,0
86609,-100,4,3,1,72,0,0
86794,-100,4,3,1,72,0,0
87905,-100,4,3,1,72,0,0
87998,-100,4,3,1,72,0,0
88090,-100,4,3,1,72,0,0
88183,-100,4,3,1,72,0,0
88276,-100,4,3,1,72,0,0
88368,-100,4,3,1,72,0,0
88461,-100,4,3,1,72,0,0
88553,-100,4,3,1,72,0,0
88646,-100,4,3,1,72,0,0
89016,-100,4,3,1,72,0,0
90590,-100,4,3,1,72,0,0
90683,-100,4,3,1,72,0,0
91249,-100,4,3,1,72,0,0
91331,-100,4,3,1,72,0,0
91424,-100,4,3,1,72,0,0
91979,-100,4,3,1,72,0,0
94014,-100,4,3,1,72,0,0
94109,-100,4,3,1,72,0,0
94202,-100,4,3,1,72,0,0
94387,-100,4,3,1,72,0,0
94479,-100,4,3,1,72,0,0
94572,-100,4,3,1,72,0,0
94665,-100,4,3,1,72,0,0
94757,-100,4,3,1,72,0,0
94850,-100,4,3,1,72,0,0
95683,-100,4,3,1,72,0,0
95776,-100,4,3,1,72,0,0
95868,-100,4,3,1,72,0,0
95961,-100,4,3,1,72,0,0
97905,-100,4,3,1,72,0,0
98368,-100,4,3,1,72,0,0
98461,-100,4,3,1,72,0,0
98646,-100,4,3,1,72,0,0
99757,-100,4,3,1,72,0,0
99850,-100,4,3,1,72,0,0
99942,-100,4,3,1,72,0,0
100035,-100,4,3,1,72,0,0
100127,-100,4,3,1,72,0,0
100220,-100,4,3,1,72,0,0
100313,-100,4,3,1,72,0,0
100405,-100,4,3,1,72,0,0
100498,-100,4,3,1,72,0,0
100868,-100,4,3,1,72,0,0
101979,-100,4,3,1,72,0,0
102350,-100,4,3,1,72,0,0
102442,-100,4,3,1,72,0,0
102535,-100,4,3,1,72,0,0
103183,-100,4,3,1,72,0,0
103276,-100,4,3,1,72,0,0
103831,-100,4,3,1,72,0,0
104109,-100,4,3,1,72,0,0
104202,-100,4,3,1,72,0,0
104479,-100,4,3,1,72,0,0
104572,-100,4,3,1,72,0,0
104850,-100,4,3,1,72,0,0
105683,-100,4,3,1,72,0,0
105776,-100,4,3,1,72,0,0
105868,-100,4,3,1,72,0,0
105961,-100,4,3,1,72,0,0
106053,-100,4,3,1,72,0,0
106331,-100,4,3,1,72,0,0
106424,-100,4,3,1,72,0,0
106516,-100,4,3,1,72,0,0
106609,-100,4,3,1,72,0,0
106702,-100,4,3,1,72,0,0
106794,-100,4,3,1,72,0,0
107072,-100,4,3,1,72,0,0
107165,-100,4,3,1,72,0,0
107535,-100,4,3,1,72,0,0
121609,-100,4,3,1,35,0,0
133461,-100,4,3,1,35,0,0
140868,-100,4,3,1,35,0,0
142350,-100,4,3,1,35,0,0
143831,-100,4,3,1,35,0,0
145313,-100,4,3,1,35,0,0
147257,-100,4,3,1,35,0,0
147350,-100,4,3,1,35,0,0
147535,-100,4,3,1,35,0,0
147627,-100,4,3,1,35,0,0
147720,-100,4,3,1,35,0,0
147813,-100,4,3,1,35,0,0
147905,-100,4,3,1,35,0,0
148368,-100,4,3,1,35,0,0
148461,-100,4,3,1,35,0,0
148924,-100,4,3,1,35,0,0
149016,-100,4,3,1,35,0,0
149479,-100,4,3,1,35,0,0
149572,-100,4,3,1,35,0,0
150220,-100,4,3,1,35,0,0
150313,-100,4,3,1,35,0,0
150776,-100,4,3,1,35,0,0
150868,-100,4,3,1,35,0,0
152257,-100,4,3,1,35,0,0
152350,-100,4,3,1,35,0,0
152720,-100,4,3,1,35,0,0
153090,-100,4,3,1,35,0,0
153183,-100,4,3,1,35,0,0
153276,-100,4,3,1,35,0,0
153461,-100,4,3,1,35,0,0
153553,-100,4,3,1,35,0,0
153646,-100,4,3,1,35,0,0
153739,-100,4,3,1,35,0,0
153831,-100,4,3,1,35,0,0
154942,-100,4,3,1,35,0,0
155313,-100,4,3,1,35,0,0
155405,-100,4,3,1,35,0,0
155498,-100,4,3,1,35,0,0
155868,-100,4,3,1,35,0,0
155961,-100,4,3,1,35,0,0
156053,-100,4,3,1,35,0,0
156146,-100,4,3,1,35,0,0
156239,-100,4,3,1,35,0,0
156331,-100,4,3,1,35,0,0
156424,-100,4,3,1,35,0,0
156516,-100,4,3,1,35,0,0
156609,-100,4,3,1,35,0,0
156702,-100,4,3,1,35,0,0
156794,-100,4,3,1,35,0,0
156887,-100,4,3,1,35,0,0
156979,-100,4,3,1,35,0,0
157072,-100,4,3,1,35,0,0
157165,-100,4,3,1,35,0,0
157720,-100,4,3,1,35,0,0
157813,-100,4,3,1,35,0,0
157905,-100,4,3,1,35,0,0
158183,-100,4,3,1,35,0,0
158276,-100,4,3,1,35,0,0
158368,-100,4,3,1,35,0,0
158461,-100,4,3,1,35,0,0
159109,-100,4,3,1,35,0,0
159202,-100,4,3,1,35,0,0
159387,-100,4,3,1,35,0,0
159479,-100,4,3,1,35,0,0
159572,-100,4,3,1,35,0,0
159665,-100,4,3,1,35,0,0
159757,-100,4,3,1,35,0,0
159850,-100,4,3,1,35,0,0
160127,-100,4,3,1,35,0,0
160220,-100,4,3,1,35,0,0
160313,-100,4,3,1,35,0,0
161331,-100,4,3,1,35,0,0
161424,-100,4,3,1,35,0,0
161794,-100,4,3,1,35,0,0
161887,-100,4,3,1,35,0,0
161979,-100,4,3,1,35,0,0
162072,-100,4,3,1,35,0,0
162165,-100,4,3,1,35,0,0
162627,-100,4,3,1,35,0,0
162720,-100,4,3,1,35,0,0
163090,-100,4,3,1,35,0,0
163368,-100,4,3,1,35,0,0
163461,-100,4,3,1,35,0,0
163739,-100,4,3,1,35,0,0
163831,-100,4,3,1,35,0,0
164016,-100,4,3,1,35,0,0
164109,-100,4,3,1,35,0,0
164202,-100,4,3,1,35,0,0
165035,-100,4,3,1,35,0,0
165127,-100,4,3,1,35,0,0
165313,-100,4,3,1,35,0,0
165405,-100,4,3,1,35,0,0
165498,-100,4,3,1,35,0,0
165590,-100,4,3,1,35,0,0
165683,-100,4,3,1,35,0,0
166053,-100,4,3,3,35,0,0
166424,-100,4,3,3,35,0,0
166609,-100,4,3,3,35,0,0
166979,-100,4,3,3,35,0,0
167165,-100,4,3,1,35,0,0
169016,-100,4,3,1,35,0,0
169757,-100,4,3,1,35,0,0
169850,-100,4,3,1,35,0,0
169942,-100,4,3,1,35,0,0
170035,-100,4,3,1,35,0,0
170127,-100,4,3,1,35,0,0
170220,-100,4,3,1,35,0,0
170313,-100,4,3,1,35,0,0
170498,-100,4,3,1,35,0,0
171239,-100,4,3,1,35,0,0
171331,-100,4,3,1,35,0,0
171424,-100,4,3,1,35,0,0
171794,-100,4,3,1,35,0,0
171887,-100,4,3,1,35,0,0
171979,-100,4,3,1,35,0,0
172627,-100,4,3,1,35,0,0
172720,-100,4,3,1,35,0,0
172813,-100,4,3,1,35,0,0
172905,-100,4,3,1,35,0,0
173090,-100,4,3,1,35,0,0
173646,-100,4,3,1,35,0,0
173739,-100,4,3,1,35,0,0
173831,-100,4,3,1,35,0,0
173924,-100,4,3,1,35,0,0
174016,-100,4,3,1,35,0,0
174202,-100,4,3,1,35,0,0
175498,-100,4,3,1,35,0,0
175590,-100,4,3,1,35,0,0
175683,-100,4,3,1,35,0,0
175776,-100,4,3,1,35,0,0
175868,-100,4,3,1,35,0,0
175961,-100,4,3,1,35,0,0
176053,-100,4,3,1,35,0,0
177442,-100,4,3,1,35,0,0
177535,-100,4,3,1,35,0,0
178646,-100,4,3,1,35,0,0
179016,-100,4,3,1,35,0,0
179387,-100,4,3,1,35,0,0
179479,-100,4,3,1,35,0,0
179572,-100,4,3,1,35,0,0
180035,-100,4,3,2,35,0,0
180683,-100,4,3,1,35,0,0
180868,-100,4,3,1,35,0,0
181609,-100,4,3,1,35,0,0
181702,-100,4,3,1,35,0,0
181794,-100,4,3,1,35,0,0
181887,-100,4,3,1,35,0,0
181979,-100,4,3,1,35,0,0
182998,-100,4,3,1,35,0,0
183088,-100,4,3,1,35,0,0
183183,-100,4,3,1,35,0,0
183276,-100,4,3,1,35,0,0
183371,-100,4,3,1,35,0,0
183461,-100,4,3,1,35,0,0
183553,-100,4,3,1,35,0,0
183646,-100,4,3,1,35,0,0
183739,-100,4,3,1,35,0,0
183831,-100,4,3,1,35,0,0
184479,-100,4,3,1,35,0,0
184572,-100,4,3,1,35,0,0
184665,-100,4,3,1,35,0,0
184942,-100,4,3,1,35,0,0
185313,-100,4,3,1,35,0,0
185498,-100,4,3,1,35,0,0
185590,-100,4,3,1,35,0,0
185683,-100,4,3,1,35,0,0
185776,-100,4,3,1,35,0,0
185868,-100,4,3,1,35,0,0
186331,-100,4,3,1,35,0,0
186424,-100,4,3,1,35,0,0
186794,-100,4,3,1,35,0,0
187165,-100,4,3,1,35,0,0
187720,-100,4,3,1,35,0,0
187813,-100,4,3,1,35,0,0
187905,-100,4,3,1,35,0,0
188924,-100,4,3,1,35,0,0
189016,-100,4,3,1,35,0,0
189294,-100,4,3,1,35,0,0
189387,-100,4,3,1,35,0,0
189665,-100,4,3,1,35,0,0
189757,-100,4,3,1,35,0,0
190313,-100,4,3,1,35,0,0
190405,-100,4,3,1,35,0,0
190498,-100,4,3,1,35,0,0

[Colours]
Combo1 : 255,255,128
Combo2 : 147,201,255
Combo3 : 128,64,0
Combo4 : 128,255,128

[HitObjects]
67,76,7535,6,0,B|-25:166|39:293|186:322|252:204|232:128|232:128|305:229|259:364,1,660,0|0,0:0|0:0,0:0:0:0:
256,192,10498,12,0,13461,0:0:0:0:
261,327,14942,6,0,L|388:338,1,110,0|2,0:0|0:1,0:0:0:0:
469,346,15683,2,0,L|457:218,1,110,2|0,0:1|0:0,0:0:0:0:
237,211,17905,6,0,L|109:222,1,110,0|8,0:0|0:1,0:0:0:0:
29,230,18646,2,0,L|40:102,1,110,8|0,0:1|0:0,0:0:0:0:
348,67,20868,6,0,L|475:78,1,110,0|0,0:0|0:0,0:0:0:0:
497,167,21609,2,0,L|369:178,1,110,0|0,0:0|0:0,0:0:0:0:
164,67,23831,6,0,L|36:78,1,110,0|8,0:0|0:1,0:0:0:0:
15,167,24572,2,0,L|142:178,1,110,0|0,0:0|0:0,0:0:0:0:
256,192,25683,1,0,0:0:0:0:
470,319,26794,6,0,L|342:330,1,110,0|0,0:0|0:0,0:0:0:0:
268,291,27535,2,0,L|140:302,1,110,0|0,0:0|0:0,0:0:0:0:
42,65,29757,6,0,L|169:53,1,110,0|8,0:0|0:1,0:0:0:0:
244,93,30498,2,0,L|371:81,1,110,8|0,0:1|0:0,0:0:0:0:
470,319,32720,6,0,L|342:330,1,110,2|2,0:2|0:2,0:0:0:0:
268,291,33461,2,0,L|140:302,1,110,2|2,0:2|0:2,0:0:0:0:
42,65,35683,6,0,L|169:53,1,110,2|2,0:2|0:2,0:0:0:0:
244,93,36424,2,0,L|371:81,1,110,2|2,0:2|0:2,0:0:0:0:
280,312,37535,1,2,0:2:0:0:
280,312,38646,6,0,B|335:293|385:327|385:327|441:367|506:339,2,220,4|8|0,0:1|0:0|1:0,0:0:0:0:
452,257,40683,2,0,P|448:195|459:147,1,110,8|0,0:0|1:0,0:0:0:0:
314,93,41609,6,0,P|285:203|378:198,2,220,0|8|0,1:0|0:0|1:0,0:0:0:0:
194,229,43646,2,0,P|137:225|84:236,1,110,8|0,0:0|1:0,0:0:0:0:
0,97,44572,6,0,B|55:78|105:112|105:112|161:152|226:124,2,220,0|8|0,1:0|0:0|1:0,0:0:0:0:
171,37,46609,2,0,P|215:38|285:60,1,110,8|0,0:0|1:0,0:0:0:0:
428,158,47535,6,0,P|329:214|310:123,2,220,0|8|0,1:0|0:0|1:0,0:0:0:0:
476,269,49387,1,0,0:0:0:0:
476,269,49572,2,0,P|427:303|314:309,1,165,8|0,0:0|0:0,0:0:0:0:
223,378,50498,6,0,L|212:258,1,110,0|0,1:0|0:0,0:0:0:0:
118,295,51239,2,0,L|128:175,1,110,8|8,0:0|0:0,0:0:0:0:
73,102,51979,1,8,0:0:0:0:
272,51,52720,1,0,0:0:0:0:
73,102,53461,6,0,L|192:91,1,110,0|0,1:0|0:0,0:0:0:0:
272,51,54202,2,0,L|391:61,1,110,8|8,0:0|0:0,0:0:0:0:
475,29,54942,1,8,0:0:0:0:
475,29,55498,2,0,B|465:138|465:138|485:200,1,165,8|8,0:0|0:0,0:0:0:0:
463,288,56424,6,0,L|343:298,1,110,0|0,1:0|0:0,0:0:0:0:
382,202,57165,2,0,L|262:191,1,110,8|8,0:0|0:0,0:0:0:0:
180,230,57905,1,8,0:0:0:0:
180,230,58461,2,0,B|190:121|190:121|170:59,1,165,8|8,0:0|0:0,0:0:0:0:
99,134,59387,5,8,0:0:0:0:
60,188,62350,6,0,B|121:166|126:110|126:110|155:170|213:175,1,220,4|8,1:1|0:0,0:0:0:0:
296,125,63461,2,0,L|364:128,1,55,0|2,0:0|0:0,0:0:0:0:
429,67,64016,1,8,0:2:0:0:
429,67,64202,2,0,P|450:150|397:218,1,165,2|2,1:3|1:3,0:0:0:0:
476,343,65313,6,0,B|439:297|381:299|381:299|322:317|300:384,1,220,0|8,1:0|0:0,0:0:0:0:
221,320,66424,2,0,L|153:323,1,55,0|2,0:0|0:0,0:0:0:0:
122,299,66794,2,0,B|98:249|98:249|118:183,1,110,0|2,1:0|0:0,0:0:0:0:
212,183,67535,2,0,P|236:117|216:67,1,110,8|0,0:0|0:0,0:0:0:0:
141,28,68276,6,0,L|363:24,1,220,0|8,1:0|0:0,0:0:0:0:
360,24,70127,2,0,P|334:108|381:181,1,165,2|2,1:3|1:3,0:0:0:0:
410,197,70868,2,0,B|416:224|416:224|409:273|409:273|416:323,1,110,0|0,0:0|1:0,0:0:0:0:
413,305,71979,5,8,0:0:0:0:
231,225,72720,2,0,L|290:223,1,55,8|8,0:0|0:0,0:0:0:0:
323,315,73276,2,0,L|264:313,1,55,8|8,0:0|0:0,0:0:0:0:
185,367,73831,1,8,0:0:0:0:
109,300,74202,6,0,B|90:246|114:213|114:213|88:177|88:177|108:132|81:83,1,220,4|8,1:1|0:0,0:0:0:0:
184,108,75313,2,0,L|252:111,1,55,2|0,0:0|0:0,0:0:0:0:
318,51,75868,1,0,0:0:0:0:
318,51,76054,2,0,P|401:30|469:83,1,165,2|2,1:3|1:3,0:0:0:0:
512,240,77165,6,0,B|450:256|430:310|430:310|442:251|382:192,1,220,2|8,1:3|0:0,0:0:0:0:
337,288,78276,2,0,L|269:291,1,55,2|0,0:0|0:0,0:0:0:0:
234,277,78646,2,0,B|210:227|210:227|225:174,1,110,0|2,1:0|0:0,0:0:0:0:
290,99,79387,2,0,P|224:75|173:91,1,110,8|0,0:0|0:0,0:0:0:0:
95,50,80128,6,0,L|99:272,1,220,2|8,1:3|0:0,0:0:0:0:
98,269,81979,2,0,P|182:243|255:290,1,165,2|0,1:3|1:0,0:0:0:0:
264,323,82720,2,0,B|320:328|320:328|376:311,1,110,0|2,0:0|1:3,0:0:0:0:
462,161,83831,5,8,0:0:0:0:
288,137,84572,2,0,L|286:196,1,55,8|8,0:0|0:0,0:0:0:0:
375,149,85128,2,0,L|373:203,1,55,8|8,0:0|0:0,0:0:0:0:
462,161,85683,2,0,L|458:286,1,110,8|0,0:0|0:0,0:0:0:0:
164,187,86794,6,0,P|216:188|274:197,2,110,12|0|0,0:0|0:0|0:0,0:0:0:0:
86,250,87905,2,0,P|67:165|114:102,1,165,2|2,1:3|1:3,0:0:0:0:
256,84,89016,6,0,B|330:108|401:100|401:100|434:82|452:46,1,220,0|8,1:0|0:0,0:0:0:0:
503,239,90498,2,0,P|422:198|338:212,1,165,0|0,1:0|0:0,0:0:0:0:
303,220,91239,1,8,0:0:0:0:
147,342,91979,6,0,P|110:221|19:230,1,220,0|8,1:0|0:0,0:0:0:0:
34,223,93276,1,0,0:0:0:0:
176,202,93831,2,0,P|231:212|293:205,1,110,2|8,1:3|0:0,0:0:0:0:
318,244,94387,2,0,P|368:223|421:233,1,110,2|0,1:3|0:0,0:0:0:0:
451,272,94942,6,0,L|442:43,2,220,0|8|8,1:0|0:0|0:0,0:0:0:0:
444,56,97905,2,0,B|336:72|336:72|269:54,1,165,4|8,1:1|0:2,0:0:0:0:
232,65,98646,6,0,L|109:74,2,110,8|2|0,0:0|0:0|0:0,0:0:0:0:
308,128,99757,2,0,P|327:213|276:275,1,165,2|2,1:3|1:3,0:0:0:0:
371,383,100868,2,0,B|306:343|226:367|226:367|182:371|152:352,1,220,2|8,1:3|0:0,0:0:0:0:
15,218,102350,6,0,P|96:259|180:245,1,165,0|8,1:0|0:2,0:0:0:0:
208,222,103091,1,8,0:0:0:0:
346,80,103831,2,0,P|445:41|512:116,1,220,2|8,1:3|0:0,0:0:0:0:
512,116,105127,1,0,0:0:0:0:
423,235,105683,6,0,P|416:288|442:336,1,110,2|10,1:3|0:0,0:0:0:0:
392,332,106239,2,0,P|332:333|282:378,1,110,0|0,1:0|0:0,0:0:0:0:
243,357,106794,2,0,L|14:348,2,220,2|8|0,1:3|0:0|0:0,0:0:0:0:
292,309,121609,6,0,B|347:290|397:324|397:324|452:312|504:349,2,220,0|2|0,0:0|0:1|0:0,0:0:0:0:
423,227,123646,2,0,P|419:165|430:117,1,110,0|0,0:0|0:0,0:0:0:0:
253,71,124572,6,0,P|253:184|341:155,2,220,0|8|0,0:0|0:1|0:0,0:0:0:0:
165,230,126609,2,0,P|116:257|56:256,1,110,2|0,0:1|0:0,0:0:0:0:
244,271,127535,6,0,B|299:252|349:286|349:286|404:274|456:311,2,220,0|2|0,0:0|0:1|0:0,0:0:0:0:
375,189,129572,2,0,P|371:127|382:79,1,110,0|0,0:0|0:0,0:0:0:0:
207,23,130498,6,0,P|273:94|193:150,2,220,0|8|0,0:0|0:1|0:0,0:0:0:0:
101,129,132535,2,0,P|115:207|186:245,1,165,2|0,0:1|0:0,0:0:0:0:
151,332,133461,6,0,L|271:321,1,110,8|0,0:2|0:0,0:0:0:0:
359,315,134202,2,0,L|369:195,1,110,0|8,0:0|0:2,0:0:0:0:
467,204,134942,2,0,L|347:193,1,110,8|0,0:2|0:0,0:0:0:0:
259,187,135683,2,0,L|249:67,1,110,0|8,0:0|0:2,0:0:0:0:
150,74,136424,6,0,L|269:63,1,110,8|0,0:2|0:0,0:0:0:0:
348,107,137165,2,0,B|386:100|386:100|467:117,1,110,0|8,0:0|0:2,0:0:0:0:
388,186,137905,1,8,0:2:0:0:
483,211,138276,1,0,0:0:0:0:
483,211,138461,2,0,B|495:266|495:266|479:386,1,165,8|8,0:2|0:2,0:0:0:0:
384,320,139387,6,0,L|264:330,1,110,8|0,0:2|0:0,0:0:0:0:
212,251,140128,2,0,L|92:240,1,110,0|8,0:0|0:2,0:0:0:0:
22,299,140868,2,0,B|7:245|7:245|19:179,1,110,8|8,0:1|0:1,0:0:0:0:
40,148,141424,2,0,B|149:138|149:138|199:97,1,165,8|8,0:1|0:1,0:0:0:0:
110,46,142350,5,8,0:1:0:0:
193,227,145313,6,0,B|299:206|299:206|363:219,1,165,4|0,1:1|0:0,0:0:0:0:
402,229,146053,1,8,0:0:0:0:
450,241,146239,2,0,L|447:309,2,55,0|0|0,0:0|0:0|0:0,0:0:0:0:
455,142,146979,1,0,1:0:0:0:
455,142,147165,2,0,L|459:21,1,110,0|8,0:0|0:0,0:0:0:0:
414,53,147720,1,0,0:0:0:0:
414,53,148276,6,0,B|308:32|308:32|244:45,1,165,0|0,0:0|0:0,0:0:0:0:
203,50,149016,1,8,0:0:0:0:
105,29,149387,2,0,L|95:98,1,55,0|0,1:0|0:0,0:0:0:0:
52,104,149757,1,0,0:0:0:0:
131,162,150127,1,0,0:0:0:0:
38,198,150498,2,0,B|29:256|29:256|49:306,1,110,8|0,0:0|0:0,0:0:0:0:
133,353,151239,6,0,L|249:340,1,110,0|0,0:0|1:0,0:0:0:0:
263,296,151794,1,0,0:0:0:0:
351,340,152165,1,0,0:0:0:0:
351,340,152350,2,0,B|361:279|361:279|330:220,1,110,0|0,0:0|0:0,0:0:0:0:
271,164,153090,2,0,P|349:179|392:158,1,110,0|8,0:0|0:0,0:0:0:0:
412,137,153646,1,0,0:0:0:0:
412,137,153831,2,0,B|406:110|406:110|413:61|413:61|406:11,1,110,0|0,0:0|0:0,0:0:0:0:
314,24,154572,6,0,L|319:87,2,55,0|0|8,1:0|0:0|0:0,0:0:0:0:
223,50,155313,1,0,0:0:0:0:
81,94,155868,1,8,0:0:0:0:
81,94,156053,2,0,L|86:30,2,55,0|0|8,0:0|1:0|0:0,0:0:0:0:
118,128,156609,1,0,0:0:0:0:
118,128,157165,6,0,B|139:234|139:234|126:298,1,165,4|0,1:0|0:0,0:0:0:0:
84,314,157905,1,8,0:0:0:0:
92,362,158091,2,0,L|24:359,2,55,0|0|0,0:0|0:0|0:0,0:0:0:0:
190,366,158831,1,0,1:0:0:0:
190,366,159017,2,0,L|311:370,1,110,0|8,0:0|0:0,0:0:0:0:
344,347,159572,1,0,0:0:0:0:
344,347,160128,6,0,B|365:241|365:241|352:177,1,165,0|0,0:0|0:0,0:0:0:0:
347,136,160868,1,8,0:0:0:0:
449,108,161239,2,0,L|442:163,2,55
372,38,161979,1,0,0:0:0:0:
275,59,162350,2,0,B|217:68|217:68|167:48,1,110,8|0,0:0|0:0,0:0:0:0:
72,27,163091,6,0,L|84:143,1,110,0|0,0:0|1:0,0:0:0:0:
56,177,163646,1,0,0:0:0:0:
147,214,164017,1,0,0:0:0:0:
147,214,164202,2,0,B|157:272|157:272|137:338,1,110,0|0,0:0|0:0,0:0:0:0:
239,302,164942,2,0,B|297:292|297:292|363:312,1,110,0|8,0:0|0:0,0:0:0:0:
382,340,165498,1,0,0:0:0:0:
382,340,165683,2,0,P|424:345|454:329,1,55,0|0,0:0|0:0,0:0:0:0:
475,312,166053,6,0,P|457:254|478:195,1,110,4|0,1:1|0:0,0:0:0:0:
441,166,166609,2,0,P|459:108|438:49,1,110,4|0,1:1|0:0,0:0:0:0:
402,38,167165,2,0,B|347:54|297:35|297:35|235:6|174:33|165:92|195:128|244:130|262:99,1,330,4|8,1:1|0:0,0:0:0:0:
58,126,169016,6,0,L|65:249,1,110,4|2,0:1|1:3,0:0:0:0:
13,320,169757,2,0,B|66:325|66:325|136:313,1,110,8|0,0:0|0:0,0:0:0:0:
221,316,170498,2,0,B|276:306|276:306|329:311,1,110,0|2,0:0|0:0,0:0:0:0:
397,383,171239,1,8,0:0:0:0:
422,287,171609,1,0,0:0:0:0:
506,235,171979,6,0,L|500:106,1,110,0|2,0:0|1:3,0:0:0:0:
451,121,172535,1,0,0:0:0:0:
401,116,172720,2,0,B|352:132|352:132|288:122,1,110,8|0,0:0|0:0,0:0:0:0:
206,77,173461,2,0,L|200:206,1,110,0|2,0:0|0:0,0:0:0:0:
151,191,174017,1,0,1:0:0:0:
101,196,174202,2,0,L|23:203,2,55,8|2|0,0:0|0:0|0:0,0:0:0:0:
140,286,174942,6,0,L|254:296,1,110,0|2,0:0|1:3,0:0:0:0:
329,354,175683,2,0,L|443:343,1,110,8|0,0:0|0:0,0:0:0:0:
486,358,176239,1,2,0:0:0:0:
483,259,176609,1,0,1:0:0:0:
483,259,176794,2,0,L|480:181,1,55,2|0,0:0|1:0,0:0:0:0:
456,160,177165,2,0,B|404:152|404:152|347:164,1,110,8|0,0:0|0:0,0:0:0:0:
302,76,177905,6,0,L|186:67,2,110,0|2|8,0:0|1:3|0:0,0:0:0:0:
347,164,179016,1,0,0:0:0:0:
387,254,179387,2,0,B|342:259|342:259|227:227|227:227|172:232,1,220,0|2,0:0|0:0,0:0:0:0:
108,39,180868,6,0,L|115:162,1,110,4|2,0:1|1:3,0:0:0:0:
62,236,181609,2,0,B|115:241|115:241|185:229,1,110,8|0,0:0|0:0,0:0:0:0:
225,313,182350,2,0,B|280:303|280:303|333:308,1,110,0|2,0:0|0:0,0:0:0:0:
399,382,183091,1,8,0:0:0:0:
496,366,183461,1,0,0:0:0:0:
433,289,183831,6,0,L|427:160,1,110,0|2,0:0|1:3,0:0:0:0:
437,130,184387,1,0,0:0:0:0:
449,82,184572,2,0,B|400:98|400:98|336:88,1,110,8|0,0:0|0:0,0:0:0:0:
257,37,185313,2,0,L|128:43,1,110,0|2,0:0|0:0,0:0:0:0:
116,81,185869,1,0,1:0:0:0:
66,76,186054,2,0,L|-12:69,2,55,8|2|0,0:0|0:0|0:0,0:0:0:0:
58,174,186794,6,0,L|48:288,1,110,0|2,0:0|1:3,0:0:0:0:
35,381,187535,2,0,L|149:370,1,110,8|0,0:0|0:0,0:0:0:0:
193,363,188091,1,2,0:0:0:0:
271,303,188461,1,0,1:0:0:0:
271,303,188646,2,0,L|349:306,1,55,2|0,0:0|1:0,0:0:0:0:
370,282,189017,2,0,B|375:231|375:231|363:174,1,110,8|0,0:0|0:0,0:0:0:0:
401,82,189757,6,0,L|517:73,2,110,0|2|8,0:0|1:3|0:0,0:0:0:0:
302,96,190868,1,0,0:0:0:0:
363,173,191239,1,0,0:0:0:0:
