osu file format v14

[General]
AudioFilename: audio.mp3
AudioLeadIn: 0
PreviewTime: 62276
Countdown: 0
SampleSet: None
StackLeniency: 0.4
Mode: 0
LetterboxInBreaks: 0
WidescreenStoryboard: 0

[Editor]
Bookmarks: 59016,68942,92646
DistanceSpacing: 1.2
BeatDivisor: 4
GridSize: 8
TimelineZoom: 2.3

[Metadata]
Title:New Friends
TitleUnicode:New Friends
Artist:Shindig
ArtistUnicode:Shindig
Creator:GreenHue
Version:Insane
Source:
Tags:squirrelpascals Canderos KKipalt Ultima Fox NightOwl Collective
BeatmapID:1602030
BeatmapSetID:761932

[Difficulty]
HPDrainRate:5
CircleSize:5
OverallDifficulty:7
ApproachRate:9
SliderMultiplier:1.4
SliderTickRate:1

[Events]
//Background and Video events
0,0,"New Friends BG.jpg",0,0
//Break Periods
2,109757,121009
//Storyboard Layer 0 (Background)
//Storyboard Layer 1 (Fail)
//Storyboard Layer 2 (Pass)
//Storyboard Layer 3 (Foreground)
//Storyboard Sound Samples

[TimingPoints]
128,370.37037037037,4,3,1,35,1,0
7535,-100,4,3,1,15,0,0
9757,-76.9230769230769,4,3,1,35,0,0
14942,-166.666666666667,4,3,1,35,0,0
33831,-166.666666666667,4,3,1,35,0,0
38646,-166.666666666667,4,3,1,35,0,0
39016,-166.666666666667,4,3,2,35,0,0
50498,-125,4,3,2,35,0,0
57905,-125,4,3,2,35,0,0
59387,-125,4,3,1,35,0,0
59510,-125,4,3,1,5,0,0
60220,-125,4,3,1,5,0,0
60313,-166.666666666667,4,3,1,35,0,0
60498,-166.666666666667,4,3,1,35,0,0
60683,-166.666666666667,4,3,1,5,0,0
61979,-166.666666666667,4,3,1,5,0,0
62350,-83.3333333333333,4,3,1,72,0,0
62998,-83.3333333333333,4,3,1,5,0,0
63090,-83.3333333333333,4,3,1,72,0,0
64294,-83.3333333333333,4,3,1,5,0,0
64387,-166.666666666667,4,3,1,72,0,0
64479,-83.3333333333333,4,3,1,5,0,0
64572,-83.3333333333333,4,3,1,72,0,0
64665,-83.3333333333333,4,3,1,5,0,0
64757,-125,4,3,1,72,0,0
65220,-125,4,3,1,5,0,0
65313,-125,4,3,1,72,0,0
66794,-83.3333333333333,4,3,1,72,0,0
66887,-100,4,3,1,5,0,0
66979,-100,4,3,1,72,0,0
67535,-83.3333333333333,4,3,1,72,0,0
67627,-100,4,3,1,5,0,0
67720,-100,4,3,1,72,0,0
68276,-125,4,3,1,72,0,0
68553,-125,4,3,1,5,0,0
68646,-125,4,3,1,72,0,0
68924,-125,4,3,1,5,0,0
69016,-100,4,3,1,72,0,0
69850,-100,4,3,1,72,0,0
69942,-100,4,3,1,72,0,0
70127,-83.3333333333333,4,3,1,72,0,0
70220,-83.3333333333333,4,3,1,5,0,0
70313,-166.666666666667,4,3,1,72,0,0
70405,-83.3333333333333,4,3,1,5,0,0
70498,-55.5555555555556,4,3,1,72,0,0
70683,-83.3333333333333,4,3,1,72,0,0
70776,-83.3333333333333,4,3,1,5,0,0
70868,-55.5555555555556,4,3,1,72,0,0
70961,-55.5555555555556,4,3,1,72,0,0
71053,-55.5555555555556,4,3,1,72,0,0
71146,-55.5555555555556,4,3,1,72,0,0
71239,-83.3333333333333,4,3,1,72,0,0
71887,-83.3333333333333,4,3,1,5,0,0
71979,-83.3333333333333,4,3,1,72,0,0
72072,-83.3333333333333,4,3,1,72,0,0
72165,-83.3333333333333,4,3,1,72,0,0
72257,-83.3333333333333,4,3,1,72,0,0
72720,-125,4,3,1,72,0,0
72813,-125,4,3,1,5,0,0
72905,-125,4,3,1,72,0,0
72998,-125,4,3,1,5,0,0
73276,-125,4,3,1,72,0,0
73368,-125,4,3,1,5,0,0
73461,-125,4,3,1,72,0,0
73553,-125,4,3,1,5,0,0
73831,-125,4,3,1,72,0,0
74109,-125,4,3,1,5,0,0
74202,-83.3333333333333,4,3,1,72,0,0
74665,-83.3333333333333,4,3,1,5,0,0
74757,-83.3333333333333,4,3,1,72,0,0
76146,-83.3333333333333,4,3,1,5,0,0
76239,-125,4,3,1,72,0,0
76331,-125,4,3,1,5,0,0
76424,-83.3333333333333,4,3,1,72,0,0
76516,-83.3333333333333,4,3,1,5,0,0
76609,-125,4,3,1,72,0,0
77072,-125,4,3,1,5,0,0
77165,-125,4,3,1,72,0,0
77627,-125,4,3,1,5,0,0
77720,-125,4,3,1,72,0,0
78646,-100,4,3,1,72,0,0
78739,-100,4,3,1,5,0,0
78831,-100,4,3,1,72,0,0
79479,-100,4,3,1,5,0,0
79572,-100,4,3,1,72,0,0
80405,-100,4,3,1,5,0,0
80498,-55.5555555555556,4,3,1,72,0,0
80776,-55.5555555555556,4,3,1,5,0,0
80868,-55.5555555555556,4,3,1,72,0,0
81146,-55.5555555555556,4,3,1,5,0,0
81239,-83.3333333333333,4,3,1,72,0,0
81609,-83.3333333333333,4,3,1,72,0,0
81794,-83.3333333333333,4,3,1,72,0,0
81979,-83.3333333333333,4,3,1,72,0,0
82072,-83.3333333333333,4,3,1,5,0,0
82165,-166.666666666667,4,3,1,72,0,0
82257,-166.666666666667,4,3,1,72,0,0
82350,-83.3333333333333,4,3,1,72,0,0
82442,-83.3333333333333,4,3,1,5,0,0
82535,-83.3333333333333,4,3,1,72,0,0
82627,-83.3333333333333,4,3,1,5,0,0
82720,-50,4,3,1,72,0,0
82813,-50,4,3,1,5,0,0
82905,-50,4,3,1,72,0,0
83090,-125,4,3,1,72,0,0
83368,-125,4,3,1,5,0,0
83461,-166.666666666667,4,3,1,72,0,0
83553,-166.666666666667,4,3,1,5,0,0
83646,-166.666666666667,4,3,1,72,0,0
83831,-100,4,3,1,72,0,0
84479,-100,4,3,1,5,0,0
84572,-100,4,3,1,72,0,0
86424,-200,4,3,1,72,0,0
86609,-200,4,3,1,72,0,0
86794,-100,4,3,1,72,0,0
87905,-83.3333333333333,4,3,1,72,0,0
87998,-83.3333333333333,4,3,1,5,0,0
88090,-166.666666666667,4,3,1,72,0,0
88183,-166.666666666667,4,3,1,5,0,0
88276,-83.3333333333333,4,3,1,72,0,0
88368,-83.3333333333333,4,3,1,5,0,0
88461,-83.3333333333333,4,3,1,72,0,0
88553,-83.3333333333333,4,3,1,5,0,0
88646,-100,4,3,1,72,0,0
89016,-125,4,3,1,72,0,0
90590,-125,4,3,1,5,0,0
90683,-125,4,3,1,72,0,0
91331,-83.3333333333333,4,3,1,5,0,0
91424,-83.3333333333333,4,3,1,72,0,0
91979,-100,4,3,1,72,0,0
94014,-166.666666666667,4,3,1,72,0,0
94109,-166.666666666667,4,3,1,5,0,0
94202,-50,4,3,1,72,0,0
94294,-50,4,3,1,5,0,0
94387,-62.5,4,3,1,72,0,0
94479,-62.5,4,3,1,5,0,0
94572,-100,4,3,1,72,0,0
94665,-100,4,3,1,72,0,0
94757,-100,4,3,1,72,0,0
94850,-100,4,3,1,72,0,0
95683,-100,4,3,1,72,0,0
95776,-100,4,3,1,72,0,0
95868,-100,4,3,1,72,0,0
95961,-100,4,3,1,72,0,0
97905,-83.3333333333333,4,3,1,72,0,0
98368,-83.3333333333333,4,3,1,5,0,0
98461,-83.3333333333333,4,3,1,72,0,0
98646,-100,4,3,1,72,0,0
99757,-83.3333333333333,4,3,1,72,0,0
99850,-83.3333333333333,4,3,1,5,0,0
99942,-166.666666666667,4,3,1,72,0,0
100035,-166.666666666667,4,3,1,5,0,0
100127,-83.3333333333333,4,3,1,72,0,0
100220,-83.3333333333333,4,3,1,72,0,0
100313,-83.3333333333333,4,3,1,72,0,0
100405,-83.3333333333333,4,3,1,5,0,0
100498,-83.3333333333333,4,3,1,72,0,0
100868,-125,4,3,1,72,0,0
101979,-100,4,3,1,72,0,0
102350,-83.3333333333333,4,3,1,72,0,0
102442,-83.3333333333333,4,3,1,72,0,0
102535,-83.3333333333333,4,3,1,72,0,0
103183,-83.3333333333333,4,3,1,72,0,0
103276,-83.3333333333333,4,3,1,72,0,0
103831,-100,4,3,1,72,0,0
104109,-100,4,3,1,5,0,0
104202,-55.5555555555556,4,3,1,72,0,0
104479,-55.5555555555556,4,3,1,5,0,0
104572,-55.5555555555556,4,3,1,72,0,0
104850,-55.5555555555556,4,3,1,5,0,0
105683,-83.3333333333333,4,3,1,72,0,0
105776,-83.3333333333333,4,3,1,5,0,0
105868,-83.3333333333333,4,3,1,72,0,0
105961,-166.666666666667,4,3,1,72,0,0
106053,-166.666666666667,4,3,1,72,0,0
106239,-83.3333333333334,4,3,1,72,0,0
106331,-166.666666666667,4,3,1,5,0,0
106424,-100,4,3,1,72,0,0
106516,-100,4,3,1,72,0,0
106609,-100,4,3,1,72,0,0
106702,-100,4,3,1,72,0,0
106794,-83.3333333333334,4,3,1,72,0,0
107072,-83.3333333333334,4,3,1,5,0,0
107165,-83.3333333333334,4,3,1,72,0,0
107535,-83.3333333333334,4,3,1,72,0,0
108276,-83.3333333333334,4,3,1,72,0,0
121609,-166.666666666667,4,3,1,35,0,0
133461,-111.111111111111,4,3,1,35,0,0
140868,-111.111111111111,4,3,1,35,0,0
142350,-166.666666666666,4,3,1,35,0,0
143831,-166.666666666666,4,3,1,35,0,0
145313,-99.9999999999999,4,3,1,35,0,0
145868,-83.3333333333333,4,3,1,35,0,0
145961,-99.9999999999999,4,3,1,5,0,0
146053,-99.9999999999999,4,3,1,35,0,0
146239,-83.3333333333333,4,3,1,35,0,0
146331,-83.3333333333333,4,3,1,5,0,0
146424,-83.3333333333333,4,3,1,35,0,0
146516,-83.3333333333333,4,3,1,5,0,0
146609,-100,4,3,1,35,0,0
147257,-99.9999999999999,4,3,1,5,0,0
147350,-99.9999999999999,4,3,1,35,0,0
147535,-83.3333333333333,4,3,1,35,0,0
147627,-83.3333333333333,4,3,1,5,0,0
147720,-100,4,3,1,35,0,0
147813,-100,4,3,1,5,0,0
147905,-100,4,3,1,35,0,0
148368,-100,4,3,1,5,0,0
148461,-100,4,3,1,35,0,0
148924,-100,4,3,1,5,0,0
149016,-100,4,3,1,35,0,0
149479,-100,4,3,1,5,0,0
149572,-100,4,3,1,35,0,0
150220,-100,4,3,1,5,0,0
150313,-100,4,3,1,35,0,0
150776,-100,4,3,1,5,0,0
150868,-100,4,3,1,35,0,0
152257,-100,4,3,1,5,0,0
152350,-100,4,3,1,35,0,0
152720,-50,4,3,1,35,0,0
153090,-100,4,3,1,35,0,0
153183,-100,4,3,1,5,0,0
153276,-100,4,3,1,35,0,0
153461,-83.3333333333333,4,3,1,35,0,0
153553,-83.3333333333333,4,3,1,35,0,0
153646,-100,4,3,1,35,0,0
153739,-100,4,3,1,5,0,0
153831,-100,4,3,1,35,0,0
154850,-100,4,3,1,5,0,0
154942,-50,4,3,1,35,0,0
155313,-100,4,3,1,35,0,0
155405,-100,4,3,1,5,0,0
155498,-100,4,3,1,35,0,0
155868,-62.5,4,3,1,35,0,0
155961,-62.5,4,3,1,5,0,0
156053,-83.3333333333333,4,3,1,35,0,0
156146,-83.3333333333333,4,3,1,5,0,0
156239,-83.3333333333333,4,3,1,35,0,0
156331,-83.3333333333333,4,3,1,5,0,0
156424,-62.5,4,3,1,35,0,0
156516,-62.5,4,3,1,5,0,0
156609,-83.3333333333333,4,3,1,35,0,0
156702,-83.3333333333333,4,3,1,5,0,0
156794,-83.3333333333333,4,3,1,35,0,0
156887,-83.3333333333333,4,3,1,5,0,0
156979,-83.3333333333333,4,3,1,35,0,0
157072,-83.3333333333333,4,3,1,5,0,0
157165,-62.5,4,3,1,35,0,0
157720,-83.3333333333333,4,3,1,35,0,0
157813,-83.3333333333333,4,3,1,35,0,0
157905,-83.3333333333333,4,3,1,35,0,0
157998,-83.3333333333333,4,3,1,5,0,0
158090,-83.3333333333333,4,3,1,35,0,0
158183,-83.3333333333333,4,3,1,5,0,0
158276,-83.3333333333333,4,3,1,35,0,0
158368,-83.3333333333333,4,3,1,5,0,0
158461,-83.3333333333333,4,3,1,35,0,0
159109,-83.3333333333333,4,3,1,5,0,0
159202,-83.3333333333333,4,3,1,35,0,0
159387,-62.5,4,3,1,35,0,0
159479,-62.5,4,3,1,35,0,0
159572,-83.3333333333333,4,3,1,35,0,0
159665,-83.3333333333333,4,3,1,5,0,0
159757,-200,4,3,1,35,0,0
159850,-200,4,3,1,5,0,0
160127,-100,4,3,1,35,0,0
160220,-100,4,3,1,5,0,0
160313,-100,4,3,1,35,0,0
161331,-100,4,3,1,5,0,0
161424,-100,4,3,1,35,0,0
161794,-62.5,4,3,1,35,0,0
161887,-100,4,3,1,35,0,0
161979,-100,4,3,1,35,0,0
162072,-100,4,3,1,5,0,0
162165,-100,4,3,1,35,0,0
162627,-100,4,3,1,5,0,0
162720,-100,4,3,1,35,0,0
163090,-83.3333333333333,4,3,1,35,0,0
163368,-83.3333333333333,4,3,1,5,0,0
163461,-55.5555555555556,4,3,1,35,0,0
163739,-55.5555555555556,4,3,1,5,0,0
163831,-55.5555555555556,4,3,1,35,0,0
164016,-100,4,3,1,35,0,0
164109,-100,4,3,1,5,0,0
164202,-100,4,3,1,35,0,0
165035,-100,4,3,1,5,0,0
165127,-100,4,3,1,35,0,0
165313,-55.5555555555556,4,3,1,35,0,0
165405,-55.5555555555556,4,3,1,35,0,0
165498,-83.3333333333333,4,3,1,35,0,0
165590,-83.3333333333333,4,3,1,5,0,0
165683,-71.4285714285714,4,3,1,35,0,0
166053,-50,4,3,3,35,0,0
166424,-50,4,3,3,35,0,0
166609,-50,4,3,3,35,0,0
166979,-50,4,3,3,35,0,0
167165,-50,4,3,1,35,0,0
169016,-100,4,3,1,35,0,0
169757,-55.5555555555556,4,3,1,35,0,0
169850,-55.5555555555556,4,3,1,35,0,0
169942,-83.3333333333333,4,3,1,35,0,0
170035,-83.3333333333333,4,3,1,5,0,0
170127,-83.3333333333333,4,3,1,35,0,0
170220,-83.3333333333333,4,3,1,5,0,0
170313,-83.3333333333333,4,3,1,35,0,0
170498,-100,4,3,1,35,0,0
171239,-55.5555555555556,4,3,1,35,0,0
171331,-55.5555555555556,4,3,1,5,0,0
171424,-55.5555555555556,4,3,1,35,0,0
171794,-83.3333333333333,4,3,1,35,0,0
171887,-83.3333333333333,4,3,1,5,0,0
171979,-83.3333333333333,4,3,1,35,0,0
172627,-83.3333333333333,4,3,1,5,0,0
172720,-55.5555555555556,4,3,1,35,0,0
172813,-55.5555555555556,4,3,1,5,0,0
172905,-55.5555555555556,4,3,1,35,0,0
173090,-83.3333333333333,4,3,1,35,0,0
173646,-55.5555555555556,4,3,1,35,0,0
173739,-55.5555555555556,4,3,1,35,0,0
173831,-83.3333333333333,4,3,1,35,0,0
173924,-83.3333333333333,4,3,1,5,0,0
174016,-83.3333333333333,4,3,1,35,0,0
174202,-100,4,3,1,35,0,0
175498,-83.3333333333333,4,3,1,35,0,0
175590,-83.3333333333333,4,3,1,5,0,0
175683,-83.3333333333333,4,3,1,35,0,0
175776,-83.3333333333333,4,3,1,5,0,0
175868,-83.3333333333333,4,3,1,35,0,0
175961,-83.3333333333333,4,3,1,5,0,0
176053,-100,4,3,1,35,0,0
177442,-100,4,3,1,5,0,0
177535,-100,4,3,1,35,0,0
178646,-50,4,3,1,35,0,0
179016,-100,4,3,1,35,0,0
179387,-50,4,3,1,35,0,0
179479,-50,4,3,1,5,0,0
179572,-50,4,3,1,35,0,0
180035,-50,4,3,2,35,0,0
180683,-50,4,3,1,35,0,0
180868,-100,4,3,1,35,0,0
181609,-55.5555555555556,4,3,1,35,0,0
181702,-55.5555555555556,4,3,1,5,0,0
181794,-83.3333333333333,4,3,1,35,0,0
181887,-83.3333333333333,4,3,1,5,0,0
181979,-83.3333333333333,4,3,1,35,0,0
182998,-83.3333333333333,4,3,1,5,0,0
183088,-50,4,3,1,35,0,0
183183,-50,4,3,1,35,0,0
183276,-83.3333333333333,4,3,1,35,0,0
183371,-83.3333333333333,4,3,1,5,0,0
183461,-83.3333333333333,4,3,1,35,0,0
183553,-83.3333333333333,4,3,1,5,0,0
183646,-83.3333333333333,4,3,1,35,0,0
183739,-83.3333333333333,4,3,1,5,0,0
183831,-83.3333333333333,4,3,1,35,0,0
184479,-83.3333333333333,4,3,1,5,0,0
184572,-50,4,3,1,35,0,0
184665,-50,4,3,1,5,0,0
184757,-50,4,3,1,35,0,0
184942,-100,4,3,1,35,0,0
185313,-100,4,3,1,35,0,0
185498,-55.5555555555556,4,3,1,35,0,0
185590,-55.5555555555556,4,3,1,5,0,0
185683,-83.3333333333333,4,3,1,35,0,0
185776,-83.3333333333333,4,3,1,5,0,0
185868,-83.3333333333333,4,3,1,35,0,0
186331,-83.3333333333333,4,3,1,5,0,0
186424,-83.3333333333333,4,3,1,35,0,0
186794,-100,4,3,1,35,0,0
187165,-50,4,3,1,35,0,0
187442,-50,4,3,1,5,0,0
187535,-50,4,3,1,35,0,0
187720,-83.3333333333333,4,3,1,35,0,0
187813,-83.3333333333333,4,3,1,5,0,0
187905,-100,4,3,1,35,0,0
188924,-100,4,3,1,5,0,0
189016,-100,4,3,1,35,0,0
189294,-100,4,3,1,5,0,0
189387,-100,4,3,1,35,0,0
189665,-100,4,3,1,5,0,0
189757,-100,4,3,1,35,0,0
190313,-83.3333333333333,4,3,1,35,0,0
190405,-83.3333333333333,4,3,1,5,0,0
190498,-83.3333333333333,4,3,1,35,0,0

[Colours]
Combo1 : 130,196,255
Combo2 : 255,255,128
Combo3 : 128,255,128
Combo4 : 128,64,64

[HitObjects]
72,76,7535,6,0,L|54:77,46,17.5
140,74,9757,5,0,0:0:0:0:
140,74,9850,2,0,B|246:73|246:73|302:134|302:134|410:135,1,272.999987503052
482,73,10498,1,0,0:0:0:0:
503,112,10590,1,0,0:0:0:0:
503,157,10683,1,0,0:0:0:0:
483,198,10776,1,0,0:0:0:0:
455,234,10868,6,0,L|480:314,2,60.6666638895672
345,214,11239,2,0,L|321:128,2,60.6666638895672
270,310,11609,5,0,0:0:0:0:
180,333,11794,1,0,0:0:0:0:
107,291,11979,1,0,0:0:0:0:
60,212,12165,1,0,0:0:0:0:
75,93,12442,5,0,0:0:0:0:
194,52,12905,5,0,0:0:0:0:
305,154,13461,5,0,0:0:0:0:
413,73,14942,6,0,P|370:64|323:79,1,83.9999974365235,0|2,0:0|0:1,0:0:0:0:
263,122,15683,1,2,0:1:0:0:
194,79,16053,2,0,B|149:37|92:80|103:127|103:127|114:167|152:184|106:269|106:269|153:245|199:276,1,377.999988464356,0|0,0:0|0:0,0:0:0:0:
147,340,17905,5,0,0:0:0:0:
189,270,18276,1,8,0:1:0:0:
277,292,18646,1,8,0:1:0:0:
342,232,19016,2,0,B|394:237|434:212|434:212|475:229,1,125.999996154785,0|0,0:0|0:0,0:0:0:0:
474,332,19757,2,0,B|511:265|462:224|462:224|484:188|484:188|460:152|483:114|483:114|453:155|406:186|341:169|298:114|302:13|389:-26|495:33|443:97|418:103|395:87,1,587.999982055665,0|0,0:0|0:0,0:0:0:0:
272,192,22720,1,2,0:1:0:0:
296,254,22905,2,0,P|216:233|218:150,1,167.999994873047,0|0,0:0|0:0,0:0:0:0:
211,159,23831,5,0,0:0:0:0:
360,203,24202,1,8,0:1:0:0:
360,203,24387,2,0,B|377:254|359:288|359:288|340:324|354:366,1,167.999994873047,0|0,0:0|0:0,0:0:0:0:
421,334,25683,1,0,0:0:0:0:
421,334,25868,1,2,0:1:0:0:
370,180,26424,1,0,0:0:0:0:
413,230,26609,2,0,B|449:193|442:161|431:125|406:97|351:87|315:115|284:155|301:197|322:229|322:229|244:193|178:227|178:227|116:257|70:205|70:205|113:225|156:202,1,671.999979492188,0|0,0:0|0:0,0:0:0:0:
197,115,29757,6,0,P|181:71|139:42,1,83.9999974365235,0|8,0:0|0:1,0:0:0:0:
115,126,30498,1,8,0:1:0:0:
178,263,30868,2,0,B|220:293|269:264|269:264|243:298|247:342|267:367|301:389|328:384|361:365|379:346|379:302|355:280|311:272|317:319,1,377.999988464356,0|0,0:0|0:0,0:0:0:0:
431,320,32720,6,0,P|415:270|391:241,1,83.9999974365235,2|2,0:2|0:2,0:0:0:0:
329,188,33461,1,2,0:2:0:0:
265,242,33831,2,0,B|221:182|266:129|266:129|202:153|159:85|159:85|215:28|280:62,1,377.999988464356,2|0,0:2|0:0,0:0:0:0:
316,185,35683,5,2,0:2:0:0:
214,297,36053,1,2,0:2:0:0:
131,227,36424,1,2,0:2:0:0:
47,152,36794,1,2,0:2:0:0:
214,297,37535,1,2,0:2:0:0:
159,96,38276,1,2,0:2:0:0:
243,142,38646,6,0,L|301:139,3,41.9999987182618,4|0|0|8,0:1|0:0|0:0|0:0,0:0:0:0:
346,183,39387,2,0,L|387:185,3,41.9999987182618,8|0|0|0,0:0|1:0|0:0|0:0,0:0:0:0:
280,226,40127,2,0,L|290:319,1,83.9999974365235,0|0,1:0|0:0,0:0:0:0:
210,309,40683,2,0,P|168:297|123:310,2,83.9999974365235,8|0|0,0:0|1:0|0:0,0:0:0:0:
155,217,41609,6,0,L|152:159,3,41.9999987182618,0|0|0|8,1:0|0:0|0:0|0:0,0:0:0:0:
102,119,42350,2,0,L|104:77,3,41.9999987182618,8|0|0|0,0:0|1:0|0:0|0:0,0:0:0:0:
69,10,43090,2,0,P|114:1|156:19,1,83.9999974365235,0|0,1:0|0:0,0:0:0:0:
212,55,43646,2,0,P|254:66|300:49,2,83.9999974365235,8|0|0,0:0|1:0|0:0,0:0:0:0:
319,130,44572,6,0,L|361:133,3,41.9999987182618,0|0|0|8,1:0|0:0|0:0|0:0,0:0:0:0:
428,99,45313,2,0,L|469:101,3,41.9999987182618,8|0|0|0,0:0|1:0|0:0|0:0,0:0:0:0:
427,176,46053,2,0,P|435:219|418:262,1,83.9999974365235,0|0,1:0|0:0,0:0:0:0:
367,310,46609,2,0,P|401:332|454:326,2,83.9999974365235,8|0|0,0:0|1:0|0:0,0:0:0:0:
314,269,47535,6,0,L|319:216,3,41.9999987182618,0|0|0|8,1:0|0:0|0:0|0:0,0:0:0:0:
262,175,48276,2,0,L|257:122,3,41.9999987182618,8|0|0|0,0:0|1:0|0:0|0:0,0:0:0:0:
246,58,49016,2,0,P|199:47|160:64,1,83.9999974365235,0|0,1:0|0:0,0:0:0:0:
120,9,49572,2,0,P|97:51|111:101,1,83.9999974365235,8|0,0:0|1:0,0:0:0:0:
147,146,50127,2,0,L|139:202,1,41.9999987182618,0|0,0:0|0:0,0:0:0:0:
203,247,50498,6,0,L|275:252,1,56,0|0,1:0|0:0,0:0:0:0:
329,179,50868,2,0,L|257:184,1,56,0|8,0:0|0:0,0:0:0:0:
221,98,51239,2,0,L|293:103,1,56,8|0,0:0|1:0,0:0:0:0:
347,30,51609,2,0,L|275:35,1,56,8|0,0:0|0:0,0:0:0:0:
374,102,51979,2,0,P|417:68|422:12,1,112,8|0,0:0|1:0,0:0:0:0:
347,177,52535,2,0,P|374:181|402:177,1,56,8|0,0:0|0:0,0:0:0:0:
463,109,52905,1,0,1:0:0:0:
506,201,53090,2,0,L|497:287,1,84,8|0,0:0|0:0,0:0:0:0:
484,333,53461,6,0,B|455:325|455:325|411:334,1,56,0|0,1:0|0:0,0:0:0:0:
375,245,53831,2,0,B|404:253|404:253|448:244,1,56,0|8,0:0|0:0,0:0:0:0:
308,212,54202,2,0,B|279:204|279:204|235:213,1,56,8|0,0:0|1:0,0:0:0:0:
203,127,54572,2,0,B|232:135|232:135|276:126,1,56,8|0,0:0|0:0,0:0:0:0:
189,55,54942,2,0,P|145:79|135:149,1,112,8|0,0:0|1:0,0:0:0:0:
172,228,55498,2,0,P|160:281|113:308,1,112,8|0,0:0|1:0,0:0:0:0:
21,237,56053,2,0,B|65:222|65:222|110:239,1,84,8|0,0:0|0:0,0:0:0:0:
144,261,56424,6,0,P|174:269|212:254,1,56,0|0,1:0|0:0,0:0:0:0:
282,209,56794,2,0,P|312:201|350:216,1,56,0|8,0:0|0:0,0:0:0:0:
266,277,57165,2,0,P|274:307|259:345,1,56,8|0,0:0|1:0,0:0:0:0:
211,192,57535,2,0,P|206:165|214:139,1,56,8|0,0:0|0:0,0:0:0:0:
318,114,57905,5,8,0:0:0:0:
351,114,58090,1,0,0:0:0:0:
181,136,58276,1,0,1:0:0:0:
344,195,58461,1,8,0:0:0:0:
375,195,58646,1,0,0:0:0:0:
182,226,58831,1,0,1:0:0:0:
340,285,59016,1,8,0:0:0:0:
374,285,59202,1,0,0:0:0:0:
263,318,59387,6,0,B|263:209|263:209|246:168|246:168|246:70,1,252,8|0,0:0|0:0,0:0:0:0:
277,13,60498,2,0,P|310:62|219:11,1,335.999989746094
399,21,62350,6,0,B|412:59|412:59|404:92|404:92|415:127|415:127|411:160|411:160|421:188|421:188|412:229|412:229|428:266|428:266|418:309,1,293.999991027832,4|0,1:1|0:0,0:0:0:0:
403,339,63090,1,8,0:0:0:0:
190,238,63276,1,0,0:0:0:0:
278,349,63461,1,0,0:0:0:0:
249,134,63646,1,2,0:0:0:0:
249,134,64016,5,8,0:2:0:0:
215,141,64109,1,8,0:2:0:0:
181,132,64202,2,0,P|161:126|136:131,1,41.9999987182618,2|0,1:3|0:0,0:0:0:0:
217,39,64387,2,0,L|223:18,1,20.9999993591309
243,232,64572,2,0,P|266:234|292:227,1,41.9999987182618,8|0,0:0|0:0,0:0:0:0:
325,63,64757,2,0,B|357:50|357:50|379:54|379:54|427:36|471:59,1,140,2|0,1:3|0:0,0:0:0:0:
379,159,65313,6,0,P|386:134|441:195,1,168,0|0,1:0|0:0,0:0:0:0:
410,314,66053,1,8,0:0:0:0:
325,309,66239,1,0,0:0:0:0:
264,251,66424,1,0,0:0:0:0:
259,167,66609,1,2,0:0:0:0:
334,38,66794,6,0,P|356:29|389:31,1,41.9999987182618,0|0,1:0|0:0,0:0:0:0:
381,139,66979,1,0,0:0:0:0:
161,119,67165,1,2,0:0:0:0:
336,223,67350,1,0,0:0:0:0:
240,60,67535,2,0,L|221:17,1,41.9999987182618,8|0,0:0|0:0,0:0:0:0:
152,216,67720,1,2,0:0:0:0:
110,72,67905,1,0,0:0:0:0:
240,167,68090,1,0,0:0:0:0:
200,303,68276,6,0,B|155:313|155:313|106:301,1,84,0|0,1:0|0:0,0:0:0:0:
53,263,68646,2,0,P|41:217|62:169,1,84,2|0,0:0|0:0,0:0:0:0:
110,72,69016,1,8,0:0:0:0:
105,223,69942,5,8,0:2:0:0:
130,234,70035,1,8,0:2:0:0:
162,225,70127,2,0,P|185:223|224:232,1,41.9999987182618,2|0,1:3|0:0,0:0:0:0:
136,129,70313,2,0,L|137:108,1,20.9999993591309
241,319,70498,1,8,0:0:0:0:
105,223,70683,2,0,P|78:221|44:228,1,41.9999987182618,2|0,1:3|0:0,0:0:0:0:
254,143,70868,5,0,0:0:0:0:
294,132,70961,1,0,0:0:0:0:
337,119,71053,1,0,0:0:0:0:
374,107,71146,1,0,0:0:0:0:
414,95,71239,2,0,B|431:149|431:149|403:189|403:189|452:255|409:338|317:324,1,293.999991027832,0|0,1:0|0:0,0:0:0:0:
238,216,71979,5,8,0:0:0:0:
217,200,72072,1,0,0:0:0:0:
197,150,72165,1,2,0:0:0:0:
210,87,72257,1,0,0:0:0:0:
267,50,72350,1,0,0:0:0:0:
344,88,72473,6,0,L|428:81,1,55.9999982910157
489,138,72720,6,0,L|508:171,1,28,8|0,0:0|0:0,0:0:0:0:
424,253,72905,2,0,L|396:209,1,28,8|0,0:0|0:0,0:0:0:0:
196,50,73276,2,0,L|177:83,1,28,8|0,0:0|0:0,0:0:0:0:
235,205,73461,2,0,L|254:172,1,28,8|0,0:0|0:0,0:0:0:0:
74,275,73831,2,0,B|58:239|58:239|61:225|61:225|44:178,1,84,8|0,0:0|0:0,0:0:0:0:
0,140,74202,6,0,B|54:112|107:139|107:139|166:169|223:121,1,209.999993591309,4|0,1:1|0:0,0:0:0:0:
201,136,74757,1,8,0:2:0:0:
201,136,74850,1,8,0:2:0:0:
201,136,74942,5,8,0:0:0:0:
295,235,75127,1,0,0:0:0:0:
416,95,75313,1,2,0:0:0:0:
345,325,75498,1,0,0:0:0:0:
170,113,75868,5,0,0:0:0:0:
264,163,76053,2,0,P|288:164|331:156,1,41.9999987182618,2|0,1:3|0:0,0:0:0:0:
148,27,76239,2,0,L|144:-19,1,28,0|0,0:0|0:0,0:0:0:0:
100,193,76424,2,0,L|93:250,1,41.9999987182618,8|0,0:0|0:0,0:0:0:0:
275,47,76609,2,0,B|302:36|302:36|321:42|321:42|369:14|424:51,1,140,2|0,1:3|0:0,0:0:0:0:
363,115,77165,6,0,B|343:184|343:184|361:253,1,140,2|0,1:3|0:0,0:0:0:0:
360,249,77720,1,8,0:2:0:0:
360,249,77813,1,8,0:2:0:0:
360,249,77905,5,8,0:0:0:0:
338,372,78090,1,0,0:0:0:0:
216,301,78276,1,2,0:0:0:0:
204,160,78461,1,0,0:0:0:0:
308,67,78646,6,0,L|330:32,1,35,0|0,1:0|0:0,0:0:0:0:
210,231,78831,1,0,0:0:0:0:
189,42,79016,1,2,0:0:0:0:
329,182,79202,1,0,0:0:0:0:
119,138,79387,2,0,L|57:128,1,35,8|0,0:0|0:0,0:0:0:0:
210,231,79572,1,0,0:0:0:0:
308,67,79757,1,0,0:0:0:0:
435,189,79942,1,0,0:0:0:0:
299,236,80127,6,0,P|287:180|311:126,1,105,2|0,1:3|0:0,0:0:0:0:
195,57,80498,2,0,B|228:63|228:63|249:90|249:90|284:56|328:56|365:100,1,188.999994232178,0|8,0:0|0:2,0:0:0:0:
453,192,80868,2,0,P|487:190|429:131,1,188.999994232178,8|0,0:0|0:0,0:0:0:0:
379,236,81239,2,0,B|337:246|337:246|273:232,2,83.9999974365235
195,105,81979,6,0,P|192:75|197:50,1,41.9999987182618,2|0,1:3|0:0,0:0:0:0:
279,157,82165,1,8,0:2:0:0:
161,260,82350,2,0,L|118:247,1,41.9999987182618,8|0,0:0|0:0,0:0:0:0:
82,119,82535,2,0,L|41:131,1,41.9999987182618,0|0,1:0|0:0,0:0:0:0:
18,228,82720,2,0,P|17:263|28:297,1,70,0|0,0:0|0:0,0:0:0:0:
139,356,82905,1,0,0:0:0:0:
172,356,82998,1,0,0:0:0:0:
204,344,83090,6,0,P|247:337|299:346,1,84,2|0,1:3|0:0,0:0:0:0:
359,365,83461,2,0,L|367:388,1,20.9999993591309,0|0,0:0|0:0,0:0:0:0:
275,168,83646,1,8,0:2:0:0:
411,97,83831,2,0,B|355:79|355:79|319:116|319:116|277:85|235:102|209:128|209:168,1,245,8|0,0:0|0:0,0:0:0:0:
294,242,84572,5,8,0:0:0:0:
103,147,84757,1,8,0:0:0:0:
275,273,85127,5,8,0:0:0:0:
127,118,85313,1,8,0:0:0:0:
219,348,85683,5,8,0:0:0:0:
274,99,86053,6,0,L|322:102,3,35,0|0|0|0,0:0|0:0|0:0|0:0,0:0:0:0:
376,44,86424,6,0,P|392:42|414:45,1,35,0|0,0:0|0:0,0:0:0:0:
408,263,86794,6,0,L|388:121,1,140,12|0,0:0|0:0,0:0:0:0:
410,44,87350,1,0,0:0:0:0:
319,157,87535,1,0,0:0:0:0:
172,116,87720,5,8,0:2:0:0:
172,116,87813,1,8,0:2:0:0:
172,116,87905,2,0,P|144:113|111:118,1,41.9999987182618,2|0,1:3|0:0,0:0:0:0:
266,58,88090,2,0,L|274:22,1,20.9999993591309,0|0,0:0|0:0,0:0:0:0:
207,205,88276,2,0,P|205:230|208:258,1,41.9999987182618,8|0,0:0|0:0,0:0:0:0:
73,43,88461,2,0,P|71:18|74:-10,1,41.9999987182618,2|0,1:3|0:0,0:0:0:0:
40,206,88646,2,0,P|76:212|130:196,1,70,0|0,0:0|0:0,0:0:0:0:
292,276,89016,6,0,L|286:356,1,56,0|0,1:0|0:0,0:0:0:0:
377,231,89387,2,0,L|383:151,1,56,2|0,0:0|0:0,0:0:0:0:
230,63,89757,2,0,P|311:96|392:62,1,168,8|2,0:0|0:0,0:0:0:0:
309,0,90498,6,0,L|308:43,1,28,0|0,1:0|0:0,0:0:0:0:
173,138,90683,1,8,0:2:0:0:
156,99,90776,1,8,0:2:0:0:
140,60,90868,1,2,0:0:0:0:
255,181,91053,1,0,0:0:0:0:
215,33,91239,2,0,L|209:0,1,28,8|0,0:0|0:0,0:0:0:0:
98,187,91424,1,2,0:0:0:0:
275,93,91609,1,0,0:0:0:0:
75,44,91794,1,2,0:0:0:0:
129,274,91979,6,0,P|90:282|43:264,1,70,0|0,1:0|0:0,0:0:0:0:
187,182,92350,2,0,P|226:174|273:192,1,70,2|0,0:0|0:0,0:0:0:0:
351,258,92720,1,8,0:0:0:0:
323,351,93461,5,0,0:0:0:0:
329,159,93646,1,8,0:2:0:0:
329,159,93739,1,8,0:2:0:0:
329,159,93831,1,2,1:3:0:0:
416,261,94016,2,0,L|431:292,1,20.9999993591309
420,132,94202,2,0,L|428:62,1,70,8|0,0:0|0:0,0:0:0:0:
262,241,94387,2,0,L|238:186,1,56,2|0,1:3|0:0,0:0:0:0:
157,84,94572,1,0,0:0:0:0:
131,71,94665,1,0,0:0:0:0:
103,65,94757,1,0,0:0:0:0:
76,75,94850,1,0,0:0:0:0:
53,90,94942,6,0,L|60:171,1,70,0|0,1:0|0:0,0:0:0:0:
146,269,95313,2,0,L|138:187,1,70,2|0,0:0|0:0,0:0:0:0:
99,344,95683,1,8,0:0:0:0:
121,353,95776,1,0,0:0:0:0:
166,350,95868,1,0,0:0:0:0:
208,323,95961,1,0,0:0:0:0:
250,262,96053,1,0,0:0:0:0:
213,194,96177,6,0,L|211:147,1,46.6666666666667
326,158,96424,5,8,0:0:0:0:
150,47,96609,1,8,0:0:0:0:
308,188,96979,5,8,0:0:0:0:
183,23,97165,1,8,0:0:0:0:
111,199,97535,5,8,0:0:0:0:
393,165,97905,6,0,B|341:132|293:163|293:163|245:191|197:151,1,209.999993591309,4|0,1:1|0:0,0:0:0:0:
172,128,98461,1,8,0:2:0:0:
145,107,98553,1,8,0:2:0:0:
120,92,98646,2,0,P|80:82|47:88,1,70,8|0,0:0|0:0,0:0:0:0:
45,174,99016,2,0,P|38:214|57:261,1,70,2|2,0:0|0:1,0:0:0:0:
193,203,99387,6,0,B|157:193|157:193|122:204,1,70,0|2,0:0|0:1,0:0:0:0:
260,286,99757,2,0,P|285:289|326:282,1,41.9999987182618,2|0,1:3|0:0,0:0:0:0:
282,152,99942,2,0,L|283:124,1,20.9999993591309,0|0,0:0|0:0,0:0:0:0:
184,44,100127,1,0,0:0:0:0:
359,41,100313,2,0,L|362:0,1,41.9999987182618,2|0,1:3|0:0,0:0:0:0:
195,197,100498,1,0,0:0:0:0:
268,15,100683,1,0,0:0:0:0:
353,217,100868,6,0,B|404:203|430:236|430:236|460:205|517:220,1,168,2|8,1:3|0:2,0:0:0:0:
481,345,101609,2,0,L|478:269,1,56,8|0,0:0|0:0,0:0:0:0:
444,128,101979,1,2,0:0:0:0:
376,296,102165,1,0,0:0:0:0:
280,143,102350,6,0,P|231:134|184:147,1,83.9999974365235,0|0,1:0|0:0,0:0:0:0:
237,214,102720,1,2,0:0:0:0:
304,65,102905,1,8,0:2:0:0:
444,128,103090,2,0,P|452:161|438:217,1,83.9999974365235,8|2,0:0|0:0,0:0:0:0:
306,256,103646,1,0,0:0:0:0:
290,347,103831,6,0,P|238:363|179:344,1,105,2|0,1:3|0:0,0:0:0:0:
127,295,104202,2,0,B|143:162|143:162|170:246,1,188.999994232178,0|8,0:0|0:2,0:0:0:0:
77,116,104572,2,0,P|34:53|118:103,1,251.999992309571,8|0,0:0|0:0,0:0:0:0:
211,81,105683,6,0,L|268:36,1,41.9999987182618,2|0,1:3|0:0,0:0:0:0:
76,178,105868,1,0,0:0:0:0:
103,29,106053,1,10,0:0:0:0:
198,186,106239,2,0,L|224:228,1,41.9999987182618,0|0,1:0|0:0,0:0:0:0:
343,17,106424,1,0,0:0:0:0:
347,51,106516,1,0,0:0:0:0:
351,86,106609,1,0,0:0:0:0:
354,121,106702,1,0,0:0:0:0:
360,158,106794,6,0,P|426:177|492:154,1,125.999996154785,2|0,1:3|0:0,0:0:0:0:
420,78,107165,1,0,0:0:0:0:
335,264,107350,1,2,0:0:0:0:
335,264,107442,1,0,0:0:0:0:
335,264,107535,1,8,0:0:0:0:
248,172,107905,1,0,0:0:0:0:
207,282,108276,5,0,0:0:0:0:
142,102,121609,6,0,P|168:98|199:108,1,41.9999987182618,0|0,0:0|0:0,0:0:0:0:
240,126,121979,2,0,P|260:128|281:124,1,41.9999987182618,2|0,0:1|0:0,0:0:0:0:
137,127,122350,2,0,P|163:123|194:133,1,41.9999987182618,2|0,0:1|0:0,0:0:0:0:
235,151,122720,2,0,P|255:153|276:149,1,41.9999987182618,0|8,0:0|0:1,0:0:0:0:
330,47,123646,1,0,0:0:0:0:
474,23,124572,6,0,P|478:49|468:80,1,41.9999987182618,0|0,0:0|0:0,0:0:0:0:
450,121,124942,2,0,P|447:141|451:162,1,41.9999987182618,8|0,0:1|0:0,0:0:0:0:
449,18,125313,2,0,P|453:44|443:75,1,41.9999987182618,8|0,0:1|0:0,0:0:0:0:
425,116,125683,2,0,P|422:136|426:157,1,41.9999987182618,0|0,0:0|0:0,0:0:0:0:
344,281,126609,1,2,0:1:0:0:
88,244,127535,6,0,P|114:240|145:250,1,41.9999987182618,0|0,0:0|0:0,0:0:0:0:
186,268,127905,2,0,P|206:270|227:266,1,41.9999987182618,2|0,0:1|0:0,0:0:0:0:
83,269,128276,2,0,P|109:265|140:275,1,41.9999987182618,2|0,0:1|0:0,0:0:0:0:
185,291,128646,2,0,P|205:293|226:289,1,41.9999987182618,0|8,0:0|0:1,0:0:0:0:
318,175,129572,1,0,0:0:0:0:
181,46,130498,6,0,P|177:72|187:103,1,41.9999987182618,0|0,0:0|0:0,0:0:0:0:
205,144,130868,2,0,P|207:164|203:185,1,41.9999987182618,8|0,0:1|0:0,0:0:0:0:
206,41,131239,2,0,P|202:66|212:98,1,41.9999987182618,8|0,0:1|0:0,0:0:0:0:
230,139,131609,2,0,P|232:159|228:180,1,41.9999987182618,0|0,0:0|0:0,0:0:0:0:
128,268,132535,1,2,0:1:0:0:
107,80,133090,1,0,0:0:0:0:
239,46,133461,6,0,P|274:40|318:54,1,62.9999980773926,8|0,0:2|0:0,0:0:0:0:
168,79,133831,2,0,P|137:85|106:79,1,62.9999980773926,0|8,0:0|0:2,0:0:0:0:
236,125,134202,2,0,P|271:119|315:133,1,62.9999980773926,0|0,0:0|0:0,0:0:0:0:
165,158,134572,2,0,P|134:164|103:158,1,62.9999980773926,8|0,0:2|0:0,0:0:0:0:
232,207,134942,6,0,L|226:283,1,62.9999980773926,8|0,0:2|0:0,0:0:0:0:
297,124,135313,1,0,0:0:0:0:
384,215,135498,2,0,P|414:222|445:217,2,62.9999980773926,8|0|0,0:2|0:0|0:0,0:0:0:0:
408,110,136053,1,8,0:2:0:0:
215,11,136424,6,0,L|207:93,1,62.9999980773926,8|0,0:2|0:0,0:0:0:0:
297,124,136794,2,0,L|304:206,1,62.9999980773926,0|8,0:0|0:2,0:0:0:0:
216,240,137165,2,0,L|208:322,1,62.9999980773926,0|0,0:0|0:0,0:0:0:0:
151,165,137535,2,0,P|118:160|83:168,1,62.9999980773926,8|0,0:2|0:0,0:0:0:0:
121,261,137905,5,8,0:2:0:0:
297,123,138276,1,0,0:0:0:0:
372,184,138461,2,0,P|402:188|433:180,2,62.9999980773926,8|0|0,0:2|0:0|0:0,0:0:0:0:
391,69,139016,1,8,0:2:0:0:
292,205,139387,6,0,B|285:241|285:241|293:278,1,62.9999980773926,8|0,0:2|0:0,0:0:0:0:
217,372,139757,2,0,B|224:336|224:336|216:299,1,62.9999980773926,0|8,0:0|0:2,0:0:0:0:
137,215,140127,2,0,B|131:240|131:240|138:276,1,62.9999980773926,0|0,0:0|0:0,0:0:0:0:
213,171,140498,2,0,B|218:145|218:145|211:109,1,62.9999980773926,8|0,0:2|0:0,0:0:0:0:
320,9,140868,5,8,0:1:0:0:
346,8,141053,1,8,0:1:0:0:
189,33,141239,1,8,0:1:0:0:
163,33,141424,1,8,0:1:0:0:
336,94,141609,1,8,0:1:0:0:
362,93,141794,1,8,0:1:0:0:
202,116,141979,1,8,0:1:0:0:
176,116,142165,1,8,0:1:0:0:
295,173,142350,6,0,L|342:172,2,41.9999987182618,8|0|0,0:1|0:0|0:0,0:0:0:0:
255,241,142905,2,0,L|208:242,2,41.9999987182618,0|0|0,0:0|0:0|0:0,0:0:0:0:
353,274,143831,5,0,0:0:0:0:
353,274,144202,1,0,0:0:0:0:
353,274,144572,1,0,0:0:0:0:
353,274,144942,1,0,0:0:0:0:
237,194,145313,6,0,P|234:160|246:112,1,70,4|0,1:1|0:0,0:0:0:0:
334,168,145683,1,0,1:0:0:0:
272,271,145868,2,0,L|240:320,1,41.9999987182618
180,384,146053,1,8,0:0:0:0:
122,228,146239,2,0,L|110:164,1,41.9999987182618
240,125,146424,2,0,L|220:186,1,41.9999987182618
13,237,146609,2,0,P|1:200|4:151,1,70
254,39,146979,5,0,1:0:0:0:
137,121,147165,2,0,L|80:124,1,35
200,208,147350,1,0,0:0:0:0:
282,121,147535,2,0,L|342:125,1,41.9999987182618,8|0,0:0|0:0,0:0:0:0:
404,10,147720,2,0,L|424:47,1,35,0|0,0:0|0:0,0:0:0:0:
472,129,147905,2,0,L|490:163,3,23.3333333333333,0|0|0|0,0:0|0:0|0:0|0:0,0:0:0:0:
284,247,148276,6,0,L|290:208,1,35
323,123,148461,1,0,0:0:0:0:
356,303,148646,1,0,1:0:0:0:
208,189,148831,2,0,P|203:163|195:139,1,35,0|0,0:0|0:0,0:0:0:0:
116,368,149016,1,0,0:0:0:0:
37,269,149202,1,0,0:0:0:0:
63,141,149387,2,0,L|77:84,1,35,0|0,1:0|0:0,0:0:0:0:
101,0,149572,1,0,0:0:0:0:
216,110,149757,5,0,0:0:0:0:
344,32,149942,1,8,0:0:0:0:
413,152,150127,2,0,P|413:170|408:191,1,35
356,301,150313,1,0,1:0:0:0:
323,155,150498,1,8,0:0:0:0:
453,53,150683,2,0,P|466:47|502:44,1,35
512,152,150868,1,0,0:0:0:0:
344,32,151053,1,0,0:0:0:0:
245,160,151239,6,0,B|256:196|256:196|248:227|248:227|261:265|241:308,1,140,0|0,0:0|1:0,0:0:0:0:
153,201,151794,2,0,P|115:194|64:224,1,70,0|8,0:0|0:0,0:0:0:0:
124,288,152165,2,0,L|132:341,1,35
16,154,152350,2,0,P|0:188|6:242,1,70,0|0,0:0|0:0,0:0:0:0:
103,101,152720,6,0,P|112:44|52:70,1,140,0|0,0:0|1:0,0:0:0:0:
215,46,153090,2,0,L|270:40,1,35,0|0,0:0|0:0,0:0:0:0:
342,27,153276,1,0,1:0:0:0:
287,154,153461,1,8,0:0:0:0:
482,50,153646,2,0,L|472:93,1,35
477,181,153831,2,0,L|471:210,3,23.3333333333333
289,316,154202,6,0,P|254:323|218:314,1,70,0|0,0:0|0:0,0:0:0:0:
110,231,154572,1,0,1:0:0:0:
122,336,154757,2,0,L|120:370,1,35
215,214,154942,2,0,B|215:158|215:158|197:127|197:127|197:68,1,140,8|0,0:0|0:0,0:0:0:0:
308,122,155313,2,0,P|325:122|343:120,1,35,0|0,0:0|0:0,0:0:0:0:
414,54,155498,1,0,0:0:0:0:
401,204,155683,5,0,0:0:0:0:
259,53,155868,2,0,P|262:25|285:-16,1,56,8|0,0:0|0:0,0:0:0:0:
308,122,156053,2,0,B|300:164,1,41.9999987182618
223,255,156239,2,0,B|214:213,1,41.9999987182618,0|0,1:0|0:0,0:0:0:0:
187,108,156424,2,0,B|175:77|145:46,1,56,8|0,0:0|0:0,0:0:0:0:
37,14,156609,2,0,B|31:56,1,41.9999987182618,0|0,0:0|0:0,0:0:0:0:
99,124,156794,2,0,B|93:166,1,41.9999987182618,0|0,0:0|0:0,0:0:0:0:
6,186,156979,2,0,B|0:228,1,41.9999987182618,0|0,0:0|0:0,0:0:0:0:
88,287,157165,6,0,P|144:305|195:286,1,112,4|0,1:0|0:0,0:0:0:0:
290,121,157535,1,0,1:0:0:0:
342,222,157720,1,0,0:0:0:0:
426,57,157905,2,0,L|480:60,1,41.9999987182618
290,121,158090,2,0,L|238:113,1,41.9999987182618
124,60,158276,2,0,L|82:66,1,41.9999987182618
0,210,158461,1,0,0:0:0:0:
381,131,158831,5,0,0:0:0:0:
262,254,159016,2,0,P|236:257|201:250,1,41.9999987182618
289,120,159202,1,0,1:0:0:0:
370,302,159387,1,8,0:0:0:0:
456,213,159572,2,0,P|481:216|507:211,1,41.9999987182618,0|0,0:0|0:0,0:0:0:0:
440,66,159757,2,0,L|443:83,1,17.5,0|0,0:0|0:0,0:0:0:0:
434,43,160127,6,0,L|468:40,1,35,0|0,0:0|0:0,0:0:0:0:
324,0,160313,1,0,0:0:0:0:
239,117,160498,2,0,P|197:123|158:113,1,70,0|0,1:0|0:0,0:0:0:0:
54,33,160868,1,8,0:0:0:0:
210,27,161053,1,0,0:0:0:0:
48,183,161239,2,0,L|43:240,1,35
91,357,161424,1,0,0:0:0:0:
181,240,161609,5,0,0:0:0:0:
278,355,161794,1,8,0:0:0:0:
403,285,161979,2,0,L|394:246,1,35
287,159,162165,1,0,1:0:0:0:
386,0,162350,1,8,0:0:0:0:
278,58,162535,2,0,P|258:59|226:54,1,35
386,148,162720,1,0,0:0:0:0:
500,72,162905,1,0,0:0:0:0:
285,159,163090,6,0,P|224:181|165:157,1,125.999996154785
107,103,163461,2,0,P|123:25|186:73,1,188.999994232178,0|0,1:0|0:0,0:0:0:0:
94,210,163831,1,8,0:0:0:0:
300,123,164016,2,0,B|290:156,1,35,0|0,0:0|0:0,0:0:0:0:
252,318,164202,2,0,P|313:347|388:314,1,140
290,157,164757,5,0,1:0:0:0:
321,276,164942,2,0,L|316:238,1,35,0|0,0:0|0:0,0:0:0:0:
384,152,165127,1,0,1:0:0:0:
276,67,165313,1,8,0:0:0:0:
206,194,165498,2,0,L|208:235,1,41.9999987182618,0|0,0:0|0:0,0:0:0:0:
180,104,165683,2,0,P|131:89|78:107,1,97.9999970092774,0|0,0:0|0:0,0:0:0:0:
121,230,166053,6,0,B|152:311|115:343|76:332|78:287|102:269|141:278|168:298|168:298|211:322|263:287,1,280,4|0,1:1|0:0,0:0:0:0:
326,263,166609,2,0,B|359:113|359:113|347:56|347:56|286:134,1,280,4|0,1:1|0:0,0:0:0:0:
264,170,167165,2,0,B|211:158|140:146|100:79|178:37|255:84|212:137|109:155|109:155|68:91|106:28|149:-2|224:2|263:52|261:103|261:103|304:111|304:111|347:56|347:56|360:119|360:119|425:132,1,840,4|8,1:1|0:0,0:0:0:0:
88,304,169016,6,0,P|123:311|162:302,1,70,4|0,0:1|0:0,0:0:0:0:
311,247,169387,2,0,P|276:240|237:249,1,70,2|0,1:3|0:0,0:0:0:0:
155,187,169757,1,8,0:0:0:0:
108,61,169942,2,0,P|84:59|55:64,1,41.9999987182618
259,107,170127,2,0,P|285:111|315:102,1,41.9999987182618,0|0,0:0|0:0,0:0:0:0:
396,21,170313,1,2,0:0:0:0:
489,106,170498,6,0,L|494:203,1,70,0|0,0:0|1:0,0:0:0:0:
484,201,170776,1,0,0:0:0:0:
470,225,170868,1,2,0:0:0:0:
370,109,171053,1,0,1:0:0:0:
279,213,171239,2,0,L|290:316,1,62.9999980773926,8|0,0:0|0:0,0:0:0:0:
298,363,171424,1,2,0:0:0:0:
151,187,171609,1,0,0:0:0:0:
57,280,171794,2,0,L|51:339,1,41.9999987182618,0|0,0:0|0:0,0:0:0:0:
79,154,171979,6,0,P|151:110|225:160,1,167.999994873047,0|2,0:0|1:3,0:0:0:0:
265,221,172535,2,0,P|287:226|329:215,1,41.9999987182618,0|0,0:0|0:0,0:0:0:0:
299,49,172720,2,0,L|287:120,1,62.9999980773926,8|0,0:0|0:0,0:0:0:0:
259,315,172905,1,0,0:0:0:0:
369,144,173090,2,0,B|413:129|413:129|468:145,1,83.9999974365235,0|2,0:0|0:0,0:0:0:0:
413,228,173461,5,0,0:0:0:0:
288,111,173646,1,8,0:0:0:0:
101,220,173831,2,0,L|46:197,1,41.9999987182618,2|0,0:0|0:0,0:0:0:0:
110,84,174016,1,0,1:0:0:0:
171,271,174202,1,8,0:0:0:0:
200,120,174387,2,0,L|211:30,1,70,2|0,0:0|0:0,0:0:0:0:
302,240,174757,1,0,0:0:0:0:
171,271,174942,6,0,P|135:278|84:266,1,70,0|0,0:0|0:0,0:0:0:0:
128,40,175313,1,2,1:3:0:0:
217,146,175498,2,0,L|225:217,1,41.9999987182618,0|0,0:0|0:0,0:0:0:0:
128,40,175683,2,0,L|120:111,1,41.9999987182618,8|0,0:0|0:0,0:0:0:0:
269,0,175868,2,0,L|277:71,1,41.9999987182618,0|0,0:0|0:0,0:0:0:0:
133,205,176053,2,0,P|93:206|61:189,1,70,0|2,0:0|0:0,0:0:0:0:
217,146,176424,5,0,0:0:0:0:
350,221,176609,1,0,1:0:0:0:
350,221,176702,1,0,0:0:0:0:
350,221,176794,1,2,0:0:0:0:
294,78,176979,1,0,1:0:0:0:
267,230,177165,1,8,0:0:0:0:
382,71,177350,2,0,L|385:22,1,35,2|0,0:0|0:0,0:0:0:0:
340,291,177535,1,0,0:0:0:0:
463,115,177720,1,0,0:0:0:0:
444,284,177905,6,0,L|435:359,1,70,0|0,0:0|0:0,0:0:0:0:
324,320,178276,2,0,P|289:329|243:314,1,70,2|0,1:3|0:0,0:0:0:0:
271,104,178646,2,0,B|271:160|271:160|289:191|289:191|289:239,1,140,8|0,0:0|0:0,0:0:0:0:
141,227,179016,2,0,L|132:309,1,70,0|2,0:0|0:0,0:0:0:0:
79,146,179387,6,0,B|46:162|46:162|16:137,1,70,0|0,0:0|0:0,0:0:0:0:
95,30,179572,1,8,0:0:0:0:
119,50,179665,1,0,0:0:0:0:
145,68,179757,1,2,0:0:0:0:
299,103,179942,1,0,1:0:0:0:
264,133,180035,1,2,0:0:0:0:
231,161,180127,5,2,0:0:0:0:
152,250,180313,1,4,0:0:0:0:
337,206,180498,1,4,0:0:0:0:
132,152,180683,1,0,1:0:0:0:
235,266,180868,6,0,L|227:360,1,70,4|0,0:1|0:0,0:0:0:0:
241,150,181239,1,2,1:3:0:0:
324,326,181424,1,0,0:0:0:0:
162,236,181609,2,0,B|126:227|126:227|84:236,1,62.9999980773926,8|0,0:0|0:0,0:0:0:0:
32,327,181794,2,0,P|50:334|72:336,1,41.9999987182618,0|0,0:0|0:0,0:0:0:0:
226,306,181979,2,0,P|250:271|252:217,1,83.9999974365235,0|2,0:0|0:0,0:0:0:0:
161,135,182350,5,0,0:0:0:0:
253,58,182535,1,0,1:0:0:0:
253,58,182627,1,0,0:0:0:0:
253,58,182720,1,2,0:0:0:0:
343,186,182905,2,0,L|351:249,1,41.9999987182618,0|0,1:0|0:0,0:0:0:0:
158,45,183090,1,8,0:0:0:0:
0,111,183276,2,0,P|1:131|9:150,1,41.9999987182618,2|0,0:0|0:0,0:0:0:0:
105,224,183461,2,0,L|105:287,1,41.9999987182618,0|0,0:0|0:0,0:0:0:0:
225,169,183646,2,0,P|234:147|238:127,1,41.9999987182618,0|0,0:0|0:0,0:0:0:0:
373,58,183831,6,0,L|351:167,1,83.9999974365235,0|0,0:0|0:0,0:0:0:0:
248,0,184202,1,2,1:3:0:0:
356,140,184387,2,0,L|345:194,1,41.9999987182618
456,24,184572,2,0,P|496:17|539:28,1,70,8|0,0:0|0:0,0:0:0:0:
356,140,184757,1,0,0:0:0:0:
444,264,184942,2,0,P|449:302|433:356,1,70,0|2,0:0|0:0,0:0:0:0:
278,229,185313,5,0,0:0:0:0:
190,314,185498,2,0,L|121:308,1,62.9999980773926,8|0,0:0|0:0,0:0:0:0:
41,237,185683,2,0,P|38:258|42:294,1,41.9999987182618,2|0,0:0|0:0,0:0:0:0:
117,101,185868,1,0,1:0:0:0:
172,198,186053,1,8,0:0:0:0:
41,131,186239,2,0,L|-6:126,1,41.9999987182618,2|0,0:0|0:0,0:0:0:0:
50,20,186424,1,0,0:0:0:0:
41,237,186609,1,0,0:0:0:0:
217,106,186794,6,0,P|254:100|300:111,1,70,0|0,0:0|0:0,0:0:0:0:
381,179,187165,2,0,P|458:199|395:133,1,210,2|0,1:3|0:0,0:0:0:0:
231,197,187535,1,8,0:0:0:0:
332,315,187720,2,0,P|335:336|329:379,1,41.9999987182618,0|0,0:0|0:0,0:0:0:0:
231,197,187905,2,0,L|155:189,1,70,0|2,0:0|0:0,0:0:0:0:
41,234,188276,5,0,0:0:0:0:
139,296,188461,1,0,1:0:0:0:
139,296,188553,1,0,0:0:0:0:
139,296,188646,1,2,0:0:0:0:
86,131,188831,2,0,L|98:93,1,35,0|0,1:0|0:0,0:0:0:0:
57,332,189016,1,8,0:0:0:0:
163,174,189202,2,0,L|188:143,1,35,2|0,0:0|0:0,0:0:0:0:
43,351,189387,1,0,0:0:0:0:
245,226,189572,2,0,L|289:197,1,35
257,335,189757,6,0,P|327:357|408:325,1,140,0|2,0:0|1:3,0:0:0:0:
459,277,190313,2,0,P|478:272|500:275,1,41.9999987182618,0|0,0:0|0:0,0:0:0:0:
461,130,190498,1,8,0:0:0:0:
263,222,190868,2,0,P|220:231|163:213,1,83.9999974365235,0|0,0:0|0:0,0:0:0:0:
99,156,191239,1,0,0:0:0:0:
