osu file format v14

[General]
AudioFilename: audio.mp3
AudioLeadIn: 0
PreviewTime: 62276
Countdown: 0
SampleSet: None
StackLeniency: 0.3
Mode: 0
LetterboxInBreaks: 0
WidescreenStoryboard: 0

[Editor]
DistanceSpacing: 1
BeatDivisor: 4
GridSize: 32
TimelineZoom: 1.8

[Metadata]
Title:New Friends
TitleUnicode:New Friends
Artist:Shindig
ArtistUnicode:Shindig
Creator:GreenHue
Version:Canderos' Hard
Source:
Tags:squirrelpascals Canderos KKipalt Ultima Fox NightOwl Collective
BeatmapID:1603854
BeatmapSetID:761932

[Difficulty]
HPDrainRate:4.8
CircleSize:3.8
OverallDifficulty:5.8
ApproachRate:7.8
SliderMultiplier:1.7
SliderTickRate:1

[Events]
//Background and Video events
0,0,"New Friends BG.jpg",0,0
//Break Periods
2,59587,61571
2,109757,132682
//Storyboard Layer 0 (Background)
//Storyboard Layer 1 (Fail)
//Storyboard Layer 2 (Pass)
//Storyboard Layer 3 (Foreground)
//Storyboard Sound Samples

[TimingPoints]
128,370.37037037037,4,3,1,35,1,0
7535,-100,4,3,1,15,0,0
9757,-100,4,3,1,35,0,0
14942,-200,4,3,1,35,0,0
38646,-133.333333333333,4,3,1,35,0,0
39016,-133.333333333333,4,3,2,35,0,0
41239,-100,4,3,2,35,0,0
41609,-133.333333333333,4,3,2,35,0,0
44202,-100,4,3,2,35,0,0
44572,-133.333333333333,4,3,2,35,0,0
47165,-100,4,3,2,35,0,0
47535,-133.333333333333,4,3,2,35,0,0
53090,-100,4,3,2,35,0,0
53461,-133.333333333333,4,3,2,35,0,0
56053,-100,4,3,2,35,0,0
56424,-133.333333333333,4,3,2,35,0,0
59387,-133.333333333333,4,3,1,35,0,0
60220,-133.333333333333,4,3,1,5,0,0
60313,-133.333333333333,4,3,1,35,0,0
61979,-133.333333333333,4,3,1,5,0,0
62350,-100,4,3,1,72,0,0
64665,-100,4,3,1,72,0,0
64757,-100,4,3,1,72,0,0
70590,-100,4,3,1,72,0,0
70683,-100,4,3,1,72,0,0
72813,-100,4,3,1,5,0,0
72905,-100,4,3,1,72,0,0
72998,-100,4,3,1,5,0,0
73276,-100,4,3,1,72,0,0
73368,-100,4,3,1,5,0,0
73461,-100,4,3,1,72,0,0
73553,-100,4,3,1,5,0,0
73831,-100,4,3,1,72,0,0
76516,-100,4,3,1,72,0,0
76609,-100,4,3,1,72,0,0
82442,-100,4,3,1,72,0,0
82535,-100,4,3,1,72,0,0
88368,-100,4,3,1,72,0,0
88461,-100,4,3,1,72,0,0
94294,-100,4,3,1,72,0,0
94387,-100,4,3,1,72,0,0
100220,-100,4,3,1,72,0,0
100313,-100,4,3,1,72,0,0
106146,-100,4,3,1,72,0,0
106239,-100,4,3,1,72,0,0
106794,-100,4,3,1,72,0,0
121609,-100,4,3,1,35,0,0
133461,-133.333333333333,4,3,1,35,0,0
136053,-100,4,3,1,35,0,0
136424,-133.333333333333,4,3,1,35,0,0
139016,-100,4,3,1,35,0,0
139387,-133.333333333333,4,3,1,35,0,0
142350,-200,4,3,1,35,0,0
143831,-200,4,3,1,35,0,0
145313,-100,4,3,1,35,0,0
147905,-100,4,3,1,35,0,0
148276,-100,4,3,1,35,0,0
166053,-100,4,3,3,50,0,1
166424,-100,4,3,3,35,0,0
166609,-90.9090909090909,4,3,3,60,0,1
166979,-90.9090909090909,4,3,3,35,0,0
167165,-83.3333333333333,4,3,1,72,0,1
168276,-83.3333333333333,4,3,1,35,0,0
169016,-100,4,3,1,35,0,0
171331,-100,4,3,1,35,0,0
171424,-100,4,3,1,35,0,0
174294,-100,4,3,1,35,0,0
174387,-100,4,3,1,35,0,0
177257,-100,4,3,1,35,0,0
177350,-100,4,3,1,35,0,0
180035,-100,4,3,2,35,0,0
180683,-100,4,3,1,35,0,0
183183,-100,4,3,1,35,0,0
183276,-100,4,3,1,35,0,0
186146,-100,4,3,1,35,0,0
186239,-100,4,3,1,35,0,0
189109,-100,4,3,1,35,0,0
189202,-100,4,3,1,35,0,0

[Colours]
Combo1 : 128,64,64
Combo2 : 255,255,128
Combo3 : 130,192,255
Combo4 : 128,255,128

[HitObjects]
221,239,7535,6,0,L|214:271,46,21.25,0|0|0|0|0|0|0|0|0|0|0|0|0|0|0|0|0|0|0|0|0|0|0|0|0|0|0|0|0|0|0|0|0|0|0|0|0|0|0|0|0|0|0|0|0|0|0,0:0|0:0|0:0|0:0|0:0|0:0|0:0|0:0|0:0|0:0|0:0|0:0|0:0|0:0|0:0|0:0|0:0|0:0|0:0|0:0|0:0|0:0|0:0|0:0|0:0|0:0|0:0|0:0|0:0|0:0|0:0|0:0|0:0|0:0|0:0|0:0|0:0|0:0|0:0|0:0|0:0|0:0|0:0|0:0|0:0|0:0|0:0,0:0:0:0:
236,223,9757,6,0,B|395:181|318:328|474:275,1,255,0|0,0:0|0:0,0:0:0:0:
256,192,10498,12,0,13461,0:0:0:0:
62,109,14942,6,0,P|51:70|65:23,2,85,0|2|2,0:0|0:1|0:1,0:0:0:0:
128,162,16053,1,0,0:0:0:0:
449,260,17905,6,0,L|437:349,2,85,0|8|8,0:0|0:1|0:1,0:0:0:0:
411,183,19016,1,0,0:0:0:0:
259,31,19757,6,0,L|210:23,1,42.5,0|0,0:0|0:0,0:0:0:0:
167,93,20127,2,0,L|118:101,1,42.5,0|0,0:0|0:0,0:0:0:0:
69,35,20498,2,0,L|20:27,1,42.5,0|0,0:0|0:0,0:0:0:0:
8,110,20868,2,0,B|5:161|56:173|56:173|16:238|31:333|31:333|76:304|114:330,1,340,0|0,0:0|0:0,0:0:0:0:
189,364,22720,5,2,0:1:0:0:
189,364,22905,2,0,B|296:278|286:440|393:335,1,212.5,0|0,0:0|0:0,0:0:0:0:
446,294,24202,5,8,0:1:0:0:
446,294,24387,2,0,P|410:262|417:99,1,212.5,0|0,0:0|0:0,0:0:0:0:
467,47,25683,5,0,0:0:0:0:
467,47,25868,2,0,L|381:58,1,85,2|0,0:1|0:0,0:0:0:0:
299,40,26424,5,0,0:0:0:0:
299,40,26609,2,0,B|357:88|320:197|320:197|241:241|189:198|189:198|130:151|80:170|80:170|122:231|71:285,1,552.5,0|0,0:0|0:0,0:0:0:0:
228,351,29757,6,0,P|265:332|317:341,2,85,0|8|8,0:0|0:1|0:1,0:0:0:0:
157,303,30868,1,0,0:0:0:0:
451,133,32720,6,0,L|458:39,2,85,2|2|2,0:2|0:2|0:2,0:0:0:0:
397,199,33831,1,2,0:2:0:0:
61,133,35683,6,0,L|54:39,2,85,2|2|2,0:2|0:2|0:2,0:0:0:0:
115,199,36794,1,2,0:2:0:0:
115,199,37535,1,2,0:2:0:0:
458,97,38646,6,0,P|471:68|462:15,2,63.7500024318696,4|0|0,0:1|0:0|0:0,0:0:0:0:
392,51,39202,2,0,P|380:21|336:-10,2,63.7500024318696,8|8|0,0:0|0:0|1:0,0:0:0:0:
312,65,39757,2,0,P|282:52|229:61,1,63.7500024318696,0|0,0:0|0:0,0:0:0:0:
265,131,40127,5,0,1:0:0:0:
353,212,40683,1,8,0:0:0:0:
301,276,41053,1,0,1:0:0:0:
301,276,41239,2,0,L|327:281,6,21.25
270,286,41609,6,0,P|283:315|274:368,2,63.7500024318696,0|0|0,1:0|0:0|0:0,0:0:0:0:
204,332,42165,2,0,P|192:362|148:393,2,63.7500024318696,8|8|0,0:0|0:0|1:0,0:0:0:0:
124,318,42720,2,0,P|94:331|41:322,1,63.7500024318696,0|0,0:0|0:0,0:0:0:0:
77,252,43090,5,0,1:0:0:0:
186,192,43646,1,8,0:0:0:0:
151,121,44016,1,0,1:0:0:0:
151,121,44202,2,0,L|125:126,6,21.25
181,110,44572,6,0,L|173:25,2,63.7500024318696,0|0|0,1:0|0:0|0:0,0:0:0:0:
266,63,45127,2,0,L|274:-22,2,63.7500024318696,8|8|0,0:0|0:0|1:0,0:0:0:0:
353,108,45683,2,0,L|345:23,1,63.7500024318696,0|0,0:0|0:0,0:0:0:0:
434,71,46053,5,0,1:0:0:0:
411,197,46609,1,8,0:0:0:0:
338,240,46979,1,0,1:0:0:0:
338,240,47165,2,0,L|327:209,6,21.25
318,266,47535,6,0,L|326:351,2,63.7500024318696,0|0|0,1:0|0:0|0:0,0:0:0:0:
233,313,48090,2,0,L|225:398,2,63.7500024318696,8|8|0,0:0|0:0|1:0,0:0:0:0:
146,268,48646,2,0,L|154:353,1,63.7500024318696,0|0,0:0|0:0,0:0:0:0:
84,374,49016,5,0,1:0:0:0:
25,268,49387,2,0,L|31:181,1,63.7500024318696,0|8,0:0|0:0,0:0:0:0:
43,42,50127,1,0,0:0:0:0:
43,42,50498,6,0,P|73:57|118:52,1,63.7500024318696,0|0,1:0|0:0,0:0:0:0:
171,121,50868,2,0,P|201:106|246:111,1,63.7500024318696,0|8,0:0|0:0,0:0:0:0:
50,57,51239,2,0,P|80:72|125:67,1,63.7500024318696,8|0,0:0|1:0,0:0:0:0:
164,136,51609,2,0,P|194:121|239:126,1,63.7500024318696,8|0,0:0|0:0,0:0:0:0:
309,171,51979,5,8,0:0:0:0:
384,104,52350,5,0,1:0:0:0:
384,104,52535,1,8,0:0:0:0:
312,174,52905,5,0,1:0:0:0:
312,174,53090,2,0,L|338:179,6,21.25,8|0|0|0|0|0|0,0:0|0:0|0:0|0:0|0:0|0:0|0:0,0:0:0:0:
281,184,53461,6,0,P|266:214|271:259,1,63.7500024318696,0|0,1:0|0:0,0:0:0:0:
202,312,53831,2,0,P|217:342|212:387,1,63.7500024318696,0|8,0:0|0:0,0:0:0:0:
266,191,54202,2,0,P|251:221|256:266,1,63.7500024318696,8|0,0:0|1:0,0:0:0:0:
187,305,54572,2,0,P|202:335|197:380,1,63.7500024318696,8|0,0:0|0:0,0:0:0:0:
122,350,54942,5,8,0:0:0:0:
127,224,55313,5,0,1:0:0:0:
127,224,55498,1,8,0:0:0:0:
126,353,55869,5,0,1:0:0:0:
126,353,56053,2,0,L|132:372,6,21.25,8|0|0|0|0|0|0,0:0|0:0|0:0|0:0|0:0|0:0|0:0,0:0:0:0:
133,322,56424,6,0,L|205:317,1,63.7500024318696,0|0,1:0|0:0,0:0:0:0:
281,353,56794,2,0,L|353:348,1,63.7500024318696,0|8,0:0|0:0,0:0:0:0:
146,336,57165,2,0,L|218:331,1,63.7500024318696,8|0,0:0|1:0,0:0:0:0:
294,367,57535,2,0,L|366:362,1,63.7500024318696,8|0,0:0|0:0,0:0:0:0:
446,356,57905,5,8,0:0:0:0:
446,356,58090,1,0,0:0:0:0:
378,275,58276,1,0,1:0:0:0:
378,275,58461,1,8,0:0:0:0:
468,238,58646,5,0,0:0:0:0:
468,238,58831,1,0,1:0:0:0:
400,157,59017,1,8,0:0:0:0:
400,157,59202,1,0,0:0:0:0:
490,120,59387,5,8,0:0:0:0:
345,352,62350,6,0,B|433:422|544:355|545:302|495:242|440:305|476:324|476:324,1,255,4|0,1:1|0:0,0:0:0:0:
473,208,63090,6,0,P|420:228|396:266,1,85,8|0,0:0|0:0,0:0:0:0:
240,303,63461,2,0,P|293:283|317:245,1,85,0|2,0:0|0:0,0:0:0:0:
29,70,64016,5,8,0:2:0:0:
29,70,64109,1,8,0:2:0:0:
29,70,64202,2,0,P|13:128|46:226,1,127.5,2|0,1:3|0:0,0:0:0:0:
33,203,64572,2,0,P|54:194|93:195,1,42.5,8|0,0:0|0:0,0:0:0:0:
153,222,64757,2,0,B|207:209|207:209|262:127|187:51,1,212.5,2|0,1:3|0:0,0:0:0:0:
115,25,65313,6,0,B|272:-14|190:103|357:52,1,255,0|0,1:0|0:0,0:0:0:0:
444,4,66053,6,0,P|442:53|466:94,1,85,8|0,0:0|0:0,0:0:0:0:
373,228,66424,2,0,P|375:179|351:138,1,85,0|2,0:0|0:0,0:0:0:0:
289,100,66794,5,0,1:0:0:0:
214,140,66979,1,0,0:0:0:0:
129,153,67165,1,2,0:0:0:0:
49,121,67350,1,0,0:0:0:0:
116,67,67535,5,8,0:0:0:0:
140,148,67720,1,2,0:0:0:0:
142,232,67905,1,0,0:0:0:0:
101,306,68090,1,0,0:0:0:0:
43,369,68276,6,0,P|91:339|231:369,1,170,0|2,1:0|0:0,0:0:0:0:
385,262,69016,5,8,0:0:0:0:
392,269,69942,5,8,0:2:0:0:
392,269,70035,1,8,0:2:0:0:
392,269,70127,2,0,B|412:232|412:232|403:111,1,127.5,2|0,1:3|0:0,0:0:0:0:
395,138,70498,2,0,L|348:142,1,42.5,8|0,0:0|0:0,0:0:0:0:
294,78,70683,1,2,1:3:0:0:
458,54,70868,2,0,P|496:100|492:176,1,127.5,0|0,0:0|0:0,0:0:0:0:
489,177,71239,6,0,B|506:236|493:266|493:266|456:297|446:353|446:353|491:332|527:359,1,255,0|0,1:0|0:0,0:0:0:0:
340,377,71979,6,0,L|286:364,3,42.5,8|0|2|0,0:0|0:0|0:0|0:0,0:0:0:0:
267,337,72350,2,0,L|207:347,2,56.6666666666667,0|0|0,0:0|0:0|0:0,0:0:0:0:
193,323,72720,5,8,0:0:0:0:
193,323,72905,1,8,0:0:0:0:
25,353,73276,1,8,0:0:0:0:
25,353,73461,1,8,0:0:0:0:
83,192,73831,1,8,0:0:0:0:
83,192,74202,6,0,B|67:132|97:101|97:101|131:63|108:-10|108:-10|93:23|100:52,1,255,4|8,1:1|0:2,0:0:0:0:
194,49,74942,6,0,P|189:91|170:128,1,85,8|0,0:0|0:0,0:0:0:0:
1,150,75313,2,0,P|5:107|24:70,1,85,2|0,0:0|0:0,0:0:0:0:
241,326,75868,5,0,0:0:0:0:
173,376,76053,2,0,P|95:379|27:342,1,127.5,2|0,1:3|0:0,0:0:0:0:
45,348,76424,2,0,P|48:320|63:298,1,42.5,8|0,0:0|0:0,0:0:0:0:
127,256,76609,2,0,B|163:239|195:259|195:259|229:237|274:239|310:267|317:300,1,212.5,2|0,1:3|0:0,0:0:0:0:
363,363,77165,6,0,B|366:313|351:272|351:272|386:221|365:172|365:172|397:186|442:170,1,255,2|8,1:3|0:2,0:0:0:0:
361,93,77905,6,0,P|313:112|286:152,1,85,8|0,0:0|0:0,0:0:0:0:
123,163,78276,2,0,P|171:144|198:104,1,85,2|0,0:0|0:0,0:0:0:0:
231,43,78646,5,0,1:0:0:0:
308,8,78831,1,0,0:0:0:0:
391,22,79016,1,2,0:0:0:0:
455,77,79202,1,0,0:0:0:0:
475,159,79387,5,8,0:0:0:0:
392,139,79572,1,0,0:0:0:0:
316,177,79757,1,0,0:0:0:0:
276,251,79942,1,0,0:0:0:0:
279,335,80127,6,0,P|364:362|449:315,1,170,2|0,1:3|0:0,0:0:0:0:
148,223,80868,5,8,0:0:0:0:
148,223,81979,6,0,B|124:259|124:259|137:366,1,127.5,2|0,1:3|0:0,0:0:0:0:
142,352,82350,2,0,L|191:346,1,42.5,8|0,0:0|0:0,0:0:0:0:
271,365,82535,1,0,1:0:0:0:
357,233,82720,2,0,P|408:191|469:203,1,127.5,0|0,0:0|0:0,0:0:0:0:
475,214,83090,6,0,B|483:252|452:284|452:284|396:234|400:176|451:106,1,255,2|8,1:3|0:2,0:0:0:0:
498,65,83831,5,8,0:0:0:0:
501,68,84572,5,8,0:0:0:0:
501,68,84758,1,8,0:0:0:0:
317,44,85127,1,8,0:0:0:0:
317,44,85313,1,8,0:0:0:0:
169,157,85683,1,8,0:0:0:0:
144,341,86053,1,0,0:0:0:0:
144,341,86794,6,0,B|124:341|111:325|117:289|190:274|245:325,2,170,12|0|0,0:0|0:0|0:0,0:0:0:0:
263,232,87720,5,8,0:2:0:0:
263,232,87813,1,8,0:2:0:0:
263,232,87905,2,0,P|164:209|113:223,1,127.5,2|0,1:3|0:0,0:0:0:0:
129,220,88276,2,0,P|122:194|126:161,1,42.5,8|0,0:0|0:0,0:0:0:0:
189,122,88461,2,0,B|217:93|300:124|300:124|366:147|415:106,1,212.5,2|0,1:3|0:0,0:0:0:0:
442,52,89016,6,0,B|415:102|448:154|448:154|487:211|459:287|393:287|367:245|395:191|446:192,1,340,0|8,1:0|0:0,0:0:0:0:
75,160,90498,6,0,B|102:210|69:262|69:262|30:319|58:395|124:395|150:353|122:299|71:300,1,340,0|8,1:0|0:0,0:0:0:0:
346,48,91979,6,0,B|455:14|455:14|506:151|411:218,1,340,0|8,1:0|0:0,0:0:0:0:
0,29,93646,5,8,0:2:0:0:
0,29,93739,1,8,0:2:0:0:
0,29,93831,2,0,P|50:50|141:37,1,127.5,2|0,1:3|0:0,0:0:0:0:
130,35,94202,2,0,L|188:33,1,42.5,8|0,0:0|0:0,0:0:0:0:
253,67,94387,1,2,1:3:0:0:
330,166,94572,2,0,L|399:151,2,42.5,0|0|0,0:0|0:0|0:0,0:0:0:0:
305,286,94942,6,0,B|243:217|152:278|152:278|111:241|45:272,1,255,0|0,1:0|0:0,0:0:0:0:
17,177,95683,6,0,L|30:123,3,42.5,8|0|0|0,0:0|0:0|0:0|0:0,0:0:0:0:
57,104,96054,2,0,L|47:44,2,56.6666666666667,0|0|0,0:0|0:0|0:0,0:0:0:0:
71,30,96424,5,8,0:0:0:0:
71,30,96609,1,8,0:0:0:0:
224,103,96979,1,8,0:0:0:0:
224,103,97164,1,8,0:0:0:0:
114,233,97535,1,8,0:0:0:0:
267,306,97905,6,0,B|345:339|365:252|429:212|496:294|447:358|386:301,1,255,4|8,1:1|0:2,0:0:0:0:
295,230,98646,6,0,B|251:135|340:172|307:52,2,170,8|2|0,0:0|0:0|0:0,0:0:0:0:
485,35,99757,6,0,P|499:114|466:176,1,127.5,2|0,1:3|0:0,0:0:0:0:
471,162,100127,2,0,P|459:192|467:226,1,42.5,0|0,0:0|0:0,0:0:0:0:
504,275,100313,2,0,P|440:248|367:370,1,212.5,2|0,1:3|0:0,0:0:0:0:
443,333,100868,6,0,B|314:275|340:442|182:339|182:339|214:316|256:334,1,340,2|8,1:3|0:0,0:0:0:0:
0,133,102350,6,0,B|129:75|103:242|261:139|261:139|229:116|187:134,1,340,0|8,1:0|0:0,0:0:0:0:
423,27,103831,6,0,B|354:102|442:170|442:170|497:259|426:358,1,340,2|8,1:3|0:0,0:0:0:0:
8,347,105683,6,0,P|72:328|149:368,1,127.5,2|0,1:3|0:0,0:0:0:0:
137,355,106053,2,0,L|145:294,1,42.5,10|0,0:0|0:0,0:0:0:0:
193,243,106239,1,0,1:0:0:0:
168,119,106424,2,0,L|227:113,2,42.5,0|0|0,0:0|0:0|0:0,0:0:0:0:
65,45,106794,6,0,P|18:100|38:199,1,170,2|0,1:3|0:0,0:0:0:0:
193,243,107535,1,8,0:0:0:0:
304,115,107905,1,0,0:0:0:0:
443,212,108276,1,0,0:0:0:0:
433,384,133461,6,0,L|437:312,1,63.7500024318696,8|0,0:2|0:0,0:0:0:0:
333,227,133831,2,0,L|337:299,1,63.7500024318696,0|8,0:0|0:2,0:0:0:0:
446,373,134202,2,0,L|450:301,1,63.7500024318696,0|0,0:0|0:0,0:0:0:0:
346,216,134572,2,0,L|350:288,1,63.7500024318696,8|0,0:2|0:0,0:0:0:0:
436,180,134942,5,8,0:2:0:0:
293,111,135498,1,8,0:2:0:0:
193,227,136053,2,0,L|214:226,6,21.25,8|0|0|0|0|0|0,0:2|0:0|0:0|0:0|0:0|0:0|0:0,0:0:0:0:
162,214,136424,6,0,P|155:180|167:135,1,63.7500024318696,8|0,0:2|0:0,0:0:0:0:
57,54,136794,2,0,P|64:88|52:133,1,63.7500024318696,0|8,0:0|0:2,0:0:0:0:
175,226,137165,2,0,P|168:192|180:147,1,63.7500024318696,0|0,0:0|0:0,0:0:0:0:
70,66,137535,2,0,P|77:100|65:145,1,63.7500024318696,8|0,0:2|0:0,0:0:0:0:
19,207,137905,5,8,0:2:0:0:
103,337,138461,1,8,0:2:0:0:
250,278,139016,2,0,L|255:308,6,21.25,8|0|0|0|0|0|0,0:2|0:0|0:0|0:0|0:0|0:0|0:0,0:0:0:0:
245,251,139387,6,0,L|334:233,1,63.7500024318696,8|0,0:2|0:0,0:0:0:0:
426,168,139757,2,0,L|337:150,1,63.7500024318696,0|8,0:0|0:2,0:0:0:0:
239,265,140127,2,0,L|328:247,1,63.7500024318696,0|0,0:0|0:0,0:0:0:0:
432,182,140498,2,0,L|343:164,1,63.7500024318696,8|0,0:2|0:0,0:0:0:0:
276,148,140868,5,8,0:1:0:0:
276,148,141053,1,8,0:1:0:0:
184,196,141239,1,8,0:1:0:0:
184,196,141424,1,8,0:1:0:0:
173,107,141609,5,8,0:1:0:0:
173,107,141794,1,8,0:1:0:0:
81,155,141980,1,8,0:1:0:0:
81,155,142165,1,8,0:1:0:0:
70,66,142350,6,0,L|116:46,5,42.5,8|0|0|0|0|0,0:1|0:0|0:0|0:0|0:0|0:0,0:0:0:0:
306,62,143831,5,0,0:0:0:0:
320,145,144202,1,0,0:0:0:0:
237,159,144572,1,0,0:0:0:0:
223,76,144942,1,0,0:0:0:0:
330,157,145313,6,0,B|329:223|274:257|210:252|210:252|266:249|306:296,1,255,4|0,1:1|0:0,0:0:0:0:
200,332,146053,6,0,P|148:306|129:248,1,85,8|0,0:0|0:0,0:0:0:0:
171,111,146424,2,0,P|223:137|242:195,1,85,0|0,0:0|0:0,0:0:0:0:
490,383,146979,5,0,1:0:0:0:
428,324,147165,2,0,P|417:279|443:174,1,127.5,0|0,0:0|0:0,0:0:0:0:
441,192,147535,1,8,0:0:0:0:
335,128,147720,1,0,0:0:0:0:
225,185,147905,2,0,L|223:222,3,28.3333333333333,0|0|0|0,0:0|0:0|0:0|0:0,0:0:0:0:
95,128,148276,6,0,B|99:150|69:171|69:171|146:205|137:310|75:343,1,255,0|0,0:0|0:0,0:0:0:0:
183,358,149016,6,0,P|203:311|202:238,1,85,0|0,0:0|0:0,0:0:0:0:
319,149,149387,2,0,P|299:196|300:269,1,85,0|0,1:0|0:0,0:0:0:0:
323,309,149757,5,0,0:0:0:0:
407,301,149942,1,8,0:0:0:0:
476,251,150127,1,0,0:0:0:0:
503,170,150313,1,0,1:0:0:0:
488,86,150498,5,8,0:0:0:0:
415,129,150683,1,0,0:0:0:0:
330,129,150868,1,0,0:0:0:0:
261,79,151053,1,0,0:0:0:0:
200,18,151239,6,0,P|114:62|26:37,1,170,0|0,0:0|1:0,0:0:0:0:
46,150,151794,6,0,P|98:160|155:147,1,85,0|8,0:0|0:0,0:0:0:0:
214,156,152165,1,0,0:0:0:0:
268,221,152350,2,0,B|299:304|272:355|272:355|245:337|203:343,1,170,0|0,0:0|0:0,0:0:0:0:
161,367,152905,5,0,1:0:0:0:
83,332,153090,2,0,P|72:285|89:224,1,85,0|0,0:0|1:0,0:0:0:0:
135,186,153461,1,8,0:0:0:0:
216,162,153646,1,0,0:0:0:0:
273,224,153831,6,0,P|309:239|380:227,1,85,0|0,0:0|0:0,0:0:0:0:
493,335,154202,2,0,P|457:320|386:332,1,85,0|0,0:0|0:0,0:0:0:0:
333,354,154572,5,0,1:0:0:0:
248,358,154757,1,0,0:0:0:0:
177,310,154942,2,0,B|150:271|150:271|202:210|157:137,1,170,8|0,0:0|0:0,0:0:0:0:
495,52,155868,5,8,0:0:0:0:
417,85,156053,1,0,0:0:0:0:
333,68,156239,1,0,1:0:0:0:
257,29,156424,5,8,0:0:0:0:
338,52,156609,1,0,0:0:0:0:
362,133,156794,1,0,0:0:0:0:
339,214,156979,1,0,0:0:0:0:
265,256,157165,6,0,B|177:326|66:259|65:206|115:146|170:209|134:228|134:228,1,255,4|0,1:0|0:0,0:0:0:0:
137,112,157905,6,0,P|190:132|214:170,1,85,0|0,0:0|0:0,0:0:0:0:
370,207,158276,2,0,P|317:187|293:149,1,85,0|0,0:0|0:0,0:0:0:0:
492,18,158831,5,0,0:0:0:0:
452,93,159016,2,0,P|442:150|471:235,1,127.5,0|0,0:0|0:0,0:0:0:0:
465,225,159387,1,8,0:0:0:0:
411,293,159572,1,0,0:0:0:0:
411,293,159757,1,0,0:0:0:0:
234,363,160127,6,0,B|190:290|255:232|255:232|208:170|256:124|256:124,1,255,0|0,0:0|0:0,0:0:0:0:
150,108,160868,6,0,P|136:169|141:221,1,85,8|0,0:0|0:0,0:0:0:0:
35,328,161239,2,0,P|49:267|44:215,1,85,0|0,0:0|0:0,0:0:0:0:
16,166,161609,5,0,0:0:0:0:
38,84,161794,1,8,0:0:0:0:
97,23,161979,1,0,0:0:0:0:
182,16,162165,1,0,1:0:0:0:
256,57,162350,5,8,0:0:0:0:
307,124,162535,1,0,0:0:0:0:
389,143,162720,1,0,0:0:0:0:
464,104,162905,1,0,0:0:0:0:
503,29,163090,6,0,P|483:94|519:214,1,170,0|0,0:0|1:0,0:0:0:0:
410,223,163646,6,0,P|389:168|393:117,1,85,0|8,0:0|0:0,0:0:0:0:
404,59,164016,1,0,0:0:0:0:
326,22,164202,2,0,B|217:-3|284:62|143:29,1,170,0|0,0:0|0:0,0:0:0:0:
78,17,164757,5,0,1:0:0:0:
156,49,164942,2,0,P|175:107|162:153,1,85,0|0,0:0|1:0,0:0:0:0:
135,206,165313,1,8,0:0:0:0:
52,186,165498,1,0,0:0:0:0:
7,258,165683,2,0,P|6:305|26:348,1,85,0|0,0:0|0:0,0:0:0:0:
185,378,166053,6,0,P|286:363|333:283,1,170,4|0,1:1|0:0,0:0:0:0:
185,378,166609,6,0,P|271:326|251:215,1,187.000005706787,4|0,1:1|0:0,0:0:0:0:
185,378,167165,6,0,B|254:300|202:225|202:225|152:147|197:13|347:4|415:137|350:253|212:243|193:131|230:95|311:137,1,611.999981323243,4|8,1:1|0:0,0:0:0:0:
49,20,169016,6,0,P|52:77|35:109,1,85,4|0,0:1|0:0,0:0:0:0:
93,263,169387,2,0,P|90:206|107:173,1,85,2|0,1:3|0:0,0:0:0:0:
172,136,169757,5,8,0:0:0:0:
256,129,169942,1,0,0:0:0:0:
304,198,170127,1,0,0:0:0:0:
270,276,170313,1,2,0:0:0:0:
40,338,170683,5,0,1:0:0:0:
40,338,170776,1,0,0:0:0:0:
40,338,170868,2,0,P|105:320|172:348,1,127.5,2|0,0:0|0:0,0:0:0:0:
169,347,171239,2,0,P|177:320|168:283,1,42.5,8|0,0:0|0:0,0:0:0:0:
163,221,171424,1,2,0:0:0:0:
78,212,171609,1,0,0:0:0:0:
87,127,171794,1,0,0:0:0:0:
172,136,171979,6,0,P|180:90|168:40,1,85,0|0,0:0|0:0,0:0:0:0:
251,204,172350,2,0,P|243:250|255:300,1,85,2|0,1:3|0:0,0:0:0:0:
306,350,172720,5,8,0:0:0:0:
390,350,172905,1,0,0:0:0:0:
418,269,173090,1,0,0:0:0:0:
332,271,173276,1,2,0:0:0:0:
262,30,173646,5,8,0:0:0:0:
262,30,173739,1,0,0:0:0:0:
262,30,173831,2,0,P|197:12|126:22,1,127.5,2|0,0:0|0:0,0:0:0:0:
132,29,174202,2,0,P|139:62|134:79,1,42.5,8|0,0:0|0:0,0:0:0:0:
75,128,174387,1,2,0:0:0:0:
30,200,174572,1,0,0:0:0:0:
75,271,174757,1,0,0:0:0:0:
28,350,174942,6,0,P|81:351|127:373,1,85,0|0,0:0|0:0,0:0:0:0:
277,327,175313,2,0,P|224:326|178:304,1,85,2|0,1:3|0:0,0:0:0:0:
159,237,175683,5,8,0:0:0:0:
179,154,175868,1,0,0:0:0:0:
262,180,176053,1,0,0:0:0:0:
289,99,176239,1,2,0:0:0:0:
54,54,176609,5,0,1:0:0:0:
54,54,176702,1,0,0:0:0:0:
54,54,176794,2,0,P|111:71|192:55,1,127.5,2|0,0:0|0:0,0:0:0:0:
184,50,177165,2,0,P|213:43|252:48,1,42.5,8|0,0:0|0:0,0:0:0:0:
289,99,177350,1,2,0:0:0:0:
296,183,177535,1,0,0:0:0:0:
299,267,177720,1,0,0:0:0:0:
305,351,177905,5,0,0:0:0:0:
475,336,178276,1,2,1:3:0:0:
509,168,178647,1,8,0:0:0:0:
361,82,179017,1,0,0:0:0:0:
234,198,179387,6,0,P|186:209|137:194,1,85,0|8,0:0|0:0,0:0:0:0:
151,201,179665,1,0,0:0:0:0:
151,201,179757,1,2,0:0:0:0:
150,116,179942,2,0,L|144:43,2,42.5,0|2|2,1:0|0:0|0:0,0:0:0:0:
84,170,180313,1,4,0:0:0:0:
84,254,180498,1,4,0:0:0:0:
154,301,180683,1,0,1:0:0:0:
232,268,180868,6,0,P|294:274|341:299,1,85,4|0,0:1|0:0,0:0:0:0:
478,234,181239,2,0,P|416:228|369:203,1,85,2|0,1:3|0:0,0:0:0:0:
332,162,181609,5,8,0:0:0:0:
259,117,181794,1,0,0:0:0:0:
175,131,181979,1,0,0:0:0:0:
127,201,182165,1,2,0:0:0:0:
341,343,182535,5,0,1:0:0:0:
341,343,182627,1,0,0:0:0:0:
341,343,182720,2,0,P|271:327|210:351,1,127.5,2|0,0:0|0:0,0:0:0:0:
211,354,183090,2,0,P|186:359|159:355,1,42.5,8|0,0:0|0:0,0:0:0:0:
108,296,183276,1,2,0:0:0:0:
171,239,183461,1,0,0:0:0:0:
116,174,183646,1,0,0:0:0:0:
49,226,183831,6,0,P|34:177|52:123,1,85,0|0,0:0|0:0,0:0:0:0:
159,22,184202,2,0,P|174:71|156:125,1,85,2|0,1:3|0:0,0:0:0:0:
116,174,184572,5,8,0:0:0:0:
189,130,184757,1,0,0:0:0:0:
266,165,184942,1,0,0:0:0:0:
277,249,185127,1,2,0:0:0:0:
44,328,185498,5,8,0:0:0:0:
44,328,185590,1,0,0:0:0:0:
44,328,185683,2,0,P|104:311|186:331,1,127.5,2|0,0:0|0:0,0:0:0:0:
175,331,186053,2,0,P|200:337|231:329,1,42.5,8|0,0:0|0:0,0:0:0:0:
292,293,186239,1,2,0:0:0:0:
330,217,186424,1,0,0:0:0:0:
245,222,186609,1,0,0:0:0:0:
299,287,186794,6,0,P|311:347|296:381,1,85,0|0,0:0|0:0,0:0:0:0:
458,295,187165,2,0,P|446:235|461:201,1,85,2|0,1:3|0:0,0:0:0:0:
505,147,187535,5,8,0:0:0:0:
421,130,187720,1,0,0:0:0:0:
389,46,187905,1,0,0:0:0:0:
473,63,188090,1,2,0:0:0:0:
233,56,188461,5,0,1:0:0:0:
233,56,188553,1,0,0:0:0:0:
233,56,188646,2,0,P|155:69|93:44,1,127.5,2|0,0:0|0:0,0:0:0:0:
102,44,189016,2,0,P|106:74|95:103,1,42.5,8|0,0:0|0:0,0:0:0:0:
56,158,189202,1,2,0:0:0:0:
80,239,189387,1,0,0:0:0:0:
155,278,189572,1,0,0:0:0:0:
238,264,189757,5,0,0:0:0:0:
347,122,190127,1,2,1:3:0:0:
342,302,190498,1,8,0:0:0:0:
242,151,190868,1,0,0:0:0:0:
412,212,191239,1,0,0:0:0:0:
