osu file format v14

[General]
AudioFilename: audio.mp3
AudioLeadIn: 0
PreviewTime: 217814
Countdown: 0
SampleSet: Soft
StackLeniency: 0.7
Mode: 3
LetterboxInBreaks: 0
SpecialStyle: 0
WidescreenStoryboard: 0

[Editor]
Bookmarks: 743,6857,19086,31316,43545,57303,69532,81762,87876,93991,106220,118450,132207,144437,156666,161252,167367,173481,185711,200997,207112,217813,230042,242271,252972,265965,278195
DistanceSpacing: 2.4
BeatDivisor: 4
GridSize: 16
TimelineZoom: 1.699999

[Metadata]
Title:Genso Connect
TitleUnicode:幻想コネクト
Artist:ShinRa-Bansho x Yuuhei Satellite & Shoujo Fractal
ArtistUnicode:森羅万象 × 幽閉サテライト & 少女フラクタル
Creator:Xzzj
Version:Genso Monogatari
Source:東方Project
Tags:Ricca 幻想コネクト/貴方と繋ぐ想い Gensou Connect / Anata to Tsunagu Omoi 幻想コネクト-Full Collaboration- Gensou Connect -Full Collaboration- Touhou Project 2hu toho 少女綺想曲 ~ Dream Battle Maiden's Capriccio ~ Dream Battle shoujo kisoukyoku 恋色マスタースパーク Love-Coloured Master Spark Koiiro 童祭 ~ Innocent Treasures Warashimatsuri テーマ・オブ・イースタンストーリー Theme of Eastern Story 東方永夜抄 ~ Imperishable Night Touhou Eiyasou th08 夢違科学世紀 ~ Changeability of Strange Yumetagae Kagaku Seiki 幺樂団の歴史5 ~ Akyu's Untouched Score vol.5 Yougakudan no Rekishi あやぽんず* ayaponzu* あよ ayo marcia 天宮みや Ayamiya Miya 博麗霊夢 hakurei reimu 霧雨魔理沙 Kirisame Marisa 森羅幽閉フラクタル shinrayuuheifractal team shanghai alice 上海アリス幻樂団 Shanhai Alice Gengakudan 太田順也 Oota Jun'ya ZUN japanese jpop j-pop video game pop rock 同人 doujin female vocal quartet waoru kaztora 菅原将和 Sugawara Masakazu Yuto "Carlos" Shimizu 清水"カルロス"宥人 Pira 中平"チェリー"皓也 Maou 魔王 Myui 榎本真弓 Enomoto Mayumi Hedonist 大塚宏樹 Ootsuka Hiroki SYCD-001 hybrid hb marathon
BeatmapID:3854544
BeatmapSetID:1873233

[Difficulty]
HPDrainRate:8
CircleSize:4
OverallDifficulty:8
ApproachRate:5
SliderMultiplier:1.4
SliderTickRate:1

[Events]
//Background and Video events
0,0,"bg.png",0,0
//Break Periods
//Storyboard Layer 0 (Background)
//Storyboard Layer 1 (Fail)
//Storyboard Layer 2 (Pass)
//Storyboard Layer 3 (Foreground)
//Storyboard Layer 4 (Overlay)
//Storyboard Sound Samples
Sample,31317,0,"crash1.wav",70
Sample,37240,0,"hit2.wav",70
Sample,43546,0,"crash1.wav",70
Sample,44119,0,"hit2.wav",70
Sample,44501,0,"hit2.wav",70
Sample,46030,0,"hit2.wav",70
Sample,47177,0,"hit2.wav",70
Sample,48705,0,"hit2.wav",70
Sample,49087,0,"hit2.wav",70
Sample,49279,0,"TM.wav",60
Sample,49470,0,"TF.wav",60
Sample,54629,0,"hit2.wav",70
Sample,57591,0,"bell.wav",70
Sample,57877,0,"ride.wav",70
Sample,58355,0,"bell.wav",70
Sample,58642,0,"ride.wav",70
Sample,59119,0,"bell.wav",70
Sample,59406,0,"ride.wav",70
Sample,59884,0,"bell.wav",70
Sample,60170,0,"ride.wav",70
Sample,60648,0,"bell.wav",70
Sample,60935,0,"ride.wav",70
Sample,61412,0,"bell.wav",70
Sample,61699,0,"ride.wav",70
Sample,62177,0,"bell.wav",70
Sample,62463,0,"ride.wav",70
Sample,62941,0,"bell.wav",70
Sample,63228,0,"ride.wav",70
Sample,63705,0,"bell.wav",70
Sample,63992,0,"ride.wav",70
Sample,64470,0,"bell.wav",70
Sample,64756,0,"ride.wav",70
Sample,65234,0,"bell.wav",70
Sample,65521,0,"ride.wav",70
Sample,65998,0,"bell.wav",70
Sample,66285,0,"ride.wav",70
Sample,66763,0,"bell.wav",70
Sample,67049,0,"bell.wav",70
Sample,67049,0,"ride.wav",70
Sample,67527,0,"bell.wav",70
Sample,67814,0,"ride.wav",70
Sample,68291,0,"bell.wav",70
Sample,68578,0,"ride.wav",70
Sample,68960,0,"ride.wav",70
Sample,69342,0,"bell.wav",70
Sample,69342,0,"ride.wav",70
Sample,69820,0,"bell.wav",70
Sample,70107,0,"ride.wav",70
Sample,70584,0,"bell.wav",70
Sample,70871,0,"ride.wav",70
Sample,71349,0,"bell.wav",70
Sample,71635,0,"ride.wav",70
Sample,72113,0,"bell.wav",70
Sample,72400,0,"ride.wav",70
Sample,72877,0,"bell.wav",70
Sample,73164,0,"ride.wav",70
Sample,73642,0,"bell.wav",70
Sample,73928,0,"ride.wav",70
Sample,74406,0,"bell.wav",70
Sample,74693,0,"ride.wav",70
Sample,75075,0,"ride.wav",70
Sample,75457,0,"ride.wav",70
Sample,75935,0,"bell.wav",70
Sample,76221,0,"ride.wav",70
Sample,76699,0,"bell.wav",70
Sample,76986,0,"ride.wav",70
Sample,77463,0,"bell.wav",70
Sample,77750,0,"ride.wav",70
Sample,78228,0,"bell.wav",70
Sample,78514,0,"ride.wav",70
Sample,79087,0,"snare.wav",70
Sample,79279,0,"ride.wav",70
Sample,79852,0,"snare.wav",70
Sample,80616,0,"snare.wav",70
Sample,80807,0,"ride.wav",70
Sample,80998,0,"ride.wav",70
Sample,86540,0,"TM.wav",70
Sample,90170,0,"TM.wav",70
Sample,105648,0,"TM.wav",70
Sample,106030,0,"TL.wav",70
Sample,106221,0,"hit1.wav",70
Sample,106221,0,"crash1.wav",70
Sample,106986,0,"hit1.wav",70
Sample,107750,0,"hit1.wav",70
Sample,108514,0,"hit1.wav",70
Sample,109279,0,"hit1.wav",70
Sample,110043,0,"hit1.wav",70
Sample,110807,0,"hit1.wav",70
Sample,111572,0,"hit1.wav",70
Sample,112145,0,"hit2.wav",70
Sample,112336,0,"snare.wav",70
Sample,113482,0,"TM.wav",70
Sample,117686,0,"snare.wav",70
Sample,117686,0,"hit2.wav",70
Sample,117877,0,"hit2.wav",70
Sample,117877,0,"TH.wav",70
Sample,120361,0,"TF.wav",70
Sample,132495,0,"bell.wav",70
Sample,132782,0,"ride.wav",70
Sample,133259,0,"bell.wav",70
Sample,133546,0,"ride.wav",70
Sample,134024,0,"bell.wav",70
Sample,134310,0,"ride.wav",70
Sample,134788,0,"bell.wav",70
Sample,135075,0,"ride.wav",70
Sample,135552,0,"bell.wav",70
Sample,135839,0,"ride.wav",70
Sample,136317,0,"bell.wav",70
Sample,136603,0,"ride.wav",70
Sample,137081,0,"bell.wav",70
Sample,137368,0,"ride.wav",70
Sample,137845,0,"bell.wav",70
Sample,138132,0,"ride.wav",70
Sample,138610,0,"bell.wav",70
Sample,138896,0,"ride.wav",70
Sample,139374,0,"bell.wav",70
Sample,139661,0,"ride.wav",70
Sample,140138,0,"bell.wav",70
Sample,140425,0,"ride.wav",70
Sample,140903,0,"bell.wav",70
Sample,141189,0,"ride.wav",70
Sample,141667,0,"bell.wav",70
Sample,141954,0,"bell.wav",70
Sample,141954,0,"ride.wav",70
Sample,142431,0,"bell.wav",70
Sample,142718,0,"ride.wav",70
Sample,143100,0,"ride.wav",70
Sample,143291,0,"snare.wav",70
Sample,143482,0,"ride.wav",70
Sample,143865,0,"ride.wav",70
Sample,143960,0,"bell.wav",70
Sample,144056,0,"TM.wav",70
Sample,144151,0,"TM.wav",70
Sample,144247,0,"bell.wav",70
Sample,144247,0,"ride.wav",70
Sample,144247,0,"TF.wav",70
Sample,144342,0,"TF.wav",70
Sample,144724,0,"bell.wav",70
Sample,145011,0,"ride.wav",70
Sample,145489,0,"bell.wav",70
Sample,145775,0,"ride.wav",70
Sample,146253,0,"bell.wav",70
Sample,146540,0,"ride.wav",70
Sample,147017,0,"bell.wav",70
Sample,147304,0,"ride.wav",70
Sample,147782,0,"bell.wav",70
Sample,148068,0,"ride.wav",70
Sample,148546,0,"bell.wav",70
Sample,148833,0,"ride.wav",70
Sample,149310,0,"bell.wav",70
Sample,149597,0,"ride.wav",70
Sample,149979,0,"ride.wav",70
Sample,150361,0,"ride.wav",70
Sample,150839,0,"bell.wav",70
Sample,151126,0,"ride.wav",70
Sample,151603,0,"bell.wav",70
Sample,151890,0,"ride.wav",70
Sample,152368,0,"bell.wav",70
Sample,152654,0,"ride.wav",70
Sample,153132,0,"bell.wav",70
Sample,153419,0,"ride.wav",70
Sample,153992,0,"snare.wav",70
Sample,154183,0,"ride.wav",70
Sample,154756,0,"snare.wav",70
Sample,154947,0,"ride.wav",70
Sample,155425,0,"bell.wav",70
Sample,155521,0,"snare.wav",70
Sample,155903,0,"snare.wav",70
Sample,156189,0,"TM.wav",70
Sample,160107,0,"openhit.wav",70
Sample,161253,0,"hit2.wav",70
Sample,161253,0,"crash1.wav",70
Sample,162782,0,"hit2.wav",70
Sample,207113,0,"crash1.wav",70
Sample,209788,0,"hit2.wav",70
Sample,209884,0,"hit2.wav",70
Sample,209979,0,"hit2.wav",70
Sample,210075,0,"hit2.wav",70
Sample,218100,0,"bell.wav",70
Sample,218387,0,"ride.wav",70
Sample,218865,0,"bell.wav",70
Sample,219151,0,"ride.wav",70
Sample,219629,0,"bell.wav",70
Sample,219915,0,"ride.wav",70
Sample,220393,0,"bell.wav",70
Sample,220680,0,"ride.wav",70
Sample,221158,0,"bell.wav",70
Sample,221444,0,"ride.wav",70
Sample,221922,0,"bell.wav",70
Sample,222208,0,"ride.wav",70
Sample,222686,0,"bell.wav",70
Sample,222973,0,"ride.wav",70
Sample,223451,0,"bell.wav",70
Sample,223737,0,"ride.wav",70
Sample,224215,0,"bell.wav",70
Sample,224501,0,"ride.wav",70
Sample,224979,0,"bell.wav",70
Sample,225266,0,"ride.wav",70
Sample,225743,0,"bell.wav",70
Sample,226030,0,"ride.wav",70
Sample,226508,0,"bell.wav",70
Sample,226794,0,"ride.wav",70
Sample,227272,0,"bell.wav",70
Sample,227559,0,"bell.wav",70
Sample,227559,0,"ride.wav",70
Sample,228036,0,"bell.wav",70
Sample,228323,0,"ride.wav",70
Sample,228801,0,"bell.wav",70
Sample,228896,0,"snare.wav",70
Sample,229087,0,"ride.wav",70
Sample,229565,0,"bell.wav",70
Sample,229852,0,"bell.wav",70
Sample,229852,0,"ride.wav",70
Sample,230329,0,"bell.wav",70
Sample,230616,0,"ride.wav",70
Sample,231094,0,"bell.wav",70
Sample,231380,0,"ride.wav",70
Sample,231858,0,"bell.wav",70
Sample,232145,0,"ride.wav",70
Sample,232622,0,"bell.wav",70
Sample,232909,0,"ride.wav",70
Sample,233387,0,"bell.wav",70
Sample,233673,0,"ride.wav",70
Sample,234151,0,"bell.wav",70
Sample,234438,0,"ride.wav",70
Sample,234915,0,"bell.wav",70
Sample,235202,0,"ride.wav",70
Sample,235966,0,"ride.wav",70
Sample,236444,0,"bell.wav",70
Sample,236731,0,"ride.wav",70
Sample,237208,0,"bell.wav",70
Sample,237495,0,"ride.wav",70
Sample,237973,0,"bell.wav",70
Sample,238259,0,"ride.wav",70
Sample,238737,0,"bell.wav",70
Sample,239024,0,"TF.wav",70
Sample,239597,0,"snare.wav",70
Sample,239788,0,"bell.wav",70
Sample,239788,0,"ride.wav",70
Sample,240361,0,"snare.wav",70
Sample,240935,0,"ride.wav",70
Sample,241030,0,"bell.wav",70
Sample,241126,0,"snare.wav",60
Sample,241317,0,"bell.wav",70
Sample,241317,0,"ride.wav",70
Sample,241508,0,"snare.wav",90
Sample,241508,0,"TH.wav",70
Sample,241508,0,"cymbal1.wav",70
Sample,241794,0,"TM.wav",70
Sample,244947,0,"TH.wav",70
Sample,247622,0,"hit2.wav",70
Sample,247814,0,"TM.wav",70
Sample,254023,0,"bell.wav",70
Sample,254310,0,"ride.wav",70
Sample,254787,0,"bell.wav",70
Sample,255074,0,"ride.wav",70
Sample,255552,0,"bell.wav",70
Sample,255838,0,"ride.wav",70
Sample,256316,0,"bell.wav",70
Sample,256603,0,"ride.wav",70
Sample,257080,0,"bell.wav",70
Sample,257367,0,"ride.wav",70
Sample,257845,0,"bell.wav",70
Sample,258131,0,"ride.wav",70
Sample,258609,0,"bell.wav",70
Sample,258896,0,"ride.wav",70
Sample,259373,0,"bell.wav",70
Sample,259660,0,"ride.wav",70
Sample,260138,0,"bell.wav",70
Sample,260424,0,"ride.wav",70
Sample,260902,0,"bell.wav",70
Sample,261189,0,"ride.wav",70
Sample,261666,0,"bell.wav",70
Sample,261953,0,"ride.wav",70
Sample,262431,0,"bell.wav",70
Sample,262717,0,"ride.wav",70
Sample,263100,0,"ride.wav",70
Sample,263482,0,"bell.wav",70
Sample,263482,0,"ride.wav",70
Sample,263673,0,"snare.wav",70
Sample,263864,0,"ride.wav",70
Sample,263959,0,"bell.wav",70
Sample,264055,0,"TM.wav",70
Sample,264246,0,"ride.wav",70
Sample,264246,0,"TF.wav",70
Sample,264628,0,"TL.wav",70
Sample,264724,0,"TL.wav",70
Sample,265010,0,"bell.wav",70
Sample,265010,0,"ride.wav",70
Sample,265393,0,"ride.wav",70
Sample,265488,0,"bell.wav",70
Sample,265775,0,"ride.wav",70
Sample,265775,0,"TF.wav",70
Sample,265966,0,"crash1.wav",70
Sample,266539,0,"ride.wav",70
Sample,267303,0,"ride.wav",70
Sample,268068,0,"ride.wav",70
Sample,268832,0,"ride.wav",70
Sample,269596,0,"ride.wav",70
Sample,270361,0,"ride.wav",70
Sample,271125,0,"ride.wav",70
Sample,271889,0,"ride.wav",70
Sample,272080,0,"cymbal1.wav",70
Sample,272654,0,"ride.wav",70
Sample,273418,0,"ride.wav",70
Sample,274182,0,"ride.wav",70
Sample,274947,0,"ride.wav",70
Sample,275520,0,"snare.wav",70
Sample,275711,0,"ride.wav",70
Sample,275902,0,"snare.wav",70
Sample,276189,0,"bell.wav",70
Sample,276475,0,"bell.wav",70
Sample,276953,0,"TM.wav",70
Sample,277240,0,"ride.wav",70

[TimingPoints]
744,382.165605095541,4,2,1,70,1,0
57304,-100,4,2,1,70,0,1
87877,-100,4,2,1,70,0,0
132208,-100,4,2,1,70,0,1
161253,-100,4,2,1,70,0,0
217814,-100,4,2,1,70,0,1
249724,-100,4,2,1,70,0,0
253737,382.165605095541,4,2,1,70,1,1
278195,-100,4,2,1,70,0,0
278959,387.096774193548,4,2,1,70,1,0
278959,-99.009900990099,4,2,1,70,0,0
279346,400,4,2,1,70,1,0
279346,-95.2380952380952,4,2,1,70,0,0
279746,461.538461538462,4,2,1,70,1,0
279746,-82.6446280991736,4,2,1,70,0,0
280438,545.454545454546,4,2,1,70,1,0
280438,-69.9300699300699,4,2,1,70,0,0
280710,631.578947368421,4,2,1,70,1,0
280710,-60.6060606060606,4,2,1,70,0,0
281025,769.230769230769,4,2,1,70,1,0
281025,-49.7512437810945,4,2,1,70,0,0

[HitObjects]
64,192,744,5,0,0:0:0:0:
192,192,744,1,0,0:0:0:0:
320,192,935,1,0,0:0:0:0:
64,192,1126,1,0,0:0:0:0:
448,192,1317,1,0,0:0:0:0:
320,192,1508,1,0,0:0:0:0:
64,192,1699,1,0,0:0:0:0:
192,192,1890,1,0,0:0:0:0:
448,192,2081,1,0,0:0:0:0:
192,192,2272,1,0,0:0:0:0:
320,192,2272,1,0,0:0:0:0:
64,192,2463,1,0,0:0:0:0:
320,192,2654,1,0,0:0:0:0:
448,192,2845,1,0,0:0:0:0:
192,192,3036,1,0,0:0:0:0:
64,192,3228,1,0,0:0:0:0:
448,192,3419,1,0,0:0:0:0:
192,192,3610,1,0,0:0:0:0:
320,192,3801,1,0,0:0:0:0:
448,192,3801,1,0,0:0:0:0:
64,192,3992,1,0,0:0:0:0:
320,192,4183,1,0,0:0:0:0:
64,192,4374,1,0,0:0:0:0:
448,192,4565,1,0,0:0:0:0:
192,192,4756,1,0,0:0:0:0:
448,192,4947,1,0,0:0:0:0:
192,192,5138,1,0,0:0:0:0:
320,192,5138,1,0,0:0:0:0:
64,192,5329,1,0,0:0:0:0:
448,192,5329,1,0,0:0:0:0:
192,192,5521,1,0,0:0:0:0:
448,192,5712,1,0,0:0:0:0:
320,192,5903,1,0,0:0:0:0:
192,192,6094,1,0,0:0:0:0:
64,192,6285,1,0,0:0:0:0:
320,192,6476,1,0,0:0:0:0:
448,192,6667,1,0,0:0:0:0:
64,192,6858,128,0,8005:0:0:0:70:kick.wav
192,192,6858,128,0,7814:0:0:0:70:cymbal1.wav
320,192,6858,128,0,7622:0:0:0:0:
448,192,8005,128,0,8387:0:0:0:0:
320,192,8196,128,0,8578:0:0:0:60:kick.wav
64,192,8387,1,0,0:0:0:70:kick.wav
192,192,8387,1,0,0:0:0:70:snare.wav
192,192,8578,128,0,8960:0:0:0:0:
64,192,8960,1,0,0:0:0:70:TH.wav
448,192,8960,128,0,9342:0:0:0:0:
64,192,9342,128,0,9724:0:0:0:70:TL.wav
320,192,9342,1,0,0:0:0:0:
448,192,9533,1,0,0:0:0:70:TF.wav
192,192,9915,128,8,10298:0:0:0:70:kick.wav
320,192,9915,128,0,10489:0:0:0:70:crash1.wav
448,192,9915,128,0,10680:0:0:0:0:
64,192,10743,128,0,11062:0:0:0:0:
192,192,10871,128,8,11253:0:0:0:70:kick.wav
320,192,10871,1,0,0:0:0:0:
448,192,11062,1,0,0:0:0:70:TM.wav
64,192,11253,1,0,0:0:0:0:
320,192,11253,128,0,11444:0:0:0:0:
64,192,11444,1,8,0:0:0:70:kick.wav
192,192,11444,128,0,11826:0:0:0:70:crash1.wav
448,192,11444,128,0,11826:0:0:0:0:
320,192,11826,128,0,12208:0:0:0:0:
64,192,12208,1,8,0:0:0:70:kick.wav
448,192,12208,128,0,12591:0:0:0:0:
320,192,12400,1,0,0:0:0:50:snare.wav
192,192,12495,1,0,0:0:0:60:snare.wav
64,192,12591,128,8,12973:0:0:0:70:kick.wav
320,192,12591,1,0,0:0:0:70:snare.wav
192,192,12782,1,0,0:0:0:70:TM.wav
192,192,12973,1,8,0:0:0:70:kick.wav
320,192,12973,1,0,0:0:0:70:cymbal1.wav
448,192,12973,1,0,0:0:0:0:
64,192,13164,1,0,0:0:0:0:
320,192,13355,1,8,0:0:0:70:kick.wav
448,192,13355,1,0,0:0:0:0:
192,192,13546,1,0,0:0:0:50:snare.wav
320,192,13642,1,0,0:0:0:60:snare.wav
64,192,13737,1,8,0:0:0:70:kick.wav
448,192,13737,1,0,0:0:0:0:
320,192,13928,1,0,0:0:0:50:snare.wav
192,192,14024,1,0,0:0:0:50:snare.wav
64,192,14119,1,8,0:0:0:70:kick.wav
448,192,14119,1,0,0:0:0:50:snare.wav
320,192,14215,1,0,0:0:0:50:snare.wav
192,192,14310,1,0,0:0:0:50:snare.wav
320,192,14406,1,0,0:0:0:60:snare.wav
64,192,14501,1,0,0:0:0:75:kick.wav
192,192,14501,1,0,0:0:0:70:snare.wav
448,192,14501,1,0,0:0:0:0:
320,192,14693,1,0,0:0:0:50:snare.wav
192,192,14788,1,0,0:0:0:60:snare.wav
64,192,14884,1,0,0:0:0:80:kick.wav
320,192,14884,1,0,0:0:0:70:snare.wav
448,192,14884,1,0,0:0:0:0:
192,192,15075,1,0,0:0:0:50:snare.wav
320,192,15170,1,0,0:0:0:60:snare.wav
64,192,15266,1,0,0:0:0:90:kick.wav
192,192,15266,1,0,0:0:0:70:snare.wav
448,192,15266,1,0,0:0:0:0:
320,192,15361,1,0,0:0:0:70:snare.wav
64,192,15457,1,0,0:0:0:70:TM.wav
192,192,15552,1,0,0:0:0:70:TM.wav
64,192,15648,1,0,0:0:0:70:kick.wav
448,192,15648,1,0,0:0:0:70:TL.wav
320,192,15743,1,0,0:0:0:70:TL.wav
448,192,15839,1,0,0:0:0:70:TF.wav
192,192,15935,1,0,0:0:0:70:TF.wav
64,192,16030,1,0,0:0:0:70:kick.wav
320,192,16030,1,0,0:0:0:70:cymbal1.wav
448,192,16030,1,0,0:0:0:0:
192,192,16221,1,0,0:0:0:70:kick.wav
320,192,16221,1,0,0:0:0:0:
64,192,16412,1,0,0:0:0:70:snare.wav
192,192,16412,1,0,0:0:0:0:
448,192,16412,1,0,0:0:0:0:
64,192,16603,1,0,0:0:0:70:kick.wav
320,192,16603,1,0,0:0:0:0:
448,192,16603,1,0,0:0:0:0:
64,192,16986,1,0,0:0:0:70:kick.wav
192,192,16986,1,0,0:0:0:0:
320,192,16986,1,0,0:0:0:0:
64,192,17177,1,0,0:0:0:70:snare.wav
320,192,17177,1,0,0:0:0:0:
448,192,17177,1,0,0:0:0:0:
64,192,17368,1,0,0:0:0:70:kick.wav
192,192,17368,1,0,0:0:0:70:crash1.wav
448,192,17368,1,0,0:0:0:0:
64,192,17750,1,0,0:0:0:70:kick.wav
320,192,17750,1,0,0:0:0:0:
192,192,17941,1,0,0:0:0:70:snare.wav
320,192,17941,1,0,0:0:0:0:
448,192,17941,1,0,0:0:0:0:
64,192,18132,1,0,0:0:0:70:kick.wav
192,192,18132,1,0,0:0:0:70:crash1.wav
320,192,18132,1,0,0:0:0:0:
64,192,18514,1,0,0:0:0:70:TM.wav
448,192,18514,1,0,0:0:0:0:
192,192,18610,1,0,0:0:0:70:TM.wav
320,192,18610,1,0,0:0:0:0:
64,192,18705,1,0,0:0:0:70:TL.wav
448,192,18705,1,0,0:0:0:0:
320,192,18896,1,0,0:0:0:70:TF.wav
448,192,18896,1,0,0:0:0:0:
64,192,19087,1,0,0:0:0:70:kick.wav
192,192,19087,1,0,0:0:0:70:crash1.wav
320,192,19087,1,0,0:0:0:0:
192,192,19470,1,0,0:0:0:70:kick.wav
320,192,19470,1,0,0:0:0:0:
64,192,19661,128,0,19852:0:0:0:0:
192,192,19852,128,0,20043:0:0:0:70:kick.wav
448,192,19852,1,0,0:0:0:0:
320,192,20043,128,0,20425:0:0:0:0:
64,192,20234,1,0,0:0:0:70:kick.wav
192,192,20234,1,0,0:0:0:0:
64,192,20425,128,0,20807:0:0:0:70:hit2.wav
192,192,20616,1,0,0:0:0:70:kick.wav
320,192,20616,1,0,0:0:0:70:hit1.wav
448,192,20616,1,0,0:0:0:0:
448,192,20807,128,0,21189:0:0:0:0:
64,192,20998,1,0,0:0:0:70:kick.wav
192,192,20998,1,0,0:0:0:0:
192,192,21189,128,0,21572:0:0:0:70:ride.wav
64,192,21380,1,0,0:0:0:70:kick.wav
320,192,21380,1,0,0:0:0:0:
448,192,21380,1,0,0:0:0:0:
320,192,21572,128,0,21954:0:0:0:0:
64,192,21763,1,0,0:0:0:70:kick.wav
192,192,21763,1,0,0:0:0:0:
448,192,21954,128,0,23291:0:0:0:70:hit2.wav
64,192,22145,1,0,0:0:0:70:kick.wav
192,192,22145,1,0,0:0:0:50:ride.wav
320,192,22145,1,0,0:0:0:0:
192,192,22527,1,0,0:0:0:70:kick.wav
320,192,22527,1,0,0:0:0:0:
64,192,22909,1,0,0:0:0:70:kick.wav
192,192,22909,1,0,0:0:0:50:ride.wav
192,192,23291,128,0,23482:0:0:0:70:kick.wav
320,192,23291,1,0,0:0:0:0:
64,192,23482,128,0,24438:0:0:0:70:ride.wav
192,192,23673,1,0,0:0:0:70:kick.wav
320,192,23673,1,0,0:0:0:0:
448,192,23673,1,0,0:0:0:0:
192,192,24056,1,0,0:0:0:70:kick.wav
448,192,24056,1,0,0:0:0:70:hit1.wav
192,192,24438,1,0,0:0:0:70:kick.wav
320,192,24438,1,0,0:0:0:70:hit1.wav
448,192,24438,1,0,0:0:0:0:
192,192,24820,1,0,0:0:0:70:kick.wav
320,192,24820,1,0,0:0:0:70:openride.wav
448,192,24820,128,0,25393:0:0:0:0:
64,192,25011,1,0,0:0:0:70:TL.wav
192,192,25107,1,0,0:0:0:70:TF.wav
320,192,25202,128,0,25393:0:0:0:90:kick.wav
192,192,25393,1,0,0:0:0:70:kick.wav
192,192,25584,128,0,25775:0:0:0:70:snare.wav
320,192,25584,128,0,25775:0:0:0:70:openhit.wav
448,192,25584,128,0,25775:0:0:0:0:
64,192,25775,1,0,0:0:0:70:kick.wav
64,192,25966,128,0,26158:0:0:0:70:snare.wav
192,192,25966,128,0,26158:0:0:0:70:openhit.wav
320,192,25966,128,0,26158:0:0:0:70:crash1.wav
448,192,26158,1,0,0:0:0:40:snare.wav
192,192,26253,1,0,0:0:0:50:snare.wav
320,192,26253,1,0,0:0:0:0:
64,192,26349,128,0,26922:0:0:0:70:snare.wav
448,192,26349,1,0,0:0:0:0:
448,192,26540,1,0,0:0:0:60:TL.wav
320,192,26635,1,0,0:0:0:60:TL.wav
192,192,26731,128,0,26922:0:0:0:70:kick.wav
320,192,26922,1,0,0:0:0:70:kick.wav
64,192,27113,128,0,27304:0:0:0:70:snare.wav
192,192,27113,128,0,27304:0:0:0:70:openhit.wav
320,192,27113,128,0,27304:0:0:0:70:crash1.wav
448,192,27304,1,0,0:0:0:70:kick.wav
192,192,27495,128,0,27686:0:0:0:70:snare.wav
320,192,27495,128,0,27686:0:0:0:70:openhit.wav
448,192,27495,128,0,27686:0:0:0:0:
64,192,27686,1,0,0:0:0:70:kick.wav
320,192,27877,1,0,0:0:0:70:snare.wav
448,192,27877,1,0,0:0:0:0:
192,192,27877,1,0,0:0:0:0:
64,192,28068,1,0,0:0:0:70:kick.wav
192,192,28068,1,0,0:0:0:0:
448,192,28068,1,0,0:0:0:0:
192,192,28451,1,0,0:0:0:70:kick.wav
320,192,28451,1,0,0:0:0:0:
64,192,28642,1,0,0:0:0:70:snare.wav
192,192,28642,1,0,0:0:0:70:openhit.wav
448,192,28642,1,0,0:0:0:0:
64,192,28833,1,0,0:0:0:70:TM.wav
448,192,28833,1,0,0:0:0:0:
192,192,28928,1,0,0:0:0:70:TM.wav
320,192,29024,1,0,0:0:0:70:TL.wav
64,192,29215,1,0,0:0:0:70:TF.wav
448,192,29215,1,0,0:0:0:0:
192,192,29406,1,0,0:0:0:70:snare.wav
320,192,29406,1,0,0:0:0:0:
448,192,29406,1,0,0:0:0:0:
64,192,29597,1,0,0:0:0:70:kick.wav
192,192,29597,1,0,0:0:0:70:openhit.wav
320,192,29597,1,0,0:0:0:0:
320,192,30552,1,0,0:0:0:70:kick.wav
448,192,30552,1,0,0:0:0:0:
192,192,30648,1,0,0:0:0:70:kick.wav
64,192,30743,1,0,0:0:0:70:snare.wav
320,192,30743,1,0,0:0:0:0:
448,192,30743,1,0,0:0:0:0:
192,192,31126,1,0,0:0:0:70:snare.wav
320,192,31126,1,0,0:0:0:0:
64,192,31221,1,0,0:0:0:70:snare.wav
320,192,31317,1,0,0:0:0:70:kick.wav
448,192,31317,1,0,0:0:0:70:hit2.wav
448,192,31508,1,0,0:0:0:70:hit2.wav
64,192,31699,1,0,0:0:0:60:snare.wav
192,192,31699,1,0,0:0:0:70:hit2.wav
320,192,31699,1,0,0:0:0:0:
64,192,31890,1,0,0:0:0:80:snare.wav
192,192,31890,1,0,0:0:0:70:hit2.wav
320,192,31890,1,0,0:0:0:0:
448,192,32081,1,0,0:0:0:70:hit2.wav
192,192,32272,1,0,0:0:0:70:kick.wav
320,192,32272,1,0,0:0:0:70:hit2.wav
64,192,32463,1,0,0:0:0:70:snare.wav
192,192,32463,1,0,0:0:0:70:hit2.wav
448,192,32463,1,0,0:0:0:0:
320,192,32654,1,0,0:0:0:70:hit2.wav
64,192,32845,1,0,0:0:0:70:kick.wav
448,192,32845,1,0,0:0:0:70:hit2.wav
192,192,33036,1,0,0:0:0:70:hit2.wav
64,192,33228,1,0,0:0:0:70:snare.wav
320,192,33228,1,0,0:0:0:70:hit2.wav
448,192,33228,1,0,0:0:0:0:
64,192,33419,1,0,0:0:0:70:snare.wav
320,192,33419,1,0,0:0:0:70:hit2.wav
448,192,33419,1,0,0:0:0:0:
192,192,33610,1,0,0:0:0:70:hit2.wav
64,192,33801,1,0,0:0:0:70:kick.wav
448,192,33801,1,0,0:0:0:70:hit2.wav
192,192,33992,1,0,0:0:0:70:snare.wav
320,192,33992,1,0,0:0:0:70:hit2.wav
448,192,33992,1,0,0:0:0:0:
64,192,34183,1,0,0:0:0:70:hit2.wav
192,192,34374,1,0,0:0:0:70:kick.wav
448,192,34374,1,0,0:0:0:70:hit2.wav
320,192,34565,1,0,0:0:0:70:hit2.wav
64,192,34756,1,0,0:0:0:60:snare.wav
192,192,34756,1,0,0:0:0:70:hit2.wav
448,192,34756,1,0,0:0:0:0:
64,192,34947,1,0,0:0:0:80:snare.wav
192,192,34947,1,0,0:0:0:70:hit2.wav
448,192,34947,1,0,0:0:0:0:
320,192,35138,1,0,0:0:0:70:hit2.wav
64,192,35329,1,0,0:0:0:70:kick.wav
192,192,35329,1,0,0:0:0:70:hit2.wav
64,192,35521,1,0,0:0:0:70:snare.wav
320,192,35521,1,0,0:0:0:70:hit2.wav
448,192,35521,1,0,0:0:0:0:
192,192,35712,1,0,0:0:0:70:hit2.wav
320,192,35903,1,0,0:0:0:70:kick.wav
448,192,35903,1,0,0:0:0:70:hit2.wav
64,192,36094,1,0,0:0:0:70:hit2.wav
192,192,36285,1,0,0:0:0:70:snare.wav
320,192,36285,1,0,0:0:0:70:hit2.wav
448,192,36285,1,0,0:0:0:0:
192,192,36476,1,0,0:0:0:70:snare.wav
320,192,36476,1,0,0:0:0:70:hit2.wav
448,192,36476,1,0,0:0:0:0:
64,192,36667,1,0,0:0:0:70:hit2.wav
192,192,36858,1,0,0:0:0:70:kick.wav
320,192,36858,1,0,0:0:0:70:hit2.wav
64,192,37049,128,0,37622:0:0:0:70:snare.wav
320,192,37049,1,0,0:0:0:70:hit2.wav
448,192,37049,1,0,0:0:0:0:
192,192,37240,1,0,0:0:0:40:snare.wav
320,192,37336,1,0,0:0:0:50:snare.wav
448,192,37431,128,0,37622:0:0:0:70:snare.wav
320,192,37622,1,0,0:0:0:70:kick.wav
64,192,37814,128,0,38005:0:0:0:70:snare.wav
320,192,37814,128,0,38005:0:0:0:70:openhit.wav
448,192,37814,128,0,38005:0:0:0:0:
192,192,38005,1,0,0:0:0:70:kick.wav
64,192,38196,128,0,38387:0:0:0:70:snare.wav
192,192,38196,128,0,38387:0:0:0:70:openhit.wav
448,192,38196,128,0,38387:0:0:0:70:crash1.wav
320,192,38387,1,0,0:0:0:40:snare.wav
64,192,38482,1,0,0:0:0:50:snare.wav
192,192,38482,1,0,0:0:0:0:
320,192,38578,1,0,0:0:0:70:snare.wav
448,192,38578,128,0,39151:0:0:0:0:
320,192,38769,1,0,0:0:0:70:TM.wav
192,192,38865,1,0,0:0:0:70:TM.wav
64,192,38960,128,0,39151:0:0:0:70:TF.wav
192,192,39151,1,0,0:0:0:70:kick.wav
64,192,39342,128,0,39533:0:0:0:70:snare.wav
192,192,39342,128,0,39533:0:0:0:70:openhit.wav
448,192,39342,128,0,39533:0:0:0:70:crash1.wav
320,192,39533,1,0,0:0:0:70:kick.wav
64,192,39724,128,0,39915:0:0:0:70:snare.wav
320,192,39724,128,0,39915:0:0:0:70:openhit.wav
448,192,39724,128,0,39915:0:0:0:70:crash1.wav
192,192,39915,1,0,0:0:0:70:kick.wav
64,192,40107,1,0,0:0:0:70:snare.wav
320,192,40107,1,0,0:0:0:70:openhit.wav
448,192,40107,1,0,0:0:0:0:
64,192,40298,1,0,0:0:0:70:kick.wav
192,192,40298,1,0,0:0:0:70:crash1.wav
448,192,40298,1,0,0:0:0:0:
192,192,40680,1,0,0:0:0:70:kick.wav
320,192,40680,1,0,0:0:0:70:hit2.wav
64,192,40871,1,0,0:0:0:70:snare.wav
320,192,40871,1,0,0:0:0:70:hit2.wav
448,192,40871,1,0,0:0:0:0:
64,192,41062,1,0,0:0:0:70:kick.wav
192,192,41062,1,0,0:0:0:70:hit2.wav
448,192,41062,1,0,0:0:0:70:crash1.wav
320,192,41444,1,0,0:0:0:70:kick.wav
448,192,41444,1,0,0:0:0:70:hit2.wav
64,192,41635,1,0,0:0:0:70:snare.wav
192,192,41635,1,0,0:0:0:70:hit2.wav
448,192,41635,1,0,0:0:0:0:
64,192,41826,1,0,0:0:0:70:kick.wav
192,192,41826,1,0,0:0:0:70:hit2.wav
320,192,41826,1,0,0:0:0:70:crash1.wav
64,192,42208,1,0,0:0:0:70:hit2.wav
448,192,42208,1,0,0:0:0:70:TM.wav
64,192,42400,1,0,0:0:0:70:kick.wav
192,192,42400,1,0,0:0:0:70:hit2.wav
320,192,42400,1,0,0:0:0:70:TF.wav
320,192,42591,1,0,0:0:0:40:snare.wav
448,192,42591,1,0,0:0:0:70:hit2.wav
192,192,42686,1,0,0:0:0:50:snare.wav
64,192,42782,1,0,0:0:0:70:snare.wav
448,192,42782,1,0,0:0:0:70:hit2.wav
64,192,42973,1,0,0:0:0:70:kick.wav
192,192,42973,1,0,0:0:0:70:hit2.wav
320,192,42973,1,0,0:0:0:70:crash1.wav
192,192,43164,1,0,0:0:0:70:bell.wav
320,192,43355,1,0,0:0:0:70:TM.wav
448,192,43355,1,0,0:0:0:0:
64,192,43451,1,0,0:0:0:70:TF.wav
192,192,43451,1,0,0:0:0:0:
320,192,43546,1,0,0:0:0:70:kick.wav
448,192,43546,128,0,43833:0:0:0:70:hit2.wav
192,192,43928,1,0,0:0:0:70:hit2.wav
448,192,43928,128,0,44215:0:0:0:0:
64,192,44119,1,0,0:0:0:70:kick.wav
192,192,44310,1,0,0:0:0:70:snare.wav
320,192,44310,1,0,0:0:0:70:hit2.wav
448,192,44310,128,0,44501:0:0:0:0:
64,192,44501,1,0,0:0:0:40:snare.wav
192,192,44597,1,0,0:0:0:70:snare.wav
448,192,44597,128,0,44788:0:0:0:0:
320,192,44693,1,0,0:0:0:70:hit2.wav
64,192,44884,1,0,0:0:0:70:kick.wav
192,192,44884,1,0,0:0:0:70:hit2.wav
448,192,44884,128,0,45266:0:0:0:70:crash1.wav
320,192,45075,1,0,0:0:0:70:hit2.wav
64,192,45266,128,0,45457:0:0:0:70:hit2.wav
192,192,45266,1,0,0:0:0:70:TM.wav
192,192,45457,128,0,45648:0:0:0:70:kick.wav
320,192,45457,1,0,0:0:0:70:hit2.wav
448,192,45648,128,0,45839:0:0:0:70:hit2.wav
64,192,45839,128,0,46126:0:0:0:70:snare.wav
192,192,45839,1,0,0:0:0:70:hit2.wav
320,192,45839,1,0,0:0:0:0:
448,192,46030,1,0,0:0:0:70:kick.wav
320,192,46126,128,0,46412:0:0:0:0:
64,192,46221,1,0,0:0:0:70:snare.wav
192,192,46221,1,0,0:0:0:70:hit2.wav
192,192,46412,1,0,0:0:0:70:hit2.wav
448,192,46412,128,0,46603:0:0:0:0:
64,192,46603,128,0,46890:0:0:0:70:kick.wav
320,192,46603,1,0,0:0:0:70:hit2.wav
192,192,46794,1,0,0:0:0:70:snare.wav
448,192,46794,1,0,0:0:0:70:hit2.wav
64,192,46986,128,0,47272:0:0:0:70:hit2.wav
320,192,46986,1,0,0:0:0:0:
448,192,47177,1,0,0:0:0:70:kick.wav
64,192,47368,128,0,47559:0:0:0:70:snare.wav
192,192,47368,1,0,0:0:0:70:hit2.wav
320,192,47368,1,0,0:0:0:0:
64,192,47654,128,0,47845:0:0:0:60:snare.wav
448,192,47654,1,0,0:0:0:0:
320,192,47750,1,0,0:0:0:70:hit2.wav
64,192,47941,128,0,48323:0:0:0:70:kick.wav
192,192,47941,1,0,0:0:0:70:hit2.wav
448,192,47941,1,0,0:0:0:70:crash1.wav
448,192,48132,1,0,0:0:0:70:hit2.wav
192,192,48323,1,0,0:0:0:70:hit2.wav
320,192,48323,128,0,48514:0:0:0:70:TM.wav
448,192,48514,128,0,48801:0:0:0:70:hit2.wav
64,192,48705,1,0,0:0:0:70:kick.wav
192,192,48896,1,0,0:0:0:70:snare.wav
320,192,48896,1,0,0:0:0:70:hit2.wav
448,192,48896,1,0,0:0:0:0:
64,192,49087,1,0,0:0:0:40:snare.wav
320,192,49183,1,0,0:0:0:50:snare.wav
448,192,49183,1,0,0:0:0:0:
64,192,49279,1,0,0:0:0:70:snare.wav
192,192,49279,1,0,0:0:0:70:hit2.wav
448,192,49374,1,0,0:0:0:60:TM.wav
320,192,49470,1,0,0:0:0:70:hit2.wav
192,192,49565,1,0,0:0:0:60:TF.wav
64,192,49661,128,0,49852:0:0:0:70:kick.wav
448,192,49661,1,0,0:0:0:70:hit2.wav
192,192,49852,128,0,50043:0:0:0:70:kick.wav
448,192,49852,1,0,0:0:0:70:hit2.wav
64,192,50043,1,0,0:0:0:70:snare.wav
320,192,50043,128,0,50234:0:0:0:70:hit2.wav
448,192,50043,1,0,0:0:0:0:
192,192,50234,1,0,0:0:0:70:hit2.wav
64,192,50425,1,0,0:0:0:70:kick.wav
448,192,50425,128,0,50616:0:0:0:70:hit2.wav
64,192,50616,1,0,0:0:0:70:kick.wav
320,192,50616,128,0,50807:0:0:0:70:hit2.wav
64,192,50807,1,0,0:0:0:70:snare.wav
192,192,50807,128,0,50998:0:0:0:70:hit2.wav
448,192,50807,1,0,0:0:0:0:
64,192,50998,1,0,0:0:0:70:kick.wav
320,192,50998,1,0,0:0:0:70:hit2.wav
448,192,50998,128,0,51572:0:0:0:70:crash1.wav
64,192,51380,128,0,51572:0:0:0:40:snare.wav
192,192,51380,1,0,0:0:0:0:
192,192,51572,128,0,51763:0:0:0:70:kick.wav
320,192,51572,1,0,0:0:0:50:snare.wav
320,192,51763,128,0,51954:0:0:0:60:snare.wav
448,192,51763,1,0,0:0:0:0:
64,192,51954,1,0,0:0:0:70:kick.wav
192,192,51954,1,0,0:0:0:70:snare.wav
448,192,51954,1,0,0:0:0:0:
64,192,52145,1,0,0:0:0:70:snare.wav
192,192,52145,1,0,0:0:0:0:
320,192,52145,1,0,0:0:0:0:
64,192,52336,1,0,0:0:0:70:kick.wav
320,192,52336,1,0,0:0:0:70:snare.wav
448,192,52336,1,0,0:0:0:0:
192,192,52431,1,0,0:0:0:70:TM.wav
448,192,52527,1,0,0:0:0:70:TL.wav
320,192,52622,1,0,0:0:0:70:TF.wav
64,192,52718,1,0,0:0:0:70:kick.wav
192,192,52718,128,0,52909:0:0:0:70:openhit.wav
448,192,52718,1,0,0:0:0:0:
320,192,52909,128,0,53100:0:0:0:0:
448,192,53100,128,0,53291:0:0:0:0:
64,192,53482,128,0,53673:0:0:0:0:
192,192,53673,128,0,53865:0:0:0:0:
320,192,53865,128,0,54056:0:0:0:0:
64,192,54056,128,0,54820:0:0:0:70:kick.wav
192,192,54056,128,0,54629:0:0:0:70:crash1.wav
448,192,54056,1,0,0:0:0:0:
320,192,54438,1,0,0:0:0:40:snare.wav
448,192,54438,1,0,0:0:0:0:
320,192,54629,1,0,0:0:0:70:kick.wav
448,192,54629,1,0,0:0:0:50:snare.wav
192,192,54820,1,0,0:0:0:60:snare.wav
320,192,54820,1,0,0:0:0:70:hit2.wav
64,192,55011,1,0,0:0:0:70:kick.wav
192,192,55011,1,0,0:0:0:70:snare.wav
448,192,55011,1,0,0:0:0:70:hit2.wav
64,192,55202,1,0,0:0:0:70:snare.wav
320,192,55202,1,0,0:0:0:70:hit2.wav
448,192,55202,1,0,0:0:0:0:
192,192,55393,1,0,0:0:0:70:snare.wav
320,192,55393,1,0,0:0:0:70:hit2.wav
448,192,55393,1,0,0:0:0:0:
64,192,55584,1,0,0:0:0:70:kick.wav
192,192,55584,1,0,0:0:0:70:hit2.wav
320,192,55584,1,0,0:0:0:70:crash1.wav
64,192,55966,1,0,0:0:0:90:snare.wav
320,192,55966,1,0,0:0:0:0:
448,192,55966,1,0,0:0:0:0:
64,192,56158,1,0,0:0:0:90:snare.wav
192,192,56158,1,0,0:0:0:0:
448,192,56158,1,0,0:0:0:0:
192,192,56540,128,0,56922:0:0:0:0:
320,192,56922,128,0,57304:0:0:0:70:TF.wav
448,192,56922,1,0,0:0:0:0:
64,192,57304,128,0,57495:0:0:0:70:kick.wav
192,192,57304,1,0,0:0:0:70:bell.wav
448,192,57304,128,0,57686:0:0:0:70:crash1.wav
320,192,57495,1,0,0:0:0:70:ride.wav
192,192,57591,1,0,0:0:0:70:snare.wav
64,192,57686,128,0,57877:0:0:0:70:kick.wav
320,192,57686,128,0,58068:0:0:0:0:
192,192,57877,1,0,0:0:0:70:snare.wav
448,192,57877,1,0,0:0:0:70:bell.wav
64,192,58068,128,0,58259:0:0:0:70:kick.wav
192,192,58068,128,0,58259:0:0:0:0:
320,192,58259,1,0,0:0:0:70:ride.wav
448,192,58355,1,0,0:0:0:70:snare.wav
64,192,58451,1,0,0:0:0:70:kick.wav
320,192,58451,128,0,58833:0:0:0:0:
192,192,58642,128,0,58833:0:0:0:70:snare.wav
448,192,58642,1,0,0:0:0:70:bell.wav
64,192,58833,128,0,59215:0:0:0:70:kick.wav
448,192,58833,128,0,59024:0:0:0:0:
192,192,59024,1,0,0:0:0:70:ride.wav
320,192,59119,1,0,0:0:0:70:snare.wav
192,192,59215,128,0,59597:0:0:0:70:kick.wav
448,192,59215,128,0,59406:0:0:0:0:
64,192,59406,1,0,0:0:0:70:snare.wav
320,192,59406,1,0,0:0:0:70:bell.wav
320,192,59597,128,0,59788:0:0:0:70:kick.wav
448,192,59597,128,0,59788:0:0:0:0:
64,192,59788,1,0,0:0:0:70:ride.wav
192,192,59884,1,0,0:0:0:70:snare.wav
64,192,59979,128,0,60361:0:0:0:70:kick.wav
320,192,59979,1,0,0:0:0:0:
192,192,60170,128,0,60361:0:0:0:70:snare.wav
448,192,60170,1,0,0:0:0:70:bell.wav
320,192,60361,1,0,0:0:0:70:kick.wav
448,192,60361,128,0,61126:0:0:0:0:
320,192,60552,1,0,0:0:0:70:ride.wav
192,192,60648,1,0,0:0:0:70:snare.wav
64,192,60743,1,0,0:0:0:70:kick.wav
320,192,60743,128,0,61126:0:0:0:0:
64,192,60935,1,0,0:0:0:70:snare.wav
192,192,60935,1,0,0:0:0:70:bell.wav
64,192,61126,128,0,61317:0:0:0:70:kick.wav
192,192,61126,1,0,0:0:0:0:
192,192,61317,128,0,61508:0:0:0:70:ride.wav
448,192,61317,1,0,0:0:0:0:
320,192,61412,1,0,0:0:0:70:snare.wav
64,192,61508,1,0,0:0:0:70:kick.wav
448,192,61508,128,0,61699:0:0:0:0:
192,192,61699,1,0,0:0:0:70:snare.wav
320,192,61699,128,0,61890:0:0:0:70:bell.wav
64,192,61890,128,0,62081:0:0:0:70:kick.wav
448,192,61890,1,0,0:0:0:0:
192,192,62081,1,0,0:0:0:70:ride.wav
448,192,62081,128,0,62272:0:0:0:0:
320,192,62177,1,0,0:0:0:70:snare.wav
64,192,62272,1,0,0:0:0:70:kick.wav
192,192,62272,128,0,62463:0:0:0:0:
320,192,62463,128,0,62654:0:0:0:70:snare.wav
448,192,62463,1,0,0:0:0:70:bell.wav
64,192,62654,128,0,62845:0:0:0:70:kick.wav
192,192,62654,1,0,0:0:0:0:
448,192,62750,1,0,0:0:0:50:snare.wav
320,192,62845,1,0,0:0:0:70:ride.wav
192,192,62941,1,0,0:0:0:70:snare.wav
64,192,63036,1,0,0:0:0:70:kick.wav
320,192,63036,128,0,63419:0:0:0:0:
192,192,63228,1,0,0:0:0:70:snare.wav
448,192,63228,128,0,63419:0:0:0:70:bell.wav
64,192,63419,128,0,63801:0:0:0:70:kick.wav
192,192,63419,128,0,63610:0:0:0:70:crash1.wav
320,192,63610,1,0,0:0:0:70:ride.wav
448,192,63705,1,0,0:0:0:70:snare.wav
192,192,63801,128,0,64183:0:0:0:70:kick.wav
320,192,63801,128,0,63992:0:0:0:0:
64,192,63992,1,0,0:0:0:70:snare.wav
448,192,63992,1,0,0:0:0:70:bell.wav
320,192,64183,128,0,64565:0:0:0:70:kick.wav
448,192,64183,128,0,64374:0:0:0:0:
192,192,64374,1,0,0:0:0:70:ride.wav
64,192,64470,1,0,0:0:0:70:snare.wav
192,192,64565,128,0,64947:0:0:0:70:kick.wav
448,192,64565,1,0,0:0:0:0:
64,192,64756,128,0,64947:0:0:0:70:snare.wav
320,192,64756,1,0,0:0:0:70:bell.wav
320,192,64947,128,0,65138:0:0:0:70:kick.wav
448,192,64947,128,0,65329:0:0:0:0:
192,192,65138,1,0,0:0:0:70:ride.wav
64,192,65234,1,0,0:0:0:70:snare.wav
192,192,65329,128,0,65521:0:0:0:70:kick.wav
320,192,65329,128,0,65712:0:0:0:0:
64,192,65521,1,0,0:0:0:70:snare.wav
448,192,65521,1,0,0:0:0:70:bell.wav
64,192,65712,128,0,66094:0:0:0:70:kick.wav
448,192,65712,128,0,65903:0:0:0:0:
320,192,65903,1,0,0:0:0:70:ride.wav
192,192,65998,1,0,0:0:0:70:snare.wav
320,192,66094,128,0,66476:0:0:0:70:kick.wav
448,192,66094,128,0,66285:0:0:0:0:
64,192,66285,1,0,0:0:0:70:snare.wav
192,192,66285,1,0,0:0:0:70:bell.wav
64,192,66476,128,0,66667:0:0:0:70:kick.wav
448,192,66476,128,0,67622:0:0:0:0:
192,192,66667,128,0,66858:0:0:0:70:ride.wav
64,192,66763,1,0,0:0:0:70:snare.wav
320,192,66858,128,0,67049:0:0:0:70:kick.wav
64,192,67049,128,0,67240:0:0:0:70:snare.wav
192,192,67240,128,0,67431:0:0:0:70:kick.wav
320,192,67431,128,0,67622:0:0:0:70:ride.wav
192,192,67527,1,0,0:0:0:70:snare.wav
64,192,67622,1,0,0:0:0:70:kick.wav
192,192,67814,128,0,68005:0:0:0:70:snare.wav
320,192,67814,1,0,0:0:0:70:bell.wav
64,192,68005,128,0,68387:0:0:0:70:kick.wav
448,192,68005,1,0,0:0:0:0:
192,192,68196,1,0,0:0:0:70:ride.wav
320,192,68291,1,0,0:0:0:70:snare.wav
448,192,68387,1,0,0:0:0:70:kick.wav
64,192,68578,1,0,0:0:0:70:snare.wav
192,192,68578,1,0,0:0:0:70:bell.wav
320,192,68769,128,0,69151:0:0:0:70:kick.wav
448,192,68769,1,0,0:0:0:0:
64,192,68960,1,0,0:0:0:70:snare.wav
192,192,69056,1,0,0:0:0:70:bell.wav
64,192,69151,1,0,0:0:0:70:snare.wav
448,192,69151,128,0,69533:0:0:0:0:
320,192,69247,1,0,0:0:0:70:snare.wav
192,192,69342,1,0,0:0:0:70:snare.wav
320,192,69438,1,0,0:0:0:70:snare.wav
64,192,69533,128,0,69724:0:0:0:70:kick.wav
192,192,69533,128,0,69915:0:0:0:70:cymbal1.wav
320,192,69724,1,0,0:0:0:70:ride.wav
448,192,69820,1,0,0:0:0:70:snare.wav
64,192,69915,128,0,70107:0:0:0:70:kick.wav
320,192,69915,128,0,70298:0:0:0:0:
192,192,70107,1,0,0:0:0:70:snare.wav
448,192,70107,1,0,0:0:0:70:bell.wav
64,192,70298,128,0,70489:0:0:0:70:kick.wav
448,192,70298,128,0,70489:0:0:0:0:
192,192,70489,1,0,0:0:0:70:ride.wav
320,192,70584,1,0,0:0:0:70:snare.wav
192,192,70680,128,0,71062:0:0:0:70:kick.wav
448,192,70680,1,0,0:0:0:0:
64,192,70871,128,0,71062:0:0:0:70:snare.wav
320,192,70871,1,0,0:0:0:70:bell.wav
320,192,71062,128,0,71444:0:0:0:70:kick.wav
448,192,71062,128,0,71253:0:0:0:0:
192,192,71253,1,0,0:0:0:70:ride.wav
64,192,71349,1,0,0:0:0:70:snare.wav
192,192,71444,128,0,71826:0:0:0:70:kick.wav
448,192,71444,128,0,71635:0:0:0:0:
64,192,71635,1,0,0:0:0:70:snare.wav
320,192,71635,1,0,0:0:0:70:bell.wav
64,192,71826,128,0,72017:0:0:0:70:kick.wav
448,192,71826,128,0,72017:0:0:0:0:
320,192,72017,1,0,0:0:0:70:ride.wav
192,192,72113,1,0,0:0:0:70:snare.wav
64,192,72208,1,0,0:0:0:70:kick.wav
320,192,72208,128,0,72591:0:0:0:0:
64,192,72400,1,0,0:0:0:70:snare.wav
448,192,72400,128,0,72591:0:0:0:70:bell.wav
64,192,72591,128,0,73355:0:0:0:70:kick.wav
192,192,72591,1,0,0:0:0:0:
192,192,72782,1,0,0:0:0:70:ride.wav
320,192,72877,1,0,0:0:0:70:snare.wav
192,192,72973,128,0,73355:0:0:0:70:kick.wav
448,192,72973,1,0,0:0:0:0:
320,192,73164,1,0,0:0:0:70:snare.wav
448,192,73164,1,0,0:0:0:70:bell.wav
320,192,73355,1,0,0:0:0:70:kick.wav
448,192,73355,128,0,73546:0:0:0:0:
64,192,73546,1,0,0:0:0:70:ride.wav
320,192,73546,128,0,73737:0:0:0:0:
192,192,73642,1,0,0:0:0:70:snare.wav
64,192,73737,128,0,73928:0:0:0:70:kick.wav
448,192,73737,1,0,0:0:0:0:
192,192,73928,128,0,74119:0:0:0:70:snare.wav
320,192,73928,1,0,0:0:0:70:bell.wav
320,192,74119,128,0,74310:0:0:0:70:kick.wav
448,192,74119,1,0,0:0:0:0:
192,192,74310,1,0,0:0:0:70:ride.wav
448,192,74310,128,0,74501:0:0:0:0:
64,192,74406,1,0,0:0:0:70:snare.wav
192,192,74501,128,0,74693:0:0:0:70:kick.wav
320,192,74501,1,0,0:0:0:0:
64,192,74693,128,0,74884:0:0:0:70:snare.wav
448,192,74693,1,0,0:0:0:70:bell.wav
320,192,74884,1,0,0:0:0:70:kick.wav
448,192,74884,128,0,75075:0:0:0:0:
64,192,75075,1,0,0:0:0:70:snare.wav
192,192,75170,1,0,0:0:0:70:bell.wav
320,192,75266,1,0,0:0:0:70:snare.wav
448,192,75266,1,0,0:0:0:0:
64,192,75361,1,0,0:0:0:70:snare.wav
192,192,75361,1,0,0:0:0:0:
320,192,75457,1,0,0:0:0:70:snare.wav
448,192,75457,1,0,0:0:0:70:bell.wav
64,192,75552,1,0,0:0:0:70:snare.wav
192,192,75552,1,0,0:0:0:0:
320,192,75648,128,0,75839:0:0:0:70:kick.wav
448,192,75648,128,0,76030:0:0:0:70:crash1.wav
64,192,75839,1,0,0:0:0:70:ride.wav
192,192,75935,1,0,0:0:0:70:snare.wav
64,192,76030,128,0,76412:0:0:0:70:kick.wav
320,192,76030,128,0,76221:0:0:0:0:
192,192,76221,1,0,0:0:0:70:snare.wav
448,192,76221,1,0,0:0:0:70:bell.wav
192,192,76412,128,0,76794:0:0:0:70:kick.wav
320,192,76412,128,0,76603:0:0:0:0:
64,192,76603,1,0,0:0:0:70:ride.wav
448,192,76699,1,0,0:0:0:70:snare.wav
64,192,76794,128,0,77177:0:0:0:70:kick.wav
320,192,76794,1,0,0:0:0:0:
320,192,76986,128,0,77177:0:0:0:70:snare.wav
448,192,76986,1,0,0:0:0:70:bell.wav
192,192,77177,128,0,77368:0:0:0:70:kick.wav
448,192,77177,128,0,77559:0:0:0:0:
320,192,77368,1,0,0:0:0:70:ride.wav
64,192,77463,1,0,0:0:0:70:snare.wav
192,192,77559,128,0,77941:0:0:0:70:kick.wav
320,192,77559,128,0,77750:0:0:0:0:
64,192,77750,1,0,0:0:0:70:snare.wav
448,192,77750,1,0,0:0:0:70:bell.wav
64,192,77941,128,0,78132:0:0:0:70:kick.wav
320,192,77941,128,0,78323:0:0:0:0:
448,192,78132,1,0,0:0:0:70:ride.wav
192,192,78228,1,0,0:0:0:70:snare.wav
64,192,78323,128,0,78705:0:0:0:70:kick.wav
448,192,78323,128,0,78514:0:0:0:0:
192,192,78514,1,0,0:0:0:70:snare.wav
320,192,78514,1,0,0:0:0:70:bell.wav
448,192,78610,1,0,0:0:0:0:
192,192,78705,128,0,79852:0:0:0:70:kick.wav
320,192,78705,128,0,78896:0:0:0:70:cymbal1.wav
448,192,78896,128,0,79087:0:0:0:70:ride.wav
320,192,78992,1,0,0:0:0:70:bell.wav
64,192,79087,128,0,79279:0:0:0:70:kick.wav
320,192,79279,128,0,79470:0:0:0:70:bell.wav
64,192,79374,1,0,0:0:0:0:
448,192,79470,128,0,79661:0:0:0:70:kick.wav
320,192,79565,1,0,0:0:0:50:snare.wav
64,192,79661,128,0,79852:0:0:0:70:ride.wav
448,192,79756,1,0,0:0:0:70:bell.wav
320,192,79852,1,0,0:0:0:70:kick.wav
192,192,80043,1,0,0:0:0:70:bell.wav
448,192,80043,128,0,80234:0:0:0:70:ride.wav
320,192,80138,1,0,0:0:0:0:
64,192,80234,128,0,80998:0:0:0:70:kick.wav
192,192,80234,128,0,80425:0:0:0:0:
320,192,80425,128,0,80616:0:0:0:70:ride.wav
192,192,80521,1,0,0:0:0:70:bell.wav
448,192,80616,128,0,80807:0:0:0:70:kick.wav
192,192,80807,128,0,80998:0:0:0:70:bell.wav
320,192,80903,1,0,0:0:0:0:
448,192,80998,1,0,0:0:0:70:kick.wav
192,192,81189,1,0,0:0:0:70:snare.wav
320,192,81189,1,0,0:0:0:0:
448,192,81285,1,0,0:0:0:70:bell.wav
64,192,81380,1,0,0:0:0:70:snare.wav
192,192,81380,1,0,0:0:0:0:
320,192,81476,1,0,0:0:0:70:snare.wav
448,192,81476,1,0,0:0:0:0:
64,192,81572,1,0,0:0:0:70:snare.wav
192,192,81572,1,0,0:0:0:0:
320,192,81667,1,0,0:0:0:70:snare.wav
64,192,81763,128,0,81954:0:0:0:70:kick.wav
192,192,81763,1,0,0:0:0:70:crash1.wav
448,192,81763,1,0,0:0:0:0:
320,192,81954,1,0,0:0:0:70:kick.wav
448,192,81954,128,0,82145:0:0:0:0:
64,192,82145,1,0,0:0:0:70:snare.wav
192,192,82145,1,0,0:0:0:70:openhit.wav
320,192,82145,128,0,82336:0:0:0:0:
64,192,82336,1,0,0:0:0:70:kick.wav
192,192,82336,128,0,82527:0:0:0:70:crash1.wav
448,192,82336,1,0,0:0:0:0:
320,192,82718,1,0,0:0:0:70:kick.wav
448,192,82718,1,0,0:0:0:0:
192,192,82814,1,0,0:0:0:0:
64,192,82909,1,0,0:0:0:70:snare.wav
320,192,82909,1,0,0:0:0:70:openhit.wav
448,192,82909,1,0,0:0:0:0:
64,192,83100,1,0,0:0:0:70:kick.wav
192,192,83100,1,0,0:0:0:70:crash1.wav
448,192,83100,128,0,83482:0:0:0:0:
64,192,83482,128,0,83673:0:0:0:70:kick.wav
192,192,83482,1,0,0:0:0:0:
192,192,83673,128,0,83865:0:0:0:70:snare.wav
320,192,83673,1,0,0:0:0:70:openhit.wav
448,192,83673,1,0,0:0:0:0:
64,192,83865,1,0,0:0:0:70:kick.wav
320,192,83865,128,0,84247:0:0:0:70:crash1.wav
448,192,83865,1,0,0:0:0:0:
192,192,84247,1,0,0:0:0:70:kick.wav
64,192,84438,1,0,0:0:0:70:snare.wav
448,192,84438,1,0,0:0:0:70:openhit.wav
192,192,84533,1,0,0:0:0:70:snare.wav
320,192,84533,1,0,0:0:0:0:
64,192,84629,1,0,0:0:0:70:snare.wav
448,192,84629,1,0,0:0:0:0:
192,192,84724,1,0,0:0:0:70:snare.wav
320,192,84724,1,0,0:0:0:0:
64,192,84820,1,0,0:0:0:70:kick.wav
448,192,84820,1,0,0:0:0:70:hit2.wav
192,192,85011,128,0,85202:0:0:0:70:kick.wav
320,192,85011,1,0,0:0:0:70:hit2.wav
64,192,85202,1,0,0:0:0:70:snare.wav
320,192,85202,128,0,85393:0:0:0:70:openhit.wav
448,192,85202,1,0,0:0:0:0:
192,192,85393,1,0,0:0:0:70:kick.wav
448,192,85393,128,0,85584:0:0:0:0:
64,192,85584,128,0,85775:0:0:0:70:kick.wav
192,192,85584,1,0,0:0:0:0:
320,192,85584,1,0,0:0:0:0:
192,192,85775,128,0,85966:0:0:0:70:kick.wav
320,192,85775,1,0,0:0:0:0:
64,192,85966,1,0,0:0:0:70:snare.wav
320,192,85966,128,0,86158:0:0:0:70:openhit.wav
448,192,85966,1,0,0:0:0:0:
64,192,86158,1,0,0:0:0:70:kick.wav
192,192,86158,1,0,0:0:0:70:hit2.wav
448,192,86158,1,0,0:0:0:70:crash1.wav
320,192,86540,1,0,0:0:0:70:hit2.wav
192,192,86635,1,0,0:0:0:0:
64,192,86731,1,0,0:0:0:70:openhit.wav
448,192,86731,1,0,0:0:0:70:TL.wav
320,192,86826,1,0,0:0:0:70:TL.wav
192,192,86922,1,0,0:0:0:70:TF.wav
448,192,87017,1,0,0:0:0:70:TF.wav
64,192,87113,1,0,0:0:0:70:snare.wav
320,192,87113,1,0,0:0:0:70:openhit.wav
64,192,87495,1,0,0:0:0:70:snare.wav
192,192,87495,1,0,0:0:0:0:
320,192,87591,1,0,0:0:0:70:snare.wav
448,192,87591,1,0,0:0:0:0:
64,192,87686,1,0,0:0:0:70:snare.wav
192,192,87686,1,0,0:0:0:0:
320,192,87782,1,0,0:0:0:70:snare.wav
64,192,87877,128,0,88068:0:0:0:70:kick.wav
192,192,87877,1,0,0:0:0:70:cymbal1.wav
448,192,87877,1,0,0:0:0:0:
192,192,88068,128,0,88259:0:0:0:70:ride.wav
64,192,88259,1,0,0:0:0:70:snare.wav
320,192,88259,128,0,88451:0:0:0:0:
448,192,88259,1,0,0:0:0:0:
448,192,88451,128,0,88642:0:0:0:70:ride.wav
192,192,88642,1,0,0:0:0:70:kick.wav
320,192,88642,128,0,88833:0:0:0:0:
64,192,88737,1,0,0:0:0:50:snare.wav
192,192,88833,128,0,89024:0:0:0:70:ride.wav
64,192,89024,128,0,89215:0:0:0:70:snare.wav
320,192,89024,1,0,0:0:0:0:
448,192,89024,1,0,0:0:0:0:
192,192,89215,128,0,89406:0:0:0:70:ride.wav
320,192,89406,128,0,89597:0:0:0:70:kick.wav
448,192,89406,1,0,0:0:0:0:
64,192,89501,1,0,0:0:0:50:snare.wav
448,192,89597,128,0,89788:0:0:0:70:ride.wav
64,192,89788,1,0,0:0:0:70:snare.wav
192,192,89788,1,0,0:0:0:0:
320,192,89788,128,0,89979:0:0:0:0:
64,192,89979,1,0,0:0:0:70:ride.wav
192,192,89979,128,0,90170:0:0:0:0:
448,192,90075,1,0,0:0:0:50:snare.wav
64,192,90170,128,0,90361:0:0:0:70:kick.wav
320,192,90170,1,0,0:0:0:70:snare.wav
448,192,90266,1,0,0:0:0:70:TM.wav
192,192,90361,128,0,90552:0:0:0:70:TL.wav
320,192,90361,1,0,0:0:0:0:
64,192,90457,1,0,0:0:0:70:TL.wav
320,192,90552,128,0,90743:0:0:0:70:kick.wav
448,192,90552,1,0,0:0:0:70:TF.wav
192,192,90648,1,0,0:0:0:0:
64,192,90743,1,0,0:0:0:0:
448,192,90743,128,0,90935:0:0:0:0:
64,192,90935,1,0,0:0:0:70:snare.wav
192,192,90935,1,0,0:0:0:70:openhit.wav
320,192,90935,1,0,0:0:0:0:
64,192,91126,1,0,0:0:0:70:snare.wav
192,192,91126,1,0,0:0:0:70:openhit.wav
320,192,91126,1,0,0:0:0:0:
448,192,91317,1,0,0:0:0:70:kick.wav
64,192,91508,1,0,0:0:0:70:kick.wav
192,192,91699,1,0,0:0:0:70:snare.wav
320,192,91699,1,0,0:0:0:70:openhit.wav
448,192,91699,1,0,0:0:0:0:
192,192,91890,1,0,0:0:0:70:snare.wav
320,192,91890,1,0,0:0:0:70:openhit.wav
448,192,91890,1,0,0:0:0:0:
64,192,92081,1,0,0:0:0:70:TH.wav
448,192,92177,1,0,0:0:0:70:TH.wav
320,192,92272,1,0,0:0:0:70:TL.wav
192,192,92368,1,0,0:0:0:70:TF.wav
64,192,92463,1,0,0:0:0:70:snare.wav
320,192,92463,1,0,0:0:0:70:openhit.wav
448,192,92463,1,0,0:0:0:0:
64,192,92654,1,0,0:0:0:70:snare.wav
320,192,92654,1,0,0:0:0:70:openhit.wav
448,192,92654,1,0,0:0:0:0:
192,192,92845,1,0,0:0:0:0:
320,192,92909,1,0,0:0:0:0:
448,192,92973,1,0,0:0:0:0:
64,192,93036,1,0,0:0:0:0:
320,192,93228,1,0,0:0:0:0:
448,192,93419,1,0,0:0:0:0:
64,192,93482,1,0,0:0:0:0:
192,192,93546,1,0,0:0:0:0:
320,192,93610,1,0,0:0:0:0:
64,192,93801,1,0,0:0:0:0:
448,192,93992,1,0,0:0:0:0:
320,192,94040,1,0,0:0:0:0:
64,192,94565,128,0,94947:0:0:0:0:
192,192,94756,128,0,95329:0:0:0:0:
320,192,94947,128,0,95329:0:0:0:0:
64,192,95138,128,0,95329:0:0:0:0:
448,192,95329,128,0,96094:0:0:0:0:
192,192,95521,1,0,0:0:0:0:
64,192,95544,1,0,0:0:0:0:
320,192,95712,128,0,96094:0:0:0:0:
192,192,95903,1,0,0:0:0:0:
64,192,96094,128,0,96858:0:0:0:0:
320,192,96285,1,0,0:0:0:0:
192,192,96309,1,0,0:0:0:0:
320,192,96476,128,0,97049:0:0:0:0:
448,192,96667,1,0,0:0:0:0:
192,192,96858,128,0,97049:0:0:0:0:
64,192,97049,128,0,98578:0:0:0:70:hit2.wav
448,192,97049,128,0,97814:0:0:0:0:
192,192,97431,128,0,97814:0:0:0:0:
320,192,97814,128,0,98196:0:0:0:40:hit2.wav
192,192,98196,1,0,0:0:0:0:
448,192,98196,128,0,98387:0:0:0:0:
192,192,98387,128,0,98578:0:0:0:70:hit2.wav
320,192,98578,1,0,0:0:0:0:
448,192,98578,128,0,99151:0:0:0:0:
320,192,98960,1,0,0:0:0:0:
192,192,99024,1,0,0:0:0:0:
64,192,99087,1,0,0:0:0:0:
320,192,99151,1,0,0:0:0:0:
192,192,99215,1,0,0:0:0:0:
64,192,99279,1,0,0:0:0:0:
320,192,99342,1,0,0:0:0:70:hit1.wav
448,192,99342,1,0,0:0:0:0:
192,192,99533,1,0,0:0:0:70:hit1.wav
64,192,99724,128,0,99915:0:0:0:60:openhit.wav
448,192,99724,1,0,0:0:0:0:
192,192,99915,1,0,0:0:0:70:TL.wav
320,192,99979,1,0,0:0:0:70:TL.wav
448,192,100043,1,0,0:0:0:70:TL.wav
64,192,100107,1,0,0:0:0:70:kick.wav
192,192,100107,128,0,100489:0:0:0:0:
320,192,100298,1,0,0:0:0:70:kick.wav
64,192,100489,128,0,100680:0:0:0:70:snare.wav
320,192,100489,128,0,100680:0:0:0:70:openhit.wav
448,192,100489,128,0,100680:0:0:0:0:
192,192,100680,1,0,0:0:0:70:kick.wav
64,192,100871,128,0,101062:0:0:0:70:snare.wav
192,192,100871,128,0,101062:0:0:0:70:openhit.wav
448,192,100871,128,0,101062:0:0:0:70:crash1.wav
320,192,101062,1,0,0:0:0:40:snare.wav
192,192,101158,1,0,0:0:0:50:snare.wav
64,192,101253,1,0,0:0:0:70:snare.wav
448,192,101253,128,0,101444:0:0:0:0:
320,192,101349,1,0,0:0:0:0:
192,192,101444,1,0,0:0:0:70:TL.wav
64,192,101540,1,0,0:0:0:70:TF.wav
320,192,101635,128,0,102017:0:0:0:70:kick.wav
192,192,101826,1,0,0:0:0:70:kick.wav
64,192,102017,128,0,102208:0:0:0:70:snare.wav
192,192,102017,128,0,102208:0:0:0:70:openhit.wav
448,192,102017,128,0,102208:0:0:0:70:crash1.wav
320,192,102208,1,0,0:0:0:70:kick.wav
64,192,102400,128,0,102591:0:0:0:70:snare.wav
320,192,102400,128,0,102591:0:0:0:70:openhit.wav
448,192,102400,128,0,102591:0:0:0:70:crash1.wav
192,192,102591,1,0,0:0:0:70:TM.wav
64,192,102782,1,0,0:0:0:70:snare.wav
320,192,102782,1,0,0:0:0:0:
448,192,102782,1,0,0:0:0:0:
64,192,102973,1,0,0:0:0:70:kick.wav
192,192,102973,1,0,0:0:0:70:crash1.wav
448,192,102973,1,0,0:0:0:0:
64,192,103355,1,0,0:0:0:70:kick.wav
448,192,103355,1,0,0:0:0:70:hit1.wav
192,192,103546,1,0,0:0:0:70:snare.wav
320,192,103546,1,0,0:0:0:0:
448,192,103546,1,0,0:0:0:0:
64,192,103737,1,0,0:0:0:70:kick.wav
192,192,103737,1,0,0:0:0:70:crash1.wav
448,192,103737,1,0,0:0:0:0:
320,192,104119,1,0,0:0:0:70:kick.wav
448,192,104119,1,0,0:0:0:70:hit1.wav
64,192,104310,1,0,0:0:0:70:snare.wav
192,192,104310,1,0,0:0:0:0:
320,192,104310,1,0,0:0:0:0:
64,192,104501,1,0,0:0:0:70:kick.wav
320,192,104501,1,0,0:0:0:70:crash1.wav
448,192,104501,1,0,0:0:0:0:
64,192,104884,1,0,0:0:0:70:snare.wav
448,192,104884,1,0,0:0:0:0:
192,192,104979,1,0,0:0:0:70:snare.wav
320,192,105075,1,0,0:0:0:70:TM.wav
192,192,105170,1,0,0:0:0:70:TM.wav
64,192,105266,1,0,0:0:0:70:kick.wav
320,192,105266,1,0,0:0:0:70:crash1.wav
448,192,105266,1,0,0:0:0:0:
192,192,105648,1,0,0:0:0:70:hit2.wav
320,192,105743,1,0,0:0:0:70:TM.wav
64,192,105839,1,0,0:0:0:70:hit2.wav
448,192,105839,1,0,0:0:0:70:TH.wav
192,192,105935,1,0,0:0:0:70:TM.wav
448,192,106030,1,0,0:0:0:70:hit2.wav
320,192,106126,1,0,0:0:0:70:TF.wav
64,192,106221,1,0,0:0:0:70:kick.wav
192,192,106221,1,0,0:0:0:70:hit2.wav
320,192,106412,1,0,0:0:0:70:hit2.wav
64,192,106603,1,0,0:0:0:70:snare.wav
192,192,106603,1,0,0:0:0:70:hit2.wav
448,192,106603,1,0,0:0:0:70:hit1.wav
64,192,106794,1,0,0:0:0:70:snare.wav
192,192,106794,1,0,0:0:0:70:hit2.wav
448,192,106794,1,0,0:0:0:0:
320,192,106986,1,0,0:0:0:70:hit2.wav
64,192,107177,1,0,0:0:0:70:kick.wav
448,192,107177,1,0,0:0:0:70:hit2.wav
64,192,107368,1,0,0:0:0:70:snare.wav
192,192,107368,1,0,0:0:0:70:hit2.wav
320,192,107368,1,0,0:0:0:70:hit1.wav
448,192,107559,1,0,0:0:0:70:hit2.wav
192,192,107750,1,0,0:0:0:70:kick.wav
320,192,107750,1,0,0:0:0:70:hit2.wav
64,192,107941,1,0,0:0:0:70:hit2.wav
192,192,108132,1,0,0:0:0:70:snare.wav
320,192,108132,1,0,0:0:0:70:hit2.wav
448,192,108132,1,0,0:0:0:70:hit1.wav
192,192,108323,1,0,0:0:0:70:snare.wav
320,192,108323,1,0,0:0:0:70:hit2.wav
448,192,108323,1,0,0:0:0:0:
64,192,108514,1,0,0:0:0:70:hit2.wav
192,192,108705,1,0,0:0:0:70:kick.wav
320,192,108705,1,0,0:0:0:70:hit2.wav
64,192,108896,1,0,0:0:0:70:snare.wav
320,192,108896,1,0,0:0:0:70:hit2.wav
448,192,108896,1,0,0:0:0:70:hit1.wav
192,192,109087,1,0,0:0:0:70:hit2.wav
64,192,109279,1,0,0:0:0:70:kick.wav
320,192,109279,1,0,0:0:0:70:hit2.wav
448,192,109470,1,0,0:0:0:70:hit2.wav
64,192,109661,1,0,0:0:0:70:snare.wav
192,192,109661,1,0,0:0:0:70:hit2.wav
320,192,109661,1,0,0:0:0:70:hit1.wav
64,192,109852,1,0,0:0:0:70:snare.wav
192,192,109852,1,0,0:0:0:70:hit2.wav
320,192,109852,1,0,0:0:0:0:
448,192,110043,1,0,0:0:0:70:hit2.wav
64,192,110234,1,0,0:0:0:70:kick.wav
192,192,110234,1,0,0:0:0:70:hit2.wav
192,192,110425,1,0,0:0:0:70:snare.wav
320,192,110425,1,0,0:0:0:70:hit2.wav
448,192,110425,1,0,0:0:0:70:hit1.wav
64,192,110616,1,0,0:0:0:70:hit2.wav
320,192,110807,1,0,0:0:0:70:kick.wav
448,192,110807,1,0,0:0:0:70:hit2.wav
192,192,110998,1,0,0:0:0:70:hit2.wav
64,192,111189,1,0,0:0:0:70:snare.wav
320,192,111189,1,0,0:0:0:70:hit2.wav
448,192,111189,1,0,0:0:0:70:hit1.wav
64,192,111380,1,0,0:0:0:70:snare.wav
320,192,111380,1,0,0:0:0:70:hit2.wav
448,192,111380,1,0,0:0:0:0:
192,192,111572,1,0,0:0:0:70:hit2.wav
64,192,111763,1,0,0:0:0:70:kick.wav
448,192,111763,1,0,0:0:0:70:hit2.wav
192,192,111954,128,0,112527:0:0:0:70:snare.wav
320,192,111954,1,0,0:0:0:70:hit2.wav
448,192,111954,1,0,0:0:0:70:hit1.wav
64,192,112145,1,0,0:0:0:40:snare.wav
448,192,112240,1,0,0:0:0:50:snare.wav
320,192,112336,128,0,112527:0:0:0:70:kick.wav
448,192,112527,1,0,0:0:0:70:kick.wav
192,192,112718,128,0,112909:0:0:0:70:snare.wav
320,192,112718,128,0,112909:0:0:0:70:openhit.wav
448,192,112718,128,0,112909:0:0:0:0:
64,192,112909,1,0,0:0:0:70:kick.wav
64,192,113100,128,0,113291:0:0:0:70:snare.wav
192,192,113100,128,0,113291:0:0:0:70:openhit.wav
320,192,113100,128,0,113291:0:0:0:70:crash1.wav
448,192,113291,1,0,0:0:0:40:snare.wav
64,192,113387,1,0,0:0:0:50:snare.wav
192,192,113387,1,0,0:0:0:0:
320,192,113482,128,0,114056:0:0:0:70:snare.wav
448,192,113482,1,0,0:0:0:70:openhit.wav
64,192,113578,1,0,0:0:0:70:TM.wav
192,192,113673,1,0,0:0:0:70:TF.wav
448,192,113769,1,0,0:0:0:70:TF.wav
192,192,113865,128,0,114056:0:0:0:70:kick.wav
64,192,114056,1,0,0:0:0:70:kick.wav
64,192,114247,128,0,114438:0:0:0:70:snare.wav
192,192,114247,128,0,114438:0:0:0:70:openhit.wav
448,192,114247,128,0,114438:0:0:0:0:
320,192,114438,1,0,0:0:0:70:kick.wav
64,192,114629,128,0,114820:0:0:0:70:snare.wav
320,192,114629,128,0,114820:0:0:0:70:openhit.wav
448,192,114629,128,0,114820:0:0:0:70:crash1.wav
192,192,114820,1,0,0:0:0:70:TL.wav
64,192,115011,1,0,0:0:0:70:snare.wav
320,192,115011,1,0,0:0:0:70:openhit.wav
448,192,115011,1,0,0:0:0:70:TM.wav
64,192,115202,1,0,0:0:0:70:kick.wav
192,192,115202,1,0,0:0:0:70:crash1.wav
320,192,115202,1,0,0:0:0:0:
64,192,115584,1,0,0:0:0:70:kick.wav
448,192,115584,1,0,0:0:0:70:ride.wav
192,192,115775,1,0,0:0:0:70:snare.wav
320,192,115775,1,0,0:0:0:70:openhit.wav
448,192,115775,1,0,0:0:0:0:
64,192,115966,1,0,0:0:0:70:kick.wav
192,192,115966,1,0,0:0:0:70:hit2.wav
320,192,115966,1,0,0:0:0:70:crash1.wav
320,192,116349,1,0,0:0:0:70:kick.wav
448,192,116349,1,0,0:0:0:70:ride.wav
64,192,116540,1,0,0:0:0:70:snare.wav
192,192,116540,1,0,0:0:0:0:
320,192,116540,1,0,0:0:0:0:
64,192,116731,1,0,0:0:0:70:kick.wav
192,192,116731,1,0,0:0:0:70:hit2.wav
448,192,116731,1,0,0:0:0:70:crash1.wav
192,192,117113,1,0,0:0:0:70:kick.wav
320,192,117113,1,0,0:0:0:70:hit2.wav
64,192,117304,1,0,0:0:0:70:snare.wav
192,192,117304,1,0,0:0:0:70:hit2.wav
448,192,117304,1,0,0:0:0:70:ride.wav
320,192,117495,1,0,0:0:0:70:hit2.wav
64,192,117591,1,0,0:0:0:50:snare.wav
192,192,117591,1,0,0:0:0:0:
320,192,117686,1,0,0:0:0:70:kick.wav
448,192,117686,1,0,0:0:0:0:
64,192,117877,1,0,0:0:0:70:snare.wav
192,192,117973,1,0,0:0:0:70:TF.wav
320,192,118068,1,0,0:0:0:70:TM.wav
448,192,118068,1,0,0:0:0:0:
192,192,118164,1,0,0:0:0:70:TM.wav
64,192,118259,1,0,0:0:0:70:TM.wav
192,192,118451,1,0,0:0:0:70:kick.wav
320,192,118451,128,0,118737:0:0:0:70:crash1.wav
448,192,118451,1,0,0:0:0:0:
64,192,118833,1,0,0:0:0:70:hit2.wav
320,192,118833,128,0,119119:0:0:0:0:
448,192,119024,1,0,0:0:0:70:kick.wav
64,192,119215,1,0,0:0:0:70:snare.wav
192,192,119215,1,0,0:0:0:0:
320,192,119215,128,0,119406:0:0:0:0:
448,192,119406,1,0,0:0:0:0:
64,192,119501,1,0,0:0:0:0:
320,192,119501,128,0,119693:0:0:0:0:
192,192,119597,1,0,0:0:0:70:hit2.wav
64,192,119788,1,0,0:0:0:70:kick.wav
320,192,119788,128,0,120170:0:0:0:70:crash1.wav
448,192,119788,1,0,0:0:0:0:
192,192,120170,128,0,120361:0:0:0:70:hit2.wav
448,192,120170,1,0,0:0:0:70:TM.wav
64,192,120361,128,0,120552:0:0:0:70:kick.wav
320,192,120361,1,0,0:0:0:70:hit1.wav
320,192,120552,128,0,120743:0:0:0:50:snare.wav
64,192,120743,1,0,0:0:0:70:snare.wav
192,192,120743,128,0,121030:0:0:0:0:
448,192,120743,1,0,0:0:0:0:
320,192,120935,1,0,0:0:0:70:kick.wav
448,192,121030,128,0,121317:0:0:0:0:
64,192,121126,1,0,0:0:0:70:snare.wav
192,192,121126,1,0,0:0:0:0:
64,192,121317,1,0,0:0:0:50:snare.wav
320,192,121317,128,0,121508:0:0:0:0:
192,192,121508,128,0,121794:0:0:0:70:kick.wav
448,192,121508,1,0,0:0:0:70:hit2.wav
64,192,121699,1,0,0:0:0:70:snare.wav
320,192,121699,1,0,0:0:0:0:
192,192,121890,128,0,122177:0:0:0:70:hit2.wav
448,192,121890,1,0,0:0:0:0:
320,192,122081,1,0,0:0:0:70:kick.wav
64,192,122272,1,0,0:0:0:70:snare.wav
192,192,122272,128,0,122463:0:0:0:70:hit2.wav
448,192,122272,1,0,0:0:0:0:
320,192,122463,1,0,0:0:0:0:
192,192,122559,128,0,122750:0:0:0:50:snare.wav
448,192,122559,1,0,0:0:0:0:
320,192,122654,1,0,0:0:0:70:hit2.wav
64,192,122845,1,0,0:0:0:70:kick.wav
192,192,122845,128,0,123228:0:0:0:70:hit1.wav
448,192,122845,1,0,0:0:0:70:crash1.wav
64,192,123228,1,0,0:0:0:70:TM.wav
320,192,123228,128,0,123419:0:0:0:0:
192,192,123419,1,0,0:0:0:70:hit2.wav
448,192,123419,128,0,123610:0:0:0:0:
320,192,123610,1,0,0:0:0:50:snare.wav
64,192,123801,1,0,0:0:0:60:snare.wav
192,192,123801,128,0,123992:0:0:0:70:hit2.wav
320,192,123992,128,0,124183:0:0:0:70:snare.wav
448,192,123992,1,0,0:0:0:0:
64,192,124183,128,0,124374:0:0:0:70:snare.wav
192,192,124183,1,0,0:0:0:0:
320,192,124374,1,0,0:0:0:70:snare.wav
448,192,124374,128,0,124565:0:0:0:0:
192,192,124565,128,0,124756:0:0:0:0:
320,192,124756,128,0,124947:0:0:0:0:
448,192,124947,128,0,125138:0:0:0:0:
320,192,125329,128,0,125521:0:0:0:0:
192,192,125521,128,0,125712:0:0:0:0:
64,192,125712,128,0,125903:0:0:0:0:
320,192,125903,128,0,126094:0:0:0:0:
448,192,125903,128,0,126667:0:0:0:0:
192,192,126285,128,0,126476:0:0:0:0:
320,192,126476,128,0,126667:0:0:0:0:
64,192,126667,128,0,127431:0:0:0:0:
192,192,127049,1,0,0:0:0:70:TH.wav
448,192,127145,1,0,0:0:0:70:TH.wav
320,192,127240,1,0,0:0:0:70:TM.wav
192,192,127336,1,0,0:0:0:70:TL.wav
448,192,127431,1,0,0:0:0:70:TF.wav
64,192,127622,1,0,0:0:0:70:kick.wav
192,192,127622,1,0,0:0:0:0:
320,192,127622,128,0,127814:0:0:0:0:
192,192,127814,128,0,128005:0:0:0:0:
64,192,128005,128,0,128196:0:0:0:0:
448,192,128387,128,0,128578:0:0:0:0:
320,192,128578,128,0,128769:0:0:0:0:
192,192,128769,128,0,128960:0:0:0:90:snare.wav
448,192,128769,1,0,0:0:0:0:
64,192,128960,1,0,0:0:0:70:kick.wav
320,192,128960,128,0,129342:0:0:0:70:crash1.wav
448,192,128960,128,0,129724:0:0:0:0:
64,192,129342,1,0,0:0:0:70:kick.wav
192,192,129342,1,0,0:0:0:0:
64,192,129533,1,0,0:0:0:70:snare.wav
192,192,129533,1,0,0:0:0:70:ride.wav
320,192,129533,1,0,0:0:0:0:
192,192,129724,1,0,0:0:0:50:kick.wav
320,192,129724,1,0,0:0:0:0:
64,192,129915,1,0,0:0:0:70:snare.wav
320,192,129915,1,0,0:0:0:70:ride.wav
448,192,129915,1,0,0:0:0:0:
192,192,130107,1,0,0:0:0:40:snare.wav
320,192,130202,1,0,0:0:0:50:snare.wav
64,192,130298,1,0,0:0:0:70:snare.wav
448,192,130298,1,0,0:0:0:70:hit1.wav
192,192,130489,1,0,0:0:0:70:kick.wav
320,192,130489,1,0,0:0:0:70:hit2.wav
448,192,130489,1,0,0:0:0:70:crash1.wav
64,192,130871,1,0,0:0:0:80:snare.wav
320,192,130871,1,0,0:0:0:0:
448,192,130871,1,0,0:0:0:0:
64,192,131062,1,0,0:0:0:90:snare.wav
192,192,131062,1,0,0:0:0:0:
320,192,131062,1,0,0:0:0:0:
448,192,131253,1,0,0:0:0:80:snare.wav
64,192,131349,1,0,0:0:0:70:TM.wav
192,192,131444,1,0,0:0:0:70:TL.wav
320,192,131444,128,0,131826:0:0:0:0:
448,192,131540,1,0,0:0:0:70:TM.wav
64,192,131635,1,0,0:0:0:70:TL.wav
448,192,131731,1,0,0:0:0:70:TF.wav
64,192,131826,1,0,0:0:0:70:snare.wav
192,192,131826,128,0,132208:0:0:0:0:
64,192,132208,128,0,132591:0:0:0:70:kick.wav
320,192,132208,1,0,0:0:0:70:cymbal1.wav
448,192,132208,128,0,132400:0:0:0:0:
192,192,132400,1,0,0:0:0:70:ride.wav
320,192,132495,1,0,0:0:0:70:snare.wav
192,192,132591,128,0,132973:0:0:0:70:kick.wav
448,192,132591,128,0,132782:0:0:0:0:
64,192,132782,1,0,0:0:0:70:snare.wav
320,192,132782,1,0,0:0:0:70:bell.wav
320,192,132973,128,0,133164:0:0:0:70:kick.wav
448,192,132973,128,0,133164:0:0:0:0:
192,192,133164,1,0,0:0:0:70:ride.wav
64,192,133259,1,0,0:0:0:70:snare.wav
192,192,133355,128,0,133737:0:0:0:70:kick.wav
448,192,133355,1,0,0:0:0:0:
64,192,133546,1,0,0:0:0:70:snare.wav
320,192,133546,128,0,133737:0:0:0:70:bell.wav
64,192,133737,128,0,133928:0:0:0:70:kick.wav
448,192,133737,128,0,134119:0:0:0:0:
320,192,133928,1,0,0:0:0:70:ride.wav
192,192,134024,1,0,0:0:0:70:snare.wav
64,192,134119,128,0,134310:0:0:0:70:kick.wav
320,192,134119,128,0,134501:0:0:0:0:
192,192,134310,1,0,0:0:0:70:snare.wav
448,192,134310,1,0,0:0:0:70:bell.wav
64,192,134501,128,0,134693:0:0:0:70:kick.wav
192,192,134501,128,0,134693:0:0:0:0:
448,192,134693,1,0,0:0:0:70:ride.wav
320,192,134788,1,0,0:0:0:70:snare.wav
192,192,134884,1,0,0:0:0:70:kick.wav
448,192,134884,128,0,135266:0:0:0:0:
64,192,135075,1,0,0:0:0:70:snare.wav
320,192,135075,128,0,135266:0:0:0:70:bell.wav
64,192,135266,128,0,136030:0:0:0:70:kick.wav
192,192,135266,1,0,0:0:0:0:
192,192,135457,1,0,0:0:0:70:ride.wav
320,192,135552,1,0,0:0:0:70:snare.wav
192,192,135648,128,0,136030:0:0:0:70:kick.wav
448,192,135648,1,0,0:0:0:0:
320,192,135839,1,0,0:0:0:70:snare.wav
448,192,135839,1,0,0:0:0:70:bell.wav
320,192,136030,1,0,0:0:0:70:kick.wav
448,192,136030,128,0,136221:0:0:0:0:
64,192,136221,1,0,0:0:0:70:ride.wav
320,192,136221,128,0,136412:0:0:0:0:
192,192,136317,1,0,0:0:0:70:snare.wav
64,192,136412,128,0,136603:0:0:0:70:kick.wav
448,192,136412,1,0,0:0:0:0:
192,192,136603,128,0,136794:0:0:0:70:snare.wav
320,192,136603,1,0,0:0:0:70:bell.wav
64,192,136794,1,0,0:0:0:70:kick.wav
448,192,136794,128,0,136986:0:0:0:0:
64,192,136986,128,0,137177:0:0:0:70:ride.wav
320,192,136986,1,0,0:0:0:0:
192,192,137081,1,0,0:0:0:70:snare.wav
320,192,137177,128,0,137368:0:0:0:70:kick.wav
448,192,137177,1,0,0:0:0:0:
64,192,137368,1,0,0:0:0:70:snare.wav
192,192,137368,128,0,137559:0:0:0:70:bell.wav
320,192,137559,1,0,0:0:0:70:kick.wav
448,192,137559,128,0,137750:0:0:0:0:
64,192,137654,1,0,0:0:0:50:snare.wav
192,192,137750,1,0,0:0:0:70:ride.wav
320,192,137845,1,0,0:0:0:70:snare.wav
192,192,137941,128,0,138323:0:0:0:70:kick.wav
448,192,137941,1,0,0:0:0:0:
64,192,138132,128,0,138323:0:0:0:70:snare.wav
320,192,138132,1,0,0:0:0:70:bell.wav
320,192,138323,128,0,138514:0:0:0:70:kick.wav
448,192,138323,128,0,138705:0:0:0:70:crash1.wav
192,192,138514,1,0,0:0:0:70:ride.wav
64,192,138610,1,0,0:0:0:70:snare.wav
192,192,138705,128,0,138896:0:0:0:70:kick.wav
320,192,138705,128,0,139087:0:0:0:0:
64,192,138896,1,0,0:0:0:70:snare.wav
448,192,138896,1,0,0:0:0:70:bell.wav
64,192,139087,128,0,139279:0:0:0:70:kick.wav
192,192,139087,128,0,139470:0:0:0:0:
320,192,139279,1,0,0:0:0:70:ride.wav
448,192,139374,1,0,0:0:0:70:snare.wav
64,192,139470,1,0,0:0:0:70:kick.wav
320,192,139470,128,0,139852:0:0:0:0:
192,192,139661,1,0,0:0:0:70:snare.wav
448,192,139661,128,0,139852:0:0:0:70:bell.wav
64,192,139852,128,0,140234:0:0:0:70:kick.wav
192,192,139852,128,0,140043:0:0:0:0:
320,192,140043,1,0,0:0:0:70:ride.wav
448,192,140138,1,0,0:0:0:70:snare.wav
192,192,140234,128,0,140616:0:0:0:70:kick.wav
320,192,140234,128,0,140425:0:0:0:0:
64,192,140425,1,0,0:0:0:70:snare.wav
448,192,140425,1,0,0:0:0:70:bell.wav
64,192,140616,128,0,140807:0:0:0:70:kick.wav
448,192,140616,128,0,140998:0:0:0:0:
192,192,140807,1,0,0:0:0:70:ride.wav
320,192,140903,1,0,0:0:0:70:snare.wav
64,192,140998,128,0,141189:0:0:0:70:kick.wav
192,192,140998,128,0,141380:0:0:0:0:
320,192,141189,1,0,0:0:0:70:snare.wav
448,192,141189,1,0,0:0:0:70:bell.wav
64,192,141380,128,0,142527:0:0:0:70:kick.wav
448,192,141380,128,0,141572:0:0:0:0:
320,192,141572,128,0,141763:0:0:0:70:ride.wav
448,192,141667,1,0,0:0:0:70:snare.wav
192,192,141763,128,0,141954:0:0:0:70:kick.wav
448,192,141954,128,0,142145:0:0:0:70:snare.wav
320,192,142145,128,0,142336:0:0:0:70:kick.wav
192,192,142336,128,0,142527:0:0:0:70:ride.wav
320,192,142431,1,0,0:0:0:70:snare.wav
448,192,142527,1,0,0:0:0:70:kick.wav
192,192,142718,1,0,0:0:0:70:snare.wav
320,192,142718,128,0,142909:0:0:0:70:bell.wav
64,192,142909,1,0,0:0:0:70:kick.wav
448,192,142909,128,0,143291:0:0:0:0:
192,192,143100,1,0,0:0:0:70:snare.wav
320,192,143196,1,0,0:0:0:70:bell.wav
64,192,143291,1,0,0:0:0:70:kick.wav
192,192,143387,1,0,0:0:0:70:snare.wav
64,192,143482,1,0,0:0:0:70:bell.wav
448,192,143578,1,0,0:0:0:0:
192,192,143673,128,0,144056:0:0:0:70:kick.wav
320,192,143673,1,0,0:0:0:50:snare.wav
64,192,143769,1,0,0:0:0:50:snare.wav
448,192,143865,1,0,0:0:0:50:snare.wav
320,192,143960,1,0,0:0:0:50:snare.wav
64,192,144056,128,0,144438:0:0:0:70:kick.wav
448,192,144056,1,0,0:0:0:50:snare.wav
192,192,144151,1,0,0:0:0:50:snare.wav
320,192,144247,1,0,0:0:0:50:snare.wav
192,192,144342,1,0,0:0:0:50:snare.wav
320,192,144438,128,0,144820:0:0:0:70:kick.wav
448,192,144438,128,0,144629:0:0:0:70:cymbal1.wav
192,192,144629,1,0,0:0:0:70:ride.wav
64,192,144724,1,0,0:0:0:70:snare.wav
192,192,144820,128,0,145202:0:0:0:70:kick.wav
448,192,144820,128,0,145011:0:0:0:0:
64,192,145011,1,0,0:0:0:70:snare.wav
320,192,145011,1,0,0:0:0:70:bell.wav
64,192,145202,128,0,145393:0:0:0:70:kick.wav
448,192,145202,128,0,145393:0:0:0:0:
320,192,145393,1,0,0:0:0:70:ride.wav
192,192,145489,1,0,0:0:0:70:snare.wav
64,192,145584,1,0,0:0:0:70:kick.wav
320,192,145584,128,0,145966:0:0:0:0:
192,192,145775,1,0,0:0:0:70:snare.wav
448,192,145775,128,0,145966:0:0:0:70:bell.wav
64,192,145966,128,0,146158:0:0:0:70:kick.wav
192,192,145966,128,0,146349:0:0:0:0:
320,192,146158,1,0,0:0:0:70:ride.wav
448,192,146253,1,0,0:0:0:70:snare.wav
64,192,146349,128,0,146540:0:0:0:70:kick.wav
320,192,146349,128,0,146731:0:0:0:0:
192,192,146540,1,0,0:0:0:70:snare.wav
448,192,146540,1,0,0:0:0:70:bell.wav
64,192,146731,128,0,146922:0:0:0:70:kick.wav
448,192,146731,128,0,146922:0:0:0:0:
192,192,146922,1,0,0:0:0:70:ride.wav
320,192,147017,1,0,0:0:0:70:snare.wav
192,192,147113,128,0,147495:0:0:0:70:kick.wav
448,192,147113,1,0,0:0:0:0:
64,192,147304,128,0,147495:0:0:0:70:snare.wav
448,192,147304,1,0,0:0:0:70:bell.wav
320,192,147495,1,0,0:0:0:70:kick.wav
448,192,147495,128,0,148259:0:0:0:0:
320,192,147686,1,0,0:0:0:70:ride.wav
192,192,147782,1,0,0:0:0:70:snare.wav
64,192,147877,1,0,0:0:0:70:kick.wav
320,192,147877,128,0,148259:0:0:0:0:
64,192,148068,1,0,0:0:0:70:snare.wav
192,192,148068,1,0,0:0:0:70:bell.wav
64,192,148259,128,0,148451:0:0:0:70:kick.wav
192,192,148259,1,0,0:0:0:0:
192,192,148451,128,0,148642:0:0:0:70:ride.wav
448,192,148451,1,0,0:0:0:0:
320,192,148546,1,0,0:0:0:70:snare.wav
64,192,148642,1,0,0:0:0:70:kick.wav
448,192,148642,128,0,148833:0:0:0:0:
192,192,148833,1,0,0:0:0:70:snare.wav
320,192,148833,128,0,149024:0:0:0:70:bell.wav
64,192,149024,1,0,0:0:0:70:kick.wav
192,192,149024,128,0,149215:0:0:0:0:
64,192,149215,128,0,149406:0:0:0:70:ride.wav
320,192,149215,1,0,0:0:0:0:
448,192,149310,1,0,0:0:0:70:snare.wav
192,192,149406,1,0,0:0:0:70:kick.wav
320,192,149406,128,0,149597:0:0:0:0:
64,192,149597,1,0,0:0:0:70:snare.wav
448,192,149597,128,0,149788:0:0:0:70:bell.wav
64,192,149788,128,0,149979:0:0:0:70:kick.wav
192,192,149788,1,0,0:0:0:0:
448,192,149979,1,0,0:0:0:70:snare.wav
320,192,150075,1,0,0:0:0:70:bell.wav
64,192,150170,1,0,0:0:0:50:snare.wav
192,192,150170,1,0,0:0:0:0:
320,192,150266,1,0,0:0:0:50:snare.wav
448,192,150266,1,0,0:0:0:0:
64,192,150361,1,0,0:0:0:50:snare.wav
192,192,150361,1,0,0:0:0:70:bell.wav
320,192,150457,1,0,0:0:0:50:snare.wav
448,192,150457,1,0,0:0:0:0:
64,192,150552,128,0,150935:0:0:0:70:kick.wav
192,192,150552,128,0,150743:0:0:0:70:crash1.wav
448,192,150743,1,0,0:0:0:70:ride.wav
320,192,150839,1,0,0:0:0:70:snare.wav
192,192,150935,128,0,151126:0:0:0:70:kick.wav
448,192,150935,128,0,151317:0:0:0:0:
64,192,151126,1,0,0:0:0:70:snare.wav
320,192,151126,1,0,0:0:0:70:bell.wav
192,192,151317,128,0,151508:0:0:0:70:kick.wav
320,192,151317,128,0,151699:0:0:0:0:
448,192,151508,1,0,0:0:0:70:ride.wav
64,192,151603,1,0,0:0:0:70:snare.wav
192,192,151699,1,0,0:0:0:70:kick.wav
448,192,151699,128,0,152081:0:0:0:0:
64,192,151890,1,0,0:0:0:70:snare.wav
192,192,151890,128,0,152081:0:0:0:70:bell.wav
64,192,152081,128,0,152463:0:0:0:70:kick.wav
320,192,152081,128,0,152272:0:0:0:0:
192,192,152272,1,0,0:0:0:70:ride.wav
448,192,152368,1,0,0:0:0:70:snare.wav
192,192,152463,128,0,152654:0:0:0:70:kick.wav
320,192,152463,128,0,152845:0:0:0:0:
64,192,152654,1,0,0:0:0:70:snare.wav
448,192,152654,1,0,0:0:0:70:bell.wav
192,192,152845,128,0,153228:0:0:0:70:kick.wav
448,192,152845,128,0,153036:0:0:0:0:
64,192,153036,1,0,0:0:0:70:ride.wav
320,192,153132,1,0,0:0:0:70:snare.wav
64,192,153228,128,0,153419:0:0:0:70:kick.wav
448,192,153228,128,0,153610:0:0:0:0:
192,192,153419,1,0,0:0:0:70:snare.wav
320,192,153419,1,0,0:0:0:70:bell.wav
64,192,153514,1,0,0:0:0:0:
192,192,153610,128,0,153801:0:0:0:70:kick.wav
320,192,153610,128,0,154756:0:0:0:70:cymbal1.wav
64,192,153801,128,0,153992:0:0:0:70:ride.wav
192,192,153896,1,0,0:0:0:70:bell.wav
448,192,153992,128,0,154183:0:0:0:70:kick.wav
192,192,154183,128,0,154374:0:0:0:70:bell.wav
448,192,154279,1,0,0:0:0:0:
64,192,154374,128,0,154565:0:0:0:70:kick.wav
192,192,154470,1,0,0:0:0:50:snare.wav
448,192,154565,128,0,154756:0:0:0:70:ride.wav
64,192,154661,1,0,0:0:0:70:bell.wav
192,192,154756,1,0,0:0:0:70:kick.wav
64,192,154947,128,0,155138:0:0:0:70:snare.wav
320,192,154947,1,0,0:0:0:70:bell.wav
192,192,155043,1,0,0:0:0:70:snare.wav
320,192,155138,128,0,155329:0:0:0:70:kick.wav
448,192,155138,128,0,155903:0:0:0:70:ride.wav
192,192,155329,128,0,155521:0:0:0:70:snare.wav
320,192,155425,1,0,0:0:0:70:snare.wav
64,192,155521,128,0,155712:0:0:0:70:kick.wav
192,192,155616,1,0,0:0:0:70:snare.wav
320,192,155712,128,0,155903:0:0:0:70:bell.wav
64,192,155807,1,0,0:0:0:70:snare.wav
192,192,155903,1,0,0:0:0:70:kick.wav
320,192,155998,1,0,0:0:0:70:TH.wav
64,192,156094,1,0,0:0:0:70:TM.wav
192,192,156189,1,0,0:0:0:70:bell.wav
320,192,156285,1,0,0:0:0:70:TL.wav
448,192,156285,1,0,0:0:0:0:
192,192,156380,1,0,0:0:0:70:TL.wav
64,192,156476,1,0,0:0:0:70:TF.wav
448,192,156476,1,0,0:0:0:0:
320,192,156572,1,0,0:0:0:70:TF.wav
64,192,156667,128,0,156858:0:0:0:70:kick.wav
192,192,156667,1,0,0:0:0:70:crash1.wav
448,192,156667,1,0,0:0:0:0:
192,192,156858,128,0,157049:0:0:0:70:kick.wav
320,192,156858,1,0,0:0:0:0:
64,192,157049,1,0,0:0:0:70:snare.wav
320,192,157049,128,0,157240:0:0:0:70:openhit.wav
448,192,157049,1,0,0:0:0:0:
64,192,157240,1,0,0:0:0:70:kick.wav
192,192,157240,1,0,0:0:0:70:crash1.wav
448,192,157240,128,0,157431:0:0:0:0:
64,192,157622,1,0,0:0:0:70:kick.wav
192,192,157622,1,0,0:0:0:0:
320,192,157718,1,0,0:0:0:0:
64,192,157814,1,0,0:0:0:70:snare.wav
192,192,157814,1,0,0:0:0:70:openhit.wav
448,192,157814,1,0,0:0:0:0:
192,192,158005,128,0,158387:0:0:0:70:kick.wav
320,192,158005,1,0,0:0:0:70:crash1.wav
448,192,158005,1,0,0:0:0:0:
64,192,158387,1,0,0:0:0:70:kick.wav
448,192,158387,128,0,158769:0:0:0:0:
192,192,158578,1,0,0:0:0:70:snare.wav
320,192,158578,1,0,0:0:0:70:openhit.wav
64,192,158769,128,0,159151:0:0:0:70:kick.wav
192,192,158769,1,0,0:0:0:70:crash1.wav
320,192,158769,1,0,0:0:0:0:
192,192,159151,1,0,0:0:0:70:kick.wav
320,192,159342,1,0,0:0:0:50:snare.wav
448,192,159342,1,0,0:0:0:0:
64,192,159438,1,0,0:0:0:50:snare.wav
192,192,159438,1,0,0:0:0:0:
320,192,159533,1,0,0:0:0:50:snare.wav
448,192,159533,1,0,0:0:0:0:
64,192,159629,1,0,0:0:0:50:snare.wav
192,192,159629,1,0,0:0:0:0:
320,192,159724,1,0,0:0:0:70:kick.wav
448,192,159724,1,0,0:0:0:0:
64,192,159820,1,0,0:0:0:0:
192,192,159915,1,0,0:0:0:50:snare.wav
448,192,159915,1,0,0:0:0:70:hit1.wav
320,192,160011,1,0,0:0:0:0:
64,192,160107,1,0,0:0:0:70:kick.wav
192,192,160107,1,0,0:0:0:70:snare.wav
448,192,160202,1,0,0:0:0:70:TH.wav
64,192,160298,1,0,0:0:0:70:TM.wav
320,192,160298,1,0,0:0:0:0:
192,192,160393,1,0,0:0:0:70:TL.wav
320,192,160489,1,0,0:0:0:70:kick.wav
448,192,160489,128,0,161253:0:0:0:70:snare.wav
320,192,160871,128,0,161253:0:0:0:0:
64,192,161253,1,0,0:0:0:70:kick.wav
192,192,161349,1,0,0:0:0:0:
320,192,161444,1,0,0:0:0:0:
448,192,161540,1,0,0:0:0:70:kick.wav
64,192,161635,1,0,0:0:0:50:snare.wav
192,192,161635,1,0,0:0:0:70:hit2.wav
320,192,161731,1,0,0:0:0:0:
448,192,161731,1,0,0:0:0:0:
192,192,161826,1,0,0:0:0:0:
64,192,161922,1,0,0:0:0:0:
320,192,162017,1,0,0:0:0:70:hit2.wav
192,192,162113,1,0,0:0:0:0:
448,192,162208,1,0,0:0:0:70:kick.wav
320,192,162304,1,0,0:0:0:0:
64,192,162400,1,0,0:0:0:70:snare.wav
192,192,162400,1,0,0:0:0:70:hit2.wav
320,192,162591,1,0,0:0:0:0:
448,192,162782,1,0,0:0:0:70:kick.wav
320,192,162877,1,0,0:0:0:0:
192,192,162973,1,0,0:0:0:0:
64,192,163068,1,0,0:0:0:70:kick.wav
320,192,163164,1,0,0:0:0:70:snare.wav
448,192,163164,1,0,0:0:0:70:hit2.wav
64,192,163259,1,0,0:0:0:0:
192,192,163259,1,0,0:0:0:0:
320,192,163355,1,0,0:0:0:0:
448,192,163451,1,0,0:0:0:0:
192,192,163546,1,0,0:0:0:70:hit2.wav
320,192,163642,1,0,0:0:0:0:
64,192,163737,1,0,0:0:0:70:kick.wav
192,192,163833,1,0,0:0:0:0:
320,192,163928,1,0,0:0:0:70:snare.wav
448,192,163928,1,0,0:0:0:70:hit2.wav
192,192,164119,1,0,0:0:0:0:
64,192,164310,1,0,0:0:0:70:kick.wav
448,192,164310,128,0,164693:0:0:0:70:hit2.wav
192,192,164406,1,0,0:0:0:0:
320,192,164501,1,0,0:0:0:0:
64,192,164597,1,0,0:0:0:70:kick.wav
192,192,164693,1,0,0:0:0:70:snare.wav
320,192,164693,1,0,0:0:0:70:hit2.wav
64,192,164788,1,0,0:0:0:0:
448,192,164788,1,0,0:0:0:0:
320,192,164884,1,0,0:0:0:0:
192,192,164979,1,0,0:0:0:0:
64,192,165075,128,0,165361:0:0:0:70:hit2.wav
448,192,165075,1,0,0:0:0:0:
320,192,165170,1,0,0:0:0:0:
192,192,165266,1,0,0:0:0:70:kick.wav
320,192,165361,128,0,165648:0:0:0:0:
64,192,165457,1,0,0:0:0:70:snare.wav
192,192,165457,1,0,0:0:0:70:hit2.wav
448,192,165648,128,0,165839:0:0:0:0:
192,192,165839,128,0,166126:0:0:0:70:kick.wav
320,192,165839,1,0,0:0:0:70:hit2.wav
64,192,166030,1,0,0:0:0:0:
320,192,166126,128,0,166412:0:0:0:70:kick.wav
448,192,166221,1,0,0:0:0:70:hit2.wav
64,192,166317,1,0,0:0:0:0:
448,192,166412,128,0,166603:0:0:0:0:
192,192,166508,1,0,0:0:0:0:
320,192,166603,128,0,166794:0:0:0:70:hit2.wav
64,192,166699,1,0,0:0:0:0:
192,192,166794,128,0,166986:0:0:0:70:kick.wav
64,192,166986,128,0,167177:0:0:0:70:snare.wav
320,192,166986,1,0,0:0:0:70:hit2.wav
448,192,166986,1,0,0:0:0:0:
320,192,167368,128,0,167559:0:0:0:40:kick.wav
448,192,167368,1,0,0:0:0:70:cymbal1.wav
64,192,167463,1,0,0:0:0:0:
192,192,167559,128,0,167750:0:0:0:0:
448,192,167654,1,0,0:0:0:0:
64,192,167750,128,0,167941:0:0:0:45:kick.wav
320,192,167845,1,0,0:0:0:0:
448,192,167941,128,0,168132:0:0:0:38:snare.wav
320,192,168036,1,0,0:0:0:0:
192,192,168132,128,0,168323:0:0:0:50:kick.wav
64,192,168228,1,0,0:0:0:0:
320,192,168323,128,0,168514:0:0:0:40:snare.wav
448,192,168323,1,0,0:0:0:0:
192,192,168419,1,0,0:0:0:0:
64,192,168514,1,0,0:0:0:60:kick.wav
448,192,168514,128,0,168705:0:0:0:0:
320,192,168610,1,0,0:0:0:0:
64,192,168705,128,0,168896:0:0:0:50:snare.wav
192,192,168705,1,0,0:0:0:0:
448,192,168801,1,0,0:0:0:0:
192,192,168896,1,0,0:0:0:60:kick.wav
320,192,168896,128,0,169087:0:0:0:0:
64,192,168992,1,0,0:0:0:0:
192,192,169087,1,0,0:0:0:70:snare.wav
448,192,169087,128,0,169279:0:0:0:0:
320,192,169183,1,0,0:0:0:0:
64,192,169279,1,0,0:0:0:70:kick.wav
192,192,169279,128,0,169470:0:0:0:70:snare.wav
448,192,169374,1,0,0:0:0:0:
64,192,169470,128,0,169661:0:0:0:70:snare.wav
320,192,169470,1,0,0:0:0:0:
192,192,169565,1,0,0:0:0:0:
320,192,169661,1,0,0:0:0:70:kick.wav
448,192,169661,1,0,0:0:0:70:snare.wav
192,192,169756,1,0,0:0:0:0:
64,192,169852,1,0,0:0:0:70:snare.wav
448,192,169852,1,0,0:0:0:0:
320,192,169947,1,0,0:0:0:0:
64,192,170043,1,0,0:0:0:70:kick.wav
192,192,170043,1,0,0:0:0:60:snare.wav
320,192,170138,1,0,0:0:0:60:snare.wav
448,192,170138,1,0,0:0:0:0:
64,192,170234,1,0,0:0:0:60:snare.wav
192,192,170234,1,0,0:0:0:0:
320,192,170329,1,0,0:0:0:60:snare.wav
64,192,170425,1,0,0:0:0:70:kick.wav
192,192,170425,1,0,0:0:0:70:crash1.wav
448,192,170425,1,0,0:0:0:0:
320,192,170616,1,0,0:0:0:70:kick.wav
448,192,170616,1,0,0:0:0:0:
64,192,170807,1,0,0:0:0:70:snare.wav
192,192,170807,1,0,0:0:0:0:
448,192,170807,1,0,0:0:0:0:
64,192,170998,1,0,0:0:0:70:kick.wav
192,192,170998,1,0,0:0:0:70:crash1.wav
320,192,170998,1,0,0:0:0:0:
64,192,171380,1,0,0:0:0:70:kick.wav
192,192,171380,1,0,0:0:0:0:
320,192,171380,1,0,0:0:0:0:
64,192,171572,1,0,0:0:0:70:snare.wav
192,192,171572,1,0,0:0:0:0:
448,192,171572,1,0,0:0:0:0:
192,192,171763,1,0,0:0:0:70:kick.wav
320,192,171763,1,0,0:0:0:70:crash1.wav
448,192,171763,1,0,0:0:0:0:
64,192,172145,1,0,0:0:0:50:snare.wav
192,192,172145,1,0,0:0:0:0:
320,192,172145,1,0,0:0:0:0:
192,192,172336,1,0,0:0:0:70:kick.wav
320,192,172336,1,0,0:0:0:70:snare.wav
448,192,172336,1,0,0:0:0:0:
320,192,172527,1,0,0:0:0:70:snare.wav
448,192,172527,1,0,0:0:0:0:
64,192,172718,128,0,173100:0:0:0:70:kick.wav
192,192,172718,1,0,0:0:0:70:snare.wav
448,192,172909,1,0,0:0:0:70:snare.wav
320,192,173005,1,0,0:0:0:90:snare.wav
192,192,173100,128,0,173291:0:0:0:90:snare.wav
448,192,173196,1,0,0:0:0:70:TM.wav
320,192,173291,1,0,0:0:0:70:TL.wav
192,192,173387,1,0,0:0:0:70:TF.wav
64,192,173482,1,0,0:0:0:70:kick.wav
320,192,173482,1,0,0:0:0:70:crash1.wav
448,192,173482,128,0,173769:0:0:0:0:
192,192,173673,1,0,0:0:0:0:
64,192,173865,1,0,0:0:0:70:kick.wav
448,192,173865,128,0,174151:0:0:0:0:
192,192,174056,1,0,0:0:0:70:openhit.wav
320,192,174247,1,0,0:0:0:70:kick.wav
448,192,174247,128,0,174438:0:0:0:0:
64,192,174438,1,0,0:0:0:70:ride.wav
192,192,174533,1,0,0:0:0:0:
448,192,174533,128,0,174724:0:0:0:0:
64,192,174629,1,0,0:0:0:90:snare.wav
320,192,174629,1,0,0:0:0:0:
192,192,174820,1,0,0:0:0:70:hit1.wav
448,192,174820,128,0,175011:0:0:0:0:
320,192,175011,1,0,0:0:0:70:kick.wav
192,192,175202,128,0,175393:0:0:0:70:ride.wav
320,192,175393,1,0,0:0:0:70:kick.wav
448,192,175393,128,0,175584:0:0:0:0:
64,192,175584,128,0,175775:0:0:0:70:hit2.wav
320,192,175775,128,0,176062:0:0:0:70:kick.wav
448,192,175775,1,0,0:0:0:70:hit1.wav
192,192,175966,1,0,0:0:0:0:
64,192,176062,128,0,176349:0:0:0:70:openhit.wav
320,192,176158,1,0,0:0:0:90:snare.wav
448,192,176158,1,0,0:0:0:0:
448,192,176349,128,0,176540:0:0:0:70:hit2.wav
320,192,176444,1,0,0:0:0:70:openhit.wav
64,192,176540,1,0,0:0:0:70:kick.wav
192,192,176540,128,0,176826:0:0:0:0:
448,192,176731,1,0,0:0:0:70:ride.wav
320,192,176826,1,0,0:0:0:0:
64,192,176922,1,0,0:0:0:70:kick.wav
192,192,176922,128,0,177208:0:0:0:0:
320,192,177017,1,0,0:0:0:70:hit2.wav
448,192,177113,1,0,0:0:0:70:hit2.wav
64,192,177304,1,0,0:0:0:70:kick.wav
192,192,177304,128,0,177495:0:0:0:70:hit1.wav
320,192,177400,1,0,0:0:0:70:openhit.wav
64,192,177591,1,0,0:0:0:0:
192,192,177591,128,0,177782:0:0:0:0:
320,192,177686,1,0,0:0:0:90:snare.wav
448,192,177686,1,0,0:0:0:0:
64,192,177877,1,0,0:0:0:70:hit1.wav
192,192,177877,128,0,178259:0:0:0:0:
320,192,177973,1,0,0:0:0:70:openhit.wav
448,192,178068,1,0,0:0:0:70:kick.wav
64,192,178259,1,0,0:0:0:70:openhit.wav
448,192,178259,128,0,178451:0:0:0:0:
320,192,178355,1,0,0:0:0:70:hit2.wav
64,192,178451,128,0,178833:0:0:0:70:kick.wav
192,192,178451,1,0,0:0:0:0:
448,192,178546,1,0,0:0:0:70:openhit.wav
192,192,178833,128,0,179215:0:0:0:70:kick.wav
320,192,178833,1,0,0:0:0:70:ride.wav
64,192,179215,1,0,0:0:0:90:snare.wav
320,192,179215,1,0,0:0:0:0:
448,192,179215,128,0,179406:0:0:0:0:
320,192,179406,128,0,179597:0:0:0:70:hit2.wav
64,192,179597,128,0,179884:0:0:0:70:kick.wav
192,192,179597,1,0,0:0:0:70:cymbal1.wav
448,192,179597,1,0,0:0:0:0:
320,192,179788,1,0,0:0:0:0:
64,192,179979,128,0,180266:0:0:0:70:kick.wav
192,192,179979,1,0,0:0:0:0:
448,192,180170,1,0,0:0:0:70:openhit.wav
64,192,180361,128,0,180552:0:0:0:70:kick.wav
320,192,180361,1,0,0:0:0:0:
448,192,180552,1,0,0:0:0:70:ride.wav
64,192,180648,128,0,180839:0:0:0:0:
192,192,180648,1,0,0:0:0:0:
320,192,180743,1,0,0:0:0:90:snare.wav
448,192,180743,1,0,0:0:0:0:
64,192,180935,128,0,181126:0:0:0:70:hit2.wav
192,192,180935,1,0,0:0:0:0:
320,192,181030,1,0,0:0:0:70:openhit.wav
448,192,181126,1,0,0:0:0:70:kick.wav
192,192,181317,128,0,181508:0:0:0:70:ride.wav
320,192,181317,1,0,0:0:0:0:
64,192,181508,1,0,0:0:0:70:kick.wav
320,192,181508,128,0,181699:0:0:0:0:
64,192,181699,128,0,181890:0:0:0:70:ride.wav
448,192,181699,1,0,0:0:0:0:
192,192,181890,128,0,182177:0:0:0:70:kick.wav
320,192,181890,1,0,0:0:0:70:ride.wav
448,192,182177,128,0,182463:0:0:0:0:
64,192,182272,1,0,0:0:0:90:snare.wav
320,192,182272,1,0,0:0:0:0:
320,192,182463,128,0,182654:0:0:0:0:
64,192,182654,128,0,184947:0:0:0:70:kick.wav
192,192,182654,128,0,182845:0:0:0:0:
448,192,182654,1,0,0:0:0:0:
320,192,183036,128,0,183228:0:0:0:70:kick.wav
448,192,183036,1,0,0:0:0:0:
448,192,183228,128,0,183419:0:0:0:0:
320,192,183419,1,0,0:0:0:70:kick.wav
192,192,183610,128,0,183801:0:0:0:0:
320,192,183801,128,0,183992:0:0:0:90:snare.wav
448,192,183801,1,0,0:0:0:0:
448,192,183992,128,0,184183:0:0:0:0:
320,192,184183,1,0,0:0:0:70:kick.wav
192,192,184374,128,0,184565:0:0:0:70:ride.wav
320,192,184565,128,0,184756:0:0:0:70:kick.wav
448,192,184565,1,0,0:0:0:0:
192,192,184947,128,0,185138:0:0:0:70:kick.wav
448,192,184947,1,0,0:0:0:0:
320,192,185138,1,0,0:0:0:70:TH.wav
448,192,185234,1,0,0:0:0:70:TH.wav
64,192,185329,1,0,0:0:0:70:TM.wav
192,192,185425,1,0,0:0:0:70:TM.wav
320,192,185521,1,0,0:0:0:70:TF.wav
448,192,185616,1,0,0:0:0:70:TF.wav
64,192,185712,1,0,0:0:0:70:kick.wav
192,192,185712,1,0,0:0:0:70:cymbal1.wav
320,192,185712,1,0,0:0:0:0:
192,192,185903,1,0,0:0:0:0:
320,192,186094,1,0,0:0:0:70:kick.wav
448,192,186094,1,0,0:0:0:38:snare.wav
192,192,186285,1,0,0:0:0:46:snare.wav
320,192,186380,1,0,0:0:0:0:
64,192,186476,1,0,0:0:0:70:kick.wav
448,192,186476,1,0,0:0:0:38:snare.wav
192,192,186667,1,0,0:0:0:46:snare.wav
64,192,186858,1,0,0:0:0:70:kick.wav
320,192,186858,1,0,0:0:0:50:snare.wav
320,192,187049,1,0,0:0:0:54:snare.wav
64,192,187240,1,0,0:0:0:70:kick.wav
192,192,187240,1,0,0:0:0:58:snare.wav
448,192,187240,1,0,0:0:0:0:
64,192,187431,1,0,0:0:0:62:snare.wav
192,192,187431,1,0,0:0:0:0:
320,192,187527,1,0,0:0:0:0:
64,192,187622,1,0,0:0:0:70:kick.wav
192,192,187622,1,0,0:0:0:66:snare.wav
64,192,187814,1,0,0:0:0:70:snare.wav
192,192,187814,1,0,0:0:0:0:
448,192,187909,1,0,0:0:0:0:
64,192,188005,1,0,0:0:0:70:kick.wav
192,192,188005,1,0,0:0:0:44:snare.wav
64,192,188196,1,0,0:0:0:48:snare.wav
192,192,188196,1,0,0:0:0:0:
64,192,188387,1,0,0:0:0:70:kick.wav
192,192,188387,1,0,0:0:0:52:snare.wav
192,192,188578,1,0,0:0:0:56:snare.wav
320,192,188578,1,0,0:0:0:0:
64,192,188769,1,0,0:0:0:70:kick.wav
320,192,188769,1,0,0:0:0:90:snare.wav
448,192,188769,1,0,0:0:0:70:cymbal1.wav
320,192,188960,1,0,0:0:0:0:
448,192,188960,1,0,0:0:0:0:
192,192,189056,1,0,0:0:0:0:
320,192,189151,1,0,0:0:0:70:kick.wav
448,192,189151,1,0,0:0:0:38:snare.wav
320,192,189342,1,0,0:0:0:40:snare.wav
448,192,189342,1,0,0:0:0:0:
64,192,189438,1,0,0:0:0:0:
320,192,189533,1,0,0:0:0:70:kick.wav
448,192,189533,1,0,0:0:0:50:snare.wav
320,192,189724,1,0,0:0:0:60:snare.wav
448,192,189724,1,0,0:0:0:0:
320,192,189915,1,0,0:0:0:70:kick.wav
448,192,189915,1,0,0:0:0:70:snare.wav
192,192,190107,1,0,0:0:0:80:snare.wav
320,192,190107,1,0,0:0:0:0:
64,192,190298,1,0,0:0:0:70:kick.wav
192,192,190298,1,0,0:0:0:90:snare.wav
448,192,190298,1,0,0:0:0:0:
192,192,190489,1,0,0:0:0:90:snare.wav
320,192,190489,1,0,0:0:0:0:
64,192,190680,1,0,0:0:0:70:kick.wav
320,192,190680,1,0,0:0:0:90:snare.wav
448,192,190680,1,0,0:0:0:0:
64,192,190871,1,0,0:0:0:70:TM.wav
192,192,190871,1,0,0:0:0:0:
320,192,190966,1,0,0:0:0:70:TM.wav
64,192,191062,1,0,0:0:0:70:kick.wav
192,192,191062,1,0,0:0:0:0:
448,192,191062,1,0,0:0:0:0:
320,192,191253,1,0,0:0:0:70:kick.wav
448,192,191253,1,0,0:0:0:0:
64,192,191444,1,0,0:0:0:70:snare.wav
192,192,191444,1,0,0:0:0:0:
320,192,191444,1,0,0:0:0:0:
64,192,191635,1,0,0:0:0:70:kick.wav
192,192,191635,1,0,0:0:0:70:crash1.wav
448,192,191635,1,0,0:0:0:0:
64,192,192017,1,0,0:0:0:70:kick.wav
192,192,192017,1,0,0:0:0:0:
64,192,192208,1,0,0:0:0:70:snare.wav
320,192,192208,1,0,0:0:0:0:
448,192,192208,1,0,0:0:0:0:
192,192,192400,1,0,0:0:0:70:kick.wav
320,192,192400,1,0,0:0:0:70:crash1.wav
448,192,192400,1,0,0:0:0:0:
320,192,192782,1,0,0:0:0:70:kick.wav
448,192,192782,1,0,0:0:0:0:
64,192,192973,1,0,0:0:0:70:snare.wav
192,192,192973,1,0,0:0:0:0:
448,192,192973,1,0,0:0:0:0:
64,192,193164,1,0,0:0:0:70:kick.wav
192,192,193164,1,0,0:0:0:70:crash1.wav
320,192,193164,1,0,0:0:0:0:
192,192,193546,1,0,0:0:0:70:kick.wav
320,192,193546,1,0,0:0:0:0:
64,192,193737,1,0,0:0:0:70:snare.wav
192,192,193737,1,0,0:0:0:0:
448,192,193737,1,0,0:0:0:0:
64,192,193928,1,0,0:0:0:0:
320,192,193928,1,0,0:0:0:0:
192,192,194024,1,0,0:0:0:50:snare.wav
448,192,194119,1,0,0:0:0:70:kick.wav
64,192,194119,1,0,0:0:0:70:snare.wav
320,192,194310,1,0,0:0:0:70:snare.wav
448,192,194310,1,0,0:0:0:0:
64,192,194501,1,0,0:0:0:70:kick.wav
192,192,194501,1,0,0:0:0:70:TH.wav
320,192,194501,1,0,0:0:0:0:
448,192,194597,1,0,0:0:0:70:TH.wav
64,192,194693,1,0,0:0:0:70:TM.wav
192,192,194693,1,0,0:0:0:0:
320,192,194788,1,0,0:0:0:70:TM.wav
64,192,194884,1,0,0:0:0:70:kick.wav
192,192,194884,1,0,0:0:0:70:cymbal1.wav
448,192,194884,1,0,0:0:0:0:
192,192,195266,1,0,0:0:0:70:snare.wav
320,192,195266,1,0,0:0:0:0:
448,192,195266,1,0,0:0:0:0:
64,192,195648,1,0,0:0:0:70:kick.wav
192,192,195648,1,0,0:0:0:0:
64,192,195839,1,0,0:0:0:70:kick.wav
192,192,195839,1,0,0:0:0:0:
64,192,196030,1,0,0:0:0:70:snare.wav
320,192,196030,1,0,0:0:0:0:
448,192,196030,1,0,0:0:0:0:
192,192,196221,1,0,0:0:0:70:kick.wav
320,192,196221,1,0,0:0:0:70:crash1.wav
448,192,196221,1,0,0:0:0:0:
64,192,196603,1,0,0:0:0:70:kick.wav
192,192,196603,1,0,0:0:0:0:
64,192,196794,1,0,0:0:0:70:snare.wav
320,192,196794,1,0,0:0:0:0:
448,192,196794,1,0,0:0:0:0:
192,192,197177,1,0,0:0:0:70:snare.wav
320,192,197177,1,0,0:0:0:0:
448,192,197177,1,0,0:0:0:0:
320,192,197368,1,0,0:0:0:70:kick.wav
448,192,197368,1,0,0:0:0:0:
64,192,197559,1,0,0:0:0:70:snare.wav
192,192,197559,1,0,0:0:0:0:
448,192,197559,1,0,0:0:0:0:
64,192,197750,1,0,0:0:0:70:kick.wav
192,192,197750,1,0,0:0:0:70:crash1.wav
320,192,197750,1,0,0:0:0:0:
448,192,198132,1,0,0:0:0:70:TM.wav
320,192,198228,1,0,0:0:0:0:
64,192,198323,1,0,0:0:0:70:TF.wav
192,192,198323,1,0,0:0:0:0:
448,192,198419,1,0,0:0:0:0:
192,192,198514,1,0,0:0:0:40:snare.wav
320,192,198610,1,0,0:0:0:50:snare.wav
64,192,198705,1,0,0:0:0:70:kick.wav
448,192,198705,1,0,0:0:0:70:snare.wav
192,192,198801,1,0,0:0:0:0:
320,192,198896,1,0,0:0:0:70:TM.wav
64,192,198992,1,0,0:0:0:70:TL.wav
320,192,199087,1,0,0:0:0:70:TF.wav
448,192,199087,1,0,0:0:0:0:
192,192,199183,1,0,0:0:0:0:
64,192,199279,1,0,0:0:0:70:kick.wav
320,192,199279,1,0,0:0:0:70:snare.wav
448,192,199279,1,0,0:0:0:70:cymbal1.wav
64,192,199661,1,0,0:0:0:70:snare.wav
320,192,199661,1,0,0:0:0:0:
448,192,199661,1,0,0:0:0:0:
64,192,199852,1,0,0:0:0:70:snare.wav
320,192,199852,1,0,0:0:0:0:
448,192,199852,1,0,0:0:0:0:
192,192,200234,128,0,200616:0:0:0:0:
320,192,200616,128,0,200998:0:0:0:0:
64,192,200998,1,0,0:0:0:0:
448,192,200998,128,0,201380:0:0:0:0:
64,192,201380,128,0,201763:0:0:0:0:
192,192,201380,1,0,0:0:0:0:
320,192,201763,128,0,202145:0:0:0:0:
64,192,202145,128,0,202336:0:0:0:0:
448,192,202145,1,0,0:0:0:0:
192,192,202336,128,0,202527:0:0:0:0:
64,192,202527,1,0,0:0:0:0:
448,192,202527,128,0,202909:0:0:0:0:
192,192,202909,128,0,203291:0:0:0:0:
320,192,202909,1,0,0:0:0:0:
64,192,203291,1,0,0:0:0:0:
320,192,203291,128,0,203673:0:0:0:0:
64,192,203673,128,0,203865:0:0:0:0:
448,192,203673,1,0,0:0:0:0:
192,192,203865,128,0,204056:0:0:0:0:
320,192,203865,1,0,0:0:0:0:
64,192,204056,1,0,0:0:0:0:
448,192,204056,128,0,204438:0:0:0:0:
64,192,204438,128,0,204820:0:0:0:0:
320,192,204438,1,0,0:0:0:0:
320,192,204820,128,0,205011:0:0:0:0:
448,192,204820,1,0,0:0:0:0:
64,192,205011,1,0,0:0:0:0:
192,192,205011,128,0,205202:0:0:0:0:
320,192,205202,1,0,0:0:0:0:
448,192,205202,128,0,205393:0:0:0:0:
64,192,205393,128,0,205584:0:0:0:0:
192,192,205393,1,0,0:0:0:0:
320,192,205584,128,0,205966:0:0:0:0:
448,192,205584,1,0,0:0:0:0:
192,192,205775,128,0,205966:0:0:0:0:
64,192,205966,1,0,0:0:0:0:
448,192,205966,128,0,206349:0:0:0:0:
320,192,206158,128,0,206349:0:0:0:0:
64,192,206349,128,0,206731:0:0:0:0:
192,192,206349,1,0,0:0:0:0:
320,192,206731,1,0,0:0:0:0:
448,192,206922,1,0,0:0:0:0:
320,192,206970,1,0,0:0:0:0:
192,192,207017,1,0,0:0:0:0:
64,192,207065,1,0,0:0:0:0:
320,192,207113,1,0,0:0:0:40:snare.wav
448,192,207113,1,0,0:0:0:70:hit1.wav
192,192,207208,1,0,0:0:0:40:snare.wav
64,192,207304,1,0,0:0:0:40:snare.wav
448,192,207400,1,0,0:0:0:40:snare.wav
192,192,207495,1,0,0:0:0:90:snare.wav
320,192,207495,1,0,0:0:0:70:hit1.wav
64,192,207591,1,0,0:0:0:70:snare.wav
448,192,207686,1,0,0:0:0:0:
320,192,207782,1,0,0:0:0:50:snare.wav
64,192,207877,1,0,0:0:0:70:hit1.wav
192,192,207877,1,0,0:0:0:0:
320,192,207973,1,0,0:0:0:70:snare.wav
64,192,208068,1,0,0:0:0:0:
448,192,208068,1,0,0:0:0:0:
192,192,208259,1,0,0:0:0:90:snare.wav
320,192,208259,1,0,0:0:0:70:hit1.wav
448,192,208259,1,0,0:0:0:0:
320,192,208451,1,0,0:0:0:0:
64,192,208642,1,0,0:0:0:70:hit1.wav
192,192,208642,1,0,0:0:0:0:
320,192,208737,1,0,0:0:0:70:snare.wav
448,192,208833,1,0,0:0:0:70:snare.wav
64,192,208928,1,0,0:0:0:0:
192,192,209024,1,0,0:0:0:90:snare.wav
320,192,209024,1,0,0:0:0:70:hit1.wav
448,192,209119,1,0,0:0:0:70:snare.wav
64,192,209215,1,0,0:0:0:0:
192,192,209310,1,0,0:0:0:70:snare.wav
320,192,209406,1,0,0:0:0:70:hit1.wav
448,192,209406,1,0,0:0:0:0:
64,192,209501,1,0,0:0:0:70:snare.wav
448,192,209597,1,0,0:0:0:70:snare.wav
320,192,209693,1,0,0:0:0:0:
64,192,209788,1,0,0:0:0:50:snare.wav
192,192,209788,1,0,0:0:0:70:hit1.wav
448,192,209884,1,0,0:0:0:50:snare.wav
64,192,209979,1,0,0:0:0:50:snare.wav
192,192,210075,1,0,0:0:0:50:snare.wav
64,192,210170,1,0,0:0:0:70:kick.wav
320,192,210170,1,0,0:0:0:70:crash1.wav
448,192,210170,1,0,0:0:0:0:
320,192,210361,1,0,0:0:0:0:
64,192,210552,1,0,0:0:0:70:kick.wav
192,192,210552,1,0,0:0:0:0:
192,192,210743,1,0,0:0:0:42:snare.wav
320,192,210935,1,0,0:0:0:70:kick.wav
448,192,210935,1,0,0:0:0:54:snare.wav
192,192,211126,1,0,0:0:0:66:snare.wav
448,192,211126,1,0,0:0:0:0:
64,192,211317,1,0,0:0:0:70:kick.wav
192,192,211317,1,0,0:0:0:48:snare.wav
64,192,211508,1,0,0:0:0:90:snare.wav
320,192,211508,1,0,0:0:0:70:openhit.wav
448,192,211508,1,0,0:0:0:0:
192,192,211699,1,0,0:0:0:70:kick.wav
448,192,211699,1,0,0:0:0:0:
64,192,211890,1,0,0:0:0:42:snare.wav
192,192,211890,1,0,0:0:0:0:
64,192,212081,1,0,0:0:0:70:kick.wav
320,192,212081,1,0,0:0:0:54:snare.wav
320,192,212272,1,0,0:0:0:66:snare.wav
448,192,212272,1,0,0:0:0:0:
64,192,212463,1,0,0:0:0:70:kick.wav
192,192,212463,1,0,0:0:0:48:snare.wav
320,192,212559,1,0,0:0:0:0:
192,192,212654,1,0,0:0:0:90:snare.wav
448,192,212654,1,0,0:0:0:0:
64,192,212750,1,0,0:0:0:0:
192,192,212845,1,0,0:0:0:70:kick.wav
320,192,212845,1,0,0:0:0:90:snare.wav
448,192,212941,1,0,0:0:0:0:
64,192,213036,1,0,0:0:0:90:snare.wav
320,192,213036,1,0,0:0:0:0:
192,192,213132,1,0,0:0:0:0:
320,192,213228,1,0,0:0:0:70:kick.wav
448,192,213228,1,0,0:0:0:70:cymbal1.wav
64,192,213323,1,0,0:0:0:0:
192,192,213323,1,0,0:0:0:0:
320,192,213419,1,0,0:0:0:50:snare.wav
448,192,213419,1,0,0:0:0:0:
64,192,213514,1,0,0:0:0:50:snare.wav
192,192,213514,1,0,0:0:0:0:
320,192,213610,1,0,0:0:0:70:kick.wav
448,192,213610,1,0,0:0:0:0:
64,192,213705,1,0,0:0:0:70:snare.wav
192,192,213705,1,0,0:0:0:0:
320,192,213801,1,0,0:0:0:70:snare.wav
448,192,213801,1,0,0:0:0:0:
64,192,213896,1,0,0:0:0:70:snare.wav
192,192,213896,1,0,0:0:0:0:
320,192,213992,1,0,0:0:0:70:kick.wav
448,192,213992,1,0,0:0:0:70:TH.wav
192,192,214087,1,0,0:0:0:70:TH.wav
64,192,214183,1,0,0:0:0:70:TM.wav
320,192,214183,1,0,0:0:0:0:
448,192,214279,1,0,0:0:0:70:TM.wav
64,192,214374,1,0,0:0:0:70:TL.wav
192,192,214374,1,0,0:0:0:0:
320,192,214470,1,0,0:0:0:70:TL.wav
192,192,214565,1,0,0:0:0:70:kick.wav
448,192,214565,1,0,0:0:0:0:
64,192,214947,1,0,0:0:0:90:snare.wav
320,192,214947,1,0,0:0:0:0:
448,192,214947,1,0,0:0:0:0:
64,192,215138,1,0,0:0:0:90:snare.wav
320,192,215138,1,0,0:0:0:0:
448,192,215138,1,0,0:0:0:0:
64,192,215521,128,0,217049:0:0:0:0:
192,192,216285,128,0,217049:0:0:0:0:
320,192,217049,1,0,0:0:0:70:TH.wav
448,192,217049,1,0,0:0:0:0:
192,192,217145,1,0,0:0:0:70:TM.wav
64,192,217240,1,0,0:0:0:70:TL.wav
448,192,217336,1,0,0:0:0:70:TF.wav
64,192,217431,1,0,0:0:0:90:snare.wav
192,192,217431,1,0,0:0:0:0:
320,192,217431,1,0,0:0:0:0:
64,192,217814,128,0,218005:0:0:0:70:kick.wav
192,192,217814,1,0,0:0:0:70:crash1.wav
448,192,217814,128,0,218196:0:0:0:0:
320,192,218005,1,0,0:0:0:70:ride.wav
192,192,218100,1,0,0:0:0:70:snare.wav
64,192,218196,128,0,218387:0:0:0:70:kick.wav
320,192,218196,128,0,218578:0:0:0:0:
192,192,218387,1,0,0:0:0:70:snare.wav
448,192,218387,1,0,0:0:0:70:bell.wav
64,192,218578,128,0,218769:0:0:0:70:kick.wav
192,192,218578,128,0,218769:0:0:0:0:
320,192,218769,1,0,0:0:0:70:ride.wav
448,192,218865,1,0,0:0:0:70:snare.wav
64,192,218960,1,0,0:0:0:70:kick.wav
320,192,218960,128,0,219342:0:0:0:0:
192,192,219151,128,0,219342:0:0:0:70:snare.wav
448,192,219151,1,0,0:0:0:70:bell.wav
64,192,219342,128,0,219724:0:0:0:70:kick.wav
448,192,219342,128,0,219533:0:0:0:0:
192,192,219533,1,0,0:0:0:70:ride.wav
320,192,219629,1,0,0:0:0:70:snare.wav
192,192,219724,128,0,220107:0:0:0:70:kick.wav
448,192,219724,128,0,219915:0:0:0:0:
64,192,219915,1,0,0:0:0:70:snare.wav
320,192,219915,1,0,0:0:0:70:bell.wav
320,192,220107,128,0,220298:0:0:0:70:kick.wav
448,192,220107,128,0,220298:0:0:0:0:
64,192,220298,1,0,0:0:0:70:ride.wav
192,192,220393,1,0,0:0:0:70:snare.wav
64,192,220489,128,0,220871:0:0:0:70:kick.wav
320,192,220489,1,0,0:0:0:0:
192,192,220680,128,0,220871:0:0:0:70:snare.wav
448,192,220680,1,0,0:0:0:70:bell.wav
320,192,220871,1,0,0:0:0:70:kick.wav
448,192,220871,128,0,221635:0:0:0:0:
320,192,221062,1,0,0:0:0:70:ride.wav
192,192,221158,1,0,0:0:0:70:snare.wav
64,192,221253,1,0,0:0:0:70:kick.wav
320,192,221253,128,0,221635:0:0:0:0:
64,192,221444,1,0,0:0:0:70:snare.wav
192,192,221444,1,0,0:0:0:70:bell.wav
64,192,221635,128,0,221826:0:0:0:70:kick.wav
192,192,221635,1,0,0:0:0:0:
320,192,221826,128,0,222017:0:0:0:70:ride.wav
448,192,221826,1,0,0:0:0:0:
192,192,221922,1,0,0:0:0:70:snare.wav
64,192,222017,1,0,0:0:0:70:kick.wav
448,192,222017,128,0,222208:0:0:0:0:
192,192,222208,128,0,222400:0:0:0:70:snare.wav
320,192,222208,1,0,0:0:0:70:bell.wav
64,192,222400,1,0,0:0:0:70:kick.wav
320,192,222400,128,0,222591:0:0:0:0:
64,192,222591,128,0,222782:0:0:0:70:ride.wav
448,192,222591,1,0,0:0:0:0:
192,192,222686,1,0,0:0:0:70:snare.wav
320,192,222782,1,0,0:0:0:70:kick.wav
448,192,222782,128,0,222973:0:0:0:0:
192,192,222973,1,0,0:0:0:70:snare.wav
320,192,222973,128,0,223164:0:0:0:70:bell.wav
64,192,223164,1,0,0:0:0:70:kick.wav
192,192,223164,128,0,223355:0:0:0:0:
448,192,223259,1,0,0:0:0:50:snare.wav
320,192,223355,1,0,0:0:0:70:ride.wav
192,192,223451,1,0,0:0:0:70:snare.wav
64,192,223546,1,0,0:0:0:70:kick.wav
320,192,223546,128,0,223928:0:0:0:0:
192,192,223737,1,0,0:0:0:70:snare.wav
448,192,223737,128,0,223928:0:0:0:70:bell.wav
64,192,223928,128,0,224310:0:0:0:70:kick.wav
192,192,223928,128,0,224119:0:0:0:70:crash1.wav
320,192,224119,1,0,0:0:0:70:ride.wav
448,192,224215,1,0,0:0:0:70:snare.wav
192,192,224310,128,0,224693:0:0:0:70:kick.wav
320,192,224310,128,0,224501:0:0:0:0:
64,192,224501,1,0,0:0:0:70:snare.wav
448,192,224501,1,0,0:0:0:70:bell.wav
320,192,224693,128,0,225075:0:0:0:70:kick.wav
448,192,224693,128,0,224884:0:0:0:0:
192,192,224884,1,0,0:0:0:70:ride.wav
64,192,224979,1,0,0:0:0:70:snare.wav
192,192,225075,128,0,225457:0:0:0:70:kick.wav
448,192,225075,1,0,0:0:0:0:
64,192,225266,128,0,225457:0:0:0:70:snare.wav
320,192,225266,1,0,0:0:0:70:bell.wav
320,192,225457,128,0,225648:0:0:0:70:kick.wav
448,192,225457,128,0,225839:0:0:0:0:
192,192,225648,1,0,0:0:0:70:ride.wav
64,192,225743,1,0,0:0:0:70:snare.wav
192,192,225839,128,0,226030:0:0:0:70:kick.wav
320,192,225839,128,0,226221:0:0:0:0:
64,192,226030,1,0,0:0:0:70:snare.wav
448,192,226030,1,0,0:0:0:70:bell.wav
64,192,226221,128,0,226603:0:0:0:70:kick.wav
448,192,226221,128,0,226412:0:0:0:0:
320,192,226412,1,0,0:0:0:70:ride.wav
192,192,226508,1,0,0:0:0:70:snare.wav
320,192,226603,128,0,226986:0:0:0:70:kick.wav
448,192,226603,128,0,226794:0:0:0:0:
64,192,226794,1,0,0:0:0:70:snare.wav
192,192,226794,1,0,0:0:0:70:bell.wav
192,192,226986,128,0,227177:0:0:0:70:kick.wav
448,192,226986,128,0,228132:0:0:0:0:
64,192,227177,128,0,227368:0:0:0:70:ride.wav
192,192,227272,1,0,0:0:0:70:snare.wav
320,192,227368,128,0,227559:0:0:0:70:kick.wav
192,192,227559,128,0,227750:0:0:0:70:snare.wav
64,192,227750,128,0,227941:0:0:0:70:kick.wav
320,192,227941,128,0,228132:0:0:0:70:ride.wav
64,192,228036,1,0,0:0:0:70:snare.wav
192,192,228132,1,0,0:0:0:70:kick.wav
64,192,228323,128,0,228514:0:0:0:70:snare.wav
448,192,228323,1,0,0:0:0:70:bell.wav
192,192,228514,128,0,228896:0:0:0:70:kick.wav
320,192,228514,1,0,0:0:0:70:snare.wav
448,192,228610,1,0,0:0:0:70:snare.wav
64,192,228705,1,0,0:0:0:70:ride.wav
320,192,228801,1,0,0:0:0:70:snare.wav
448,192,228896,1,0,0:0:0:70:kick.wav
64,192,229087,1,0,0:0:0:70:snare.wav
192,192,229087,1,0,0:0:0:70:bell.wav
448,192,229183,1,0,0:0:0:70:snare.wav
64,192,229279,1,0,0:0:0:70:kick.wav
320,192,229279,128,0,229661:0:0:0:70:snare.wav
448,192,229470,1,0,0:0:0:70:ride.wav
192,192,229565,1,0,0:0:0:70:snare.wav
64,192,229661,1,0,0:0:0:70:kick.wav
448,192,229661,128,0,230043:0:0:0:70:snare.wav
192,192,229852,1,0,0:0:0:70:snare.wav
320,192,229947,1,0,0:0:0:70:snare.wav
64,192,230043,128,0,230234:0:0:0:70:kick.wav
192,192,230043,128,0,230425:0:0:0:70:cymbal1.wav
320,192,230234,1,0,0:0:0:70:ride.wav
448,192,230329,1,0,0:0:0:70:snare.wav
64,192,230425,128,0,230616:0:0:0:70:kick.wav
320,192,230425,128,0,230807:0:0:0:0:
192,192,230616,1,0,0:0:0:70:snare.wav
448,192,230616,1,0,0:0:0:70:bell.wav
64,192,230807,128,0,230998:0:0:0:70:kick.wav
448,192,230807,128,0,230998:0:0:0:0:
192,192,230998,1,0,0:0:0:70:ride.wav
320,192,231094,1,0,0:0:0:70:snare.wav
192,192,231189,128,0,231572:0:0:0:70:kick.wav
448,192,231189,1,0,0:0:0:0:
64,192,231380,128,0,231572:0:0:0:70:snare.wav
320,192,231380,1,0,0:0:0:70:bell.wav
320,192,231572,128,0,231954:0:0:0:70:kick.wav
448,192,231572,128,0,231763:0:0:0:0:
192,192,231763,1,0,0:0:0:70:ride.wav
64,192,231858,1,0,0:0:0:70:snare.wav
192,192,231954,128,0,232336:0:0:0:70:kick.wav
448,192,231954,128,0,232145:0:0:0:0:
64,192,232145,1,0,0:0:0:70:snare.wav
320,192,232145,1,0,0:0:0:70:bell.wav
64,192,232336,128,0,232527:0:0:0:70:kick.wav
448,192,232336,128,0,232527:0:0:0:0:
320,192,232527,1,0,0:0:0:70:ride.wav
192,192,232622,1,0,0:0:0:70:snare.wav
64,192,232718,1,0,0:0:0:70:kick.wav
320,192,232718,128,0,233100:0:0:0:0:
64,192,232909,1,0,0:0:0:70:snare.wav
448,192,232909,128,0,233100:0:0:0:70:bell.wav
64,192,233100,128,0,233865:0:0:0:70:kick.wav
192,192,233100,1,0,0:0:0:0:
192,192,233291,1,0,0:0:0:70:ride.wav
320,192,233387,1,0,0:0:0:70:snare.wav
192,192,233482,128,0,233865:0:0:0:70:kick.wav
448,192,233482,1,0,0:0:0:0:
320,192,233673,1,0,0:0:0:70:snare.wav
448,192,233673,1,0,0:0:0:70:bell.wav
320,192,233865,1,0,0:0:0:70:kick.wav
448,192,233865,128,0,234056:0:0:0:0:
64,192,234056,1,0,0:0:0:70:ride.wav
320,192,234056,128,0,234247:0:0:0:0:
192,192,234151,1,0,0:0:0:70:snare.wav
64,192,234247,128,0,234438:0:0:0:70:kick.wav
448,192,234247,1,0,0:0:0:0:
192,192,234438,128,0,234629:0:0:0:70:snare.wav
320,192,234438,1,0,0:0:0:70:bell.wav
64,192,234629,1,0,0:0:0:70:kick.wav
448,192,234629,128,0,235202:0:0:0:0:
320,192,234820,1,0,0:0:0:70:ride.wav
192,192,234915,1,0,0:0:0:70:snare.wav
64,192,235011,1,0,0:0:0:70:kick.wav
320,192,235011,128,0,235202:0:0:0:0:
64,192,235202,128,0,235966:0:0:0:70:snare.wav
192,192,235202,1,0,0:0:0:70:bell.wav
320,192,235393,1,0,0:0:0:70:kick.wav
192,192,235584,128,0,235966:0:0:0:70:snare.wav
448,192,235584,1,0,0:0:0:70:ride.wav
320,192,235680,1,0,0:0:0:70:bell.wav
448,192,235775,1,0,0:0:0:70:kick.wav
320,192,235966,1,0,0:0:0:70:snare.wav
448,192,235966,1,0,0:0:0:70:bell.wav
64,192,236062,1,0,0:0:0:70:snare.wav
192,192,236062,1,0,0:0:0:0:
320,192,236158,128,0,236349:0:0:0:70:kick.wav
448,192,236158,128,0,236540:0:0:0:70:crash1.wav
64,192,236349,1,0,0:0:0:70:ride.wav
192,192,236444,1,0,0:0:0:70:snare.wav
64,192,236540,128,0,236922:0:0:0:70:kick.wav
320,192,236540,128,0,236731:0:0:0:0:
192,192,236731,1,0,0:0:0:70:snare.wav
448,192,236731,1,0,0:0:0:70:bell.wav
192,192,236922,128,0,237304:0:0:0:70:kick.wav
320,192,236922,128,0,237113:0:0:0:0:
64,192,237113,1,0,0:0:0:70:ride.wav
448,192,237208,1,0,0:0:0:70:snare.wav
64,192,237304,128,0,237686:0:0:0:70:kick.wav
320,192,237304,1,0,0:0:0:0:
320,192,237495,128,0,237686:0:0:0:70:snare.wav
448,192,237495,1,0,0:0:0:70:bell.wav
192,192,237686,128,0,237877:0:0:0:70:kick.wav
448,192,237686,128,0,238068:0:0:0:0:
320,192,237877,1,0,0:0:0:70:ride.wav
64,192,237973,1,0,0:0:0:70:snare.wav
192,192,238068,128,0,238451:0:0:0:70:kick.wav
320,192,238068,128,0,238259:0:0:0:0:
64,192,238259,1,0,0:0:0:70:snare.wav
448,192,238259,1,0,0:0:0:70:bell.wav
64,192,238451,128,0,238642:0:0:0:70:kick.wav
320,192,238451,128,0,238833:0:0:0:0:
448,192,238546,1,0,0:0:0:0:
192,192,238642,1,0,0:0:0:70:snare.wav
64,192,238737,1,0,0:0:0:70:snare.wav
192,192,238833,128,0,239215:0:0:0:70:kick.wav
448,192,238833,128,0,239024:0:0:0:70:TM.wav
320,192,238928,1,0,0:0:0:70:TM.wav
64,192,239024,1,0,0:0:0:70:bell.wav
448,192,239119,1,0,0:0:0:70:TF.wav
64,192,239215,128,0,239406:0:0:0:70:kick.wav
320,192,239215,128,0,240361:0:0:0:70:cymbal1.wav
192,192,239406,128,0,239597:0:0:0:70:ride.wav
64,192,239501,1,0,0:0:0:70:bell.wav
448,192,239597,128,0,239788:0:0:0:70:kick.wav
64,192,239788,128,0,239979:0:0:0:70:snare.wav
448,192,239884,1,0,0:0:0:0:
192,192,239979,128,0,240170:0:0:0:70:kick.wav
64,192,240075,1,0,0:0:0:0:
448,192,240170,128,0,240361:0:0:0:70:ride.wav
192,192,240266,1,0,0:0:0:70:bell.wav
64,192,240361,1,0,0:0:0:70:kick.wav
64,192,240552,128,0,240743:0:0:0:70:bell.wav
192,192,240552,1,0,0:0:0:70:ride.wav
320,192,240648,1,0,0:0:0:70:snare.wav
192,192,240743,128,0,240935:0:0:0:70:kick.wav
448,192,240743,128,0,241508:0:0:0:0:
320,192,240935,128,0,241126:0:0:0:40:snare.wav
192,192,241030,1,0,0:0:0:50:snare.wav
64,192,241126,128,0,241317:0:0:0:70:kick.wav
320,192,241221,1,0,0:0:0:70:snare.wav
192,192,241317,128,0,241508:0:0:0:80:snare.wav
64,192,241412,1,0,0:0:0:90:snare.wav
320,192,241508,1,0,0:0:0:70:kick.wav
192,192,241603,1,0,0:0:0:70:TH.wav
64,192,241699,1,0,0:0:0:70:TM.wav
448,192,241794,1,0,0:0:0:70:bell.wav
192,192,241890,1,0,0:0:0:70:TL.wav
320,192,241890,1,0,0:0:0:0:
448,192,241986,1,0,0:0:0:70:TL.wav
64,192,242081,1,0,0:0:0:70:TF.wav
192,192,242081,1,0,0:0:0:0:
320,192,242177,1,0,0:0:0:70:TF.wav
64,192,242272,128,0,242463:0:0:0:70:kick.wav
192,192,242272,1,0,0:0:0:70:crash1.wav
448,192,242272,1,0,0:0:0:0:
320,192,242463,1,0,0:0:0:70:kick.wav
448,192,242463,128,0,242654:0:0:0:0:
192,192,242654,1,0,0:0:0:70:snare.wav
320,192,242654,128,0,242845:0:0:0:70:hit1.wav
64,192,242750,1,0,0:0:0:0:
192,192,242845,128,0,243036:0:0:0:70:kick.wav
448,192,242845,1,0,0:0:0:70:crash1.wav
320,192,243228,1,0,0:0:0:70:kick.wav
448,192,243228,1,0,0:0:0:0:
192,192,243323,1,0,0:0:0:0:
64,192,243419,1,0,0:0:0:70:snare.wav
320,192,243419,1,0,0:0:0:70:hit1.wav
448,192,243419,1,0,0:0:0:0:
64,192,243610,1,0,0:0:0:70:kick.wav
192,192,243610,1,0,0:0:0:70:crash1.wav
448,192,243610,128,0,243992:0:0:0:0:
320,192,243801,1,0,0:0:0:0:
64,192,243992,128,0,244183:0:0:0:70:kick.wav
192,192,243992,1,0,0:0:0:0:
320,192,244087,1,0,0:0:0:0:
192,192,244183,128,0,244374:0:0:0:70:snare.wav
448,192,244183,1,0,0:0:0:70:hit1.wav
64,192,244279,1,0,0:0:0:70:snare.wav
320,192,244374,128,0,244756:0:0:0:70:kick.wav
448,192,244374,1,0,0:0:0:70:crash1.wav
192,192,244756,1,0,0:0:0:70:kick.wav
64,192,244947,1,0,0:0:0:70:snare.wav
448,192,244947,1,0,0:0:0:70:hit1.wav
192,192,245043,1,0,0:0:0:70:TH.wav
320,192,245043,1,0,0:0:0:0:
64,192,245138,1,0,0:0:0:70:TM.wav
448,192,245138,1,0,0:0:0:0:
192,192,245234,1,0,0:0:0:70:TM.wav
320,192,245234,1,0,0:0:0:0:
64,192,245329,1,0,0:0:0:70:kick.wav
448,192,245329,1,0,0:0:0:0:
192,192,245521,128,0,245712:0:0:0:70:kick.wav
320,192,245521,1,0,0:0:0:0:
64,192,245712,1,0,0:0:0:70:snare.wav
320,192,245712,128,0,245903:0:0:0:70:hit1.wav
448,192,245712,1,0,0:0:0:0:
192,192,245903,1,0,0:0:0:70:kick.wav
448,192,245903,128,0,246094:0:0:0:70:hit2.wav
64,192,246094,128,0,246285:0:0:0:70:snare.wav
192,192,246094,1,0,0:0:0:0:
320,192,246094,1,0,0:0:0:0:
192,192,246285,128,0,246476:0:0:0:70:kick.wav
320,192,246285,1,0,0:0:0:0:
64,192,246476,1,0,0:0:0:70:snare.wav
320,192,246476,128,0,246667:0:0:0:70:hit1.wav
448,192,246476,1,0,0:0:0:0:
64,192,246667,128,0,247049:0:0:0:70:kick.wav
192,192,246667,1,0,0:0:0:0:
448,192,246858,1,0,0:0:0:70:hit2.wav
320,192,246954,1,0,0:0:0:0:
192,192,247049,128,0,247240:0:0:0:70:kick.wav
448,192,247049,1,0,0:0:0:0:
64,192,247240,1,0,0:0:0:70:snare.wav
320,192,247240,128,0,247431:0:0:0:70:hit1.wav
192,192,247431,128,0,247622:0:0:0:0:
448,192,247431,1,0,0:0:0:0:
320,192,247527,1,0,0:0:0:50:snare.wav
64,192,247622,128,0,248005:0:0:0:70:kick.wav
448,192,247622,1,0,0:0:0:70:snare.wav
192,192,247814,1,0,0:0:0:70:hit2.wav
320,192,247909,1,0,0:0:0:70:TM.wav
192,192,248005,1,0,0:0:0:70:hit1.wav
448,192,248005,128,0,248196:0:0:0:70:TF.wav
64,192,248196,1,0,0:0:0:70:kick.wav
192,192,248196,1,0,0:0:0:70:hit2.wav
320,192,248196,128,0,248578:0:0:0:70:cymbal1.wav
192,192,248578,1,0,0:0:0:70:hit2.wav
448,192,248578,128,0,248769:0:0:0:70:TM.wav
64,192,248769,1,0,0:0:0:70:kick.wav
192,192,248769,128,0,248960:0:0:0:70:hit1.wav
320,192,248769,1,0,0:0:0:0:
320,192,248960,128,0,249151:0:0:0:0:
448,192,248960,1,0,0:0:0:0:
64,192,249056,1,0,0:0:0:70:snare.wav
192,192,249151,1,0,0:0:0:70:kick.wav
448,192,249151,128,0,249342:0:0:0:70:snare.wav
320,192,249247,1,0,0:0:0:0:
64,192,249342,1,0,0:0:0:50:snare.wav
192,192,249438,1,0,0:0:0:50:snare.wav
448,192,249533,128,0,249915:0:0:0:70:kick.wav
64,192,249724,128,0,250489:0:0:0:70:snare.wav
192,192,249724,128,0,250298:0:0:0:70:cymbal1.wav
320,192,249724,128,0,250107:0:0:0:0:
448,192,250107,128,0,250298:0:0:0:0:
320,192,250298,128,0,250489:0:0:0:0:
192,192,250489,128,0,250680:0:0:0:0:
64,192,250680,128,0,252591:0:0:0:0:
448,192,250680,128,0,252591:0:0:0:0:
320,192,252017,1,0,0:0:0:0:
192,192,252208,128,0,253355:0:0:0:0:
320,192,252973,128,0,253355:0:0:0:0:
448,192,253355,128,0,253737:0:0:0:0:
64,192,253737,128,0,255265:0:0:0:70:kick.wav
192,192,253737,128,0,253928:0:0:0:70:cymbal1.wav
320,192,253737,1,0,0:0:0:70:crash1.wav
320,192,253928,128,0,254119:0:0:0:70:ride.wav
192,192,254023,1,0,0:0:0:70:snare.wav
448,192,254119,128,0,254310:0:0:0:70:kick.wav
192,192,254310,128,0,254501:0:0:0:70:snare.wav
320,192,254310,1,0,0:0:0:70:bell.wav
320,192,254501,128,0,254692:0:0:0:70:kick.wav
192,192,254692,128,0,254883:0:0:0:70:ride.wav
320,192,254787,1,0,0:0:0:70:snare.wav
448,192,254883,128,0,255074:0:0:0:70:kick.wav
192,192,255074,1,0,0:0:0:70:snare.wav
320,192,255074,128,0,255265:0:0:0:70:bell.wav
192,192,255265,128,0,255456:0:0:0:70:kick.wav
448,192,255265,128,0,256029:0:0:0:0:
64,192,255456,128,0,255647:0:0:0:70:ride.wav
320,192,255552,1,0,0:0:0:70:snare.wav
192,192,255647,128,0,255838:0:0:0:70:kick.wav
64,192,255838,1,0,0:0:0:70:snare.wav
320,192,255838,128,0,256029:0:0:0:70:bell.wav
64,192,256029,128,0,256221:0:0:0:70:kick.wav
192,192,256029,128,0,256794:0:0:0:0:
448,192,256221,128,0,256412:0:0:0:70:ride.wav
64,192,256316,1,0,0:0:0:70:snare.wav
320,192,256412,128,0,256603:0:0:0:70:kick.wav
64,192,256603,128,0,256794:0:0:0:70:snare.wav
448,192,256603,1,0,0:0:0:70:bell.wav
320,192,256794,128,0,257558:0:0:0:70:kick.wav
192,192,256985,1,0,0:0:0:70:ride.wav
64,192,257080,1,0,0:0:0:70:snare.wav
448,192,257176,1,0,0:0:0:70:kick.wav
64,192,257367,1,0,0:0:0:70:snare.wav
192,192,257367,1,0,0:0:0:70:bell.wav
448,192,257463,1,0,0:0:0:0:
64,192,257558,128,0,257749:0:0:0:70:kick.wav
192,192,257558,1,0,0:0:0:0:
320,192,257749,1,0,0:0:0:70:ride.wav
448,192,257749,128,0,257940:0:0:0:0:
64,192,257845,1,0,0:0:0:70:snare.wav
192,192,257940,1,0,0:0:0:70:kick.wav
320,192,257940,128,0,258131:0:0:0:0:
64,192,258131,1,0,0:0:0:70:snare.wav
192,192,258131,128,0,258322:0:0:0:70:bell.wav
320,192,258322,1,0,0:0:0:70:kick.wav
448,192,258322,128,0,258514:0:0:0:0:
64,192,258514,128,0,258705:0:0:0:70:ride.wav
192,192,258514,1,0,0:0:0:0:
448,192,258609,1,0,0:0:0:70:snare.wav
192,192,258705,128,0,258896:0:0:0:70:kick.wav
320,192,258705,1,0,0:0:0:0:
320,192,258896,128,0,259087:0:0:0:70:snare.wav
448,192,258896,1,0,0:0:0:70:bell.wav
64,192,259087,1,0,0:0:0:70:kick.wav
192,192,259087,128,0,259469:0:0:0:0:
448,192,259182,1,0,0:0:0:50:snare.wav
64,192,259278,1,0,0:0:0:70:ride.wav
320,192,259373,1,0,0:0:0:70:snare.wav
64,192,259469,128,0,259851:0:0:0:70:kick.wav
448,192,259469,1,0,0:0:0:0:
192,192,259660,1,0,0:0:0:70:snare.wav
320,192,259660,1,0,0:0:0:70:bell.wav
192,192,259851,1,0,0:0:0:70:kick.wav
320,192,259851,128,0,260042:0:0:0:70:cymbal1.wav
448,192,259851,128,0,261380:0:0:0:0:
192,192,260042,128,0,260233:0:0:0:70:ride.wav
320,192,260138,1,0,0:0:0:70:snare.wav
64,192,260233,128,0,260424:0:0:0:70:kick.wav
192,192,260424,1,0,0:0:0:70:snare.wav
320,192,260424,128,0,260615:0:0:0:70:bell.wav
192,192,260615,128,0,260807:0:0:0:70:kick.wav
320,192,260807,128,0,260998:0:0:0:70:ride.wav
192,192,260902,1,0,0:0:0:70:snare.wav
64,192,260998,128,0,261189:0:0:0:70:kick.wav
192,192,261189,128,0,261380:0:0:0:70:snare.wav
320,192,261189,1,0,0:0:0:70:bell.wav
64,192,261380,128,0,262144:0:0:0:70:kick.wav
320,192,261380,128,0,261571:0:0:0:0:
448,192,261571,128,0,261762:0:0:0:70:ride.wav
192,192,261666,1,0,0:0:0:70:snare.wav
320,192,261762,128,0,261953:0:0:0:70:kick.wav
192,192,261953,128,0,262144:0:0:0:70:snare.wav
448,192,261953,1,0,0:0:0:70:bell.wav
320,192,262144,128,0,262335:0:0:0:70:kick.wav
448,192,262144,128,0,262908:0:0:0:0:
192,192,262335,1,0,0:0:0:70:ride.wav
320,192,262431,1,0,0:0:0:70:snare.wav
64,192,262526,128,0,262717:0:0:0:70:kick.wav
192,192,262717,1,0,0:0:0:70:snare.wav
320,192,262717,1,0,0:0:0:70:bell.wav
64,192,262908,128,0,263100:0:0:0:70:kick.wav
192,192,262908,128,0,263291:0:0:0:0:
448,192,263100,128,0,263482:0:0:0:70:snare.wav
64,192,263195,1,0,0:0:0:70:bell.wav
320,192,263291,128,0,263673:0:0:0:70:kick.wav
192,192,263386,1,0,0:0:0:70:kick.wav
64,192,263482,128,0,263864:0:0:0:70:snare.wav
448,192,263577,1,0,0:0:0:70:snare.wav
192,192,263673,128,0,264055:0:0:0:70:kick.wav
448,192,263768,1,0,0:0:0:70:snare.wav
320,192,263864,128,0,264246:0:0:0:70:snare.wav
64,192,263959,1,0,0:0:0:70:snare.wav
448,192,264055,128,0,264437:0:0:0:70:kick.wav
64,192,264151,1,0,0:0:0:70:TM.wav
192,192,264246,128,0,264628:0:0:0:70:bell.wav
320,192,264342,1,0,0:0:0:70:TF.wav
64,192,264437,128,0,264819:0:0:0:70:kick.wav
448,192,264628,128,0,265010:0:0:0:70:ride.wav
320,192,264724,1,0,0:0:0:70:bell.wav
192,192,264819,128,0,265201:0:0:0:70:kick.wav
64,192,264915,1,0,0:0:0:0:
320,192,265010,128,0,265393:0:0:0:70:snare.wav
64,192,265201,128,0,265584:0:0:0:70:kick.wav
448,192,265393,128,0,265584:0:0:0:70:snare.wav
192,192,265488,1,0,0:0:0:70:snare.wav
320,192,265584,1,0,0:0:0:70:TM.wav
64,192,265679,1,0,0:0:0:70:TM.wav
192,192,265775,1,0,0:0:0:70:bell.wav
320,192,265870,1,0,0:0:0:70:TF.wav
64,192,265966,1,0,0:0:0:70:kick.wav
448,192,265966,128,0,266157:0:0:0:70:bell.wav
320,192,266157,128,0,266348:0:0:0:70:ride.wav
64,192,266252,1,0,0:0:0:70:snare.wav
448,192,266252,1,0,0:0:0:70:bell.wav
192,192,266348,128,0,266539:0:0:0:70:kick.wav
64,192,266539,128,0,266730:0:0:0:70:snare.wav
320,192,266539,1,0,0:0:0:70:bell.wav
192,192,266730,128,0,266921:0:0:0:70:kick.wav
320,192,266921,128,0,267112:0:0:0:70:ride.wav
64,192,267017,1,0,0:0:0:70:snare.wav
192,192,267017,1,0,0:0:0:70:bell.wav
448,192,267112,128,0,267303:0:0:0:70:kick.wav
64,192,267303,1,0,0:0:0:70:snare.wav
320,192,267303,128,0,267494:0:0:0:70:bell.wav
192,192,267494,128,0,267686:0:0:0:70:kick.wav
64,192,267686,128,0,267877:0:0:0:70:ride.wav
320,192,267781,1,0,0:0:0:70:snare.wav
448,192,267781,1,0,0:0:0:70:bell.wav
192,192,267877,128,0,268068:0:0:0:70:kick.wav
64,192,268068,1,0,0:0:0:70:snare.wav
320,192,268068,128,0,268259:0:0:0:70:bell.wav
448,192,268259,128,0,268450:0:0:0:70:kick.wav
320,192,268450,128,0,268641:0:0:0:70:ride.wav
64,192,268545,1,0,0:0:0:70:snare.wav
448,192,268545,1,0,0:0:0:70:bell.wav
192,192,268641,128,0,268832:0:0:0:70:kick.wav
64,192,268832,128,0,269023:0:0:0:70:snare.wav
320,192,268832,1,0,0:0:0:70:bell.wav
192,192,269023,128,0,269214:0:0:0:70:kick.wav
320,192,269214,128,0,269405:0:0:0:70:ride.wav
64,192,269310,1,0,0:0:0:70:snare.wav
192,192,269310,1,0,0:0:0:70:bell.wav
448,192,269405,128,0,269596:0:0:0:70:kick.wav
64,192,269596,1,0,0:0:0:70:snare.wav
320,192,269596,128,0,269787:0:0:0:70:bell.wav
192,192,269787,128,0,269979:0:0:0:70:kick.wav
448,192,269979,128,0,270170:0:0:0:70:ride.wav
192,192,270074,1,0,0:0:0:70:snare.wav
320,192,270074,1,0,0:0:0:70:bell.wav
64,192,270170,128,0,270361:0:0:0:70:kick.wav
192,192,270361,128,0,270552:0:0:0:70:snare.wav
320,192,270361,1,0,0:0:0:70:bell.wav
448,192,270552,128,0,270743:0:0:0:70:kick.wav
320,192,270743,128,0,270934:0:0:0:70:ride.wav
64,192,270838,1,0,0:0:0:70:snare.wav
192,192,270838,128,0,271029:0:0:0:70:bell.wav
448,192,270934,128,0,271125:0:0:0:70:kick.wav
64,192,271029,128,0,271125:0:0:0:0:
192,192,271125,1,0,0:0:0:70:snare.wav
320,192,271125,128,0,271316:0:0:0:70:bell.wav
448,192,271221,128,0,271316:0:0:0:0:
192,192,271316,128,0,271507:0:0:0:70:kick.wav
64,192,271412,1,0,0:0:0:0:
320,192,271507,128,0,271698:0:0:0:70:ride.wav
192,192,271603,1,0,0:0:0:70:snare.wav
448,192,271603,1,0,0:0:0:70:bell.wav
64,192,271698,128,0,271889:0:0:0:70:kick.wav
320,192,271889,1,0,0:0:0:70:snare.wav
448,192,271889,128,0,272080:0:0:0:70:bell.wav
192,192,272080,128,0,272272:0:0:0:70:kick.wav
320,192,272272,128,0,272463:0:0:0:70:ride.wav
64,192,272367,1,0,0:0:0:70:snare.wav
448,192,272367,1,0,0:0:0:70:bell.wav
192,192,272463,128,0,272654:0:0:0:70:kick.wav
64,192,272654,128,0,272845:0:0:0:70:snare.wav
320,192,272654,1,0,0:0:0:70:bell.wav
192,192,272845,128,0,273036:0:0:0:70:kick.wav
320,192,273036,128,0,273227:0:0:0:70:ride.wav
64,192,273131,1,0,0:0:0:70:snare.wav
192,192,273131,1,0,0:0:0:70:bell.wav
448,192,273227,128,0,273418:0:0:0:70:kick.wav
64,192,273418,1,0,0:0:0:70:snare.wav
320,192,273418,128,0,273609:0:0:0:70:bell.wav
192,192,273609,128,0,273800:0:0:0:70:kick.wav
64,192,273800,128,0,273991:0:0:0:70:ride.wav
320,192,273896,1,0,0:0:0:70:snare.wav
448,192,273896,1,0,0:0:0:70:bell.wav
192,192,273991,128,0,274182:0:0:0:70:kick.wav
64,192,274182,1,0,0:0:0:70:snare.wav
320,192,274182,128,0,274373:0:0:0:70:bell.wav
448,192,274373,128,0,274565:0:0:0:70:kick.wav
320,192,274565,128,0,274756:0:0:0:70:ride.wav
64,192,274660,1,0,0:0:0:70:snare.wav
448,192,274660,1,0,0:0:0:70:bell.wav
192,192,274756,128,0,274947:0:0:0:70:kick.wav
64,192,274947,128,0,275138:0:0:0:70:snare.wav
320,192,274947,1,0,0:0:0:70:bell.wav
192,192,275138,128,0,275329:0:0:0:70:kick.wav
320,192,275329,128,0,275520:0:0:0:70:ride.wav
64,192,275424,1,0,0:0:0:70:snare.wav
192,192,275424,1,0,0:0:0:70:bell.wav
448,192,275520,128,0,275711:0:0:0:70:kick.wav
192,192,275615,1,0,0:0:0:70:snare.wav
320,192,275711,128,0,275902:0:0:0:70:bell.wav
64,192,275807,1,0,0:0:0:70:snare.wav
192,192,275902,128,0,276093:0:0:0:70:kick.wav
448,192,275998,1,0,0:0:0:70:TM.wav
64,192,276093,128,0,276284:0:0:0:0:
320,192,276189,1,0,0:0:0:70:snare.wav
192,192,276284,128,0,276475:0:0:0:70:kick.wav
448,192,276380,1,0,0:0:0:70:TM.wav
320,192,276475,128,0,276666:0:0:0:70:snare.wav
64,192,276571,1,0,0:0:0:0:
192,192,276666,1,0,0:0:0:70:kick.wav
448,192,276666,1,0,0:0:0:0:
64,192,276858,1,0,0:0:0:70:snare.wav
192,192,276953,1,0,0:0:0:70:bell.wav
320,192,277049,1,0,0:0:0:0:
64,192,277240,1,0,0:0:0:70:snare.wav
448,192,277240,1,0,0:0:0:70:bell.wav
192,192,277431,1,0,0:0:0:70:kick.wav
320,192,277622,1,0,0:0:0:70:snare.wav
448,192,277622,1,0,0:0:0:0:
64,192,277717,1,0,0:0:0:70:snare.wav
192,192,277717,1,0,0:0:0:70:bell.wav
320,192,277813,1,0,0:0:0:70:snare.wav
448,192,277813,1,0,0:0:0:0:
64,192,277908,1,0,0:0:0:70:snare.wav
192,192,277908,1,0,0:0:0:0:
320,192,278004,1,0,0:0:0:70:kick.wav
448,192,278100,1,0,0:0:0:0:
64,192,278195,1,0,0:0:0:0:
192,192,278386,1,0,0:0:0:0:
320,192,278577,1,0,0:0:0:0:
448,192,278768,1,0,0:0:0:0:
320,192,278959,1,0,0:0:0:0:
192,192,279152,1,0,0:0:0:0:
64,192,279346,1,0,0:0:0:0:
192,192,279546,1,0,0:0:0:0:
320,192,279746,1,0,0:0:0:0:
448,192,279976,1,0,0:0:0:0:
320,192,280207,1,0,0:0:0:0:
192,192,280438,1,0,0:0:0:0:
448,192,280710,1,0,0:0:0:0:
64,192,281025,1,0,0:0:0:0:
320,192,281409,1,0,0:0:0:0:
448,192,282563,1,0,0:0:0:0:
64,192,282648,1,0,0:0:0:0:
192,192,282691,1,0,0:0:0:0:
320,192,282734,1,0,0:0:0:0:
