osu file format v14

[General]
AudioFilename: audio.mp3
AudioLeadIn: 0
PreviewTime: 209059
Countdown: 0
SampleSet: Soft
StackLeniency: 0.4
Mode: 0
LetterboxInBreaks: 0
WidescreenStoryboard: 0

[Editor]
Bookmarks: 12718,20297,22823,30402,40507,50613,55665,60718,65771,73350,75876,85981,96086,107455,117560,127665,140297,152928,163034,165560,175665,188297,199665,209771,212297,223665,235034,247665,251455,261560,269139,277034
DistanceSpacing: 0.7
BeatDivisor: 4
GridSize: 8
TimelineZoom: 2

[Metadata]
Title:Zenryoku Happy Life
TitleUnicode:全力ハッピーライフ
Artist:ShinRa-Bansho
ArtistUnicode:森羅万象
Creator:Kirylln
Version:Infinite Happy Power
Source:東方永夜抄 ~ Imperishable Night.
Tags:シンクロ2 Synchro 2 Full power ayaponzu* touhou zun Reisen Udongein Inaba theme Caral kaztora 狂気の瞳 ~ Invisible Full Moon 東方Project あやぽんず* banshou hikan japanese video game
BeatmapID:2063431
BeatmapSetID:986299

[Difficulty]
HPDrainRate:5
CircleSize:5
OverallDifficulty:9
ApproachRate:9.2
SliderMultiplier:1.9
SliderTickRate:1

[Events]
//Background and Video events
0,0,"reisen.png",0,0
//Break Periods
//Storyboard Layer 0 (Background)
//Storyboard Layer 1 (Fail)
//Storyboard Layer 2 (Pass)
//Storyboard Layer 3 (Foreground)
//Storyboard Layer 4 (Overlay)
//Storyboard Sound Samples

[TimingPoints]
718,315.789473684211,4,2,1,60,1,0
718,-83.3333333333333,4,2,1,75,0,0
1507,-166.666666666667,4,2,1,75,0,0
1981,-83.3333333333333,4,2,1,75,0,0
2770,-166.666666666667,4,2,1,75,0,0
3244,-83.3333333333333,4,2,1,75,0,0
4033,-166.666666666667,4,2,1,75,0,0
4823,-71.4285714285714,4,2,1,75,0,0
5139,-62.5,4,2,1,75,0,0
5454,-333.333333333333,4,2,1,75,0,0
5770,-83.3333333333333,4,2,1,75,0,0
6560,-166.666666666667,4,2,1,75,0,0
7033,-83.3333333333333,4,2,1,75,0,0
7823,-166.666666666667,4,2,1,75,0,0
8296,-83.3333333333333,4,2,1,75,0,0
8612,-500,4,2,1,75,0,0
8928,-83.3333333333333,4,2,1,75,0,0
9244,-500,4,2,1,75,0,0
9560,-83.3333333333333,4,2,1,75,0,0
9875,-62.5,4,2,1,75,0,0
10191,-166.666666666667,4,2,1,75,0,0
10507,-83.3333333333333,4,2,1,75,0,0
10823,-100,4,2,1,80,0,0
12086,-83.3333333333333,4,2,1,80,0,0
19981,-71.4285714285714,4,2,1,85,0,0
20296,-62.5,4,2,1,85,0,0
20612,-55.5555555555556,4,2,1,85,0,0
20928,-62.5,4,2,1,85,0,0
21244,-100,4,2,1,85,0,0
22191,-100,4,2,3,85,0,0
22507,-100,4,2,1,85,0,0
28033,-166.666666666667,4,2,1,85,0,0
28349,-71.4285714285714,4,2,1,85,0,0
29139,-83.3333333333333,4,2,1,85,0,0
29770,-125,4,2,1,85,0,0
30086,-125,4,2,1,50,0,0
35139,-71.4285714285714,4,2,1,60,0,0
35454,-166.666666666667,4,2,1,60,0,0
36086,-100,4,2,1,60,0,0
36718,-166.666666666667,4,2,1,60,0,0
37349,-166.666666666667,4,2,1,60,0,0
38612,-83.3333333333333,4,2,1,60,0,0
39875,-100,4,2,1,70,0,0
49981,-71.4285714285714,4,2,1,75,0,0
50296,-166.666666666667,4,2,1,60,0,0
52507,-83.3333333333333,4,2,1,60,0,0
52823,-71.4285714285714,4,2,1,60,0,0
53139,-250,4,2,1,60,0,0
55033,-100,4,2,1,70,0,0
58191,-83.3333333333333,4,2,1,60,0,0
58823,-62.5,4,2,1,60,0,0
59296,-100,4,2,1,70,0,0
60402,-100,4,2,1,75,0,0
64349,-71.4285714285714,4,2,1,60,0,0
65139,-100,4,2,1,70,0,0
65612,-100,4,2,1,60,0,0
70665,-100,4,2,1,75,0,0
70981,-100,4,2,1,80,0,0
71296,-100,4,2,1,90,0,0
75244,-71.4285714285714,4,2,1,100,0,1
77296,-71.4285714285714,4,2,3,80,0,1
77770,-71.4285714285714,4,2,1,100,0,1
82349,-100,4,2,3,80,0,1
82507,-333.333333333333,4,2,0,70,0,1
82823,-71.4285714285714,4,2,1,100,0,1
85033,-125,4,2,1,70,0,1
85349,-100,4,2,2,80,0,0
89139,-71.4285714285714,4,2,2,80,0,0
89454,-166.666666666667,4,2,2,80,0,0
89770,-83.3333333333333,4,2,2,80,0,0
90086,-166.666666666667,4,2,2,80,0,0
90402,-83.3333333333334,4,2,2,80,0,0
92454,-100,4,2,1,80,0,0
92928,-125,4,2,1,80,0,0
95454,-100,4,2,1,55,0,0
96718,-125,4,2,1,60,0,0
106823,-100,4,2,1,70,0,0
116928,-71.4285714285714,4,2,1,75,0,0
117244,-166.666666666667,4,2,1,75,0,0
119454,-83.3333333333333,4,2,1,75,0,0
119770,-71.4285714285714,4,2,1,75,0,0
120086,-166.666666666667,4,2,1,75,0,0
121981,-100,4,2,1,80,0,0
125139,-83.3333333333333,4,2,1,80,0,0
125770,-71.4285714285714,4,2,1,80,0,0
126244,-100,4,2,1,80,0,0
127349,-100,4,2,1,85,0,0
129560,-100,4,2,1,80,0,0
131296,-83.3333333333333,4,2,1,70,0,0
132560,-100,4,2,1,70,0,0
137612,-100,4,2,1,85,0,0
137928,-100,4,2,1,90,0,0
138244,-100,4,2,1,95,0,0
140928,-100,4,2,1,20,0,0
141244,-166.666666666667,4,2,1,50,0,0
141560,-125,4,2,1,70,0,0
141875,-100,4,2,1,90,0,0
142033,-83.3333333333333,4,2,1,100,0,0
142191,-71.4285714285714,4,2,1,100,0,1
144244,-71.4285714285714,4,2,3,80,0,1
144718,-71.4285714285714,4,2,1,100,0,1
149296,-71.4285714285714,4,2,3,80,0,1
149770,-71.4285714285714,4,2,1,100,0,1
151981,-125,4,2,1,70,0,1
152296,-100,4,2,2,80,0,0
156086,-71.4285714285714,4,2,2,80,0,0
156402,-166.666666666667,4,2,2,80,0,0
156718,-83.3333333333333,4,2,2,80,0,0
157033,-166.666666666667,4,2,2,80,0,0
157349,-100,4,2,2,80,0,0
159402,-100,4,2,1,80,0,0
159875,-125,4,2,1,80,0,0
162402,-166.666666666667,4,2,1,80,0,0
163033,-100,4,2,1,80,0,0
164928,-83.3333333333333,4,2,1,80,0,0
172507,-71.4285714285714,4,2,1,80,0,0
173139,-83.3333333333333,4,2,1,80,0,0
173612,-100,4,2,1,80,0,0
174718,-166.666666666667,4,2,1,80,0,0
175507,-83.3333333333333,4,2,1,80,0,0
178191,-71.4285714285714,4,2,1,80,0,0
182612,-100,4,2,1,80,0,0
187112,-100,4,2,0,80,0,0
187349,-100,4,2,1,90,0,0
187428,-100,4,2,0,90,0,0
187665,315.789473684211,3,2,3,80,1,0
187665,-100,3,2,3,80,0,0
187981,-100,3,2,3,40,0,0
198718,-100,3,2,1,50,0,0
199033,315.789473684211,4,2,1,55,1,0
199033,-166.666666666667,4,2,1,55,0,0
203928,-100,4,2,1,70,0,0
208033,-100,4,2,1,75,0,0
209139,-166.666666666667,4,2,1,50,0,0
210402,-125,4,2,1,80,0,0
211191,-71.4285714285714,4,2,1,100,0,0
211665,-100,4,2,3,80,0,0
211981,-100,4,2,2,30,0,0
220507,-100,4,2,2,35,0,0
220823,-100,4,2,2,40,0,0
221139,-100,4,2,2,45,0,0
221454,-100,4,2,2,50,0,0
221770,-100,4,2,2,60,0,0
222086,-100,4,2,2,70,0,0
222402,-100,4,2,2,80,0,0
222718,-100,4,2,2,90,0,0
223033,-100,4,2,2,40,0,0
223665,-71.4285714285714,4,2,2,20,0,0
223744,-71.4285714285714,4,2,2,15,0,0
223823,-71.4285714285714,4,2,2,25,0,0
223902,-71.4285714285714,4,2,2,35,0,0
223981,-71.4285714285714,4,2,2,65,0,0
224060,-71.4285714285714,4,2,2,75,0,0
224139,-71.4285714285714,4,2,2,85,0,0
224218,-71.4285714285714,4,2,2,100,0,0
224296,-71.4285714285714,4,2,1,100,0,1
226349,-71.4285714285714,4,2,3,80,0,1
226823,-71.4285714285714,4,2,1,100,0,1
231402,-71.4285714285714,4,2,3,80,0,1
231875,-71.4285714285714,4,2,1,100,0,1
234401,-100,4,2,2,80,0,0
238191,-71.4285714285714,4,2,2,80,0,0
238507,-166.666666666667,4,2,2,80,0,0
238823,-83.3333333333333,4,2,2,80,0,0
239296,-83.3333333333333,4,2,1,80,0,0
241981,-125,4,2,1,80,0,0
247033,-100,4,2,1,80,0,0
247191,-100,4,2,0,60,0,0
250507,-166.666666666667,4,2,1,80,0,0
250823,-83.3333333333333,4,2,1,60,0,0
258718,-71.4285714285714,4,2,1,65,0,0
259033,-62.5,4,2,1,65,0,0
259349,-55.5555555555556,4,2,1,65,0,0
259665,-62.5,4,2,1,65,0,0
259981,-100,4,2,1,65,0,0
260928,-100,4,2,3,80,0,0
261244,-100,4,2,1,80,0,0
267086,-71.4285714285714,4,2,1,65,0,0
268665,-100,4,2,0,80,0,0
269928,-100,4,2,1,90,0,0
270402,-250,4,2,1,60,0,0
270481,-100,4,2,1,30,0,0

[Colours]
Combo1 : 255,128,128
Combo2 : 172,255,255
Combo3 : 113,184,255
Combo4 : 208,208,208

[HitObjects]
448,96,718,6,0,B|407:72|403:43|403:43|340:112|406:194,1,227.999993041992,0|2,1:0|0:3,0:0:0:0:
508,195,1191,2,0,P|428:193|337:242,1,170.999994781494,8|0,0:0|0:0,0:0:0:0:
272,224,1507,2,0,P|231:262|210:332,1,113.999996520996,8|8,0:0|0:0,0:0:0:0:
48,192,1981,6,0,B|97:104|46:40|46:40|34:74|15:67|11:105,1,227.999993041992,0|2,1:0|0:3,0:0:0:0:
148,56,2454,2,0,P|204:24|318:15,1,170.999994781494,8|0,0:0|0:0,0:0:0:0:
352,96,2770,2,0,P|387:103|455:155,1,113.999996520996,8|8,0:0|0:0,0:0:0:0:
211,315,3244,6,0,P|168:265|269:284,1,227.999993041992,0|2,1:0|0:3,0:0:0:0:
400,368,3718,2,0,P|371:299|377:203,1,170.999994781494,8|0,0:0|0:0,0:0:0:0:
512,336,4033,2,0,P|475:285|469:222,1,113.999996520996,8|8,0:0|0:0,0:0:0:0:
308,13,4823,6,0,B|234:6|234:80|180:117|122:69,1,199.499993911743,12|0,0:0|0:0,0:0:0:0:
129,70,5139,2,0,B|181:49|225:64|233:136|275:154|346:120,1,228,12|0,0:0|0:0,0:0:0:0:
322,113,5454,1,8,0:3:0:0:
322,113,5612,1,4,0:3:0:0:
96,320,5770,6,0,B|40:306|-20:263|-8:181|31:166|72:171|85:221|55:253,1,227.999993041992,0|2,1:0|0:3,0:0:0:0:
182,331,6244,2,0,P|218:280|337:242,1,170.999994781494,8|0,0:0|0:0,0:0:0:0:
335,324,6560,2,0,P|388:318|455:341,1,113.999996520996,8|8,0:0|0:0,0:0:0:0:
496,144,7033,6,0,B|475:72|438:79|421:22|421:22|400:65|425:111,1,227.999993041992,0|2,1:0|0:3,0:0:0:0:
320,112,7507,2,0,P|271:74|148:44,1,170.999994781494,8|0,0:0|0:0,0:0:0:0:
91,7,7823,2,0,P|48:20|-7:75,1,113.999996520996,8|8,0:0|0:0,0:0:0:0:
64,176,8296,6,0,P|138:179|257:248,1,170.999994781494,0|0,1:0|0:0,0:0:0:0:
225,218,8612,6,0,L|217:186,1,28.5,2|0,0:3|0:0,0:0:0:0:
464,256,8928,6,0,P|390:253|271:184,1,170.999994781494,0|0,1:0|0:0,0:0:0:0:
302,213,9244,6,0,L|310:245,1,28.5,2|0,0:3|0:0,0:0:0:0:
39,182,9560,6,0,P|113:185|232:254,1,170.999994781494,4|0,1:0|0:0,0:0:0:0:
426,74,9875,2,0,P|355:116|323:263,1,228,4|0,1:0|0:0,0:0:0:0:
176,320,10191,2,0,P|206:325|270:366,1,85.4999973907472,2|0,0:3|0:0,0:0:0:0:
240,360,10507,6,0,P|211:349|170:348,1,56.9999982604981,0|0,1:0|0:0,0:0:0:0:
48,368,10665,1,8,0:0:0:0:
84,300,10823,1,2,0:0:0:0:
494,81,12086,6,0,P|385:107|312:192,1,227.999993041992,6|8,0:0|0:0,0:0:0:0:
256,32,12560,1,2,0:0:0:0:
236,74,12639,1,2,0:0:0:0:
240,120,12718,1,2,0:3:0:0:
312,192,12875,1,0,0:0:0:0:
259,20,13033,5,8,0:0:0:0:
220,46,13191,1,0,0:0:0:0:
160,304,13349,5,2,0:3:0:0:
199,278,13507,1,2,0:0:0:0:
152,176,13665,5,8,0:0:0:0:
136,210,13823,1,2,0:0:0:0:
72,144,13981,5,2,0:3:0:0:
69,114,14139,1,2,0:0:0:0:
0,96,14296,5,8,0:0:0:0:
15,116,14454,1,2,0:0:0:0:
224,368,14612,6,0,P|299:330|468:313,1,227.999993041992,6|8,0:0|0:0,0:0:0:0:
288,208,15086,1,2,0:0:0:0:
333,204,15165,1,2,0:0:0:0:
375,223,15244,1,2,0:3:0:0:
440,310,15402,1,0,0:0:0:0:
276,209,15560,5,8,0:0:0:0:
316,228,15718,1,0,0:0:0:0:
512,32,15875,5,2,0:3:0:0:
472,13,16033,1,2,0:0:0:0:
318,68,16191,5,8,0:0:0:0:
302,100,16349,1,2,0:0:0:0:
216,32,16507,5,2,0:3:0:0:
184,16,16665,1,2,0:0:0:0:
112,48,16823,5,8,0:0:0:0:
99,73,16981,1,2,0:0:0:0:
1,136,17139,6,0,P|82:168|143:309,1,227.999993041992,6|8,0:0|0:0,0:0:0:0:
276,209,17612,1,2,0:0:0:0:
276,254,17691,1,2,0:0:0:0:
253,294,17770,1,2,3:0:0:0:
143,288,17928,1,0,0:0:0:0:
281,196,18086,5,8,0:0:0:0:
304,235,18244,1,2,0:0:0:0:
103,66,18402,5,2,0:3:0:0:
141,43,18560,1,2,0:0:0:0:
294,25,18718,5,8,0:0:0:0:
256,48,18876,1,2,0:0:0:0:
98,57,19033,5,2,0:3:0:0:
294,38,19191,1,0,1:0:0:0:
256,61,19270,1,0,1:0:0:0:
218,84,19349,1,8,1:2:0:0:
98,57,19507,5,8,0:2:0:0:
117,45,19586,1,8,0:2:0:0:
136,32,19665,2,0,P|197:83|196:219,1,170.999994781494,8|0,0:2|0:0,0:0:0:0:
256,296,19981,2,0,B|287:323|290:350|290:350|354:281|298:210,1,199.499993911743,4|0,1:2|0:0,0:0:0:0:
506,153,20296,2,0,B|435:136|394:171|414:200|370:243|284:212,1,228,12|0,0:2|0:0,0:0:0:0:
313,70,20612,2,0,B|335:44|330:5|330:5|390:71|318:101|354:207,1,256.499992172241,4|0,1:2|0:0,0:0:0:0:
216,188,20928,6,0,P|120:127|-5:126,1,228,12|0,0:2|0:0,0:0:0:0:
136,248,21244,2,0,P|77:245|21:277,1,95,4|8,1:2|0:2,0:0:0:0:
26,272,21481,1,8,0:2:0:0:
5,270,21560,1,8,0:2:0:0:
112,336,21718,1,8,0:0:0:0:
256,288,21875,1,8,0:0:0:0:
440,376,22033,5,0,1:0:0:0:
448,325,22112,1,0,1:0:0:0:
455,275,22191,2,0,L|432:56,1,190,4|8,1:2|0:0,0:0:0:0:
336,80,22665,1,2,0:0:0:0:
320,64,22744,1,2,0:0:0:0:
304,48,22823,1,2,0:3:0:0:
272,144,22981,1,0,0:0:0:0:
360,208,23139,2,0,P|308:169|258:154,1,95,8|0,0:0|0:0,0:0:0:0:
40,96,23454,5,2,0:3:0:0:
24,80,23612,1,2,0:0:0:0:
80,272,23770,5,8,0:0:0:0:
74,293,23928,1,2,0:0:0:0:
152,144,24086,5,2,0:3:0:0:
173,138,24244,1,2,0:0:0:0:
56,112,24402,5,8,0:0:0:0:
86,251,24560,1,2,0:0:0:0:
221,294,24718,2,0,P|290:263|425:246,1,190,6|8,0:0|0:0,0:0:0:0:
368,144,25191,1,2,0:0:0:0:
384,143,25270,1,2,0:0:0:0:
398,151,25349,1,2,0:3:0:0:
408,72,25507,1,0,0:0:0:0:
320,24,25665,2,0,P|381:36|418:80,1,95,8|0,0:0|0:0,0:0:0:0:
56,112,25981,5,6,0:0:0:0:
40,96,26139,1,2,0:0:0:0:
208,232,26296,5,8,0:0:0:0:
224,216,26454,1,2,0:0:0:0:
160,320,26612,5,2,0:3:0:0:
176,336,26770,1,2,0:0:0:0:
72,128,26928,5,8,0:0:0:0:
192,248,27086,1,2,0:0:0:0:
320,24,27244,1,6,0:0:0:0:
192,80,27402,1,8,0:0:0:0:
192,80,27481,1,8,0:0:0:0:
192,80,27560,1,8,0:0:0:0:
355,109,27718,2,0,L|260:126,1,95,2|2,0:3|0:3,0:3:0:0:
425,156,28033,1,2,0:3:0:0:
425,156,28112,1,8,0:3:0:0:
425,156,28191,1,4,0:3:0:0:
384,320,28349,6,0,B|371:328|363:373|363:373|349:304|317:300|351:233,1,199.499993911743,4|0,0:0|0:0,0:0:0:0:
432,256,28665,5,0,1:0:0:0:
480,320,28823,1,8,0:0:0:0:
161,322,28981,5,0,1:0:0:0:
192,248,29139,1,8,0:0:0:0:
143,184,29296,1,0,1:0:0:0:
143,184,29375,1,0,1:0:0:0:
143,184,29454,2,0,P|118:148|185:166,1,170.999994781494,8|0,1:2|0:0,0:0:0:0:
192,248,29770,1,4,0:0:0:0:
494,59,30086,6,0,P|451:62|342:120,1,152,2|2,0:3|0:3,0:3:0:0:
281,51,30718,2,0,P|245:75|179:179,1,152,2|2,0:3|0:3,0:3:0:0:
92,150,31349,2,0,P|73:188|68:312,1,152,2|2,0:3|0:3,0:3:0:0:
128,368,31981,2,0,P|146:332|181:301,2,76,2|2|6,0:3|0:3|0:0,0:3:0:0:
463,6,32612,6,0,P|427:30|361:134,1,152,2|2,0:3|0:3,0:3:0:0:
256,0,33244,2,0,P|237:38|232:162,1,152,2|2,0:3|0:3,0:3:0:0:
272,208,33718,1,2,0:3:0:0:
464,240,33875,1,8,0:3:0:0:
400,272,34033,1,0,0:0:0:0:
380,340,34191,5,4,0:3:0:0:
380,340,34270,1,0,0:0:0:0:
380,340,34349,1,2,0:3:0:0:
304,352,34507,1,2,3:0:0:0:
240,320,34665,1,0,0:0:0:0:
176,288,34823,6,0,P|129:276|51:283,1,114,4|0,0:0|0:0,0:0:0:0:
70,292,35139,2,0,B|91:301|96:331|96:331|145:245|70:171,1,199.499993911743,2|0,0:3|0:0,0:0:0:0:
22,142,35454,2,0,P|7:177|8:202,1,56.9999982604981,0|2,0:0|0:3,0:0:0:0:
96,116,35770,1,2,3:0:0:0:
112,32,35928,5,2,0:0:0:0:
112,32,36007,1,2,0:0:0:0:
112,32,36086,2,0,P|158:22|206:-9,1,95,2|0,0:3|0:3,0:3:0:0:
224,128,36402,2,0,P|258:96|284:45,1,95,2|0,0:3|0:3,0:3:0:0:
384,128,36718,2,0,P|393:98|391:60,1,56.9999982604981,2|0,0:3|0:3,0:3:0:0:
448,0,37033,1,8,0:3:0:0:
464,304,37349,5,4,0:0:0:0:
320,272,37507,1,2,0:0:0:0:
464,224,37665,2,0,L|528:208,1,56.9999982604981,2|0,0:0|0:0,0:0:0:0:
464,304,37902,1,0,0:0:0:0:
464,304,37981,2,0,L|400:320,2,56.9999982604981,2|8|2,0:0|0:3|0:0,0:0:0:0:
308,265,38454,1,8,0:3:0:0:
463,320,38612,6,0,L|399:336,1,56.9999982604981,4|0,0:0|0:0,0:0:0:0:
96,256,39244,5,4,0:3:0:0:
192,192,39402,1,0,1:0:0:0:
180,158,39481,1,0,1:0:0:0:
169,124,39561,1,8,1:2:0:0:
174,180,39639,1,0,1:0:0:0:
179,237,39718,1,8,1:2:0:0:
184,294,39797,1,8,1:2:0:0:
189,350,39875,6,0,L|198:193,1,142.5,4|0,0:2|0:0,0:0:0:0:
241,88,40191,2,0,B|183:76|159:131|162:144|141:191|67:164,1,190,8|2,0:0|0:3,0:0:0:0:
96,64,40665,1,0,0:0:0:0:
8,127,40823,2,0,P|40:131|109:173,1,95,8|0,0:0|0:0,0:0:0:0:
245,77,41139,2,0,P|270:96|336:248,1,190,2|8,0:3|0:0,0:0:0:0:
320,320,41612,1,0,0:0:0:0:
432,160,41770,5,2,0:3:0:0:
416,240,41928,1,0,0:0:0:0:
428,146,42086,2,0,P|459:85|459:32,1,95,8|0,0:0|0:0,0:0:0:0:
504,238,42402,2,0,P|446:250|409:309,1,95,6|0,3:2|0:0,0:0:0:0:
376,368,42718,1,8,0:0:0:0:
320,320,42875,2,0,P|261:311|206:354,1,95,0|2,0:0|0:3,0:0:0:0:
160,304,43191,5,0,0:0:0:0:
96,160,43349,2,0,P|40:181|14:246,2,95,8|2|2,0:0|0:0|0:3,0:0:0:0:
176,192,43823,1,2,0:0:0:0:
288,48,43981,1,8,0:0:0:0:
208,64,44139,1,2,0:0:0:0:
290,61,44296,1,2,0:3:0:0:
82,45,44454,1,2,0:3:0:0:
296,176,44612,2,0,P|341:144|402:122,1,95,8|0,0:0|0:0,0:0:0:0:
374,370,44928,6,0,P|302:329|172:325,1,190,6|8,3:2|0:0,0:0:0:0:
128,352,45402,1,0,0:0:0:0:
192,208,45560,2,0,P|217:151|221:99,1,95,2|0,0:3|0:0,0:0:0:0:
112,224,45875,1,8,0:0:0:0:
96,48,46033,1,0,0:0:0:0:
64,128,46191,5,2,0:3:0:0:
90,38,46349,1,0,0:0:0:0:
141,142,46507,2,0,P|190:129|234:86,1,95,8|0,0:0|0:0,0:0:0:0:
288,160,46823,2,0,P|324:124|341:65,1,95,2|0,0:3|0:0,0:0:0:0:
432,144,47139,2,0,P|446:95|431:35,1,95,8|0,0:0|0:0,0:0:0:0:
496,224,47454,5,6,0:0:0:0:
427,244,47612,1,0,0:0:0:0:
401,313,47770,1,8,0:0:0:0:
336,352,47928,1,0,0:0:0:0:
208,288,48086,5,2,0:3:0:0:
256,224,48244,1,0,0:0:0:0:
256,384,48402,1,8,0:0:0:0:
176,374,48560,1,0,0:0:0:0:
336,352,48718,5,6,0:0:0:0:
334,276,48876,1,6,0:0:0:0:
70,190,49033,5,8,0:0:0:0:
91,117,49191,1,4,0:0:0:0:
84,106,49507,5,8,0:3:0:0:
168,128,49665,1,4,0:3:0:0:
221,75,49823,1,2,0:0:0:0:
211,54,49981,6,0,P|286:81|436:68,1,199.499993911743,0|0,1:0|0:0,0:0:0:0:
476,22,50296,2,0,P|486:65|511:105,1,85.4999973907472,0|0,1:0|0:0,0:0:0:0:
504,120,50612,1,4,1:2:0:0:
368,176,50770,1,8,0:0:0:0:
392,176,50849,1,8,0:0:0:0:
416,184,50928,1,8,0:0:0:0:
136,328,51244,5,6,0:0:0:0:
184,264,51402,1,0,0:0:0:0:
213,351,51560,1,0,0:0:0:0:
133,341,51718,1,2,0:3:0:0:
198,270,51875,2,0,P|242:263|304:280,1,85.4999973907472,8|0,0:0|0:0,0:0:0:0:
290,284,52191,1,2,0:0:0:0:
312,16,52507,6,0,P|243:23|181:128,1,170.999994781494,0|0,1:0|0:0,0:0:0:0:
0,56,52823,2,0,P|73:90|137:221,1,199.499993911743,0|0,1:0|0:0,0:0:0:0:
257,166,53139,2,0,P|231:173|211:183,1,38,4|8,1:2|0:0,0:0:0:0:
216,191,53375,1,8,0:0:0:0:
216,191,53454,1,8,0:0:0:0:
336,152,53612,1,0,0:0:0:0:
464,48,53770,5,2,0:3:0:0:
392,72,53928,1,4,0:0:0:0:
488,224,54086,1,8,0:0:0:0:
503,149,54244,1,4,0:0:0:0:
376,264,54560,5,8,0:0:0:0:
360,256,54639,1,8,0:0:0:0:
344,248,54718,1,8,0:0:0:0:
320,336,54875,5,2,0:3:0:0:
320,336,54954,1,2,0:3:0:0:
320,336,55033,2,0,P|262:306|165:289,1,142.5,6|0,0:0|0:0,0:0:0:0:
184,316,55349,2,0,P|148:261|73:197,1,142.5,2|0,0:3|0:0,0:0:0:0:
93,231,55665,2,0,P|89:165|56:73,1,142.5,2|0,0:3|0:0,0:0:0:0:
54,88,55981,1,8,0:0:0:0:
152,80,56139,1,0,0:0:0:0:
312,8,56296,6,0,P|259:18|215:50,1,95,2|0,0:3|0:0,0:0:0:0:
368,128,56612,1,8,0:0:0:0:
448,120,56770,2,0,P|465:69|460:14,1,95,0|2,0:0|0:3,0:0:0:0:
304,168,57086,1,2,0:3:0:0:
368,208,57244,1,8,0:0:0:0:
368,128,57402,1,0,0:0:0:0:
288,256,57560,6,0,P|368:232|500:237,1,190,4|8,0:0|0:0,0:0:0:0:
240,336,58033,1,0,0:0:0:0:
160,256,58191,6,0,P|188:183|147:45,1,227.999993041992,4|8,0:0|0:0,0:0:0:0:
64,56,58665,1,0,0:0:0:0:
368,128,58823,6,0,P|421:89|530:67,2,152,2|2|8,0:3|0:3|0:3,0:3:0:0:
296,90,59296,6,0,P|208:110|145:44,1,190,4|6,0:0|0:3,0:0:0:0:
239,13,59770,1,2,0:3:0:0:
239,13,59849,1,2,0:3:0:0:
239,13,59928,1,2,0:3:0:0:
312,16,60086,5,2,0:0:0:0:
288,256,60402,6,0,P|344:294|389:370,1,142.5,0|0,1:0|0:0,0:0:0:0:
371,346,60718,2,0,P|438:350|515:394,1,142.5,4|8,1:2|0:0,0:0:0:0:
496,364,61033,1,8,0:0:0:0:
176,320,61349,5,6,0:0:0:0:
96,272,61507,1,0,0:0:0:0:
112,176,61665,1,2,0:0:0:0:
125,191,61823,1,0,0:0:0:0:
108,359,61981,5,8,0:0:0:0:
84,267,62139,1,0,0:0:0:0:
256,192,62296,5,8,0:0:0:0:
322,124,62454,1,0,0:0:0:0:
66,30,62612,6,0,P|129:33|192:86,1,142.5,0|0,1:0|0:0,0:0:0:0:
301,34,62928,2,0,P|322:76|322:124,1,95,0|0,1:0|0:0,0:0:0:0:
464,48,63244,1,4,1:2:0:0:
496,160,63402,1,8,0:0:0:0:
448,224,63560,1,8,0:0:0:0:
256,192,63718,2,0,P|339:265|373:375,1,190,4|2,0:0|0:0,0:0:0:0:
304,368,64191,1,8,0:0:0:0:
469,310,64349,6,0,P|390:301|288:361,1,199.499993911743,4|0,0:0|0:0,0:0:0:0:
273,358,64665,1,2,0:0:0:0:
192,320,64823,1,8,0:0:0:0:
126,350,64981,1,0,0:0:0:0:
11,214,65139,5,6,0:0:0:0:
67,160,65296,1,0,0:0:0:0:
141,166,65454,1,8,0:0:0:0:
192,80,65612,2,0,P|224:45|295:20,1,95,0|2,0:0|0:3,0:0:0:0:
224,160,65928,5,0,0:0:0:0:
304,128,66086,1,8,0:0:0:0:
400,96,66244,2,0,P|446:106|503:155,1,95,0|2,0:0|0:3,0:0:0:0:
237,178,66560,5,0,0:0:0:0:
322,190,66718,1,8,0:0:0:0:
421,210,66876,2,0,P|456:241|481:313,1,95,0|2,0:0|0:3,0:0:0:0:
239,376,67191,1,0,0:0:0:0:
206,280,67349,2,0,P|216:233|265:176,1,95,8|0,0:0|0:0,0:0:0:0:
222,368,67665,5,2,0:3:0:0:
144,352,67823,1,0,0:0:0:0:
320,320,67981,5,8,0:0:0:0:
368,368,68139,1,0,0:0:0:0:
64,304,68296,5,2,0:3:0:0:
32,240,68454,1,8,0:0:0:0:
32,240,68533,1,8,0:0:0:0:
32,240,68612,1,8,0:0:0:0:
96,32,68770,1,4,0:0:0:0:
48,112,69086,5,2,0:3:0:0:
128,112,69244,1,8,0:0:0:0:
208,32,69402,1,2,0:3:0:0:
208,32,69481,1,2,0:3:0:0:
208,32,69560,1,2,0:3:0:0:
286,41,69718,1,8,0:3:0:0:
319,28,69875,1,4,0:3:0:0:
361,96,70033,1,4,0:0:0:0:
496,288,70349,5,0,1:0:0:0:
448,272,70507,1,8,0:0:0:0:
160,304,70665,5,0,1:0:0:0:
193,266,70823,1,8,0:0:0:0:
406,97,70981,5,0,1:0:0:0:
356,106,71139,1,8,0:0:0:0:
416,108,71296,1,12,0:0:0:0:
128,144,71612,5,0,1:0:0:0:
320,288,71770,1,12,0:0:0:0:
316,274,72086,5,4,0:0:0:0:
288,368,72402,5,0,0:0:0:0:
256,192,73981,12,0,74928,0:0:0:0:
451,51,75244,6,0,P|380:93|310:215,1,199.499993911743,6|0,0:0|0:0,0:0:0:0:
163,150,75560,2,0,P|226:190|281:338,1,199.499993911743,8|0,0:0|0:0,0:0:0:0:
476,253,75875,2,0,P|408:296|382:365,1,132.999995941162,2|0,0:3|0:0,0:0:0:0:
385,341,76112,1,2,0:0:0:0:
385,341,76191,1,10,0:0:0:0:
280,299,76349,1,2,0:0:0:0:
80,352,76507,5,2,0:3:0:0:
144,304,76665,1,2,0:0:0:0:
153,383,76823,1,8,0:0:0:0:
124,345,76981,1,2,0:0:0:0:
0,184,77139,5,2,0:3:0:0:
96,208,77296,1,8,0:1:0:0:
0,200,77454,1,8,0:1:0:0:
157,173,77612,2,0,P|126:143|83:140,1,66.4999979705811
6,216,77770,6,0,B|27:240|23:269|23:269|58:201|13:122,1,199.499993911743,6|0,0:0|0:0,0:0:0:0:
18,132,78086,1,8,0:0:0:0:
256,32,78244,1,2,0:0:0:0:
176,0,78402,1,2,0:3:0:0:
189,86,78560,1,2,0:0:0:0:
189,86,78639,1,2,0:0:0:0:
189,86,78718,1,10,0:0:0:0:
272,120,78875,1,0,0:0:0:0:
497,72,79033,6,0,L|512:8,1,66.4999979705811,2|0,0:3|0:0,0:0:0:0:
400,168,79191,1,8,0:0:0:0:
400,168,79270,1,8,0:0:0:0:
400,168,79349,2,0,L|385:232,1,66.4999979705811,8|0,0:0|0:0,0:0:0:0:
490,187,79507,2,0,P|490:120|404:26,1,199.499993911743,0|0,1:0|0:0,0:0:0:0:
407,53,79823,2,0,P|407:120|493:214,1,199.499993911743,0|0,1:0|0:0,0:0:0:0:
440,368,80139,5,8,0:0:0:0:
440,368,80218,1,8,0:0:0:0:
440,368,80296,2,0,P|370:347|225:350,1,199.499993911743,6|0,0:0|0:0,0:0:0:0:
232,256,80612,2,0,P|160:272|36:347,1,199.499993911743,8|0,0:0|0:0,0:0:0:0:
56,232,80928,2,0,P|76:164|73:94,1,132.999995941162,2|0,0:3|0:0,0:0:0:0:
74,102,81165,1,2,0:0:0:0:
74,102,81244,1,10,0:0:0:0:
16,48,81402,1,2,0:0:0:0:
256,0,81560,5,2,0:3:0:0:
192,48,81718,1,2,0:0:0:0:
248,72,81875,1,8,0:0:0:0:
216,80,82033,1,2,0:0:0:0:
256,128,82191,5,2,0:3:0:0:
168,16,82349,1,8,0:1:0:0:
184,148,82507,1,8,0:1:0:0:
200,114,82665,1,0,0:0:0:0:
329,193,82823,6,0,P|272:312|268:386,1,199.499993911743,6|0,0:0|0:0,0:0:0:0:
267,377,83139,1,0,1:0:0:0:
128,272,83296,1,0,0:0:0:0:
112,344,83454,5,8,1:2:0:0:
64,136,83612,1,2,0:0:0:0:
64,136,83691,1,2,0:0:0:0:
64,136,83770,1,10,1:2:0:0:
16,200,83928,1,0,0:0:0:0:
0,0,84086,5,4,1:2:0:0:
256,128,84244,1,0,0:0:0:0:
64,136,84402,5,12,1:2:0:0:
168,16,84560,1,0,3:0:0:0:
168,16,84639,1,0,3:0:0:0:
168,16,84718,1,8,3:2:0:0:
176,104,84875,1,8,1:2:0:0:
176,232,85033,6,0,L|184:288,3,38,0|0|0|0,1:0|1:0|1:0|1:0,0:0:0:0:
160,216,85349,6,0,B|213:194|258:221|242:236|275:272|350:237,1,190,6|8,0:0|0:0,0:0:0:0:
400,200,85823,1,0,0:0:0:0:
464,288,85981,2,0,P|427:246|527:203,1,190,2|8,0:0|0:0,0:0:0:0:
508,248,86454,1,0,0:0:0:0:
384,112,86612,5,2,0:0:0:0:
400,200,86770,1,0,0:0:0:0:
464,32,86928,1,8,0:0:0:0:
473,84,87086,1,0,0:0:0:0:
304,16,87244,6,0,L|320:96,1,47.5,2|0,0:0|0:0,0:0:0:0:
384,112,87402,1,2,0:0:0:0:
291,11,87560,1,8,0:0:0:0:
224,112,87718,1,0,0:0:0:0:
176,48,87875,6,0,B|125:40|107:78|107:78|55:130|-3:92,1,190,6|8,0:0|0:0,0:0:0:0:
96,128,88349,1,0,0:0:0:0:
256,192,88507,1,2,0:0:0:0:
224,112,88665,1,0,0:0:0:0:
171,180,88823,1,8,0:0:0:0:
216,160,88981,1,0,0:0:0:0:
98,221,89139,6,0,P|192:220|229:306,1,199.499993911743,2|0,0:0|0:0,0:0:0:0:
161,342,89454,2,0,P|128:341|102:295,1,85.4999973907472,8|0,0:0|0:0,0:0:0:0:
229,306,89770,6,0,B|283:288|312:323|300:338|333:376|401:346,1,170.999994781494,2|0,0:0|0:0,0:0:0:0:
431,290,90086,2,0,P|401:297|371:349,1,85.4999973907472,8|0,0:0|0:0,0:0:0:0:
371,340,90402,6,0,P|395:283|363:119,1,227.999993041992,6|8,0:0|0:0,0:0:0:0:
288,128,90875,1,0,0:0:0:0:
432,30,91033,2,0,P|376:27|328:56,1,113.999996520996,2|0,0:0|0:0,0:0:0:0:
162,6,91349,2,0,P|217:12|260:49,1,113.999996520996,8|0,0:0|0:0,0:0:0:0:
272,208,91665,5,2,0:0:0:0:
288,128,91823,1,0,0:0:0:0:
192,256,91981,1,8,0:0:0:0:
182,208,92139,1,0,0:0:0:0:
288,336,92296,1,2,0:0:0:0:
288,336,92375,1,2,0:0:0:0:
288,336,92454,1,2,0:3:0:0:
352,272,92612,1,10,0:0:0:0:
216,384,92770,1,12,0:0:0:0:
192,256,92928,6,0,P|151:268|118:316,1,76,4|0,0:0|0:0,0:0:0:0:
96,360,93244,1,8,0:0:0:0:
53,298,93402,1,0,0:0:0:0:
64,96,93560,5,4,0:0:0:0:
72,168,93718,1,0,0:0:0:0:
152,80,93875,1,8,0:0:0:0:
148,43,94033,1,0,0:0:0:0:
256,152,94191,5,4,0:0:0:0:
328,136,94349,1,0,0:0:0:0:
488,0,94507,5,4,1:2:0:0:
344,64,94665,1,0,0:0:0:0:
416,272,94823,5,12,1:2:0:0:
416,272,94902,1,0,0:0:0:0:
416,272,94981,1,12,1:2:0:0:
398,113,95139,1,8,1:2:0:0:
352,320,95296,1,8,1:2:0:0:
342,240,95454,1,2,0:2:0:0:
8,32,96718,6,0,P|67:44|160:83,1,152,2|0,0:3|0:3,0:3:0:0:
80,80,97191,2,0,P|125:119|186:200,1,152,2|0,0:3|0:3,0:3:0:0:
118,157,97665,2,0,P|137:214|149:314,1,152,2|0,0:3|0:3,0:3:0:0:
131,368,98139,1,0,0:0:0:0:
194,350,98296,2,0,P|207:327|212:301,4,38,0|0|0|0|0,3:0|3:0|3:0|3:0|3:0,3:0:0:0:
131,368,98770,1,0,0:0:0:0:
456,192,99086,5,0,0:0:0:0:
512,128,99244,2,0,P|466:88|424:-4,1,152,2|0,0:3|0:3,0:3:0:0:
442,84,99718,2,0,P|434:159|455:231,1,152,2|0,0:3|0:3,0:3:0:0:
354,292,100191,2,0,P|371:218|415:157,1,152,2|0,0:3|0:3,0:3:0:0:
352,128,100665,1,0,0:0:0:0:
288,152,100823,1,0,0:0:0:0:
232,128,100981,2,0,P|220:116|209:87,2,38,0|0|0,3:0|3:0|3:0,3:0:0:0:
239,188,101296,1,0,0:0:0:0:
64,352,101770,6,0,P|120:346|145:319,2,76,2|0|0,0:3|0:3|0:3,0:3:0:0:
42,281,102244,2,0,P|74:262|112:264,1,76,2|0,0:3|0:3,0:3:0:0:
208,280,102560,1,0,0:3:0:0:
256,328,102718,2,0,P|293:329|325:310,1,76,2|0,0:3|0:3,0:3:0:0:
512,280,103033,1,8,0:3:0:0:
464,232,103191,2,0,P|426:230|394:249,1,76,2|0,3:3|3:3,3:3:0:0:
512,316,103507,2,0,P|510:298|512:280,1,38,2|2,3:3|3:3,3:3:0:0:
512,224,103665,5,2,3:3:0:0:
472,152,103823,1,8,0:3:0:0:
496,104,103981,1,4,0:3:0:0:
480,80,104139,1,4,0:3:0:0:
480,64,104454,6,0,L|484:43,1,19,2|0,3:3|0:3,0:3:0:0:
352,96,104770,1,2,0:3:0:0:
352,96,104849,1,2,0:3:0:0:
352,96,104928,1,2,0:3:0:0:
288,128,105086,1,2,0:3:0:0:
222,121,105244,1,2,0:3:0:0:
160,192,105402,1,2,0:3:0:0:
32,160,105560,5,4,0:0:0:0:
256,224,106033,5,8,0:3:0:0:
263,227,106112,1,8,0:3:0:0:
270,230,106191,1,4,0:3:0:0:
233,262,106349,1,0,0:0:0:0:
320,320,106507,1,8,0:0:0:0:
160,352,106665,1,4,0:0:0:0:
392,360,106823,6,0,B|441:340|475:368|475:368|504:386|548:370,1,142.5,4|0,0:2|0:0,0:0:0:0:
472,336,107139,2,0,P|440:272|440:137,1,190,8|2,0:0|0:3,0:0:0:0:
400,32,107612,1,0,0:0:0:0:
326,103,107770,2,0,P|357:52|416:21,1,95,8|0,0:0|0:0,0:0:0:0:
200,120,108086,6,0,P|132:112|34:34,1,190,2|8,0:3|0:0,0:0:0:0:
48,152,108560,1,0,0:0:0:0:
144,216,108718,1,2,0:3:0:0:
48,168,108875,1,0,0:0:0:0:
72,264,109033,2,0,P|109:314|120:368,1,95,8|0,0:0|0:0,0:0:0:0:
286,284,109349,6,0,P|225:320|201:367,1,95,6|0,3:2|0:0,0:0:0:0:
408,360,109665,1,8,0:0:0:0:
376,296,109823,2,0,P|305:296|260:325,1,95,0|2,0:0|0:3,0:0:0:0:
447,300,110139,1,0,0:0:0:0:
416,192,110296,1,8,0:0:0:0:
312,152,110454,6,0,P|278:118|272:62,1,95,2|2,0:0|0:3,0:0:0:0:
184,152,110770,2,0,P|171:105|194:54,1,95,2|8,0:0|0:0,0:0:0:0:
0,128,111086,2,0,P|33:93|89:87,1,95,2|2,0:0|0:3,0:0:0:0:
112,240,111402,1,2,0:0:0:0:
64,304,111560,1,8,0:0:0:0:
32,232,111718,1,2,0:0:0:0:
152,320,111875,6,0,P|223:303|346:298,1,190,6|8,0:2|0:0,0:0:0:0:
416,312,112349,1,0,0:0:0:0:
328,304,112507,1,2,0:3:0:0:
456,240,112665,2,0,P|432:180|429:127,1,95,0|8,0:0|0:0,0:0:0:0:
304,64,112981,1,0,0:0:0:0:
336,8,113139,1,2,0:3:0:0:
304,128,113296,5,0,0:0:0:0:
216,80,113454,2,0,P|168:48|120:40,1,95,8|0,0:0|0:0,0:0:0:0:
64,152,113770,2,0,P|109:139|156:144,1,95,2|0,0:3|0:0,0:0:0:0:
136,229,114086,2,0,P|93:248|60:282,1,95,8|0,0:0|0:0,0:0:0:0:
224,264,114402,5,6,0:0:0:0:
280,232,114560,1,0,0:0:0:0:
343,237,114718,1,8,0:0:0:0:
388,285,114875,1,0,0:0:0:0:
392,352,115033,5,2,0:3:0:0:
464,376,115191,1,0,0:0:0:0:
512,200,115349,5,8,0:0:0:0:
455,250,115507,1,0,0:0:0:0:
512,320,115665,5,6,0:0:0:0:
497,245,115823,1,6,0:0:0:0:
360,112,115981,5,8,0:0:0:0:
375,37,116139,1,4,0:0:0:0:
384,41,116454,5,8,0:3:0:0:
309,26,116612,1,4,0:3:0:0:
234,11,116770,1,2,3:0:0:0:
234,11,116849,1,0,3:0:0:0:
234,11,116928,6,0,P|179:80|55:117,1,199.499993911743,0|0,1:0|0:0,0:0:0:0:
105,220,117244,2,0,P|64:215|22:178,1,85.4999973907472,0|0,1:0|0:0,0:0:0:0:
11,185,117560,1,4,1:2:0:0:
16,272,117718,1,8,0:0:0:0:
16,272,117796,1,8,0:0:0:0:
16,272,117875,1,8,0:0:0:0:
280,336,118191,5,6,0:0:0:0:
336,296,118349,1,0,0:0:0:0:
272,264,118507,1,0,0:0:0:0:
272,344,118665,1,2,0:3:0:0:
344,304,118823,2,0,P|369:277|420:263,1,85.4999973907472,8|0,0:0|0:0,0:0:0:0:
427,270,119139,1,0,0:0:0:0:
448,48,119454,6,0,P|378:62|306:152,1,170.999994781494,0|0,1:0|0:0,0:0:0:0:
216,96,119770,2,0,P|154:149|134:279,1,199.499993911743,0|0,1:0|0:0,0:0:0:0:
32,280,120086,2,0,P|18:318|26:350,1,56.9999982604981,4|8,1:2|0:0,0:0:0:0:
36,351,120323,1,8,0:0:0:0:
36,351,120402,1,8,0:0:0:0:
112,344,120560,1,0,0:0:0:0:
248,376,120718,5,2,0:3:0:0:
280,320,120875,1,4,0:0:0:0:
416,352,121033,1,8,0:0:0:0:
369,305,121190,1,4,0:0:0:0:
312,240,121507,5,8,0:0:0:0:
309,225,121586,1,8,0:0:0:0:
306,210,121665,1,8,0:0:0:0:
400,144,121823,5,2,0:3:0:0:
400,144,121902,1,2,0:3:0:0:
400,144,121981,2,0,P|370:97|375:3,1,142.5,6|0,0:0|0:0,0:0:0:0:
360,16,122296,2,0,P|313:46|219:41,1,142.5,2|0,0:3|0:0,0:0:0:0:
232,56,122612,2,0,P|234:111|183:190,1,142.5,2|0,0:3|0:0,0:0:0:0:
176,184,122928,1,8,0:0:0:0:
208,272,123086,1,0,0:0:0:0:
368,272,123244,6,0,P|310:290|280:337,1,95,2|0,0:3|0:0,0:0:0:0:
448,288,123560,1,8,0:0:0:0:
488,224,123718,2,0,P|501:164|475:115,1,95,0|2,0:0|0:3,0:0:0:0:
448,288,124033,1,2,0:0:0:0:
504,344,124191,1,8,0:0:0:0:
488,224,124349,1,0,0:0:0:0:
368,272,124507,6,0,P|317:284|161:240,1,190,4|8,0:0|0:0,0:0:0:0:
120,304,124981,1,0,0:0:0:0:
40,216,125139,6,0,P|114:194|182:49,1,227.999993041992,4|8,0:0|0:0,0:0:0:0:
128,8,125612,1,0,0:0:0:0:
296,152,125770,6,0,P|277:84|297:0,2,132.999995941162,2|2|8,0:3|0:3|0:3,0:3:0:0:
464,168,126244,6,0,P|393:182|403:288,1,190,4|6,0:0|0:3,0:0:0:0:
480,256,126718,1,2,0:3:0:0:
480,256,126796,1,2,0:3:0:0:
480,256,126875,1,2,0:3:0:0:
464,344,127033,5,2,0:0:0:0:
256,368,127349,6,0,P|200:344|104:336,1,142.5,0|0,1:0|0:0,0:0:0:0:
144,320,127665,2,0,P|107:271|28:216,1,142.5,4|8,1:2|0:0,0:0:0:0:
64,208,127981,1,8,0:0:0:0:
192,40,128296,5,6,0:0:0:0:
264,80,128454,1,0,0:0:0:0:
384,48,128612,1,2,0:3:0:0:
384,48,128770,1,2,0:3:0:0:
256,96,128928,5,8,0:0:0:0:
312,160,129086,1,0,0:0:0:0:
480,264,129244,5,8,0:0:0:0:
396,280,129402,1,0,0:0:0:0:
248,288,129560,6,0,P|192:248|104:248,1,142.5,0|0,1:0|0:0,0:0:0:0:
144,120,129875,2,0,P|96:136|56:184,1,95,0|0,1:0|0:0,0:0:0:0:
64,0,130191,1,4,1:2:0:0:
0,40,130349,1,8,0:0:0:0:
0,112,130507,1,8,0:0:0:0:
77,173,130665,6,0,P|132:134|269:141,1,190,4|2,0:0|0:3,0:0:0:0:
328,192,131139,1,8,0:0:0:0:
432,96,131296,2,0,P|368:151|361:300,1,227.999993041992,4|2,0:0|0:3,0:0:0:0:
384,352,131770,1,8,0:0:0:0:
288,320,131928,1,0,0:0:0:0:
120,368,132086,5,6,0:0:0:0:
64,320,132244,1,0,0:0:0:0:
64,248,132402,1,8,0:0:0:0:
68,160,132560,2,0,P|51:113|51:57,1,95,0|2,0:0|0:3,0:0:0:0:
144,208,132875,5,0,0:0:0:0:
240,208,133033,1,8,0:0:0:0:
296,136,133191,2,0,P|317:93|325:47,1,95,0|2,0:0|0:3,0:0:0:0:
232,192,133507,5,0,0:0:0:0:
325,208,133665,1,8,0:0:0:0:
369,288,133823,2,0,P|383:333|382:380,1,95,0|2,0:0|0:3,0:0:0:0:
512,288,134139,5,0,0:0:0:0:
468,208,134297,2,0,P|454:163|455:116,1,95,8|0,0:0|0:0,0:0:0:0:
512,288,134612,5,2,0:3:0:0:
480,360,134770,1,0,0:0:0:0:
291,297,134928,5,8,0:0:0:0:
369,288,135086,1,0,0:0:0:0:
208,368,135244,5,8,0:0:0:0:
161,304,135402,1,2,0:3:0:0:
161,304,135481,1,2,0:3:0:0:
161,304,135560,1,2,0:3:0:0:
176,128,135718,1,4,0:0:0:0:
152,56,136033,5,2,0:3:0:0:
232,64,136191,1,2,0:3:0:0:
96,120,136349,1,8,0:0:0:0:
80,112,136428,1,8,0:0:0:0:
64,104,136507,5,8,0:0:0:0:
176,128,136665,1,2,0:3:0:0:
32,200,136823,1,2,0:3:0:0:
161,304,136981,1,4,0:0:0:0:
152,288,137296,5,0,1:0:0:0:
112,312,137454,1,8,0:0:0:0:
376,288,137612,5,8,0:0:0:0:
360,264,137691,1,8,0:0:0:0:
344,240,137770,1,8,0:0:0:0:
392,64,137928,5,0,1:0:0:0:
432,40,138086,1,8,0:0:0:0:
378,63,138244,1,4,0:0:0:0:
392,312,138560,5,0,1:0:0:0:
432,160,138718,1,12,0:0:0:0:
440,176,139033,5,4,0:0:0:0:
480,248,139349,5,0,0:0:0:0:
104,136,140928,5,0,0:0:0:0:
101,128,141007,1,0,0:0:0:0:
104,120,141086,1,0,0:0:0:0:
101,109,141165,1,0,0:0:0:0:
104,96,141244,6,0,L|112:48,3,28.4999991302491,4|0|0|0,0:0|0:0|0:0|0:0,0:0:0:0:
200,80,141560,2,0,L|230:42,3,38,4|0|0|0,0:0|0:0|0:0|0:0,0:0:0:0:
312,88,141875,2,0,L|357:70,1,47.5,4|0,0:0|0:0,0:0:0:0:
416,160,142033,2,0,L|474:169,1,56.9999982604981,0|0,0:0|0:0,0:0:0:0:
384,384,142191,6,0,P|327:294|340:193,1,199.499993911743,6|0,0:0|0:0,0:0:0:0:
243,259,142507,2,0,P|255:170|196:77,1,199.499993911743,8|0,0:0|0:0,0:0:0:0:
312,88,142823,2,0,P|360:30|424:5,1,132.999995941162,2|0,0:3|0:0,0:0:0:0:
411,7,143060,1,2,0:0:0:0:
411,7,143139,1,10,0:0:0:0:
512,64,143296,1,2,0:0:0:0:
440,256,143454,5,2,0:3:0:0:
416,160,143612,1,2,0:0:0:0:
432,248,143770,1,8,0:0:0:0:
472,168,143928,1,2,0:0:0:0:
384,384,144086,5,2,0:3:0:0:
360,312,144244,1,8,0:1:0:0:
264,368,144402,1,8,0:1:0:0:
320,240,144560,2,0,P|289:264|283:301,1,66.4999979705811,0|0,0:0|0:0,0:0:0:0:
248,368,144718,6,0,P|267:269|248:223,1,132.999995941162,6|0,0:0|0:0,0:0:0:0:
192,216,145033,1,8,0:0:0:0:
136,32,145191,1,2,0:0:0:0:
112,112,145349,1,2,0:3:0:0:
56,48,145507,1,2,0:0:0:0:
56,48,145586,1,2,0:0:0:0:
56,48,145665,1,10,0:0:0:0:
24,128,145823,1,0,0:0:0:0:
280,48,145981,6,0,L|360:40,1,66.4999979705811,2|0,0:3|0:0,0:0:0:0:
118,178,146139,1,8,0:0:0:0:
118,178,146218,1,8,0:0:0:0:
118,178,146296,2,0,L|110:98,1,66.4999979705811,8|0,0:0|0:0,0:0:0:0:
274,64,146454,2,0,P|314:136|290:256,1,199.499993911743,0|0,1:0|0:0,0:0:0:0:
134,186,146770,2,0,P|206:146|326:170,1,199.499993911743,0|0,1:0|0:0,0:0:0:0:
488,232,147086,5,8,0:0:0:0:
488,232,147165,1,8,0:0:0:0:
488,232,147244,2,0,P|405:280|350:375,1,199.499993911743,6|0,0:0|0:0,0:0:0:0:
272,336,147560,2,0,P|173:336|87:384,1,199.499993911743,8|0,0:0|0:0,0:0:0:0:
16,288,147875,2,0,P|97:287|148:240,1,132.999995941162,2|0,0:3|0:0,0:0:0:0:
136,258,148112,1,2,0:0:0:0:
136,258,148191,1,10,0:0:0:0:
224,248,148349,1,2,0:0:0:0:
72,80,148507,5,2,0:3:0:0:
160,96,148665,1,2,0:0:0:0:
93,132,148823,1,8,0:0:0:0:
120,88,148981,1,2,0:0:0:0:
160,176,149139,5,2,0:3:0:0:
152,40,149296,1,8,0:1:0:0:
32,208,149454,1,8,0:1:0:0:
8,160,149612,1,0,0:0:0:0:
232,140,149770,6,0,P|304:100|456:92,1,199.499993911743,6|0,0:0|0:0,0:0:0:0:
418,85,150086,1,0,1:0:0:0:
256,32,150244,1,0,0:0:0:0:
464,16,150402,5,8,1:2:0:0:
380,208,150560,1,0,0:0:0:0:
380,208,150639,1,0,0:0:0:0:
380,208,150718,1,8,1:2:0:0:
445,179,150875,1,0,0:0:0:0:
416,368,151033,5,4,1:2:0:0:
400,168,151191,1,0,0:0:0:0:
216,340,151349,5,12,1:2:0:0:
232,140,151507,1,0,0:0:0:0:
232,140,151586,1,0,0:0:0:0:
232,140,151665,1,8,1:2:0:0:
288,224,151823,1,8,1:2:0:0:
320,320,151981,6,0,L|314:378,3,38,0|0|0|0,1:0|1:0|1:0|1:0,0:0:0:0:
288,224,152296,6,0,B|235:202|190:229|206:244|173:280|98:245,1,190,6|8,0:0|0:0,0:0:0:0:
108,372,152770,1,0,0:0:0:0:
27,290,152928,2,0,P|39:210|110:250,1,190,2|8,0:0|0:0,0:0:0:0:
80,296,153402,1,0,0:0:0:0:
92,100,153560,5,2,0:0:0:0:
76,180,153718,1,0,0:0:0:0:
16,40,153875,1,8,0:0:0:0:
6,88,154033,1,0,0:0:0:0:
128,25,154191,6,0,L|192:41,1,47.5,2|0,0:0|0:0,0:0:0:0:
92,100,154349,1,2,0:0:0:0:
112,32,154507,1,8,0:0:0:0:
208,144,154665,1,0,0:0:0:0:
288,112,154823,6,0,B|351:102|372:155|372:155|405:197|465:177,1,190,6|8,0:0|0:0,0:0:0:0:
512,144,155296,1,0,0:0:0:0:
352,176,155454,1,2,0:0:0:0:
368,256,155612,1,0,0:0:0:0:
435,301,155770,1,8,0:0:0:0:
388,296,155928,1,0,0:0:0:0:
256,352,156086,6,0,P|174:341|203:217,1,199.499993911743,2|0,0:0|0:0,0:0:0:0:
240,224,156402,2,0,P|280:248|270:299,1,85.4999973907472,8|0,0:0|0:0,0:0:0:0:
151,154,156718,6,0,B|205:136|234:171|222:186|255:224|323:194,1,170.999994781494,2|0,0:0|0:0,0:0:0:0:
358,132,157033,2,0,P|324:144|313:206,1,85.4999973907472,8|0,0:0|0:0,0:0:0:0:
307,187,157349,6,0,P|330:110|274:14,1,190,6|8,0:0|0:0,0:0:0:0:
202,6,157823,1,0,0:0:0:0:
112,74,157981,2,0,P|144:107|150:154,1,95,2|0,0:0|0:0,0:0:0:0:
202,5,158296,2,0,P|208:52|240:85,1,95,8|0,0:0|0:0,0:0:0:0:
160,240,158612,5,2,0:0:0:0:
150,154,158770,1,0,0:0:0:0:
256,288,158928,1,8,0:0:0:0:
262,236,159086,1,0,0:0:0:0:
170,326,159244,5,2,0:0:0:0:
304,267,159402,1,2,0:0:0:0:
320,368,159560,1,10,0:0:0:0:
400,240,159718,1,12,0:0:0:0:
416,352,159875,6,0,P|442:324|498:338,1,76,4|0,0:0|0:0,0:0:0:0:
480,240,160191,1,8,0:0:0:0:
440,171,160349,1,0,0:0:0:0:
256,32,160507,5,4,0:0:0:0:
296,101,160665,1,0,0:0:0:0:
336,32,160823,1,8,0:0:0:0:
296,56,160981,1,0,0:0:0:0:
192,216,161139,5,4,0:0:0:0:
216,32,161296,1,0,0:0:0:0:
264,184,161454,5,4,1:2:0:0:
104,144,161612,1,4,1:2:0:0:
104,144,161691,1,0,1:2:0:0:
104,144,161770,1,12,1:2:0:0:
255,262,161928,5,12,1:2:0:0:
136,304,162086,1,8,1:2:0:0:
199,367,162244,1,8,1:2:0:0:
334,272,162402,6,0,B|390:248|437:286|409:309|451:346|532:310,1,199.499993911743,6|0,0:2|0:0,0:0:0:0:
497,300,163033,6,0,B|408:261|333:322|378:358|311:417|182:360,1,332.5,6|0,0:2|0:0,0:0:0:0:
198,366,163665,5,8,0:0:0:0:
136,304,163823,1,8,0:0:0:0:
256,192,163981,5,8,0:0:0:0:
232,105,164139,1,0,1:0:0:0:
415,155,164296,5,8,0:0:0:0:
437,67,164612,5,12,0:0:0:0:
208,18,164770,1,0,0:0:0:0:
208,18,164849,1,0,0:0:0:0:
208,18,164928,2,0,B|128:48|128:48|112:128|112:128|32:160,1,227.999993041992,6|8,0:0|0:0,0:0:0:0:
29,340,165402,2,0,B|62:325|62:325|78:325|78:325|142:301,1,113.999996520996,0|2,0:0|0:3,0:0:0:0:
288,272,165718,5,0,0:0:0:0:
256,192,165875,1,8,0:0:0:0:
224,320,166033,2,0,B|304:288|304:288|368:304|368:304|448:272,1,227.999993041992,0|0,0:0|0:0,0:0:0:0:
288,272,166507,5,8,0:0:0:0:
256,192,166664,1,0,0:0:0:0:
432,192,166823,1,2,0:3:0:0:
412,144,166980,1,0,0:0:0:0:
288,272,167139,5,8,0:0:0:0:
226,111,167296,1,0,0:0:0:0:
256,192,167454,2,0,B|226:111|226:111|146:96|146:96|114:16,1,227.999993041992,6|8,0:0|0:0,0:0:0:0:
52,192,167928,2,0,B|124:168|124:168|180:176,1,113.999996520996,0|2,0:0|0:3,0:0:0:0:
320,96,168244,5,0,0:0:0:0:
320,96,168323,1,0,0:0:0:0:
320,96,168402,1,8,0:0:0:0:
320,16,168560,2,0,B|248:40|248:40|192:32,1,113.999996520996,0|2,0:0|0:3,0:0:0:0:
400,64,168875,5,8,0:0:0:0:
424,56,168954,1,8,0:0:0:0:
448,48,169033,1,8,0:0:0:0:
368,256,169191,1,8,0:0:0:0:
480,128,169349,5,2,0:3:0:0:
400,336,169507,1,6,0:0:0:0:
416,160,169665,1,8,0:0:0:0:
480,304,169823,1,2,0:3:0:0:
288,240,169981,2,0,B|208:272|208:272|176:336|176:336|96:368,1,227.999993041992,6|8,0:0|0:0,0:0:0:0:
239,187,170454,2,0,B|159:219|159:219|127:283|127:283|47:315,1,227.999993041992,0|0,0:0|0:0,0:0:0:0:
196,128,170928,2,0,L|128:156,1,56.9999982604981,8|0,0:0|0:0,0:0:0:0:
20,248,171086,1,0,0:0:0:0:
176,112,171244,6,0,B|96:144|96:144|80:192|80:192|-16:240,1,227.999993041992,2|8,0:3|0:0,0:0:0:0:
239,187,171718,2,0,B|319:155|319:155|335:107|335:107|431:59,1,227.999993041992,0|0,0:0|0:0,0:0:0:0:
496,96,172191,5,8,0:0:0:0:
336,176,172349,1,0,0:0:0:0:
320,352,172507,2,0,B|256:384|256:384|288:320|288:320|416:256,1,265.999991882324,6|8,0:0|0:0,0:0:0:0:
464,256,172981,1,0,0:0:0:0:
320,352,173139,2,0,B|267:378|267:378|293:325|293:325|399:274,1,227.999993041992,6|8,0:0|0:0,0:0:0:0:
483,259,173612,1,0,0:0:0:0:
464,352,173770,5,2,0:3:0:0:
416,192,173928,1,8,0:0:0:0:
411,178,174007,1,8,0:0:0:0:
406,164,174086,1,8,0:0:0:0:
502,166,174244,5,2,0:3:0:0:
406,164,174402,1,8,0:0:0:0:
395,135,174481,1,8,0:0:0:0:
385,106,174560,1,8,0:0:0:0:
388,0,174718,5,2,0:3:0:0:
381,27,174797,1,2,0:3:0:0:
359,44,174876,1,8,0:3:0:0:
332,44,174955,1,4,0:3:0:0:
309,28,175033,1,6,0:0:0:0:
256,96,175191,1,0,0:0:0:0:
192,0,175349,1,8,0:0:0:0:
192,176,175507,6,0,B|152:132|152:132|80:144|80:144|12:64,1,227.999993041992,0|0,0:0|0:0,0:0:0:0:
64,224,175981,1,8,0:0:0:0:
112,320,176139,1,0,0:0:0:0:
256,272,176296,1,2,3:0:0:0:
246,261,176454,1,0,0:0:0:0:
135,317,176612,5,10,3:0:0:0:
156,325,176691,1,2,0:0:0:0:
170,342,176770,1,2,0:0:0:0:
320,320,176928,5,2,3:0:0:0:
302,340,177007,1,2,0:0:0:0:
298,366,177086,1,2,0:0:0:0:
112,320,177244,5,10,3:0:0:0:
146,333,177323,1,2,0:0:0:0:
167,360,177402,1,2,0:0:0:0:
341,311,177560,6,0,B|390:283|399:229|399:229|408:241|408:241|389:181|427:125,1,227.999993041992,6|8,0:0|0:0,0:0:0:0:
480,96,178033,1,0,0:0:0:0:
246,261,178191,6,0,B|280:211|258:140|258:140|269:154|269:154|279:90|337:57,1,265.999991882324,6|8,0:0|0:0,0:0:0:0:
288,0,178665,1,0,0:0:0:0:
160,192,178823,6,0,B|156:167|160:157|160:157|155:154|155:154|147:141|143:107,1,66.4999979705811,6|0,0:0|0:0,0:0:0:0:
176,48,178981,2,0,B|160:28|158:17|158:17|152:17|152:17|139:10|118:-17,1,66.4999979705811,0|0,0:0|0:0,0:0:0:0:
48,16,179139,1,8,0:0:0:0:
127,16,179454,6,0,B|132:25|146:32|146:32|151:32|151:32|153:43|169:62,1,66.4999979705811,6|0,0:0|0:0,0:0:0:0:
153,206,179612,2,0,B|149:181|153:171|153:171|148:168|148:168|140:155|140:145,1,66.4999979705811,0|0,0:0|0:0,0:0:0:0:
69,116,179770,1,8,0:0:0:0:
35,72,179928,1,0,0:0:0:0:
48,16,180086,6,0,B|36:77|80:112|80:112|85:107|85:107|151:170|128:258,1,265.999991882324,6|8,0:0|0:0,0:0:0:0:
49,264,180560,2,0,B|143:263|187:340|187:340|160:284|188:209,1,265.999991882324
272,192,181033,1,8,0:0:0:0:
352,176,181191,1,0,0:0:0:0:
405,237,181349,1,6,0:0:0:0:
480,128,181507,5,0,0:0:0:0:
378,313,181665,1,8,0:0:0:0:
456,304,181823,1,0,0:0:0:0:
298,327,181981,5,2,0:3:0:0:
298,327,182060,1,0,0:0:0:0:
298,327,182139,1,0,0:0:0:0:
298,327,182218,1,0,0:0:0:0:
311,334,182296,1,8,1:2:0:0:
330,336,182375,1,8,1:2:0:0:
351,334,182454,1,8,1:2:0:0:
368,326,182533,1,8,1:2:0:0:
378,313,182612,5,6,0:0:0:0:
296,116,182770,1,0,1:0:0:0:
320,44,182928,1,8,0:0:0:0:
134,313,183086,5,2,0:3:0:0:
216,116,183244,1,0,1:0:0:0:
192,44,183402,1,8,0:0:0:0:
256,192,183560,5,2,0:3:0:0:
256,0,183718,1,2,0:3:0:0:
96,128,183875,5,2,1:2:0:0:
48,130,183954,1,0,0:0:0:0:
3,111,184033,1,0,0:0:0:0:
21,100,184112,1,0,0:0:0:0:
37,101,184191,1,2,1:2:0:0:
60,107,184270,1,0,0:0:0:0:
86,140,184349,1,0,0:0:0:0:
114,178,184428,1,0,0:0:0:0:
143,166,184507,1,2,1:2:0:0:
120,162,184586,1,0,0:0:0:0:
82,175,184665,1,0,0:0:0:0:
60,211,184744,1,0,0:0:0:0:
17,224,184823,5,2,1:2:0:0:
134,313,184981,1,0,0:0:0:0:
256,192,185139,1,4,0:2:0:0:
416,288,185296,5,8,0:2:0:0:
448,256,185375,1,8,0:2:0:0:
459,212,185454,1,8,0:2:0:0:
336,304,185612,1,0,0:0:0:0:
352,208,185770,1,2,0:0:0:0:
256,192,185928,5,2,0:0:0:0:
244,179,186007,1,2,0:0:0:0:
239,163,186086,1,2,0:0:0:0:
256,320,186244,1,4,0:0:0:0:
352,208,186402,5,0,0:0:0:0:
364,131,186560,1,4,0:0:0:0:
308,384,186718,1,2,0:3:0:0:
308,384,186796,1,2,0:3:0:0:
308,384,186875,1,2,0:3:0:0:
286,340,186954,1,0,0:0:0:0:
256,320,187033,5,8,0:0:0:0:
250,319,187112,1,2,0:0:0:0:
247,323,187191,1,2,0:0:0:0:
250,329,187270,1,2,0:0:0:0:
217,362,187349,1,6,0:0:0:0:
164,354,187428,1,2,0:0:0:0:
138,304,187507,1,2,0:0:0:0:
158,244,187586,1,2,0:0:0:0:
128,176,187665,5,4,0:0:0:0:
128,176,187981,1,0,0:0:0:0:
112,64,188296,5,0,0:0:0:0:
208,96,188612,1,2,0:0:0:0:
208,96,188928,1,2,0:0:0:0:
432,96,189244,5,8,0:0:0:0:
336,64,189560,1,2,0:0:0:0:
336,64,189876,1,2,0:0:0:0:
352,192,190191,5,0,0:0:0:0:
448,224,190507,1,2,0:0:0:0:
416,320,190823,1,2,0:0:0:0:
320,288,191139,1,10,0:0:0:0:
112,272,191454,5,2,0:0:0:0:
112,272,191770,1,2,0:0:0:0:
160,352,192086,5,0,0:0:0:0:
208,240,192402,1,2,0:0:0:0:
208,240,192718,1,2,0:0:0:0:
112,272,193033,5,10,0:0:0:0:
64,160,193349,1,0,0:0:0:0:
64,160,193665,1,0,0:0:0:0:
208,240,193981,5,0,0:0:0:0:
256,128,194297,1,10,0:0:0:0:
266,172,194454,1,2,0:0:0:0:
291,123,194612,1,2,0:0:0:0:
287,145,194770,1,0,0:0:0:0:
319,125,194928,1,2,0:0:0:0:
315,133,195086,1,2,0:0:0:0:
368,64,195244,5,4,0:1:0:0:
484,232,195560,5,0,0:0:0:0:
468,280,195718,1,8,0:0:0:0:
434,242,195875,1,0,0:0:0:0:
484,232,196191,5,2,0:0:0:0:
436,360,196507,1,2,0:0:0:0:
349,254,196823,1,8,0:0:0:0:
511,315,197139,5,4,0:1:0:0:
407,188,197455,1,2,0:0:0:0:
349,254,197612,1,2,0:0:0:0:
349,342,197771,1,2,0:0:0:0:
484,232,198086,5,4,0:1:0:0:
511,315,198402,1,2,0:0:0:0:
484,232,198560,1,2,0:0:0:0:
407,188,198718,1,8,0:0:0:0:
368,64,198875,1,8,0:0:0:0:
432,0,199033,6,0,P|464:11|489:33,1,56.9999982604981,6|0,0:0|0:0,0:0:0:0:
368,64,199349,2,0,P|336:53|311:31,1,56.9999982604981,2|0,0:3|0:0,0:0:0:0:
443,20,199665,6,0,P|465:45|476:77,1,56.9999982604981,2|0,0:3|0:0,0:0:0:0:
304,128,199981,1,2,0:3:0:0:
356,43,200139,2,0,P|334:18|323:-13,2,56.9999982604981,4|2|0,0:0|0:0|0:0,0:0:0:0:
304,128,200612,1,2,0:3:0:0:
224,128,200770,1,8,0:3:0:0:
224,128,201086,5,8,0:3:0:0:
199,96,201244,1,4,0:3:0:0:
192,16,201402,5,2,0:3:0:0:
192,16,201481,1,2,0:3:0:0:
192,16,201559,2,0,P|158:9|126:16,1,56.9999982604981,6|0,0:0|0:0,0:0:0:0:
16,16,201875,2,0,P|44:34|62:62,1,56.9999982604981,2|0,0:3|0:0,0:0:0:0:
0,192,202191,6,0,P|33:198|65:191,1,56.9999982604981,2|2,0:3|0:3,0:3:0:0:
160,288,202507,1,2,0:3:0:0:
176,192,202665,2,0,P|147:173|129:145,1,56.9999982604981,4|2,0:0|0:0,0:0:0:0:
240,256,202981,1,2,0:3:0:0:
240,256,203060,1,2,0:3:0:0:
240,256,203139,1,2,0:3:0:0:
320,288,203296,6,0,P|330:293|349:316,1,28.4999991302491,8|0,0:3|0:0,0:0:0:0:
352,321,203454,1,4,0:3:0:0:
432,352,203612,1,2,0:3:0:0:
480,288,203770,1,2,0:3:0:0:
448,192,203928,6,0,P|419:149|395:45,1,142.5,4|0,0:0|0:0,0:0:0:0:
395,62,204244,1,2,0:3:0:0:
256,144,204402,1,4,0:0:0:0:
224,64,204560,1,2,0:3:0:0:
224,64,204639,1,2,0:3:0:0:
224,64,204718,1,2,0:3:0:0:
160,112,204875,1,2,0:3:0:0:
112,16,205033,1,8,0:0:0:0:
48,160,205191,6,0,P|74:207|98:322,1,142.5,4|0,0:0|0:0,0:0:0:0:
96,292,205507,1,2,0:3:0:0:
176,256,205665,1,4,0:0:0:0:
224,320,205823,1,2,0:3:0:0:
224,320,205902,1,2,0:3:0:0:
224,320,205981,1,2,0:3:0:0:
272,240,206139,1,2,0:3:0:0:
320,336,206296,1,8,0:0:0:0:
512,192,206454,6,0,P|441:203|378:234,1,142.5,4|0,0:0|0:0,0:0:0:0:
384,226,206770,1,2,0:3:0:0:
385,210,206849,1,2,0:3:0:0:
384,196,206928,5,8,0:3:0:0:
352,128,207086,1,4,0:3:0:0:
144,192,207244,5,2,0:3:0:0:
73,166,207402,1,2,0:3:0:0:
256,336,207560,5,10,0:0:0:0:
213,341,207639,1,10,0:0:0:0:
187,367,207718,1,10,0:0:0:0:
256,32,208033,5,0,1:0:0:0:
160,200,208191,1,12,0:0:0:0:
150,219,208507,5,2,0:3:0:0:
152,229,208586,1,2,0:3:0:0:
154,239,208665,1,2,0:3:0:0:
192,128,208823,1,4,0:0:0:0:
487,50,209139,6,0,P|484:84|469:110,1,56.9999982604981,2|0,0:0|0:0,0:0:0:0:
420,36,209454,2,0,P|408:61|408:90,1,56.9999982604981,2|0,0:0|0:0,0:0:0:0:
416,192,209928,5,0,0:0:0:0:
416,192,210086,1,0,0:0:0:0:
508,255,210402,6,0,P|455:284|437:310,1,76,2|0,0:0|0:0,0:0:0:0:
303,190,210718,2,0,P|329:244|329:275,1,76,2|0,0:0|0:0,0:0:0:0:
512,312,211191,6,0,P|479:306|447:312,1,66.4999979705811,2|0,0:0|0:0,0:0:0:0:
270,232,211349,2,0,P|300:246|324:269,1,66.4999979705811,2|0,0:0|0:0,0:0:0:0:
352,384,211507,1,0,0:0:0:0:
416,192,211665,1,4,0:0:0:0:
128,192,211981,5,2,0:0:0:0:
80,176,212296,1,2,0:0:0:0:
128,192,212928,5,2,0:0:0:0:
144,208,213402,1,2,0:0:0:0:
192,48,214033,5,2,0:0:0:0:
256,112,214349,1,2,0:0:0:0:
246,91,214507,1,2,0:0:0:0:
237,55,214665,1,2,0:0:0:0:
234,15,214823,1,2,0:0:0:0:
264,120,215139,5,2,0:0:0:0:
320,192,215454,5,2,0:0:0:0:
373,201,215612,1,2,0:0:0:0:
432,183,215770,1,2,0:0:0:0:
487,138,215928,1,2,0:0:0:0:
496,48,216244,1,2,0:0:0:0:
480,256,216718,5,2,0:0:0:0:
466,277,216875,1,2,0:0:0:0:
454,323,217033,1,2,0:0:0:0:
445,338,217349,5,2,0:0:0:0:
422,351,217507,1,2,0:0:0:0:
378,352,217665,1,2,0:0:0:0:
256,192,217981,5,2,0:0:0:0:
176,208,218612,1,2,0:0:0:0:
32,368,219086,5,2,0:0:0:0:
47,354,219402,1,2,0:0:0:0:
64,330,219560,1,2,0:0:0:0:
69,282,219718,1,2,0:0:0:0:
48,228,219875,1,2,0:0:0:0:
18,189,220033,1,2,0:0:0:0:
13,129,220191,1,2,0:0:0:0:
34,90,220349,1,2,0:0:0:0:
93,56,220507,5,2,0:0:0:0:
99,45,220823,5,2,0:0:0:0:
102,30,221139,5,2,0:0:0:0:
98,15,221454,5,2,0:0:0:0:
256,64,221770,5,2,0:0:0:0:
320,112,222086,5,2,0:0:0:0:
416,144,222402,5,2,0:0:0:0:
480,288,222718,5,2,0:0:0:0:
68,348,223665,6,2,L|72:304,14,33.2499989852906,6|2|2|2|2|2|2|2|2|2|2|2|2|2|2,0:0|0:0|0:0|0:0|0:0|0:0|0:0|0:0|0:0|0:0|0:0|0:0|0:0|0:0|0:0,0:0:0:0:
61,359,224296,6,0,P|128:324|263:314,1,199.499993911743,6|0,0:0|0:0,0:0:0:0:
416,336,224612,2,0,P|352:295|276:183,1,199.499993911743,8|0,0:0|0:0,0:0:0:0:
208,108,224928,2,0,P|205:164|161:255,1,132.999995941162,2|0,0:3|0:0,0:0:0:0:
177,234,225165,1,2,0:0:0:0:
177,234,225244,1,10,0:0:0:0:
280,195,225401,1,2,0:0:0:0:
160,32,225560,5,2,0:3:0:0:
208,108,225718,1,2,0:0:0:0:
240,16,225875,1,8,0:0:0:0:
128,128,226033,1,2,0:0:0:0:
400,80,226191,5,2,0:3:0:0:
464,96,226349,1,8,0:1:0:0:
336,64,226507,1,8,0:1:0:0:
388,62,226665,1,0,0:0:0:0:
488,104,226823,6,0,P|448:167|424:308,1,199.499993911743,6|0,0:0|0:0,0:0:0:0:
422,288,227139,1,8,0:0:0:0:
192,352,227296,1,0,0:0:0:0:
240,288,227454,1,2,0:3:0:0:
271,361,227612,1,2,0:0:0:0:
271,361,227691,1,2,0:0:0:0:
271,361,227770,1,10,0:0:0:0:
161,279,227928,1,0,0:0:0:0:
270,52,228086,6,0,L|348:65,1,66.4999979705811,2|0,0:3|0:0,0:0:0:0:
128,160,228244,1,8,0:0:0:0:
128,160,228323,1,8,0:0:0:0:
128,160,228402,2,0,L|49:146,1,66.4999979705811,8|0,0:0|0:0,0:0:0:0:
279,40,228560,6,0,P|318:116|257:210,1,199.499993911743,0|0,1:0|0:0,0:0:0:0:
119,172,228875,2,0,P|80:96|141:2,1,199.499993911743,0|0,1:0|0:0,0:0:0:0:
224,144,229191,5,8,0:0:0:0:
224,144,229270,1,8,0:0:0:0:
224,144,229349,2,0,P|266:213|266:353,1,199.499993911743,6|0,0:0|0:0,0:0:0:0:
168,357,229665,2,0,P|120:270|119:172,1,199.499993911743,8|0,0:0|0:0,0:0:0:0:
224,144,229981,2,0,P|289:140|347:107,1,132.999995941162,2|0,0:3|0:0,0:0:0:0:
347,107,230218,1,2,0:0:0:0:
347,107,230296,1,10,0:0:0:0:
400,176,230454,1,2,0:0:0:0:
512,336,230612,5,2,0:3:0:0:
480,272,230770,1,2,0:0:0:0:
441,332,230928,1,8,0:0:0:0:
472,360,231086,1,2,0:0:0:0:
272,329,231244,5,2,0:3:0:0:
344,288,231402,1,8,0:1:0:0:
232,264,231560,1,8,0:1:0:0:
320,336,231718,1,0,0:0:0:0:
176,344,231875,6,0,P|118:283|14:223,1,199.499993911743,6|0,0:0|0:0,0:0:0:0:
19,224,232191,1,0,1:0:0:0:
216,128,232349,1,0,0:0:0:0:
144,96,232507,1,8,1:2:0:0:
304,64,232665,5,2,0:0:0:0:
304,64,232744,1,2,0:0:0:0:
304,64,232823,1,10,1:2:0:0:
240,24,232981,1,0,0:0:0:0:
392,216,233139,5,4,1:2:0:0:
371,29,233296,1,0,0:0:0:0:
312,256,233454,1,12,1:2:0:0:
314,249,233533,1,2,0:0:0:0:
316,242,233612,1,2,0:0:0:0:
361,249,233691,1,2,0:0:0:0:
392,216,233770,5,8,1:2:0:0:
480,160,233928,1,8,1:2:0:0:
460,260,234086,1,0,1:0:0:0:
484,244,234244,1,0,1:0:0:0:
288,344,234401,6,0,B|235:322|190:349|206:364|173:400|98:365,1,190,6|8,0:0|0:0,0:0:0:0:
160,280,234875,1,0,0:0:0:0:
48,264,235033,2,0,P|111:285|122:177,1,190,2|8,0:0|0:0,0:0:0:0:
62,184,235507,1,0,0:0:0:0:
256,72,235665,5,2,0:0:0:0:
184,56,235823,1,0,0:0:0:0:
288,168,235981,1,8,0:0:0:0:
243,158,236139,1,0,0:0:0:0:
265,62,236296,2,0,L|280:8,1,47.5,2|0,0:0|0:0,0:0:0:0:
320,176,236454,1,2,0:0:0:0:
344,96,236612,1,8,0:0:0:0:
416,200,236770,1,0,0:0:0:0:
448,64,236928,6,0,B|440:115|478:133|478:133|530:185|492:243,1,190,6|8,0:0|0:0,0:0:0:0:
416,200,237402,1,0,0:0:0:0:
400,360,237560,1,2,0:0:0:0:
440,304,237718,1,0,0:0:0:0:
372,298,237875,1,8,0:0:0:0:
424,336,238033,1,0,0:0:0:0:
224,344,238191,6,0,P|156:342|161:228,1,199.499993911743,2|0,0:0|0:0,0:0:0:0:
224,224,238507,2,0,P|264:246|251:291,1,85.4999973907472,8|0,0:0|0:0,0:0:0:0:
160,144,238823,6,0,B|106:126|77:161|89:176|56:214|-12:184,1,170.999994781494,2|0,0:0|0:0,0:0:0:0:
7,190,239139,1,8,0:0:0:0:
128,56,239296,5,2,0:0:0:0:
125,50,239375,1,2,0:0:0:0:
122,43,239454,2,0,P|196:46|336:141,1,227.999993041992,6|8,0:0|0:0,0:0:0:0:
344,192,239928,1,0,0:0:0:0:
507,125,240086,2,0,P|451:114|400:136,1,113.999996520996,2|0,0:0|0:0,0:0:0:0:
451,331,240402,2,0,P|397:312|363:267,1,113.999996520996,8|0,0:0|0:0,0:0:0:0:
208,232,240718,5,2,0:0:0:0:
344,192,240875,1,0,0:0:0:0:
304,224,241033,1,8,0:0:0:0:
296,272,241191,1,0,0:0:0:0:
176,344,241349,1,2,0:0:0:0:
104,304,241507,1,2,0:0:0:0:
104,304,241586,1,2,0:0:0:0:
104,304,241665,1,10,0:0:0:0:
88,224,241823,1,8,0:0:0:0:
160,128,241981,6,0,P|187:91|186:54,1,76,4|0,0:0|0:0,0:0:0:0:
136,0,242296,1,8,0:0:0:0:
104,72,242454,1,0,0:0:0:0:
384,88,242612,5,4,0:0:0:0:
448,56,242770,1,0,0:0:0:0:
389,17,242928,1,8,0:0:0:0:
404,50,243086,1,0,0:0:0:0:
464,208,243244,5,4,0:0:0:0:
296,192,243402,1,2,0:0:0:0:
392,192,243560,1,8,0:0:0:0:
216,272,243718,1,4,0:0:0:0:
344,256,244033,5,2,0:0:0:0:
176,352,244191,1,10,0:0:0:0:
160,366,244270,1,10,0:0:0:0:
139,365,244349,1,10,0:0:0:0:
116,360,244428,1,0,0:0:0:0:
90,373,244507,1,4,0:0:0:0:
88,136,244823,5,8,0:0:0:0:
112,64,244981,1,0,0:0:0:0:
40,248,245139,5,4,0:0:0:0:
64,232,245296,1,0,0:0:0:0:
16,192,245454,1,8,0:0:0:0:
32,216,245612,1,0,0:0:0:0:
256,128,245770,5,4,0:0:0:0:
368,96,245928,1,2,0:0:0:0:
280,56,246086,1,8,0:0:0:0:
457,154,246244,1,4,0:0:0:0:
336,5,246560,5,2,0:0:0:0:
368,192,246718,1,10,0:0:0:0:
344,220,246796,1,10,0:0:0:0:
307,223,246875,1,10,0:0:0:0:
448,312,247033,5,10,0:0:0:0:
392,320,247191,1,2,0:0:0:0:
344,352,247349,1,0,0:0:0:0:
280,376,247507,1,0,0:0:0:0:
192,352,247665,1,2,0:0:0:0:
136,272,247823,1,2,0:0:0:0:
120,208,247981,1,0,0:0:0:0:
136,160,248139,1,0,0:0:0:0:
164,140,249560,5,2,0:0:0:0:
174,110,249875,5,2,0:0:0:0:
171,79,250349,5,2,0:0:0:0:
96,56,250507,2,0,P|90:17|131:26,1,85.4999973907472,0|0,0:0|0:0,0:0:0:0:
171,79,250823,6,0,P|258:54|402:53,1,227.999993041992,6|8,0:0|0:0,0:0:0:0:
320,200,251296,1,2,0:0:0:0:
349,164,251375,1,2,0:0:0:0:
393,149,251454,1,2,0:3:0:0:
472,112,251612,1,0,0:0:0:0:
321,218,251770,5,8,0:0:0:0:
350,182,251928,1,2,0:0:0:0:
160,344,252086,5,2,0:3:0:0:
189,308,252244,1,2,0:0:0:0:
160,192,252402,5,8,0:0:0:0:
152,237,252560,1,2,0:0:0:0:
88,176,252718,5,2,0:3:0:0:
65,145,252875,1,2,0:0:0:0:
0,192,253033,5,8,0:0:0:0:
28,204,253190,1,2,0:0:0:0:
240,376,253349,6,0,P|329:355|493:354,1,227.999993041992,6|8,0:0|0:0,0:0:0:0:
440,248,253823,1,2,0:0:0:0:
464,256,253902,1,2,0:0:0:0:
480,272,253980,1,2,0:3:0:0:
465,350,254139,1,0,0:0:0:0:
432,234,254296,5,8,0:0:0:0:
456,242,254454,1,0,0:0:0:0:
344,80,254611,5,2,0:3:0:0:
331,113,254770,1,2,0:0:0:0:
238,75,254928,5,8,0:0:0:0:
214,57,255086,1,2,0:0:0:0:
138,97,255244,5,2,0:3:0:0:
124,115,255402,1,2,0:0:0:0:
53,128,255560,5,8,0:0:0:0:
36,118,255718,1,2,0:0:0:0:
191,205,255875,6,0,P|116:233|37:362,1,227.999993041992,6|8,0:0|0:0,0:0:0:0:
208,327,256349,1,2,0:0:0:0:
180,327,256428,1,2,0:0:0:0:
156,337,256507,1,2,0:3:0:0:
38,353,256665,1,0,0:0:0:0:
224,368,256823,5,8,0:0:0:0:
224,340,256981,1,0,0:0:0:0:
352,192,257139,5,2,0:3:0:0:
338,216,257297,1,2,0:0:0:0:
424,352,257454,5,8,0:0:0:0:
438,328,257612,1,2,0:0:0:0:
357,211,257770,5,2,0:3:0:0:
350,223,257849,1,0,0:0:0:0:
343,235,257928,1,0,1:0:0:0:
336,247,258007,1,0,1:0:0:0:
352,248,258086,1,8,1:2:0:0:
433,365,258244,5,8,0:2:0:0:
447,341,258323,1,8,0:2:0:0:
460,317,258402,2,0,B|505:273|485:226|464:244|438:197|504:147,1,170.999994781494,8|0,0:2|0:0,0:0:0:0:
512,0,258718,2,0,B|429:38|424:122|424:122|407:54|375:50,1,199.499993911743,4|0,1:2|0:0,0:0:0:0:
328,64,259033,2,0,B|246:50|168:135|186:182|186:182|234:128,1,228,12|0,0:2|0:0,0:0:0:0:
16,152,259349,2,0,B|98:153|104:224|82:234|99:281|164:315|219:277,1,256.499992172241,4|0,1:2|0:0,0:0:0:0:
426,259,259665,6,0,P|339:285|248:397,1,228,12|0,0:2|0:0,0:0:0:0:
200,286,259981,2,0,P|152:260|94:272,1,95,4|8,1:2|0:2,0:0:0:0:
93,290,260218,1,8,0:2:0:0:
60,294,260297,5,8,0:2:0:0:
50,290,260375,1,0,1:0:0:0:
44,282,260454,1,8,0:0:0:0:
41,270,260533,1,0,1:0:0:0:
59,263,260612,1,8,0:0:0:0:
93,269,260691,1,0,0:0:0:0:
114,299,260770,1,0,1:0:0:0:
163,302,260849,1,0,1:0:0:0:
204,254,260928,6,0,L|240:49,1,190,4|8,1:2|0:0,0:0:0:0:
352,120,261402,1,2,0:0:0:0:
368,104,261481,1,2,0:0:0:0:
384,88,261560,1,2,0:3:0:0:
432,216,261718,1,0,0:0:0:0:
486,154,261875,2,0,P|440:174|414:226,1,95,8|0,0:0|0:0,0:0:0:0:
256,368,262191,5,2,0:3:0:0:
280,376,262349,1,2,0:0:0:0:
93,269,262507,5,8,0:0:0:0:
74,285,262665,1,2,0:0:0:0:
256,160,262823,5,2,0:3:0:0:
251,135,262981,1,2,0:0:0:0:
232,360,263139,5,8,0:0:0:0:
112,253,263296,1,2,0:0:0:0:
120,152,263454,2,0,P|149:72|47:-2,1,190,6|8,0:0|0:0,0:0:0:0:
251,135,263928,1,2,0:0:0:0:
247,109,264007,1,2,0:0:0:0:
233,80,264086,1,2,0:3:0:0:
296,24,264244,1,0,0:0:0:0:
386,83,264402,2,0,P|340:43|285:43,1,95,8|0,0:0|0:0,0:0:0:0:
416,256,264718,5,6,0:0:0:0:
432,240,264875,1,2,0:0:0:0:
256,376,265033,5,8,0:0:0:0:
240,360,265190,1,2,0:0:0:0:
328,208,265349,5,2,0:3:0:0:
312,224,265506,1,2,0:0:0:0:
400,272,265665,5,8,0:0:0:0:
261,354,265823,1,2,0:0:0:0:
144,152,265981,1,6,0:0:0:0:
120,264,266139,1,8,0:0:0:0:
120,264,266218,1,8,0:0:0:0:
120,264,266296,1,8,0:0:0:0:
108,63,266454,2,0,L|156:183,1,95,2|2,0:3|0:3,0:3:0:0:
24,32,266770,1,2,0:3:0:0:
24,32,266928,1,4,0:3:0:0:
256,152,267086,6,0,B|351:153|371:68|371:68|352:98|327:101,1,199.499993911743,4|0,0:0|0:0,0:0:0:0:
340,97,267402,1,0,1:0:0:0:
330,100,267481,1,0,0:0:0:0:
300,88,267560,1,8,0:0:0:0:
336,60,267639,1,0,0:0:0:0:
346,13,267718,1,0,1:0:0:0:
334,26,267796,1,0,0:0:0:0:
314,37,267875,1,8,0:0:0:0:
306,38,267954,1,0,0:0:0:0:
300,35,268033,1,0,1:0:0:0:
298,30,268112,1,0,1:0:0:0:
303,25,268191,6,0,L|338:318,1,265.999991882324,8|4,1:2|0:0,0:0:0:0:
361,359,268665,5,2,0:0:0:0:
358,320,268823,1,2,0:0:0:0:
361,359,268981,1,2,0:0:0:0:
361,359,269296,5,2,0:0:0:0:
200,280,269454,1,2,0:0:0:0:
361,359,269928,6,0,P|256:351|181:370,1,142.5,4|0,0:0|0:0,0:0:0:0:
136,368,270244,1,8,0:0:0:0:
24,200,270402,1,4,0:0:0:0:
256,192,270481,12,0,276402,0:0:0:0:
