osu file format v14

[General]
AudioFilename: audio.mp3
AudioLeadIn: 1000
PreviewTime: 75402
Countdown: 0
SampleSet: Soft
StackLeniency: 0.4
Mode: 0
LetterboxInBreaks: 0
WidescreenStoryboard: 1

[Editor]
DistanceSpacing: 0.8
BeatDivisor: 4
GridSize: 32
TimelineZoom: 3.399999

[Metadata]
Title:Zenryoku Happy Life
TitleUnicode:全力ハッピーライフ
Artist:ShinRa-Bansho
ArtistUnicode:森羅万象
Creator:Asagi
Version:Overdrive
Source:東方永夜抄 ~ Imperishable Night.
Tags:ayaponzu* touhou project 2hu Full Power 狂気の瞳 ~ Invisible Full Moon あやぽんず* Lunatic Red Eyes Reisen Udongein Inaba kaztora reitaisai 15 シンクロ2 Synchro 2 ZUN 太田順也 Caral usagi bunny rabbit pyon j-pop jpop japanese video game midorijeon
BeatmapID:1718454
BeatmapSetID:819611

[Difficulty]
HPDrainRate:5
CircleSize:4.2
OverallDifficulty:9.5
ApproachRate:9.5
SliderMultiplier:1.8
SliderTickRate:1

[Events]
//Background and Video events
0,0,"pyon.png",0,0
//Break Periods
2,248970,250914
//Storyboard Layer 0 (Background)
//Storyboard Layer 1 (Fail)
//Storyboard Layer 2 (Pass)
//Storyboard Layer 3 (Foreground)
//Storyboard Layer 4 (Overlay)
//Storyboard Sound Samples

[TimingPoints]
1350,315.789473684211,4,2,2,70,1,0
1350,-76.9230769230769,4,2,2,70,0,0
1665,-76.9230769230769,4,2,12,70,0,0
1744,-76.9230769230769,4,2,2,70,0,0
1823,-76.9230769230769,4,2,12,70,0,0
1902,-76.9230769230769,4,2,2,70,0,0
2139,-76.9230769230769,4,2,12,70,0,0
2218,-76.9230769230769,4,2,2,70,0,0
2455,-76.9230769230769,4,2,12,70,0,0
2534,-76.9230769230769,4,2,2,70,0,0
2613,-76.9230769230769,4,2,3,70,0,0
2928,-76.9230769230769,4,2,12,70,0,0
3007,-76.9230769230769,4,2,2,70,0,0
3086,-76.9230769230769,4,2,12,70,0,0
3165,-76.9230769230769,4,2,2,70,0,0
3402,-76.9230769230769,4,2,12,70,0,0
3481,-76.9230769230769,4,2,2,70,0,0
3718,-76.9230769230769,4,2,12,70,0,0
3797,-76.9230769230769,4,2,2,70,0,0
3876,-76.9230769230769,4,2,5,70,0,0
4192,-76.9230769230769,4,2,12,70,0,0
4271,-76.9230769230769,4,2,2,70,0,0
4350,-76.9230769230769,4,2,12,70,0,0
4429,-76.9230769230769,4,2,2,70,0,0
4665,-76.9230769230769,4,2,12,70,0,0
4744,-76.9230769230769,4,2,2,70,0,0
4981,-76.9230769230769,4,2,12,70,0,0
5060,-76.9230769230769,4,2,2,70,0,0
5455,-76.9230769230769,4,2,5,70,0,0
5771,-76.9230769230769,4,2,3,70,0,0
6086,-76.9230769230769,4,2,3,70,0,0
6402,-76.9230769230769,4,2,2,70,0,0
6718,-76.9230769230769,4,2,12,70,0,0
6797,-76.9230769230769,4,2,2,70,0,0
6876,-76.9230769230769,4,2,12,70,0,0
6955,-76.9230769230769,4,2,2,70,0,0
7192,-76.9230769230769,4,2,12,70,0,0
7271,-76.9230769230769,4,2,2,70,0,0
7507,-76.9230769230769,4,2,12,70,0,0
7586,-76.9230769230769,4,2,2,70,0,0
7665,-76.9230769230769,4,2,3,70,0,0
7981,-76.9230769230769,4,2,12,70,0,0
8060,-76.9230769230769,4,2,2,70,0,0
8139,-76.9230769230769,4,2,12,70,0,0
8218,-76.9230769230769,4,2,2,70,0,0
8455,-76.9230769230769,4,2,12,70,0,0
8534,-76.9230769230769,4,2,2,70,0,0
8771,-76.9230769230769,4,2,12,70,0,0
8850,-76.9230769230769,4,2,2,70,0,0
8928,-125,4,2,5,70,0,0
9244,-76.9230769230769,4,2,6,70,0,0
9323,-76.9230769230769,4,2,2,70,0,0
9560,-125,4,2,2,70,0,0
9876,-76.9230769230769,4,2,6,70,0,0
9955,-76.9230769230769,4,2,2,70,0,0
10192,-90.9090909090909,4,2,3,70,0,0
10507,-83.3333333333333,4,2,2,70,0,0
10823,-76.9230769230769,4,2,1,70,0,0
10981,-76.9230769230769,4,2,1,70,0,0
12718,-90.9090909090909,4,2,1,75,0,1
12797,-90.9090909090909,4,2,2,75,0,0
13192,-90.9090909090909,4,2,13,75,0,0
13271,-90.9090909090909,4,2,2,75,0,0
13507,-90.9090909090909,4,2,13,75,0,0
13586,-90.9090909090909,4,2,2,75,0,0
13823,-90.9090909090909,4,2,13,75,0,0
13902,-90.9090909090909,4,2,2,75,0,0
14139,-90.9090909090909,4,2,13,75,0,0
14218,-90.9090909090909,4,2,2,75,0,0
14455,-90.9090909090909,4,2,13,75,0,0
14534,-90.9090909090909,4,2,2,75,0,0
14771,-90.9090909090909,4,2,13,75,0,0
14850,-90.9090909090909,4,2,2,75,0,0
15086,-90.9090909090909,4,2,13,75,0,0
15165,-90.9090909090909,4,2,2,75,0,0
15402,-90.9090909090909,4,2,12,75,0,0
15481,-90.9090909090909,4,2,2,75,0,0
15718,-90.9090909090909,4,2,13,75,0,0
15797,-90.9090909090909,4,2,2,75,0,0
16034,-90.9090909090909,4,2,13,75,0,0
16113,-90.9090909090909,4,2,2,75,0,0
16350,-90.9090909090909,4,2,13,75,0,0
16429,-90.9090909090909,4,2,2,75,0,0
16665,-90.9090909090909,4,2,13,75,0,0
16744,-90.9090909090909,4,2,2,75,0,0
16981,-90.9090909090909,4,2,13,75,0,0
17060,-90.9090909090909,4,2,2,75,0,0
17297,-90.9090909090909,4,2,13,75,0,0
17376,-90.9090909090909,4,2,2,75,0,0
17613,-90.9090909090909,4,2,13,75,0,0
17692,-90.9090909090909,4,2,2,75,0,0
18244,-90.9090909090909,4,2,13,75,0,0
18323,-90.9090909090909,4,2,2,75,0,0
18560,-90.9090909090909,4,2,13,75,0,0
18639,-90.9090909090909,4,2,2,75,0,0
18876,-90.9090909090909,4,2,13,75,0,0
18955,-90.9090909090909,4,2,2,75,0,0
19192,-90.9090909090909,4,2,13,75,0,0
19271,-90.9090909090909,4,2,2,75,0,0
19507,-90.9090909090909,4,2,13,75,0,0
19586,-90.9090909090909,4,2,2,75,0,0
19665,-90.9090909090909,4,2,1,75,0,0
20297,-76.9230769230769,4,2,2,75,0,0
20534,-76.9230769230769,4,2,2,5,0,0
20613,-76.9230769230769,4,2,12,75,0,0
20692,-76.9230769230769,4,2,2,75,0,0
20850,-76.9230769230769,4,2,2,5,0,0
20928,-76.9230769230769,4,2,12,75,0,0
21007,-76.9230769230769,4,2,2,75,0,0
21165,-76.9230769230769,4,2,2,5,0,0
21244,-76.9230769230769,4,2,12,75,0,0
21323,-76.9230769230769,4,2,2,75,0,0
21481,-76.9230769230769,4,2,2,5,0,0
21560,-76.9230769230769,4,2,2,75,0,0
21797,-76.9230769230769,4,2,2,5,0,0
21876,-76.9230769230769,4,2,12,75,0,0
21955,-76.9230769230769,4,2,2,75,0,0
22034,-76.9230769230769,4,2,2,75,0,0
22350,-76.9230769230769,4,2,2,75,0,0
22507,-76.9230769230769,4,2,2,75,0,0
22665,-76.9230769230769,4,2,2,75,0,0
22823,-90.9090909090909,4,2,2,75,0,0
23297,-90.9090909090909,4,2,13,75,0,0
23376,-90.9090909090909,4,2,2,75,0,0
23613,-90.9090909090909,4,2,13,75,0,0
23692,-90.9090909090909,4,2,2,75,0,0
23928,-90.9090909090909,4,2,13,75,0,0
24007,-90.9090909090909,4,2,2,75,0,0
24244,-90.9090909090909,4,2,13,75,0,0
24323,-90.9090909090909,4,2,2,75,0,0
24560,-90.9090909090909,4,2,13,75,0,0
24639,-90.9090909090909,4,2,2,75,0,0
24876,-90.9090909090909,4,2,13,75,0,0
24955,-90.9090909090909,4,2,2,75,0,0
25192,-90.9090909090909,4,2,13,75,0,0
25271,-90.9090909090909,4,2,2,75,0,0
25507,-90.9090909090909,4,2,12,75,0,0
25586,-90.9090909090909,4,2,2,75,0,0
26139,-90.9090909090909,4,2,13,75,0,0
26218,-90.9090909090909,4,2,2,75,0,0
26455,-90.9090909090909,4,2,13,75,0,0
26534,-90.9090909090909,4,2,2,75,0,0
26771,-90.9090909090909,4,2,13,75,0,0
26850,-90.9090909090909,4,2,2,75,0,0
27086,-90.9090909090909,4,2,13,75,0,0
27165,-90.9090909090909,4,2,2,75,0,0
27402,-90.9090909090909,4,2,13,75,0,0
27481,-90.9090909090909,4,2,2,75,0,0
27718,-90.9090909090909,4,2,13,75,0,0
27797,-90.9090909090909,4,2,2,75,0,0
28192,-90.9090909090909,4,2,2,75,0,0
28350,-90.9090909090909,4,2,1,75,0,0
28507,-90.9090909090909,4,2,2,75,0,0
28744,-90.9090909090909,4,2,2,75,0,0
28823,-90.9090909090909,4,2,3,75,0,0
28981,-90.9090909090909,4,2,2,75,0,0
29771,-90.9090909090909,4,2,3,75,0,0
30402,-125,4,2,2,65,0,0
30481,-125,4,2,2,65,0,0
34350,-125,4,2,1,65,0,0
34981,-125,4,2,3,65,0,0
35297,-125,4,2,4,65,0,0
35455,-125,4,2,2,65,0,0
35928,-125,4,2,12,65,0,0
36007,-125,4,2,2,65,0,0
36876,-125,4,2,8,65,0,0
36955,-125,4,2,2,65,0,0
37192,-125,4,2,12,65,0,0
37271,-125,4,2,2,65,0,0
37665,-125,4,2,8,65,0,0
37744,-125,4,2,2,65,0,0
37981,-125,4,2,5,65,0,0
38139,-125,4,2,1,65,0,0
38455,-125,4,2,2,65,0,0
39086,-125,4,2,3,65,0,0
39244,-125,4,2,2,65,0,0
40192,-76.9230769230769,4,2,69,80,0,0
40271,-76.9230769230769,4,2,2,65,0,0
40507,-100,4,2,2,70,0,0
40981,-100,4,2,8,70,0,0
41060,-100,4,2,2,70,0,0
41297,-100,4,2,9,70,0,0
41376,-100,4,2,2,70,0,0
41613,-100,4,2,8,70,0,0
41692,-100,4,2,2,70,0,0
41928,-100,4,2,8,70,0,0
42007,-100,4,2,2,70,0,0
42244,-100,4,2,8,70,0,0
42323,-100,4,2,2,70,0,0
42560,-100,4,2,9,70,0,0
42639,-100,4,2,2,70,0,0
42876,-100,4,2,8,70,0,0
42955,-100,4,2,2,70,0,0
43192,-100,4,2,8,70,0,0
43271,-100,4,2,2,70,0,0
43507,-100,4,2,9,70,0,0
43586,-100,4,2,2,70,0,0
43823,-100,4,2,9,70,0,0
43902,-100,4,2,2,70,0,0
44139,-100,4,2,9,70,0,0
44218,-100,4,2,2,70,0,0
44455,-100,4,2,9,70,0,0
44534,-100,4,2,2,70,0,0
44771,-100,4,2,9,70,0,0
44850,-100,4,2,2,70,0,0
45086,-100,4,2,9,70,0,0
45165,-100,4,2,2,70,0,0
45402,-100,4,2,8,70,0,0
45481,-100,4,2,2,70,0,0
45718,-100,4,2,8,70,0,0
45797,-100,4,2,2,70,0,0
46034,-100,4,2,8,70,0,0
46113,-100,4,2,2,70,0,0
46350,-100,4,2,8,70,0,0
46429,-100,4,2,2,70,0,0
46665,-100,4,2,9,70,0,0
46744,-100,4,2,2,70,0,0
46981,-100,4,2,9,70,0,0
47060,-100,4,2,2,70,0,0
47297,-100,4,2,8,70,0,0
47376,-100,4,2,2,70,0,0
47613,-100,4,2,8,70,0,0
47692,-100,4,2,2,70,0,0
47928,-100,4,2,8,70,0,0
48007,-100,4,2,2,70,0,0
48560,-100,4,2,6,70,0,0
48639,-100,4,2,2,70,0,0
48876,-100,4,2,6,70,0,0
48955,-100,4,2,2,70,0,0
49192,-100,4,2,6,70,0,0
49271,-100,4,2,2,70,0,0
49350,-83.3333333333333,4,2,2,70,0,0
49823,-83.3333333333333,4,2,3,70,0,0
50139,-83.3333333333333,4,2,1,70,0,0
50297,-83.3333333333333,4,2,2,70,0,0
50455,-83.3333333333333,4,2,3,70,0,0
50613,-76.9230769230769,4,2,3,70,0,0
51165,-76.9230769230769,4,2,3,5,0,0
51244,-76.9230769230769,4,2,3,70,0,0
51876,-100,4,2,2,70,0,0
52192,-100,4,2,7,70,0,0
52271,-100,4,2,2,70,0,0
52823,-100,4,2,7,70,0,0
52902,-100,4,2,2,70,0,0
53455,-76.9230769230769,4,2,2,70,0,0
53692,-76.9230769230769,4,2,2,5,0,0
53771,-76.9230769230769,4,2,3,70,0,0
54402,-100,4,2,2,70,0,0
54876,-100,4,2,3,70,0,0
55665,-76.9230769230769,4,2,1,70,0,0
55744,-76.9230769230769,4,2,2,70,0,0
56139,-76.9230769230769,4,2,8,70,0,0
56218,-76.9230769230769,4,2,2,5,0,0
56297,-76.9230769230769,4,2,2,70,0,0
56455,-76.9230769230769,4,2,8,70,0,0
56534,-76.9230769230769,4,2,2,70,0,0
56771,-76.9230769230769,4,2,8,70,0,0
56850,-76.9230769230769,4,2,2,70,0,0
56928,-100,4,2,2,70,0,0
57086,-100,4,2,9,70,0,0
57165,-100,4,2,2,70,0,0
57402,-100,4,2,9,70,0,0
57481,-100,4,2,2,70,0,0
57718,-100,4,2,9,70,0,0
57797,-100,4,2,2,70,0,0
58034,-100,4,2,9,70,0,0
58113,-100,4,2,2,70,0,0
58507,-100,4,2,6,70,0,0
58586,-100,4,2,2,70,0,0
58823,-90.9090909090909,4,2,3,70,0,0
59139,-90.9090909090909,4,2,6,70,0,0
59218,-90.9090909090909,4,2,2,70,0,0
59455,-83.3333333333333,4,2,2,70,0,0
59928,-83.3333333333333,4,2,3,70,0,0
60244,-83.3333333333333,4,2,1,70,0,0
60402,-83.3333333333333,4,2,2,70,0,0
60560,-83.3333333333333,4,2,3,70,0,0
60718,-125,4,2,3,70,0,0
61034,-76.9230769230769,4,2,3,70,0,0
61981,-100,4,2,2,70,0,0
62139,-100,4,2,9,70,0,0
62218,-100,4,2,2,70,0,0
62455,-100,4,2,9,70,0,0
62534,-100,4,2,2,70,0,0
62771,-100,4,2,8,70,0,0
62850,-100,4,2,2,70,0,0
63086,-100,4,2,8,70,0,0
63165,-100,4,2,2,70,0,0
63402,-100,4,2,8,70,0,0
63481,-100,4,2,2,70,0,0
63718,-100,4,2,12,70,0,0
63797,-100,4,2,2,70,0,0
64034,-100,4,2,12,70,0,0
64113,-100,4,2,2,70,0,0
64350,-90.9090909090909,4,2,2,70,0,0
64981,-90.9090909090909,4,2,3,70,0,0
65455,-100,4,2,12,70,0,0
65534,-100,4,2,2,70,0,0
66244,-100,4,2,13,70,0,0
66323,-100,4,2,2,70,0,0
66560,-90.9090909090909,4,2,13,70,0,0
66639,-90.9090909090909,4,2,2,70,0,0
66876,-90.9090909090909,4,2,13,70,0,0
66955,-90.9090909090909,4,2,2,70,0,0
67192,-83.3333333333333,4,2,13,70,0,0
67271,-83.3333333333333,4,2,2,70,0,0
67507,-83.3333333333333,4,2,13,70,0,0
67586,-83.3333333333333,4,2,2,70,0,0
67823,-83.3333333333333,4,2,13,70,0,0
67902,-83.3333333333333,4,2,2,70,0,0
68139,-83.3333333333333,4,2,12,70,0,0
68218,-83.3333333333333,4,2,2,70,0,0
68297,-100,4,2,2,70,0,0
68928,-100,4,2,1,70,0,0
69402,-100,4,2,2,70,0,0
69876,-100,4,2,3,70,0,0
70034,-100,4,2,2,70,0,0
70192,-100,4,2,2,70,0,0
70507,-100,4,2,3,70,0,0
70665,-83.3333333333333,4,2,2,70,0,0
71139,-83.3333333333333,4,2,2,70,0,0
71455,-83.3333333333333,4,2,2,70,0,0
71771,-83.3333333333333,4,2,2,70,0,0
71928,-83.3333333333333,4,2,12,70,0,0
72007,-83.3333333333333,4,2,2,70,0,0
72718,-83.3333333333333,4,2,5,70,0,0
73350,-83.3333333333333,4,2,5,50,0,0
74613,-83.3333333333333,4,2,5,50,0,0
75086,-83.3333333333333,4,2,5,50,0,0
75402,-76.9230769230769,4,2,5,50,0,0
75560,-66.6666666666667,4,2,69,100,0,0
75639,-66.6666666666667,4,2,5,70,0,0
75876,-83.3333333333333,4,2,1,80,0,1
75955,-83.3333333333333,4,2,2,80,0,1
76192,-83.3333333333333,4,2,6,80,0,1
76271,-83.3333333333333,4,2,2,80,0,1
76507,-83.3333333333333,4,2,6,80,0,1
76586,-83.3333333333333,4,2,2,80,0,1
76823,-83.3333333333333,4,2,6,80,0,1
76902,-83.3333333333333,4,2,2,80,0,1
77139,-83.3333333333333,4,2,6,80,0,1
77218,-83.3333333333333,4,2,2,80,0,1
77455,-83.3333333333333,4,2,6,80,0,1
77534,-83.3333333333333,4,2,2,80,0,1
77771,-83.3333333333333,4,2,6,80,0,1
77850,-83.3333333333333,4,2,2,80,0,1
78086,-83.3333333333333,4,2,6,80,0,1
78165,-83.3333333333333,4,2,2,80,0,1
78402,-83.3333333333333,4,2,6,80,0,1
78481,-83.3333333333333,4,2,2,80,0,1
78718,-83.3333333333333,4,2,6,80,0,1
78797,-83.3333333333333,4,2,2,80,0,1
79034,-83.3333333333333,4,2,6,80,0,1
79113,-83.3333333333333,4,2,2,80,0,1
79350,-83.3333333333333,4,2,6,80,0,1
79429,-83.3333333333333,4,2,2,80,0,1
80139,-66.6666666666667,4,2,12,80,0,1
80218,-66.6666666666667,4,2,2,80,0,1
80376,-66.6666666666667,4,2,2,5,0,1
80455,-66.6666666666667,4,2,3,80,0,1
80928,-83.3333333333333,4,2,2,80,0,1
81244,-83.3333333333333,4,2,6,80,0,1
81323,-83.3333333333333,4,2,2,80,0,1
81560,-83.3333333333333,4,2,6,80,0,1
81639,-83.3333333333333,4,2,2,80,0,1
81876,-83.3333333333333,4,2,6,80,0,1
81955,-83.3333333333333,4,2,2,80,0,1
82192,-83.3333333333333,4,2,6,80,0,1
82271,-83.3333333333333,4,2,2,80,0,1
82507,-83.3333333333333,4,2,6,80,0,1
82586,-83.3333333333333,4,2,2,80,0,1
82823,-83.3333333333333,4,2,6,80,0,1
82902,-83.3333333333333,4,2,2,80,0,1
83139,-83.3333333333333,4,2,6,80,0,1
83218,-83.3333333333333,4,2,2,80,0,1
83771,-83.3333333333333,4,2,6,80,0,1
83850,-83.3333333333333,4,2,2,80,0,1
84086,-83.3333333333333,4,2,6,80,0,1
84165,-83.3333333333333,4,2,2,80,0,1
84402,-83.3333333333333,4,2,6,80,0,1
84481,-83.3333333333333,4,2,2,80,0,1
85034,-83.3333333333333,4,2,3,80,0,1
85665,-83.3333333333333,4,2,3,80,0,0
85981,-83.3333333333333,4,2,2,80,0,1
86455,-83.3333333333333,4,2,13,80,0,1
86534,-83.3333333333333,4,2,2,80,0,1
86771,-83.3333333333333,4,2,12,80,0,1
86850,-83.3333333333333,4,2,2,80,0,1
87086,-83.3333333333333,4,2,13,80,0,1
87165,-83.3333333333333,4,2,2,80,0,1
87402,-83.3333333333333,4,2,13,80,0,1
87481,-83.3333333333333,4,2,2,80,0,1
87718,-83.3333333333333,4,2,13,80,0,1
87797,-83.3333333333333,4,2,2,80,0,1
88034,-83.3333333333333,4,2,12,80,0,1
88113,-83.3333333333333,4,2,2,80,0,1
88350,-83.3333333333333,4,2,12,80,0,1
88429,-83.3333333333333,4,2,2,80,0,1
88665,-83.3333333333333,4,2,12,80,0,1
88744,-83.3333333333333,4,2,2,80,0,1
88981,-83.3333333333333,4,2,13,80,0,1
89060,-83.3333333333333,4,2,2,80,0,1
89297,-83.3333333333333,4,2,13,80,0,1
89376,-83.3333333333333,4,2,2,80,0,1
89613,-83.3333333333333,4,2,13,80,0,1
89692,-83.3333333333333,4,2,2,80,0,1
89771,-66.6666666666667,4,2,2,80,0,1
89928,-66.6666666666667,4,2,12,80,0,1
90007,-66.6666666666667,4,2,2,5,0,1
90086,-66.6666666666667,4,2,2,80,0,1
90244,-66.6666666666667,4,2,12,80,0,1
90323,-66.6666666666667,4,2,2,5,0,1
90402,-66.6666666666667,4,2,2,80,0,1
90560,-66.6666666666667,4,2,12,80,0,1
90639,-66.6666666666667,4,2,2,80,0,1
90876,-66.6666666666667,4,2,13,80,0,1
90955,-66.6666666666667,4,2,2,80,0,1
91034,-83.3333333333333,4,2,2,80,0,1
91507,-83.3333333333333,4,2,13,80,0,1
91586,-83.3333333333333,4,2,2,80,0,1
91823,-83.3333333333333,4,2,12,80,0,1
91902,-83.3333333333333,4,2,2,80,0,1
92139,-83.3333333333333,4,2,13,80,0,1
92218,-83.3333333333333,4,2,2,80,0,1
92455,-83.3333333333333,4,2,13,80,0,1
92534,-83.3333333333333,4,2,2,80,0,1
92771,-83.3333333333333,4,2,13,80,0,1
92850,-83.3333333333333,4,2,2,80,0,1
93402,-83.3333333333333,4,2,3,80,0,1
93560,-83.3333333333333,4,2,2,80,0,1
94192,-83.3333333333333,4,2,3,80,0,1
94823,-83.3333333333333,4,2,2,80,0,1
95139,-83.3333333333333,4,2,5,80,0,1
95455,-83.3333333333333,4,2,2,80,0,1
95928,-83.3333333333333,4,2,12,80,0,1
96007,-83.3333333333333,4,2,2,80,0,1
96086,-83.3333333333333,4,2,2,80,0,0
97350,-166.666666666667,4,2,2,50,0,0
97428,-166.666666666667,4,2,5,50,0,0
104455,-166.666666666667,4,2,1,60,0,0
104613,-166.666666666667,4,2,3,60,0,0
104771,-166.666666666667,4,2,2,60,0,0
105086,-166.666666666667,4,2,1,60,0,0
105402,-166.666666666667,4,2,2,60,0,0
105876,-166.666666666667,4,2,3,60,0,0
106665,-166.666666666667,4,2,1,60,0,0
106823,-166.666666666667,4,2,2,60,0,0
106981,-166.666666666667,4,2,3,60,0,0
107139,-76.9230769230769,4,2,69,90,0,0
107218,-76.9230769230769,4,2,3,60,0,0
107376,-76.9230769230769,4,2,3,5,0,0
107455,-100,4,2,2,70,0,0
107928,-100,4,2,8,70,0,0
108007,-100,4,2,2,70,0,0
108244,-100,4,2,9,70,0,0
108323,-100,4,2,2,70,0,0
108560,-100,4,2,8,70,0,0
108639,-100,4,2,2,70,0,0
108876,-100,4,2,8,70,0,0
108955,-100,4,2,2,70,0,0
109192,-100,4,2,8,70,0,0
109271,-100,4,2,2,70,0,0
109507,-100,4,2,9,70,0,0
109586,-100,4,2,2,70,0,0
109823,-100,4,2,8,70,0,0
109902,-100,4,2,2,70,0,0
110139,-100,4,2,8,70,0,0
110218,-100,4,2,2,70,0,0
110455,-100,4,2,9,70,0,0
110534,-100,4,2,2,70,0,0
110771,-100,4,2,9,70,0,0
110850,-100,4,2,2,70,0,0
111086,-100,4,2,9,70,0,0
111165,-100,4,2,2,70,0,0
111402,-100,4,2,9,70,0,0
111481,-100,4,2,2,70,0,0
111718,-100,4,2,9,70,0,0
111797,-100,4,2,2,70,0,0
112034,-100,4,2,9,70,0,0
112113,-100,4,2,2,70,0,0
112350,-100,4,2,9,70,0,0
112429,-100,4,2,2,70,0,0
112981,-100,4,2,8,70,0,0
113060,-100,4,2,2,70,0,0
113297,-100,4,2,9,70,0,0
113376,-100,4,2,2,70,0,0
113613,-100,4,2,9,70,0,0
113692,-100,4,2,2,70,0,0
113928,-100,4,2,9,70,0,0
114007,-100,4,2,2,70,0,0
114244,-100,4,2,8,70,0,0
114323,-100,4,2,2,70,0,0
114560,-100,4,2,12,70,0,0
114639,-100,4,2,2,70,0,0
114876,-100,4,2,12,70,0,0
114955,-100,4,2,2,70,0,0
115507,-100,4,2,12,70,0,0
115586,-100,4,2,2,70,0,0
115823,-100,4,2,12,70,0,0
115902,-100,4,2,2,70,0,0
116139,-100,4,2,12,70,0,0
116218,-100,4,2,2,70,0,0
116297,-83.3333333333333,4,2,2,70,0,0
116771,-83.3333333333333,4,2,3,70,0,0
117086,-71.4285714285714,4,2,1,70,0,0
117244,-71.4285714285714,4,2,2,70,0,0
117402,-71.4285714285714,4,2,3,70,0,0
117560,-76.9230769230769,4,2,3,70,0,0
118113,-76.9230769230769,4,2,3,5,0,0
118192,-76.9230769230769,4,2,3,70,0,0
118350,-76.9230769230769,4,2,1,70,0,0
118507,-76.9230769230769,4,2,2,70,0,0
118665,-76.9230769230769,4,2,3,70,0,0
118823,-100,4,2,2,70,0,0
119139,-100,4,2,7,70,0,0
119218,-100,4,2,2,70,0,0
119771,-100,4,2,7,70,0,0
119850,-100,4,2,2,70,0,0
120086,-76.9230769230769,4,2,2,70,0,0
120639,-76.9230769230769,4,2,2,5,0,0
120718,-76.9230769230769,4,2,3,70,0,0
121350,-100,4,2,2,70,0,0
121823,-100,4,2,3,70,0,0
122613,-76.9230769230769,4,2,5,70,0,0
123086,-76.9230769230769,4,2,8,70,0,0
123165,-76.9230769230769,4,2,2,5,0,0
123244,-76.9230769230769,4,2,2,70,0,0
123402,-76.9230769230769,4,2,8,70,0,0
123481,-76.9230769230769,4,2,2,70,0,0
123718,-76.9230769230769,4,2,8,70,0,0
123797,-76.9230769230769,4,2,2,70,0,0
123876,-100,4,2,2,70,0,0
124034,-100,4,2,9,70,0,0
124113,-100,4,2,2,70,0,0
124350,-100,4,2,9,70,0,0
124429,-100,4,2,2,70,0,0
124665,-100,4,2,9,70,0,0
124744,-100,4,2,2,70,0,0
124981,-100,4,2,9,70,0,0
125060,-100,4,2,2,70,0,0
125455,-100,4,2,6,70,0,0
125534,-100,4,2,2,70,0,0
125771,-90.9090909090909,4,2,3,70,0,0
126086,-90.9090909090909,4,2,6,70,0,0
126165,-90.9090909090909,4,2,2,70,0,0
126402,-83.3333333333333,4,2,2,70,0,0
126876,-83.3333333333333,4,2,3,70,0,0
127192,-83.3333333333333,4,2,1,70,0,0
127350,-83.3333333333333,4,2,2,70,0,0
127507,-83.3333333333333,4,2,3,70,0,0
127665,-125,4,2,3,70,0,0
127902,-125,4,2,3,5,0,0
127981,-76.9230769230769,4,2,3,70,0,0
128218,-76.9230769230769,4,2,3,5,0,0
128297,-76.9230769230769,4,2,3,70,0,0
128928,-100,4,2,2,70,0,0
129402,-100,4,2,9,70,0,0
129481,-100,4,2,2,70,0,0
129718,-100,4,2,8,70,0,0
129797,-100,4,2,2,70,0,0
130034,-100,4,2,8,70,0,0
130113,-100,4,2,2,70,0,0
130665,-100,4,2,8,70,0,0
130744,-100,4,2,2,70,0,0
131297,-90.9090909090909,4,2,3,70,0,0
131928,-90.9090909090909,4,2,2,70,0,0
132402,-100,4,2,6,70,0,0
132481,-100,4,2,2,70,0,0
132718,-100,4,2,2,70,0,0
133192,-100,4,2,13,70,0,0
133271,-100,4,2,2,70,0,0
133507,-90.9090909090909,4,2,13,70,0,0
133586,-90.9090909090909,4,2,2,70,0,0
133823,-90.9090909090909,4,2,13,70,0,0
133902,-90.9090909090909,4,2,2,70,0,0
134139,-83.3333333333333,4,2,13,70,0,0
134218,-83.3333333333333,4,2,2,70,0,0
134455,-83.3333333333333,4,2,13,70,0,0
134534,-83.3333333333333,4,2,2,70,0,0
134771,-83.3333333333333,4,2,13,70,0,0
134850,-83.3333333333333,4,2,2,70,0,0
135086,-83.3333333333333,4,2,12,70,0,0
135165,-83.3333333333333,4,2,2,70,0,0
135244,-100,4,2,2,70,0,0
135402,-100,4,2,13,70,0,0
135481,-100,4,2,2,70,0,0
135718,-100,4,2,13,70,0,0
135797,-100,4,2,2,70,0,0
135876,-100,4,2,6,70,0,0
135955,-100,4,2,2,70,0,0
136034,-100,4,2,1,70,0,0
136192,-100,4,2,2,70,0,0
136350,-90.9090909090909,4,2,3,70,0,0
136665,-76.9230769230769,4,2,1,70,0,0
136823,-76.9230769230769,4,2,2,70,0,0
137455,-76.9230769230769,4,2,3,70,0,0
137613,-83.3333333333333,4,2,2,70,0,0
137928,-76.9230769230769,4,2,1,70,0,0
138086,-76.9230769230769,4,2,2,70,0,0
138402,-76.9230769230769,4,2,2,70,0,0
138560,-76.9230769230769,4,2,3,70,0,0
138718,-76.9230769230769,4,2,3,70,0,0
138876,-76.9230769230769,4,2,12,70,0,0
138955,-76.9230769230769,4,2,2,70,0,0
139665,-76.9230769230769,4,2,5,70,0,0
140297,-76.9230769230769,4,2,5,50,0,0
141560,-83.3333333333333,4,2,5,50,0,0
141876,-83.3333333333333,4,2,5,70,0,0
142113,-83.3333333333333,4,2,5,5,0,0
142192,-100,4,2,5,70,0,0
142428,-100,4,2,5,5,0,0
142507,-125,4,2,5,70,0,0
142744,-125,4,2,5,5,0,0
142823,-83.3333333333333,4,2,1,80,0,1
142902,-83.3333333333333,4,2,2,80,0,1
143139,-83.3333333333333,4,2,6,80,0,1
143218,-83.3333333333333,4,2,2,80,0,1
143454,-83.3333333333333,4,2,6,80,0,1
143533,-83.3333333333333,4,2,2,80,0,1
143770,-83.3333333333333,4,2,6,80,0,1
143849,-83.3333333333333,4,2,2,80,0,1
144086,-83.3333333333333,4,2,6,80,0,1
144165,-83.3333333333333,4,2,2,80,0,1
144402,-83.3333333333333,4,2,6,80,0,1
144481,-83.3333333333333,4,2,2,80,0,1
144718,-83.3333333333333,4,2,6,80,0,1
144797,-83.3333333333333,4,2,2,80,0,1
145033,-83.3333333333333,4,2,6,80,0,1
145112,-83.3333333333333,4,2,2,80,0,1
145349,-83.3333333333333,4,2,6,80,0,1
145428,-83.3333333333333,4,2,2,80,0,1
145665,-83.3333333333333,4,2,6,80,0,1
145744,-83.3333333333333,4,2,2,80,0,1
145981,-83.3333333333333,4,2,6,80,0,1
146060,-83.3333333333333,4,2,2,80,0,1
146297,-83.3333333333333,4,2,6,80,0,1
146376,-83.3333333333333,4,2,2,80,0,1
147086,-66.6666666666667,4,2,12,80,0,1
147165,-66.6666666666667,4,2,2,80,0,1
147323,-66.6666666666667,4,2,2,5,0,1
147402,-66.6666666666667,4,2,3,80,0,1
147876,-83.3333333333333,4,2,2,80,0,1
148191,-83.3333333333333,4,2,6,80,0,1
148270,-83.3333333333333,4,2,2,80,0,1
148507,-83.3333333333333,4,2,6,80,0,1
148586,-83.3333333333333,4,2,2,80,0,1
148823,-83.3333333333333,4,2,6,80,0,1
148902,-83.3333333333333,4,2,2,80,0,1
149139,-83.3333333333333,4,2,6,80,0,1
149218,-83.3333333333333,4,2,2,80,0,1
149454,-83.3333333333333,4,2,6,80,0,1
149533,-83.3333333333333,4,2,2,80,0,1
149770,-83.3333333333333,4,2,6,80,0,1
149849,-83.3333333333333,4,2,2,80,0,1
150086,-83.3333333333333,4,2,6,80,0,1
150165,-83.3333333333333,4,2,2,80,0,1
150718,-83.3333333333333,4,2,6,80,0,1
150797,-83.3333333333333,4,2,2,80,0,1
151033,-83.3333333333333,4,2,6,80,0,1
151112,-83.3333333333333,4,2,2,80,0,1
151349,-83.3333333333333,4,2,6,80,0,1
151428,-83.3333333333333,4,2,2,80,0,1
151981,-83.3333333333333,4,2,3,80,0,1
152297,-83.3333333333333,4,2,3,80,0,1
152455,-83.3333333333333,4,2,1,80,0,1
152613,-83.3333333333333,4,2,2,80,0,0
152771,-83.3333333333333,4,2,3,80,0,0
152928,-76.9230769230769,4,2,2,80,0,1
153244,-83.3333333333333,4,2,2,80,0,1
153402,-83.3333333333333,4,2,13,80,0,1
153481,-83.3333333333333,4,2,2,80,0,1
153718,-83.3333333333333,4,2,12,80,0,1
153797,-83.3333333333333,4,2,2,80,0,1
154033,-83.3333333333333,4,2,13,80,0,1
154112,-83.3333333333333,4,2,2,80,0,1
154349,-83.3333333333333,4,2,13,80,0,1
154428,-83.3333333333333,4,2,2,80,0,1
154665,-83.3333333333333,4,2,13,80,0,1
154744,-83.3333333333333,4,2,2,80,0,1
154981,-83.3333333333333,4,2,12,80,0,1
155060,-83.3333333333333,4,2,2,80,0,1
155297,-83.3333333333333,4,2,12,80,0,1
155376,-83.3333333333333,4,2,2,80,0,1
155612,-83.3333333333333,4,2,12,80,0,1
155691,-83.3333333333333,4,2,2,80,0,1
155928,-83.3333333333333,4,2,13,80,0,1
156007,-83.3333333333333,4,2,2,80,0,1
156244,-83.3333333333333,4,2,13,80,0,1
156323,-83.3333333333333,4,2,2,80,0,1
156560,-83.3333333333333,4,2,13,80,0,1
156639,-83.3333333333333,4,2,2,80,0,1
156718,-66.6666666666667,4,2,2,80,0,1
156875,-66.6666666666667,4,2,12,80,0,1
156955,-66.6666666666667,4,2,2,5,0,1
157034,-66.6666666666667,4,2,2,80,0,1
157191,-66.6666666666667,4,2,12,80,0,1
157271,-66.6666666666667,4,2,2,5,0,1
157350,-66.6666666666667,4,2,2,80,0,1
157507,-66.6666666666667,4,2,12,80,0,1
157586,-66.6666666666667,4,2,2,80,0,1
157823,-66.6666666666667,4,2,13,80,0,1
157902,-66.6666666666667,4,2,2,80,0,1
157981,-83.3333333333333,4,2,2,80,0,1
158454,-83.3333333333333,4,2,13,80,0,1
158533,-83.3333333333333,4,2,2,80,0,1
158770,-83.3333333333333,4,2,12,80,0,1
158849,-83.3333333333333,4,2,2,80,0,1
159086,-83.3333333333333,4,2,13,80,0,1
159165,-83.3333333333333,4,2,2,80,0,1
159402,-83.3333333333333,4,2,13,80,0,1
159481,-83.3333333333333,4,2,2,80,0,1
159718,-83.3333333333333,4,2,13,80,0,1
159797,-83.3333333333333,4,2,2,80,0,1
160349,-83.3333333333333,4,2,12,80,0,1
160428,-83.3333333333333,4,2,2,80,0,1
161139,-83.3333333333333,4,2,3,80,0,1
161771,-83.3333333333333,4,2,5,80,0,1
162086,-83.3333333333333,4,2,2,80,0,1
162560,-83.3333333333333,4,2,1,80,0,1
162718,-83.3333333333333,4,2,2,80,0,1
162876,-83.3333333333333,4,2,3,80,0,1
163034,-125,4,2,2,80,0,1
163586,-125,4,2,2,5,0,1
163665,-125,4,2,3,80,0,1
164218,-125,4,2,3,5,0,1
164297,-125,4,2,3,60,0,1
164455,-125,4,2,3,63,0,1
164613,-125,4,2,3,67,0,1
164771,-125,4,2,3,70,0,1
164928,-125,4,2,3,73,0,1
165086,-125,4,2,3,77,0,1
165165,-125,4,2,3,78,0,1
165244,-66.6666666666667,4,2,69,100,0,0
165323,-66.6666666666667,4,2,3,80,0,0
165481,-66.6666666666667,4,2,3,5,0,0
165560,-83.3333333333333,4,2,1,75,0,1
165639,-83.3333333333333,4,2,2,75,0,0
166034,-83.3333333333333,4,2,13,75,0,0
166113,-83.3333333333333,4,2,2,75,0,0
166350,-83.3333333333333,4,2,13,75,0,0
166429,-83.3333333333333,4,2,2,75,0,0
166665,-83.3333333333333,4,2,13,75,0,0
166744,-83.3333333333333,4,2,2,75,0,0
166981,-83.3333333333333,4,2,13,75,0,0
167060,-83.3333333333333,4,2,2,75,0,0
167297,-83.3333333333333,4,2,13,75,0,0
167376,-83.3333333333333,4,2,2,75,0,0
167613,-83.3333333333333,4,2,13,75,0,0
167692,-83.3333333333333,4,2,2,75,0,0
167928,-83.3333333333333,4,2,13,75,0,0
168007,-83.3333333333333,4,2,2,75,0,0
168244,-83.3333333333333,4,2,12,75,0,0
168323,-83.3333333333333,4,2,2,75,0,0
168560,-83.3333333333333,4,2,13,75,0,0
168639,-83.3333333333333,4,2,2,75,0,0
168876,-83.3333333333333,4,2,13,75,0,0
168955,-83.3333333333333,4,2,2,75,0,0
169192,-83.3333333333333,4,2,13,75,0,0
169271,-83.3333333333333,4,2,2,75,0,0
169823,-83.3333333333333,4,2,12,75,0,0
169902,-83.3333333333333,4,2,2,75,0,0
170139,-83.3333333333333,4,2,5,75,0,0
170455,-83.3333333333333,4,2,3,75,0,0
170613,-83.3333333333333,4,2,2,75,0,0
171086,-83.3333333333333,4,2,13,75,0,0
171165,-83.3333333333333,4,2,2,75,0,0
171402,-83.3333333333333,4,2,13,75,0,0
171481,-83.3333333333333,4,2,2,75,0,0
171718,-83.3333333333333,4,2,13,75,0,0
171797,-83.3333333333333,4,2,2,75,0,0
172034,-83.3333333333333,4,2,12,75,0,0
172113,-83.3333333333333,4,2,2,75,0,0
172350,-83.3333333333333,4,2,13,75,0,0
172429,-83.3333333333333,4,2,2,75,0,0
172665,-83.3333333333333,4,2,13,75,0,0
172744,-83.3333333333333,4,2,2,75,0,0
172981,-83.3333333333333,4,2,13,75,0,0
173060,-83.3333333333333,4,2,2,75,0,0
173139,-83.3333333333333,4,2,3,75,0,0
173455,-83.3333333333333,4,2,6,75,0,0
173534,-83.3333333333333,4,2,2,75,0,0
174086,-83.3333333333333,4,2,6,75,0,0
174165,-83.3333333333333,4,2,2,75,0,0
174402,-83.3333333333333,4,2,1,75,0,0
175271,-83.3333333333333,4,2,1,75,0,0
175507,-83.3333333333333,4,2,2,75,0,0
175665,-83.3333333333333,4,2,2,75,0,0
176139,-83.3333333333333,4,2,13,75,0,0
176218,-83.3333333333333,4,2,2,75,0,0
176455,-83.3333333333333,4,2,13,75,0,0
176534,-83.3333333333333,4,2,2,75,0,0
176771,-83.3333333333333,4,2,13,75,0,0
176850,-83.3333333333333,4,2,2,75,0,0
177086,-83.3333333333333,4,2,13,75,0,0
177165,-83.3333333333333,4,2,2,75,0,0
177244,-76.9230769230769,4,2,2,75,0,0
177402,-76.9230769230769,4,2,13,75,0,0
177481,-76.9230769230769,4,2,2,75,0,0
177560,-71.4285714285714,4,2,2,75,0,0
177718,-71.4285714285714,4,2,13,75,0,0
177797,-71.4285714285714,4,2,2,75,0,0
178034,-66.6666666666667,4,2,13,75,0,0
178113,-66.6666666666667,4,2,2,75,0,0
178192,-83.3333333333333,4,2,2,75,0,0
178350,-83.3333333333333,4,2,12,75,0,0
178429,-83.3333333333333,4,2,2,75,0,0
178665,-83.3333333333333,4,2,13,75,0,0
178744,-83.3333333333333,4,2,2,75,0,0
178823,-76.9230769230769,4,2,2,75,0,0
178981,-76.9230769230769,4,2,12,75,0,0
179060,-76.9230769230769,4,2,2,75,0,0
179297,-76.9230769230769,4,2,13,75,0,0
179376,-76.9230769230769,4,2,2,75,0,0
179455,-71.4285714285714,4,2,2,75,0,0
179613,-71.4285714285714,4,2,12,75,0,0
179692,-71.4285714285714,4,2,2,75,0,0
179928,-71.4285714285714,4,2,12,75,0,0
180007,-71.4285714285714,4,2,2,75,0,0
180086,-66.6666666666667,4,2,2,75,0,0
180244,-66.6666666666667,4,2,13,75,0,0
180323,-66.6666666666667,4,2,2,75,0,0
180560,-66.6666666666667,4,2,12,75,0,0
180639,-66.6666666666667,4,2,2,75,0,0
180718,-83.3333333333333,4,2,2,75,0,0
180876,-83.3333333333333,4,2,12,75,0,0
180955,-83.3333333333333,4,2,2,75,0,0
181192,-83.3333333333333,4,2,13,75,0,0
181271,-83.3333333333333,4,2,2,75,0,0
181507,-83.3333333333333,4,2,13,75,0,0
181586,-83.3333333333333,4,2,2,75,0,0
181823,-83.3333333333333,4,2,13,75,0,0
181902,-83.3333333333333,4,2,2,75,0,0
181981,-83.3333333333333,4,2,3,75,0,0
182139,-83.3333333333333,4,2,13,75,0,0
182218,-83.3333333333333,4,2,2,75,0,0
182455,-83.3333333333333,4,2,13,75,0,0
182534,-83.3333333333333,4,2,2,75,0,0
182613,-83.3333333333333,4,2,2,55,0,0
182928,-83.3333333333333,4,2,2,75,0,0
183244,-83.3333333333333,4,2,2,75,0,0
183560,-83.3333333333333,4,2,6,75,0,0
183639,-83.3333333333333,4,2,2,75,0,0
183876,-83.3333333333333,4,2,6,75,0,0
183955,-83.3333333333333,4,2,2,75,0,0
184192,-83.3333333333333,4,2,6,75,0,0
184271,-83.3333333333333,4,2,2,75,0,0
184507,-83.3333333333333,4,2,6,75,0,0
184586,-83.3333333333333,4,2,2,75,0,0
184823,-83.3333333333333,4,2,6,75,0,0
184902,-83.3333333333333,4,2,2,75,0,0
185139,-83.3333333333333,4,2,6,75,0,0
185218,-83.3333333333333,4,2,2,75,0,0
185455,-125,4,2,6,75,0,0
185534,-125,4,2,2,75,0,0
185771,-125,4,2,2,75,0,0
186086,-71.4285714285714,4,2,2,75,0,0
186560,-71.4285714285714,4,2,3,75,0,0
186876,-71.4285714285714,4,2,2,75,0,0
187034,-83.3333333333333,4,2,69,100,0,0
187113,-83.3333333333333,4,2,2,75,0,0
187192,-83.3333333333333,4,2,1,75,0,0
187350,-83.3333333333333,4,2,2,75,0,0
188297,315.789473684211,3,2,2,65,1,0
188297,-125,4,2,2,65,0,0
188375,-125,4,2,2,65,0,0
188612,-125,4,2,10,65,0,0
188691,-125,4,2,2,65,0,0
188928,-125,4,2,11,65,0,0
189007,-125,4,2,2,65,0,0
189244,-125,4,2,10,65,0,0
189323,-125,4,2,2,65,0,0
189560,-125,4,2,10,65,0,0
189639,-125,4,2,2,65,0,0
189875,-125,4,2,10,65,0,0
189954,-125,4,2,2,65,0,0
190191,-125,4,2,10,65,0,0
190270,-125,4,2,2,65,0,0
190507,-125,4,2,10,65,0,0
190586,-125,4,2,2,65,0,0
190823,-125,4,2,11,65,0,0
190902,-125,4,2,2,65,0,0
191139,-125,4,2,10,65,0,0
191218,-125,4,2,2,65,0,0
191454,-125,4,2,10,65,0,0
191533,-125,4,2,2,65,0,0
191770,-125,4,2,10,65,0,0
191849,-125,4,2,2,65,0,0
192402,-125,4,2,10,65,0,0
192481,-125,4,2,2,65,0,0
192718,-125,4,2,11,65,0,0
192797,-125,4,2,2,65,0,0
193033,-125,4,2,10,65,0,0
193112,-125,4,2,2,65,0,0
193349,-125,4,2,10,65,0,0
193428,-125,4,2,2,65,0,0
193665,-125,4,2,10,65,0,0
193744,-125,4,2,2,65,0,0
193981,-125,4,2,3,65,0,0
194297,-125,4,2,10,65,0,0
194376,-125,4,2,2,65,0,0
194454,-125,4,2,1,65,0,0
195244,-125,4,2,2,65,0,0
195402,-125,4,2,3,65,0,0
195560,-125,4,2,4,65,0,0
195875,-125,4,2,2,65,0,0
196191,-125,4,2,11,65,0,0
196270,-125,4,2,2,65,0,0
196507,-125,4,2,11,65,0,0
196586,-125,4,2,2,65,0,0
196823,-125,4,2,10,65,0,0
196902,-125,4,2,2,65,0,0
197139,-125,4,2,10,65,0,0
197218,-125,4,2,2,65,0,0
197454,-125,4,2,10,65,0,0
197533,-125,4,2,2,65,0,0
197770,-125,4,2,3,65,0,0
198086,-125,4,2,10,65,0,0
198165,-125,4,2,2,65,0,0
198244,-125,4,2,1,65,0,0
198718,-125,4,2,3,65,0,0
199349,-111.111111111111,4,2,3,65,0,0
199507,-100,4,2,3,65,0,0
199665,315.789473684211,4,2,1,70,1,0
199665,-125,4,2,1,70,0,0
199743,-125,4,2,2,70,0,0
199901,-125,4,2,2,5,0,0
199981,-66.6666666666667,4,2,2,70,0,0
200297,-125,4,2,2,70,0,0
200533,-125,4,2,2,5,0,0
200613,-66.6666666666667,4,2,2,70,0,0
200928,-125,4,2,2,70,0,0
201401,-125,4,2,1,70,0,0
201717,-125,4,2,2,70,0,0
202033,-125,4,2,3,70,0,0
202192,-125,4,2,1,70,0,0
202428,-125,4,2,1,5,0,0
202507,-66.6666666666667,4,2,1,70,0,0
202822,-125,4,2,1,70,0,0
202980,-125,4,2,2,70,0,0
203059,-125,4,2,2,5,0,0
203138,-66.6666666666667,4,2,2,70,0,0
203296,-66.6666666666667,4,2,5,70,0,0
203455,-100,4,2,5,70,0,0
203612,-100,4,2,1,70,0,0
203928,-100,4,2,2,70,0,0
204243,-100,4,2,3,70,0,0
204560,-90.9090909090909,4,2,2,70,0,0
205191,-90.9090909090909,4,2,3,70,0,0
205823,-83.3333333333333,4,2,3,70,0,0
207559,-71.4285714285714,4,2,1,70,0,0
207717,-71.4285714285714,4,2,2,70,0,0
207875,-71.4285714285714,4,2,3,70,0,0
208191,-71.4285714285714,4,2,3,70,0,0
208349,-71.4285714285714,4,2,12,70,0,0
208428,-71.4285714285714,4,2,2,70,0,0
209138,-71.4285714285714,4,2,1,70,0,0
209454,-71.4285714285714,4,2,5,70,0,0
209771,-166.666666666667,4,2,5,55,0,0
211033,-90.9090909090909,4,2,5,65,0,0
211981,-62.5,4,2,69,100,0,0
212059,-62.5,4,2,5,65,0,0
212217,-62.5,4,2,5,5,0,0
212296,-166.666666666667,4,2,5,50,0,0
221138,-166.666666666667,4,2,5,50,0,0
221375,-166.666666666667,4,2,5,5,0,0
221454,-142.857142857143,4,2,5,50,0,0
221691,-142.857142857143,4,2,5,5,0,0
221770,-125,4,2,5,50,0,0
222007,-125,4,2,5,5,0,0
222086,-111.111111111111,4,2,5,50,0,0
222322,-111.111111111111,4,2,5,5,0,0
222401,-90.9090909090909,4,2,5,50,0,0
222638,-90.9090909090909,4,2,5,5,0,0
222717,-90.9090909090909,4,2,5,50,0,0
222954,-90.9090909090909,4,2,5,5,0,0
223033,-90.9090909090909,4,2,5,50,0,0
223270,-90.9090909090909,4,2,5,5,0,0
223349,-90.9090909090909,4,2,5,50,0,0
223586,-90.9090909090909,4,2,5,5,0,0
223980,-90.9090909090909,4,2,5,70,0,0
224296,-100,4,2,5,70,0,0
224454,-100,4,2,5,70,0,0
224612,-100,4,2,5,70,0,0
224770,-100,4,2,5,70,0,0
224928,-80,4,2,1,80,0,1
225007,-80,4,2,2,80,0,1
225243,-80,4,2,6,80,0,1
225322,-80,4,2,2,80,0,1
225559,-80,4,2,6,80,0,1
225638,-80,4,2,2,80,0,1
225875,-80,4,2,6,80,0,1
225954,-80,4,2,2,80,0,1
226191,-80,4,2,6,80,0,1
226270,-80,4,2,2,80,0,1
226507,-80,4,2,6,80,0,1
226586,-80,4,2,2,80,0,1
226822,-80,4,2,6,80,0,1
226901,-80,4,2,2,80,0,1
227138,-80,4,2,6,80,0,1
227217,-80,4,2,2,80,0,1
227454,-80,4,2,6,80,0,1
227533,-80,4,2,2,80,0,1
227770,-80,4,2,6,80,0,1
227849,-80,4,2,2,80,0,1
228086,-80,4,2,6,80,0,1
228165,-80,4,2,2,80,0,1
228401,-80,4,2,6,80,0,1
228480,-80,4,2,2,80,0,1
229191,-64.5161290322581,4,2,12,80,0,1
229270,-64.5161290322581,4,2,2,80,0,1
229507,-64.5161290322581,4,2,5,80,0,1
229980,-80,4,2,2,80,0,1
230296,-80,4,2,6,80,0,1
230375,-80,4,2,2,80,0,1
230612,-80,4,2,6,80,0,1
230691,-80,4,2,2,80,0,1
230928,-80,4,2,6,80,0,1
231007,-80,4,2,2,80,0,1
231243,-80,4,2,6,80,0,1
231322,-80,4,2,2,80,0,1
231559,-80,4,2,6,80,0,1
231638,-80,4,2,2,80,0,1
231875,-80,4,2,6,80,0,1
231954,-80,4,2,2,80,0,1
232033,-80,4,2,2,80,0,1
232191,-80,4,2,2,80,0,1
232349,-80,4,2,3,80,0,1
232507,-80,4,2,2,80,0,1
232822,-80,4,2,6,80,0,1
232901,-80,4,2,2,80,0,1
233138,-80,4,2,6,80,0,1
233217,-80,4,2,2,80,0,1
233454,-80,4,2,6,80,0,1
233533,-80,4,2,2,80,0,1
234086,-80,4,2,2,80,0,0
234401,-80,4,2,2,80,0,0
234559,-80,4,2,1,65,0,0
234717,-80,4,2,2,80,0,0
234876,-80,4,2,3,80,0,0
235033,-74.0740740740741,4,2,2,80,0,1
235349,-80,4,2,2,80,0,1
235507,-80,4,2,13,80,0,1
235586,-80,4,2,2,80,0,1
235823,-80,4,2,12,80,0,1
235902,-80,4,2,2,80,0,1
236138,-80,4,2,13,80,0,1
236217,-80,4,2,2,80,0,1
236454,-80,4,2,13,80,0,1
236533,-80,4,2,2,80,0,1
236770,-80,4,2,13,80,0,1
236849,-80,4,2,2,80,0,1
237086,-80,4,2,12,80,0,1
237165,-80,4,2,2,80,0,1
237402,-80,4,2,12,80,0,1
237481,-80,4,2,2,80,0,1
237717,-80,4,2,12,80,0,1
237796,-80,4,2,2,80,0,1
238033,-80,4,2,13,80,0,1
238112,-80,4,2,2,80,0,1
238349,-80,4,2,13,80,0,1
238428,-80,4,2,2,80,0,1
238665,-80,4,2,13,80,0,1
238744,-80,4,2,2,80,0,1
238822,-64.5161290322581,4,2,2,80,0,1
238980,-64.5161290322581,4,2,12,80,0,1
239059,-64.5161290322581,4,2,2,5,0,1
239138,-64.5161290322581,4,2,2,80,0,1
239296,-64.5161290322581,4,2,12,80,0,1
239375,-64.5161290322581,4,2,2,5,0,1
239454,-64.5161290322581,4,2,2,80,0,1
239928,-64.5161290322581,4,2,2,80,0,1
240086,-74.0740740740741,4,2,2,80,0,1
240559,-74.0740740740741,4,2,13,80,0,1
240638,-74.0740740740741,4,2,2,80,0,1
240875,-74.0740740740741,4,2,12,80,0,1
240954,-74.0740740740741,4,2,2,80,0,1
241191,-74.0740740740741,4,2,13,80,0,1
241270,-74.0740740740741,4,2,2,80,0,1
241507,-74.0740740740741,4,2,13,80,0,1
241586,-74.0740740740741,4,2,2,80,0,1
241823,-74.0740740740741,4,2,13,80,0,1
241902,-74.0740740740741,4,2,2,80,0,1
242454,-74.0740740740741,4,2,3,80,0,1
242612,-74.0740740740741,4,2,2,80,0,1
242928,-74.0740740740741,4,2,6,80,0,1
243007,-74.0740740740741,4,2,2,80,0,1
243244,-74.0740740740741,4,2,3,80,0,1
243559,-74.0740740740741,4,2,6,80,0,1
243638,-74.0740740740741,4,2,2,80,0,1
244349,-74.0740740740741,4,2,3,80,0,1
244665,-74.0740740740741,4,2,2,80,0,1
244980,-74.0740740740741,4,2,3,80,0,1
245138,-74.0740740740741,4,2,5,80,0,1
245454,-74.0740740740741,4,2,6,80,0,1
245533,-74.0740740740741,4,2,2,80,0,1
245770,-74.0740740740741,4,2,3,80,0,1
246086,-74.0740740740741,4,2,6,80,0,1
246165,-74.0740740740741,4,2,2,80,0,1
246875,-74.0740740740741,4,2,3,80,0,1
247665,-80,4,2,3,60,0,0
248296,-80,4,2,3,60,0,0
248612,-80,4,2,3,60,0,0
251454,-83.3333333333333,4,2,1,75,0,1
251533,-83.3333333333333,4,2,2,75,0,0
251928,-83.3333333333333,4,2,13,75,0,0
252007,-83.3333333333333,4,2,2,75,0,0
252243,-83.3333333333333,4,2,13,75,0,0
252322,-83.3333333333333,4,2,2,75,0,0
252559,-83.3333333333333,4,2,13,75,0,0
252638,-83.3333333333333,4,2,2,75,0,0
252875,-83.3333333333333,4,2,13,75,0,0
252954,-83.3333333333333,4,2,2,75,0,0
253191,-83.3333333333333,4,2,13,75,0,0
253270,-83.3333333333333,4,2,2,75,0,0
253507,-83.3333333333333,4,2,13,75,0,0
253586,-83.3333333333333,4,2,2,75,0,0
253822,-83.3333333333333,4,2,13,75,0,0
253901,-83.3333333333333,4,2,2,75,0,0
254138,-83.3333333333333,4,2,12,75,0,0
254217,-83.3333333333333,4,2,2,75,0,0
254454,-83.3333333333333,4,2,13,75,0,0
254533,-83.3333333333333,4,2,2,75,0,0
254770,-83.3333333333333,4,2,13,75,0,0
254849,-83.3333333333333,4,2,2,75,0,0
255086,-83.3333333333333,4,2,13,75,0,0
255165,-83.3333333333333,4,2,2,75,0,0
255401,-83.3333333333333,4,2,13,75,0,0
255480,-83.3333333333333,4,2,2,75,0,0
255717,-83.3333333333333,4,2,13,75,0,0
255796,-83.3333333333333,4,2,2,75,0,0
256033,-83.3333333333333,4,2,13,75,0,0
256112,-83.3333333333333,4,2,2,75,0,0
256349,-83.3333333333333,4,2,13,75,0,0
256428,-83.3333333333333,4,2,2,75,0,0
256980,-83.3333333333333,4,2,13,75,0,0
257059,-83.3333333333333,4,2,2,75,0,0
257296,-83.3333333333333,4,2,13,75,0,0
257375,-83.3333333333333,4,2,2,75,0,0
257612,-83.3333333333333,4,2,13,75,0,0
257691,-83.3333333333333,4,2,2,75,0,0
257928,-83.3333333333333,4,2,13,75,0,0
258007,-83.3333333333333,4,2,2,75,0,0
258243,-83.3333333333333,4,2,13,75,0,0
258322,-83.3333333333333,4,2,2,75,0,0
258401,-83.3333333333333,4,2,1,75,0,0
259033,-68.9655172413793,4,2,2,75,0,0
259270,-68.9655172413793,4,2,2,5,0,0
259349,-68.9655172413793,4,2,12,75,0,0
259428,-68.9655172413793,4,2,2,75,0,0
259586,-68.9655172413793,4,2,2,5,0,0
259665,-68.9655172413793,4,2,12,75,0,0
259743,-68.9655172413793,4,2,2,75,0,0
259901,-68.9655172413793,4,2,2,5,0,0
259980,-68.9655172413793,4,2,12,75,0,0
260059,-68.9655172413793,4,2,2,75,0,0
260217,-68.9655172413793,4,2,2,5,0,0
260296,-68.9655172413793,4,2,2,75,0,0
260533,-68.9655172413793,4,2,2,5,0,0
260612,-68.9655172413793,4,2,12,75,0,0
260691,-68.9655172413793,4,2,2,75,0,0
260770,-68.9655172413793,4,2,2,75,0,0
261086,-68.9655172413793,4,2,2,65,0,0
261243,-68.9655172413793,4,2,2,75,0,0
261559,-83.3333333333333,4,2,2,75,0,0
262033,-83.3333333333333,4,2,13,75,0,0
262112,-83.3333333333333,4,2,2,75,0,0
262349,-83.3333333333333,4,2,13,75,0,0
262428,-83.3333333333333,4,2,2,75,0,0
262664,-83.3333333333333,4,2,13,75,0,0
262743,-83.3333333333333,4,2,2,75,0,0
262980,-83.3333333333333,4,2,13,75,0,0
263059,-83.3333333333333,4,2,2,75,0,0
263296,-83.3333333333333,4,2,13,75,0,0
263375,-83.3333333333333,4,2,2,75,0,0
263612,-83.3333333333333,4,2,13,75,0,0
263691,-83.3333333333333,4,2,2,75,0,0
263928,-83.3333333333333,4,2,13,75,0,0
264007,-83.3333333333333,4,2,2,75,0,0
264243,-83.3333333333333,4,2,12,75,0,0
264322,-83.3333333333333,4,2,2,75,0,0
264559,-83.3333333333333,4,2,13,75,0,0
264638,-83.3333333333333,4,2,2,75,0,0
264875,-83.3333333333333,4,2,13,75,0,0
264954,-83.3333333333333,4,2,2,75,0,0
265191,-83.3333333333333,4,2,13,75,0,0
265270,-83.3333333333333,4,2,2,75,0,0
265507,-83.3333333333333,4,2,13,75,0,0
265586,-83.3333333333333,4,2,2,75,0,0
265822,-83.3333333333333,4,2,13,75,0,0
265901,-83.3333333333333,4,2,2,75,0,0
266138,-83.3333333333333,4,2,13,75,0,0
266217,-83.3333333333333,4,2,2,75,0,0
266454,-83.3333333333333,4,2,13,75,0,0
266533,-83.3333333333333,4,2,2,75,0,0
267086,-83.3333333333333,4,2,12,75,0,0
267165,-83.3333333333333,4,2,2,75,0,0
267401,-83.3333333333333,4,2,12,75,0,0
267480,-83.3333333333333,4,2,2,75,0,0
268033,-71.4285714285714,4,2,2,75,0,0
268112,-71.4285714285714,4,2,1,75,0,0
268349,-100,4,2,1,75,0,0
268507,-100,4,2,2,75,0,0
268665,-100,4,2,3,75,0,0
269296,-100,4,2,3,55,0,0
270559,-100,4,2,4,75,0,0
271033,-222.222222222222,4,2,5,75,0,0
271665,-222.222222222222,4,2,5,75,0,0
272928,-222.222222222222,4,2,5,65,0,0
274191,-222.222222222222,4,2,5,55,0,0
275454,-222.222222222222,4,2,5,45,0,0
276717,-222.222222222222,4,2,5,35,0,0
277033,-222.222222222222,4,2,5,5,0,0

[Colours]
Combo1 : 164,72,255
Combo2 : 255,79,79
Combo3 : 255,159,64
Combo4 : 255,130,255

[HitObjects]
27,249,1350,6,0,P|142:250|221:337,1,233.999989288331,14|10,0:1|0:2,0:0:0:0:
486,128,1823,2,0,P|372:128|294:211,1,233.999989288331,10|10,0:2|0:2,0:0:0:0:
294,211,2455,1,10,0:2:0:0:
95,20,2613,6,0,P|104:136|90:252,1,233.999989288331,14|10,0:1|0:2,0:0:0:0:
416,363,3086,2,0,P|407:247|421:131,1,233.999989288331,10|10,0:2|0:2,0:0:0:0:
421,131,3718,1,10,0:2:0:0:
213,320,3876,6,0,P|99:311|21:227,1,233.999989288331,14|10,0:1|0:2,0:0:0:0:
343,251,4350,2,0,P|361:307|357:367,1,116.999994644165,10|0,0:2|0:0,0:0:0:0:
172,83,4665,2,0,P|155:138|158:196,1,116.999994644165,10|0,0:2|0:0,0:0:0:0:
370,3,4981,1,10,0:2:0:0:
370,3,5455,6,0,P|388:59|384:119,1,116.999994644165,14|0,0:2|0:0,0:0:0:0:
266,353,5771,2,0,B|298:241|218:241|244:125,1,233.999989288331,14|8,0:2|0:3,0:0:0:0:
314,35,6165,1,0,0:0:0:0:
314,35,6244,1,8,0:3:0:0:
314,35,6323,1,0,0:0:0:0:
314,35,6402,6,0,P|198:34|125:128,1,233.999989288331,14|10,0:1|0:2,0:0:0:0:
257,301,6876,2,0,P|373:282|489:280,1,233.999989288331,10|10,0:2|0:2,0:0:0:0:
490,280,7507,1,10,0:2:0:0:
254,82,7665,6,0,P|138:101|22:104,1,233.999989288331,14|10,0:1|0:2,0:0:0:0:
213,382,8139,2,0,P|275:286|257:174,1,233.999989288331,10|10,0:2|0:2,0:0:0:0:
257,174,8771,1,10,0:2:0:0:
53,374,8928,6,0,P|28:327|26:274,1,108,14|0,0:1|0:0,0:0:0:0:
49,345,9244,6,0,P|36:289|54:233,1,116.999994644165,8|0,0:2|0:0,0:0:0:0:
229,73,9560,6,0,P|254:120|256:173,1,108,14|0,0:1|0:0,0:0:0:0:
233,103,9876,6,0,P|246:159|227:214,1,116.999994644165,8|8,0:2|0:1,0:0:0:0:
32,156,10192,6,0,B|86:125|148:144|148:144|123:157,1,148.50000453186,14|0,0:2|0:0,0:0:0:0:
11,151,10507,2,0,P|83:118|163:128,1,161.999995056153,14|0,0:2|0:0,0:0:0:0:
99,204,10823,1,8,0:3:0:0:
321,36,10981,1,8,0:2:0:0:
334,24,11060,1,8,0:2:0:0:
348,13,11139,2,0,L|342:71,1,58.4999973220826,8|0,0:2|0:0,0:0:0:0:
313,319,11297,1,8,0:2:0:0:
313,318,12718,6,0,P|303:220|315:122,1,198.000006042481,14|8,0:1|0:2,0:0:0:0:
490,27,13192,1,2,0:2:0:0:
490,27,13271,1,2,0:2:0:0:
490,27,13350,1,10,0:1:0:0:
414,217,13507,1,2,0:2:0:0:
232,76,13665,2,0,P|281:78|325:99,1,99.0000030212403,10|2,0:2|0:2,0:0:0:0:
510,296,13981,5,10,0:1:0:0:
194,169,14139,1,2,0:2:0:0:
496,208,14297,5,10,0:2:0:0:
208,256,14455,1,2,0:2:0:0:
472,256,14613,5,10,0:1:0:0:
232,208,14771,1,2,0:2:0:0:
450,176,14928,5,10,0:2:0:0:
262,288,15086,1,2,0:2:0:0:
349,139,15244,6,0,B|330:238|389:237|370:332,1,198.000006042481,10|8,0:1|0:2,0:0:0:0:
236,180,15718,1,2,0:2:0:0:
236,180,15797,1,2,0:2:0:0:
236,180,15876,1,10,0:1:0:0:
152,371,16034,1,2,0:2:0:0:
0,271,16192,2,0,P|49:267|92:243,1,99.0000030212403,10|2,0:2|0:2,0:0:0:0:
16,24,16507,5,10,0:1:0:0:
128,256,16665,1,2,0:2:0:0:
96,32,16823,5,10,0:2:0:0:
160,240,16981,1,2,0:2:0:0:
176,48,17139,5,10,0:1:0:0:
192,232,17297,1,2,0:2:0:0:
256,72,17455,5,10,0:2:0:0:
224,232,17613,1,2,0:2:0:0:
452,51,17771,6,0,P|356:44|277:105,1,198.000006042481,14|8,0:1|0:2,0:0:0:0:
321,317,18244,1,2,0:2:0:0:
321,317,18323,1,2,0:2:0:0:
321,317,18402,1,10,0:1:0:0:
390,128,18560,1,2,0:2:0:0:
185,188,18718,2,0,P|172:139|160:92,1,99.0000030212403,10|2,0:2|0:2,0:0:0:0:
88,352,19034,5,10,0:1:0:0:
280,152,19192,1,2,0:2:0:0:
40,272,19350,5,10,0:2:0:0:
320,232,19507,1,2,0:2:0:0:
64,184,19665,5,10,0:3:0:0:
312,328,19823,1,10,0:2:0:0:
312,328,19902,1,8,0:2:0:0:
312,328,19981,1,10,0:2:0:0:
170,135,20139,1,10,0:2:0:0:
170,135,20218,1,8,0:2:0:0:
170,135,20297,6,0,B|173:187|163:222|163:222|187:193|236:169,1,175.499991966248,14|0,0:1|0:0,0:0:0:0:
148,30,20613,2,0,P|81:83|65:168,1,175.499991966248,10|0,0:2|0:0,0:0:0:0:
266,273,20928,2,0,P|322:208|324:122,1,175.499991966248,10|0,0:2|0:0,0:0:0:0:
167,200,21244,2,0,P|172:288|166:374,1,175.499991966248,10|0,0:2|0:0,0:0:0:0:
345,184,21560,6,0,P|339:95|346:10,1,175.499991966248,14|0,0:2|0:0,0:0:0:0:
346,9,21876,1,10,0:2:0:0:
512,178,22034,1,8,0:2:0:0:
512,178,22113,1,8,0:2:0:0:
512,178,22192,1,10,0:2:0:0:
271,273,22350,5,8,0:2:0:0:
234,255,22428,1,8,0:0:0:0:
193,250,22507,1,8,0:2:0:0:
154,262,22586,1,8,0:2:0:0:
118,285,22665,1,8,0:2:0:0:
102,323,22744,1,8,0:2:0:0:
104,371,22823,6,0,P|117:273|103:175,1,198.000006042481,14|8,0:1|0:2,0:0:0:0:
7,29,23297,1,2,0:2:0:0:
7,29,23376,1,2,0:2:0:0:
7,29,23455,1,10,0:1:0:0:
31,247,23613,1,2,0:2:0:0:
114,75,23771,1,8,0:2:0:0:
362,230,23928,6,0,P|289:228|224:266,1,148.50000453186,2|0,0:2|0:0,0:0:0:0:
180,336,24244,1,2,0:2:0:0:
258,97,24402,1,10,0:2:0:0:
107,299,24560,1,2,0:2:0:0:
360,269,24718,5,10,0:1:0:0:
97,215,24876,1,2,0:2:0:0:
318,196,25034,5,10,0:2:0:0:
142,285,25192,1,2,0:2:0:0:
30,129,25350,6,0,P|127:120|202:181,1,198.000006042481,10|8,0:1|0:2,0:0:0:0:
42,345,25823,1,2,0:2:0:0:
42,345,25902,1,2,0:2:0:0:
42,345,25981,1,10,0:1:0:0:
253,286,26139,1,2,0:2:0:0:
97,215,26297,1,8,0:2:0:0:
332,372,26455,6,0,P|339:298|347:224,1,148.50000453186,2|0,0:2|0:0,0:0:0:0:
398,162,26771,1,2,0:2:0:0:
178,235,26928,1,10,0:2:0:0:
333,64,27086,1,2,0:2:0:0:
360,243,27244,5,10,0:1:0:0:
228,53,27402,1,2,0:2:0:0:
338,209,27560,5,10,0:2:0:0:
366,27,27718,1,2,0:2:0:0:
501,165,27876,5,14,0:1:0:0:
493,213,27955,1,0,0:0:0:0:
486,262,28034,1,8,0:2:0:0:
477,310,28113,1,8,0:2:0:0:
491,351,28192,5,10,0:2:0:0:
451,344,28271,1,0,0:0:0:0:
413,314,28350,5,10,0:3:0:0:
378,316,28428,1,8,0:3:0:0:
347,332,28507,1,8,0:3:0:0:
325,358,28586,1,8,0:3:0:0:
296,331,28665,5,10,0:3:0:0:
272,312,28744,1,8,0:3:0:0:
242,306,28823,1,8,0:3:0:0:
212,311,28902,1,0,0:0:0:0:
173,347,28981,6,0,P|179:274|170:200,1,148.50000453186,14|0,0:1|0:0,0:0:0:0:
97,153,29297,1,10,0:2:0:0:
330,53,29455,1,10,0:2:0:0:
276,258,29613,1,10,0:2:0:0:
125,59,29771,5,14,0:2:0:0:
442,201,29928,1,10,0:2:0:0:
442,201,30007,1,10,0:2:0:0:
442,201,30086,1,10,0:2:0:0:
83,309,30244,1,10,0:3:0:0:
394,55,30402,5,14,0:1:0:0:
364,130,30718,1,10,0:1:0:0:
397,203,31034,1,8,0:1:0:0:
472,232,31350,1,8,0:1:0:0:
262,356,31665,5,10,0:1:0:0:
286,279,31981,1,8,0:1:0:0:
226,225,32297,1,8,0:1:0:0:
253,149,32613,1,8,0:1:0:0:
75,35,32928,5,8,0:1:0:0:
33,104,33244,1,10,0:1:0:0:
105,139,33560,1,8,0:1:0:0:
150,72,33876,1,8,0:1:0:0:
82,281,34192,6,0,L|94:353,2,72,10|10|10,0:1|0:3|0:1,0:0:0:0:
187,163,34665,1,2,0:2:0:0:
173,301,34823,1,8,0:1:0:0:
100,195,34981,1,8,0:3:0:0:
100,195,35060,1,8,0:3:0:0:
100,195,35139,1,10,0:1:0:0:
202,282,35297,1,8,0:3:0:0:
321,157,35455,6,0,P|327:85|319:13,1,144,14|8,0:1|0:1,0:0:0:0:
229,106,35928,1,2,0:3:0:0:
265,223,36086,2,0,P|295:240|335:249,1,72,8|2,0:1|0:2,0:0:0:0:
489,159,36402,2,0,P|454:166|422:184,1,72,10|0,0:1|0:0,0:0:0:0:
414,195,36639,1,0,0:0:0:0:
408,208,36718,6,0,P|411:243|413:279,1,72,10|2,0:1|0:3,0:0:0:0:
502,250,37034,1,8,0:1:0:0:
386,366,37192,2,0,P|351:354|316:347,2,72,2|8|2,0:3|0:1|0:2,0:0:0:0:
313,182,37665,1,10,0:1:0:0:
313,182,37981,5,14,0:1:0:0:
186,231,38139,1,8,0:3:0:0:
186,231,38218,1,0,0:0:0:0:
186,231,38297,1,10,0:1:0:0:
350,278,38455,1,8,0:3:0:0:
168,144,38613,6,0,L|203:139,1,36,10|0,0:1|0:0,0:0:0:0:
348,175,38771,2,0,L|312:181,1,36,10|0,0:3|0:0,0:0:0:0:
180,121,38928,2,0,L|226:114,1,36,10|0,0:1|0:0,0:0:0:0:
360,149,39086,2,0,L|314:156,1,36,10|0,0:3|0:0,0:0:0:0:
150,38,39244,5,14,0:1:0:0:
372,130,39402,1,2,0:0:0:0:
169,202,39560,1,2,0:2:0:0:
331,281,39718,1,2,0:2:0:0:
193,339,39876,6,0,P|246:343|290:373,1,108,8|8,0:3|0:2,0:0:0:0:
290,373,40192,6,0,P|280:285|272:198,1,175.499991966248,10|0,0:2|0:2,0:0:0:0:
228,30,40507,6,0,L|216:119,1,90,14|0,0:1|0:0,0:0:0:0:
35,93,40823,2,0,P|75:74|121:75,1,90,10|2,0:2|0:3,0:0:0:0:
200,218,41139,1,8,0:1:0:0:
47,313,41297,1,2,0:2:0:0:
98,155,41455,2,0,P|104:199|110:244,1,90,8|2,0:2|0:3,0:0:0:0:
282,355,41771,6,0,P|370:356|436:296,1,180,10|8,0:1|0:2,0:0:0:0:
243,223,42244,1,2,0:3:0:0:
432,155,42402,1,10,0:1:0:0:
337,263,42560,1,2,0:2:0:0:
369,75,42718,2,0,P|410:58|455:56,1,90,10|2,0:2|0:3,0:0:0:0:
237,122,43034,6,0,P|193:112|155:88,1,90,10|2,0:1|0:3,0:0:0:0:
298,28,43350,1,10,0:2:0:0:
346,212,43507,2,0,P|256:223|173:256,1,180,2|2,0:2|0:2,0:0:0:0:
48,197,43981,1,10,0:2:0:0:
156,48,44139,6,0,P|175:88|178:138,1,90,2|8,0:2|0:1,0:0:0:0:
83,304,44455,2,0,P|63:263|63:217,1,90,2|8,0:2|0:2,0:0:0:0:
244,210,44771,2,0,P|204:231|159:235,1,90,2|8,0:2|0:1,0:0:0:0:
303,78,45086,1,2,0:2:0:0:
396,48,45244,2,0,P|440:54|479:75,1,90,10|2,0:2|0:3,0:0:0:0:
395,271,45560,6,0,L|405:179,1,90,8|2,0:1|0:3,0:0:0:0:
265,24,45876,2,0,L|276:113,1,90,10|2,0:2|0:3,0:0:0:0:
209,255,46192,1,10,0:1:0:0:
37,216,46350,2,0,P|80:204|125:202,1,90,2|8,0:3|0:2,0:0:0:0:
289,134,46665,1,2,0:2:0:0:
223,353,46823,6,0,P|179:349|141:326,1,90,8|2,0:1|0:2,0:0:0:0:
196,165,47139,2,0,L|209:255,1,90,10|2,0:2|0:3,0:0:0:0:
321,72,47455,2,0,L|309:168,1,90,10|2,0:1|0:3,0:0:0:0:
124,83,47771,2,0,P|167:71|210:59,1,90,10|2,0:2|0:3,0:0:0:0:
388,284,48086,6,0,P|344:271|301:261,1,90,14|0,0:1|0:0,0:0:0:0:
440,126,48402,2,0,P|449:167|461:213,1,90,8|2,0:2|0:3,0:0:0:0:
296,234,48718,1,8,0:1:0:0:
411,115,48876,1,2,0:3:0:0:
277,19,49034,2,0,P|267:60|256:106,1,90,8|2,0:2|0:3,0:0:0:0:
138,339,49350,6,0,L|129:286,1,53.9999983520508,14|0,0:1|0:0,0:0:0:0:
227,94,49507,2,0,L|242:156,1,53.9999983520508,10|0,0:1|0:0,0:0:0:0:
107,321,49665,1,10,0:2:0:0:
147,119,49823,2,0,B|165:195|165:195|205:242|205:242|221:316,1,215.999993408203,14|8,0:1|0:3,0:0:0:0:
26,204,50297,1,8,0:3:0:0:
386,59,50613,5,8,0:2:0:0:
386,59,50928,2,0,P|461:69|419:125,1,175.499991966248,10|0,0:2|0:0,0:0:0:0:
283,137,51244,2,0,B|366:112|375:175|453:144,1,175.499991966248,10|8,0:2|0:2,0:0:0:0:
322,216,51560,2,0,P|258:218|204:182,1,116.999994644165,8|8,0:2|0:3,0:0:0:0:
123,42,51876,5,14,0:1:0:0:
69,194,52034,1,2,0:2:0:0:
138,76,52192,1,2,0:2:0:0:
215,253,52350,1,10,0:1:0:0:
302,121,52507,2,0,P|235:127|181:166,1,135,8|0,0:2|0:0,0:0:0:0:
157,201,52823,2,0,P|150:156|132:115,1,90,2|0,0:2|0:0,0:0:0:0:
13,329,53139,5,8,0:1:0:0:
12,329,53455,2,0,P|98:322|159:381,1,175.499991966248,10|0,0:1|0:0,0:0:0:0:
203,234,53771,2,0,P|210:176|218:116,1,116.999994644165,14|8,0:2|0:2,0:0:0:0:
210,103,54007,1,8,0:2:0:0:
201,87,54086,1,8,0:2:0:0:
108,279,54244,1,8,0:3:0:0:
309,182,54402,6,0,L|353:189,1,45,14|0,0:1|0:0,0:0:0:0:
503,312,54560,2,0,L|455:304,1,45,8|0,0:1|0:0,0:0:0:0:
325,344,54718,2,0,L|329:298,1,45,10|0,0:2|0:0,0:0:0:0:
449,104,54876,2,0,P|439:193|430:283,1,180,14|8,0:1|0:2,0:0:0:0:
417,295,55271,1,8,0:2:0:0:
406,309,55350,1,8,0:2:0:0:
322,96,55507,1,8,0:3:0:0:
99,264,55665,5,14,0:1:0:0:
98,263,55981,2,0,P|185:273|236:198,1,175.499991966248,10|0,0:2|0:0,0:0:0:0:
182,25,56297,2,0,B|190:109|137:110|150:197,1,175.499991966248,10|0,0:1|0:0,0:0:0:0:
100,47,56613,1,8,0:2:0:0:
240,163,56771,1,2,0:3:0:0:
62,256,56928,5,10,0:1:0:0:
259,156,57086,1,2,0:2:0:0:
177,347,57244,1,10,0:2:0:0:
132,142,57402,1,2,0:2:0:0:
330,218,57560,2,0,P|339:174|349:131,1,90,8|2,0:1|0:2,0:0:0:0:
184,247,57876,2,0,P|193:290|201:335,1,90,10|2,0:2|0:2,0:0:0:0:
378,320,58192,5,14,0:1:0:0:
246,138,58350,1,8,0:1:0:0:
426,217,58507,2,0,P|357:211|298:240,1,135,8|0,0:2|0:0,0:0:0:0:
230,290,58823,5,14,0:1:0:0:
278,67,58981,1,8,0:1:0:0:
76,132,59139,2,0,P|149:128|210:168,1,148.50000453186,8|0,0:2|0:0,0:0:0:0:
259,252,59455,5,14,0:1:0:0:
208,34,59613,1,8,0:1:0:0:
395,128,59771,1,8,0:2:0:0:
323,346,59928,2,0,P|216:358|152:271,1,215.999993408203,14|8,0:1|0:3,0:0:0:0:
251,179,60323,1,8,0:3:0:0:
254,175,60402,1,8,0:3:0:0:
257,171,60481,1,8,0:3:0:0:
260,167,60560,1,8,0:3:0:0:
263,163,60639,1,8,0:3:0:0:
266,159,60718,6,0,P|261:212|256:266,1,108,2|0,0:2|0:0,0:0:0:0:
209,367,61034,6,0,P|216:279|223:192,1,175.499991966248,10|0,0:2|0:0,0:0:0:0:
321,44,61350,2,0,P|315:103|309:161,1,116.999994644165,14|8,0:2|0:2,0:0:0:0:
356,236,61586,1,8,0:2:0:0:
356,236,61665,1,8,0:2:0:0:
445,37,61823,1,8,0:3:0:0:
227,95,61981,5,14,0:1:0:0:
444,190,62139,1,2,0:2:0:0:
300,226,62297,1,10,0:2:0:0:
371,69,62455,1,2,0:2:0:0:
350,323,62613,2,0,P|284:308|217:299,1,135,8|0,0:1|0:0,0:0:0:0:
115,353,62928,2,0,P|159:346|196:321,1,90,10|2,0:2|0:3,0:0:0:0:
90,112,63244,6,0,P|98:156|105:200,1,90,10|2,0:1|0:3,0:0:0:0:
259,59,63560,2,0,P|215:50|171:42,1,90,10|2,0:2|0:3,0:0:0:0:
90,225,63876,1,10,0:1:0:0:
286,185,64034,2,0,L|241:178,1,45,10|0,0:1|0:0,0:0:0:0:
77,244,64192,2,0,L|123:249,1,45,10|0,0:2|0:0,0:0:0:0:
320,289,64350,6,0,P|331:190|344:92,1,198.000006042481,14|10,0:1|0:1,0:0:0:0:
495,111,64823,1,10,0:2:0:0:
376,373,64981,2,0,P|280:374|219:299,1,198.000006042481,14|8,0:1|0:1,0:0:0:0:
450,213,65455,2,0,L|459:303,1,90,8|0,0:2|0:0,0:0:0:0:
338,173,65771,5,14,0:1:0:0:
404,79,65928,1,2,0:2:0:0:
342,273,66086,1,10,0:2:0:0:
204,185,66244,2,0,P|271:178|338:173,1,135,2|0,0:2|0:0,0:0:0:0:
416,213,66560,1,2,0:2:0:0:
318,63,66718,1,10,0:2:0:0:
219,281,66876,6,0,P|146:268|105:205,1,148.50000453186,2|0,0:2|0:0,0:0:0:0:
120,121,67192,1,2,0:2:0:0:
318,249,67350,1,10,0:2:0:0:
229,39,67507,6,0,B|241:112|188:123|201:197,1,161.999995056153,2|0,0:2|0:0,0:0:0:0:
251,276,67823,1,2,0:2:0:0:
47,44,67981,1,10,0:2:0:0:
394,281,68297,5,14,0:1:0:0:
427,39,68455,1,2,0:2:0:0:
257,214,68613,1,10,0:2:0:0:
497,172,68771,1,2,0:2:0:0:
277,65,68928,1,10,0:3:0:0:
415,319,69086,1,10,0:2:0:0:
415,319,69165,1,10,0:2:0:0:
415,319,69244,1,10,0:2:0:0:
150,247,69402,6,0,L|162:112,1,135,14|0,0:1|0:0,0:0:0:0:
89,54,69718,1,10,0:1:0:0:
248,254,69876,1,14,0:2:0:0:
15,206,70034,1,8,0:3:0:0:
15,206,70113,1,8,0:3:0:0:
15,206,70192,1,8,0:3:0:0:
237,79,70350,1,8,0:3:0:0:
281,344,70507,1,8,0:3:0:0:
498,225,70665,6,0,P|417:215|337:207,1,161.999995056153,14|0,0:1|0:0,0:0:0:0:
248,254,70981,1,10,0:2:0:0:
438,358,71139,1,10,0:2:0:0:
320,86,71297,1,10,0:2:0:0:
217,289,71455,1,10,0:2:0:0:
415,254,71613,1,10,0:2:0:0:
69,169,71771,1,10,0:2:0:0:
453,74,71928,1,10,0:2:0:0:
210,24,72244,5,10,0:2:0:0:
302,360,72402,1,10,0:2:0:0:
393,159,72718,5,14,0:2:0:0:
393,159,74613,5,2,0:2:0:0:
386,173,74692,1,0,0:0:0:0:
383,189,74771,1,0,0:0:0:0:
383,205,74850,1,0,0:0:0:0:
388,220,74928,1,0,0:0:0:0:
398,232,75007,1,0,0:0:0:0:
405,218,75086,1,0,0:0:0:0:
408,202,75165,1,0,0:0:0:0:
408,186,75244,1,0,0:0:0:0:
403,171,75322,1,0,0:0:0:0:
393,159,75402,2,0,P|380:188|380:224,1,58.4999973220826
262,378,75560,6,0,L|231:177,1,202.500007724762,10|0,0:2|0:0,0:0:0:0:
330,9,75876,6,0,P|319:62|310:115,1,107.999996704102,14|0,0:1|0:0,0:0:0:0:
76,35,76192,2,0,P|129:36|178:58,1,107.999996704102,10|0,0:2|0:0,0:0:0:0:
280,269,76507,1,10,0:1:0:0:
101,173,76665,2,0,L|109:105,1,53.9999983520508,0|2,0:0|0:2,0:0:0:0:
312,61,76823,1,10,0:2:0:0:
175,286,76981,1,2,0:2:0:0:
133,102,77139,5,10,0:1:0:0:
386,194,77297,1,2,0:2:0:0:
151,268,77455,1,10,0:2:0:0:
358,203,77613,1,2,0:2:0:0:
165,48,77771,6,0,L|177:106,1,53.9999983520508,10|0,0:1|0:0,0:0:0:0:
333,142,77928,2,0,L|322:195,1,53.9999983520508
213,370,78086,6,0,L|199:318,1,53.9999983520508,8|0,0:2|0:0,0:0:0:0:
295,229,78244,2,0,L|304:176,1,53.9999983520508,2|0,0:2|0:0,0:0:0:0:
174,17,78402,6,0,L|193:123,1,107.999996704102,8|2,0:1|0:2,0:0:0:0:
0,255,78718,1,10,0:2:0:0:
111,90,78876,1,2,0:2:0:0:
214,346,79034,1,10,0:1:0:0:
311,183,79192,1,2,0:2:0:0:
289,185,79271,1,0,0:0:0:0:
267,187,79350,1,10,0:2:0:0:
90,340,79507,1,2,0:2:0:0:
132,78,79665,6,0,L|143:190,1,107.999996704102,10|10,0:1|0:2,0:0:0:0:
134,199,79902,1,10,0:2:0:0:
127,213,79981,1,10,0:2:0:0:
329,90,80139,6,0,P|407:56|401:140,1,202.500007724762,10|0,0:2|0:0,0:0:0:0:
312,77,80455,2,0,P|422:43|415:157,1,270.000010299683,14|8,0:2|0:2,0:0:0:0:
205,131,80850,1,8,0:2:0:0:
205,131,80928,6,0,P|195:77|183:25,1,107.999996704102,14|0,0:1|0:0,0:0:0:0:
346,210,81244,2,0,P|330:261|315:313,1,107.999996704102,10|0,0:2|0:0,0:0:0:0:
77,368,81560,1,10,0:1:0:0:
192,212,81718,2,0,P|218:208|245:203,1,53.9999983520508,0|2,0:0|0:2,0:0:0:0:
19,110,81876,1,10,0:2:0:0:
162,318,82034,1,2,0:2:0:0:
145,68,82192,5,8,0:1:0:0:
45,285,82350,1,2,0:2:0:0:
210,125,82507,1,10,0:2:0:0:
131,281,82665,1,2,0:2:0:0:
301,122,82823,6,0,L|290:67,1,53.9999983520508,10|0,0:1|0:0,0:0:0:0:
238,314,82981,1,0,0:0:0:0:
458,186,83139,6,0,L|403:198,1,53.9999983520508,8|0,0:2|0:0,0:0:0:0:
210,125,83297,1,2,0:2:0:0:
369,310,83455,5,12,0:1:0:0:
460,66,83613,1,2,0:2:0:0:
232,142,83771,5,10,0:2:0:0:
482,220,83928,1,10,0:1:0:0:
215,40,84086,5,10,0:2:0:0:
287,338,84244,1,10,0:1:0:0:
9,245,84402,5,10,0:2:0:0:
339,162,84560,1,10,0:1:0:0:
21,19,84718,6,0,P|32:71|42:124,1,107.999996704102,14|8,0:2|0:1,0:0:0:0:
169,378,85034,2,0,P|179:324|189:272,1,107.999996704102,12|0,0:2|0:2,0:0:0:0:
162,124,85350,5,8,0:2:0:0:
267,355,85507,1,8,0:2:0:0:
484,267,85665,1,10,0:2:0:0:
476,213,85744,1,8,0:2:0:0:
469,159,85823,1,10,0:2:0:0:
460,105,85902,1,8,0:2:0:0:
452,47,85981,6,0,P|376:37|321:98,1,161.999995056153,14|0,0:1|0:0,0:0:0:0:
311,182,86297,1,10,0:2:0:0:
159,11,86455,1,2,0:2:0:0:
2,179,86613,2,0,P|55:171|108:162,1,107.999996704102,10|2,0:1|0:3,0:0:0:0:
315,347,86928,1,8,0:2:0:0:
79,260,87086,1,2,0:2:0:0:
278,124,87244,5,8,0:1:0:0:
175,361,87402,1,2,0:2:0:0:
123,152,87560,1,10,0:2:0:0:
302,273,87718,1,2,0:2:0:0:
474,51,87876,2,0,P|420:42|367:32,1,107.999996704102,10|2,0:1|0:3,0:0:0:0:
434,251,88192,2,0,L|486:240,1,53.9999983520508,10|0,0:2|0:0,0:0:0:0:
359,129,88350,2,0,L|305:121,1,53.9999983520508,2|0,0:3|0:0,0:0:0:0:
198,267,88507,6,0,P|144:274|91:283,1,107.999996704102,10|2,0:1|0:3,0:0:0:0:
221,121,88823,1,10,0:2:0:0:
338,343,88981,1,2,0:2:0:0:
406,87,89139,5,10,0:1:0:0:
316,318,89297,1,2,0:2:0:0:
221,121,89455,5,10,0:2:0:0:
335,291,89613,1,2,0:2:0:0:
406,87,89771,6,0,B|381:38|340:20|340:20|361:82|336:125,1,202.500007724762,10|0,0:1|0:0,0:0:0:0:
271,190,90086,2,0,B|296:141|337:123|337:123|316:185|341:228,1,202.500007724762,10|0,0:2|0:0,0:0:0:0:
430,306,90402,2,0,P|335:258|368:358,1,270.000010299683,10|8,0:1|0:2,0:0:0:0:
512,246,90876,1,2,0:2:0:0:
245,206,91034,6,0,P|219:252|214:306,1,107.999996704102,12|2,0:1|0:2,0:0:0:0:
408,192,91350,1,10,0:2:0:0:
253,41,91507,1,2,0:2:0:0:
316,281,91665,2,0,L|423:294,1,107.999996704102,10|2,0:1|0:3,0:0:0:0:
243,130,91981,1,8,0:2:0:0:
177,355,92139,1,2,0:2:0:0:
349,158,92297,6,0,L|337:50,1,107.999996704102,8|2,0:1|0:2,0:0:0:0:
143,216,92613,1,10,0:2:0:0:
326,378,92770,1,2,0:2:0:0:
243,130,92928,1,10,0:1:0:0:
185,362,93086,1,8,0:2:0:0:
185,362,93165,1,8,0:2:0:0:
185,362,93244,1,8,0:2:0:0:
366,257,93402,1,8,0:3:0:0:
100,92,93560,5,14,0:1:0:0:
385,196,93718,1,2,0:2:0:0:
134,251,93876,1,10,0:2:0:0:
403,157,94034,1,10,0:1:0:0:
187,341,94192,5,14,0:1:0:0:
312,60,94350,1,2,0:2:0:0:
377,356,94507,1,8,0:2:0:0:
143,146,94665,1,8,0:1:0:0:
445,259,94823,6,0,P|450:205|458:152,1,107.999996704102,14|8,0:2|0:1,0:0:0:0:
74,19,95139,2,0,P|69:72|61:126,1,107.999996704102,12|0,0:2|0:0,0:0:0:0:
291,324,95455,1,10,0:3:0:0:
376,59,95613,1,10,0:2:0:0:
376,59,95692,1,10,0:2:0:0:
376,59,95771,1,10,0:2:0:0:
141,138,95928,1,10,0:1:0:0:
431,225,96086,5,2,0:2:0:0:
431,225,97350,6,0,P|418:145|428:65,2,161.999995056153,14|8|8,0:1|0:1|0:1,0:0:0:0:
219,222,98613,6,0,P|258:186|311:180,1,107.999996704102,10|8,0:2|0:3,0:0:0:0:
402,321,99086,1,10,0:3:0:0:
402,321,99165,1,8,0:3:0:0:
402,321,99244,1,8,0:2:0:0:
294,260,99402,1,8,0:2:0:0:
417,208,99560,1,0,0:0:0:0:
317,276,99718,1,8,0:3:0:0:
435,343,99876,6,0,P|355:347|281:378,2,161.999995056153,8|8|8,0:1|0:1|0:1,0:0:0:0:
205,307,101139,6,0,P|153:296|117:257,1,107.999996704102,10|10,0:2|0:3,0:0:0:0:
249,111,101613,1,10,0:3:0:0:
249,111,101692,1,8,0:3:0:0:
249,111,101771,1,8,0:2:0:0:
197,223,101928,1,8,0:2:0:0:
141,127,102086,1,2,0:2:0:0:
236,228,102244,1,8,0:3:0:0:
288,71,102402,6,0,P|207:66|133:35,2,161.999995056153,10|8|10,0:1|0:1|0:1,0:0:0:0:
45,108,103665,6,0,P|13:151|14:204,1,107.999996704102,10|0,0:2|0:0,0:0:0:0:
144,318,104139,1,8,0:3:0:0:
144,318,104218,1,8,0:3:0:0:
144,318,104297,1,8,0:2:0:0:
99,169,104455,1,10,0:3:0:0:
38,291,104613,2,0,L|43:317,1,26.9999991760254,10|0,0:3|0:0,0:0:0:0:
119,267,104771,6,0,P|122:226|126:186,1,80.9999975280763,14|0,0:1|0:0,0:0:0:0:
90,115,105086,2,0,P|94:142|99:168,1,53.9999983520508,8|0,0:3|0:0,0:0:0:0:
224,266,105402,1,8,0:3:0:0:
224,266,105481,1,8,0:3:0:0:
224,266,105560,1,8,0:3:0:0:
190,132,105718,1,8,0:3:0:0:
196,284,105876,1,8,0:3:0:0:
278,199,106034,1,8,0:1:0:0:
153,79,106192,5,10,0:2:0:0:
324,12,106350,1,2,0:2:0:0:
303,179,106507,1,2,0:2:0:0:
259,95,106665,1,10,0:3:0:0:
259,95,106744,1,8,0:3:0:0:
259,95,106823,1,8,0:3:0:0:
398,169,106981,1,10,0:3:0:0:
102,240,107139,6,0,P|198:257|263:310,1,175.499991966248,10|0,0:2|0:0,0:0:0:0:
412,380,107455,6,0,P|414:335|426:291,1,90,14|0,0:1|0:0,0:0:0:0:
509,126,107771,2,0,P|470:149|426:159,1,90,10|2,0:2|0:3,0:0:0:0:
267,105,108086,1,8,0:1:0:0:
431,53,108244,1,2,0:2:0:0:
363,242,108402,2,0,P|318:228|281:204,1,90,8|2,0:2|0:3,0:0:0:0:
157,22,108718,6,0,P|168:111|157:200,1,180,10|8,0:1|0:2,0:0:0:0:
44,331,109192,1,2,0:3:0:0:
74,132,109350,1,10,0:1:0:0:
126,287,109507,1,2,0:2:0:0:
44,235,109665,2,0,P|38:188|46:145,1,90,10|2,0:2|0:3,0:0:0:0:
247,7,109981,6,0,L|258:96,1,90,10|2,0:1|0:3,0:0:0:0:
137,194,110297,1,10,0:2:0:0:
62,62,110455,2,0,P|106:63|146:82,1,90,2|8,0:2|0:1,0:0:0:0:
313,222,110771,1,2,0:2:0:0:
237,89,110928,1,10,0:2:0:0:
185,276,111086,6,0,P|193:320|200:364,1,90,2|8,0:2|0:1,0:0:0:0:
340,219,111402,2,0,P|347:175|354:131,1,90,2|8,0:2|0:2,0:0:0:0:
152,20,111718,2,0,P|160:64|167:108,1,90,2|8,0:2|0:1,0:0:0:0:
48,240,112034,1,2,0:2:0:0:
84,101,112192,1,10,0:2:0:0:
185,262,112350,1,2,0:2:0:0:
385,45,112507,6,0,P|341:46|299:68,1,90,12|0,0:1|0:0,0:0:0:0:
462,204,112823,2,0,P|476:157|473:114,1,90,10|2,0:2|0:3,0:0:0:0:
350,170,113139,1,10,0:1:0:0:
287,245,113297,2,0,P|288:289|304:333,1,90,2|8,0:2|0:2,0:0:0:0:
371,140,113613,6,0,P|326:134|282:126,1,90,2|8,0:2|0:1,0:0:0:0:
188,46,113928,1,2,0:2:0:0:
92,229,114086,2,0,P|137:223|186:197,1,90,10|2,0:2|0:3,0:0:0:0:
91,40,114402,2,0,P|99:84|108:128,1,90,10|2,0:1|0:3,0:0:0:0:
266,279,114718,2,0,P|274:234|283:190,1,90,10|2,0:2|0:3,0:0:0:0:
109,313,115034,6,0,P|153:326|190:348,1,90,14|0,0:1|0:0,0:0:0:0:
88,187,115350,2,0,P|43:193|-1:199,1,90,8|2,0:2|0:3,0:0:0:0:
141,96,115665,1,8,0:1:0:0:
227,243,115823,1,2,0:3:0:0:
329,125,115981,2,0,P|324:80|318:35,1,90,8|2,0:2|0:3,0:0:0:0:
478,223,116297,6,0,P|451:227|424:230,1,53.9999983520508,14|0,0:1|0:0,0:0:0:0:
232,328,116455,2,0,P|258:331|285:335,1,53.9999983520508,10|0,0:1|0:0,0:0:0:0:
410,143,116613,1,10,0:2:0:0:
366,364,116771,2,0,B|378:292|330:276|345:205,1,161.999995056153,14|0,0:1|0:0,0:0:0:0:
431,90,117086,6,0,P|437:116|433:155,1,62.9999980773926,10|0,0:3|0:0,0:0:0:0:
344,206,117244,2,0,P|313:198|288:179,1,62.9999980773926,10|0,0:3|0:0,0:0:0:0:
284,69,117402,2,0,P|308:49|337:36,1,62.9999980773926,10|0,0:3|0:0,0:0:0:0:
402,288,117560,5,10,0:2:0:0:
402,288,117876,2,0,B|400:243|410:200|410:200|375:230|336:245,1,175.499991966248,10|0,0:2|0:0,0:0:0:0:
481,235,118192,2,0,B|495:173|455:124|455:124|384:114|347:153,1,233.999989288331,14|8,0:2|0:3,0:0:0:0:
90,352,118823,5,14,0:1:0:0:
28,205,118981,1,2,0:2:0:0:
109,319,119139,1,2,0:2:0:0:
71,212,119297,1,10,0:1:0:0:
188,365,119455,2,0,P|196:299|206:232,1,135,8|0,0:2|0:0,0:0:0:0:
159,146,119771,2,0,P|167:190|176:234,1,90,2|0,0:2|0:0,0:0:0:0:
7,69,120086,5,10,0:2:0:0:
7,69,120402,2,0,P|95:70|172:28,1,175.499991966248,10|0,0:2|0:0,0:0:0:0:
325,179,120718,2,0,P|267:170|217:140,1,116.999994644165,14|8,0:2|0:2,0:0:0:0:
206,126,120955,1,8,0:2:0:0:
200,109,121034,1,8,0:2:0:0:
395,52,121192,1,8,0:3:0:0:
479,233,121350,6,0,L|424:243,1,45,14|0,0:1|0:0,0:0:0:0:
309,327,121507,2,0,L|367:340,1,45,10|0,0:1|0:0,0:0:0:0:
442,209,121665,2,0,L|397:218,1,45,10|0,0:2|0:0,0:0:0:0:
290,352,121823,2,0,P|281:262|272:172,1,180,14|8,0:1|0:2,0:0:0:0:
285,160,122218,1,8,0:2:0:0:
296,146,122297,1,8,0:2:0:0:
402,326,122455,1,8,0:3:0:0:
68,228,122613,5,14,0:1:0:0:
68,228,122928,2,0,P|154:219|220:272,1,175.499991966248,10|0,0:2|0:0,0:0:0:0:
319,149,123244,2,0,P|233:140|167:193,1,175.499991966248,10|0,0:1|0:0,0:0:0:0:
129,299,123560,1,8,0:2:0:0:
58,103,123718,1,2,0:3:0:0:
260,227,123876,5,10,0:1:0:0:
63,193,124034,1,2,0:2:0:0:
240,109,124192,1,10,0:2:0:0:
156,287,124350,1,2,0:2:0:0:
128,102,124507,2,0,P|135:57|141:13,1,90,8|2,0:1|0:2,0:0:0:0:
0,95,124823,1,10,0:2:0:0:
223,207,124981,1,2,0:2:0:0:
14,287,125139,5,14,0:1:0:0:
128,102,125297,1,8,0:1:0:0:
204,231,125455,2,0,P|140:208|73:206,1,135,8|0,0:2|0:0,0:0:0:0:
0,265,125771,5,14,0:1:0:0:
154,85,125929,1,8,0:1:0:0:
228,248,126086,2,0,P|154:243|80:263,1,148.50000453186,8|0,0:2|0:0,0:0:0:0:
34,338,126402,5,14,0:1:0:0:
261,266,126560,1,8,0:1:0:0:
46,118,126718,1,8,0:2:0:0:
196,356,126876,2,0,P|300:361|371:284,1,215.999993408203,14|8,0:1|0:3,0:0:0:0:
280,161,127271,1,8,0:3:0:0:
275,165,127350,1,8,0:3:0:0:
270,169,127428,1,8,0:3:0:0:
265,171,127507,1,8,0:3:0:0:
261,173,127586,1,8,0:3:0:0:
256,175,127665,6,0,P|233:221|266:268,1,108,2|0,0:2|0:0,0:0:0:0:
368,145,127981,6,0,P|281:140|204:99,1,175.499991966248,10|0,0:2|0:0,0:0:0:0:
347,54,128297,2,0,P|404:60|451:96,1,116.999994644165,14|8,0:2|0:2,0:0:0:0:
498,178,128534,1,8,0:2:0:0:
498,178,128613,1,8,0:2:0:0:
290,240,128771,1,8,0:3:0:0:
368,145,128928,5,14,0:1:0:0:
331,357,129086,1,2,0:2:0:0:
178,211,129244,1,10,0:2:0:0:
407,262,129402,1,2,0:2:0:0:
176,366,129560,2,0,P|166:299|155:232,1,135,8|0,0:1|0:0,0:0:0:0:
203,145,129876,2,0,L|191:235,1,90,10|2,0:2|0:3,0:0:0:0:
283,72,130192,6,0,P|327:63|371:54,1,90,14|0,0:1|0:0,0:0:0:0:
165,244,130507,2,0,P|121:232|77:221,1,90,10|2,0:2|0:3,0:0:0:0:
269,97,130823,1,10,0:1:0:0:
57,11,130981,2,0,L|64:56,1,45,10|0,0:1|0:0,0:0:0:0:
195,225,131139,2,0,L|205:171,1,45,10|0,0:2|0:0,0:0:0:0:
39,86,131297,6,0,P|137:72|235:58,1,198.000006042481,14|10,0:1|0:1,0:0:0:0:
195,225,131771,1,10,0:2:0:0:
465,174,131928,2,0,P|379:123|281:143,1,198.000006042481,14|8,0:1|0:1,0:0:0:0:
342,314,132402,2,0,P|352:270|363:226,1,90,8|0,0:2|0:0,0:0:0:0:
194,111,132718,5,14,0:1:0:0:
267,226,132876,1,2,0:2:0:0:
307,37,133034,1,10,0:2:0:0:
123,185,133192,2,0,P|114:119|104:52,1,135,2|0,0:2|0:0,0:0:0:0:
34,10,133507,1,2,0:2:0:0:
241,93,133665,1,10,0:2:0:0:
201,287,133823,6,0,P|128:281|59:308,1,148.50000453186,2|0,0:2|0:0,0:0:0:0:
11,216,134139,1,2,0:2:0:0:
218,310,134297,1,10,0:2:0:0:
408,212,134455,6,0,P|416:131|424:50,1,161.999995056153,2|0,0:2|0:0,0:0:0:0:
512,12,134771,1,2,0:2:0:0:
485,268,134928,1,10,0:2:0:0:
117,58,135244,5,14,0:1:0:0:
84,300,135402,1,2,0:2:0:0:
254,125,135560,1,10,0:2:0:0:
14,167,135718,1,2,0:2:0:0:
234,274,135875,1,10,0:1:0:0:
214,27,136033,1,10,0:3:0:0:
214,27,136112,1,10,0:3:0:0:
214,27,136191,1,10,0:3:0:0:
0,247,136350,6,0,P|73:237|147:227,1,148.50000453186,14|0,0:2|0:0,0:0:0:0:
222,141,136665,2,0,L|162:125,1,58.4999973220826,10|2,0:3|0:2,0:0:0:0:
336,274,136823,2,0,L|392:258,1,58.4999973220826,10|0,0:3|0:0,0:0:0:0:
422,57,136981,5,8,0:2:0:0:
422,57,137060,1,8,0:2:0:0:
422,57,137139,2,0,P|396:68|376:89,1,58.4999973220826,8|0,0:2|0:0,0:0:0:0:
481,272,137297,2,0,P|482:243|474:215,1,58.4999973220826,8|8,0:3|0:3,0:0:0:0:
271,214,137455,2,0,P|294:231|322:239,1,58.4999973220826,8|0,0:3|0:0,0:0:0:0:
185,46,137613,6,0,P|107:44|36:99,1,161.999995056153,14|0,0:1|0:0,0:0:0:0:
8,197,137928,2,0,P|5:226|12:255,1,58.4999973220826,10|0,0:3|0:0,0:0:0:0:
192,150,138086,2,0,P|167:134|138:127,1,58.4999973220826,10|0,0:3|0:0,0:0:0:0:
95,323,138244,1,10,0:2:0:0:
95,323,138323,1,10,0:2:0:0:
95,323,138402,1,10,0:2:0:0:
400,267,138560,5,10,0:3:0:0:
53,185,138718,1,10,0:3:0:0:
463,58,138876,1,10,0:1:0:0:
80,82,139192,5,10,0:2:0:0:
458,187,139350,1,10,0:2:0:0:
27,356,139665,5,14,0:2:0:0:
27,356,141560,5,0,0:0:0:0:
40,346,141639,1,0,0:0:0:0:
55,341,141718,1,0,0:0:0:0:
71,339,141797,1,0,0:0:0:0:
86,341,141876,2,0,P|162:348|201:282,1,161.999995056153,2|0,0:2|0:0,0:0:0:0:
201,281,142192,6,0,P|136:289|91:238,1,135,2|0,0:2|0:0,0:0:0:0:
92,241,142507,6,0,P|144:234|179:195,1,108,2|0,0:2|0:0,0:0:0:0:
91,54,142823,6,0,P|98:107|106:160,1,107.999996704102,14|0,0:1|0:0,0:0:0:0:
348,363,143139,2,0,P|355:309|362:256,1,107.999996704102,10|0,0:2|0:0,0:0:0:0:
211,104,143455,1,10,0:1:0:0:
145,313,143613,2,0,P|171:308|198:305,1,53.9999983520508,0|2,0:0|0:2,0:0:0:0:
377,157,143771,1,10,0:2:0:0:
115,224,143928,1,2,0:2:0:0:
331,325,144086,5,10,0:1:0:0:
394,72,144244,1,2,0:2:0:0:
146,139,144402,1,10,0:2:0:0:
351,245,144560,1,2,0:2:0:0:
194,67,144718,6,0,L|139:56,1,53.9999983520508,10|0,0:1|0:0,0:0:0:0:
321,174,144876,2,0,L|375:165,1,53.9999983520508
198,252,145034,6,0,L|189:198,1,53.9999983520508,8|0,0:2|0:0,0:0:0:0:
327,17,145192,2,0,L|320:70,1,53.9999983520508,2|0,0:2|0:0,0:0:0:0:
188,282,145350,6,0,L|170:175,1,107.999996704102,8|2,0:1|0:2,0:0:0:0:
401,97,145665,1,10,0:2:0:0:
302,340,145823,1,2,0:2:0:0:
192,149,145981,1,10,0:1:0:0:
439,250,146139,1,2,0:2:0:0:
460,246,146218,1,2,0:2:0:0:
481,243,146297,1,10,0:2:0:0:
221,125,146455,1,2,0:2:0:0:
446,15,146613,6,0,P|440:68|434:122,1,107.999996704102,10|10,0:1|0:2,0:0:0:0:
419,139,146850,1,10,0:2:0:0:
405,155,146928,1,10,0:2:0:0:
144,129,147086,6,0,B|88:103|93:50|93:50|139:22|188:62,1,202.500007724762,10|0,0:2|0:0,0:0:0:0:
134,151,147402,2,0,B|63:97|73:37|73:37|122:2|201:43,1,270.000010299683,10|8,0:2|0:2,0:0:0:0:
173,240,147797,1,8,0:2:0:0:
173,240,147876,6,0,P|123:257|55:266,1,107.999996704102,14|0,0:1|0:0,0:0:0:0:
265,118,148192,2,0,P|315:127|369:152,1,107.999996704102,10|0,0:2|0:0,0:0:0:0:
499,357,148507,1,10,0:1:0:0:
292,268,148665,2,0,L|288:212,1,53.9999983520508,0|2,0:0|0:2,0:0:0:0:
458,108,148823,1,10,0:2:0:0:
374,348,148981,1,2,0:2:0:0:
353,96,149139,5,8,0:1:0:0:
480,276,149297,1,2,0:2:0:0:
440,122,149455,1,10,0:2:0:0:
404,333,149613,1,2,0:2:0:0:
177,292,149771,6,0,L|167:239,1,53.9999983520508,10|0,0:1|0:0,0:0:0:0:
263,55,149928,1,0,0:0:0:0:
357,225,150086,6,0,L|298:238,1,53.9999983520508,8|0,0:2|0:0,0:0:0:0:
113,129,150244,1,2,0:2:0:0:
364,68,150402,5,12,0:1:0:0:
285,356,150560,1,2,0:2:0:0:
102,117,150718,5,10,0:2:0:0:
418,202,150876,1,10,0:1:0:0:
104,345,151034,5,10,0:2:0:0:
195,24,151192,1,10,0:1:0:0:
422,303,151350,5,10,0:2:0:0:
37,203,151507,1,10,0:1:0:0:
377,13,151665,6,0,L|364:120,1,107.999996704102,14|8,0:2|0:1,0:0:0:0:
136,376,151981,2,0,L|119:269,1,107.999996704102,12|0,0:2|0:2,0:0:0:0:
285,21,152297,5,8,0:2:0:0:
276,79,152376,1,8,0:0:0:0:
268,137,152455,1,8,0:2:0:0:
259,195,152534,1,8,0:2:0:0:
249,253,152613,5,10,0:3:0:0:
209,271,152692,1,8,0:3:0:0:
166,276,152771,1,10,0:3:0:0:
124,262,152850,1,8,0:3:0:0:
88,231,152928,6,0,P|181:232|231:301,1,175.499991966248,14|0,0:1|0:0,0:0:0:0:
262,360,153244,1,10,0:2:0:0:
19,269,153402,1,2,0:2:0:0:
185,130,153560,2,0,P|238:148|281:196,1,107.999996704102,10|2,0:1|0:3,0:0:0:0:
144,335,153876,1,8,0:2:0:0:
85,104,154034,1,2,0:2:0:0:
259,251,154192,5,8,0:1:0:0:
40,189,154350,1,2,0:2:0:0:
194,105,154507,1,10,0:2:0:0:
243,338,154665,1,2,0:2:0:0:
494,230,154823,2,0,P|440:224|386:219,1,107.999996704102,10|2,0:1|0:3,0:0:0:0:
223,29,155139,2,0,L|277:36,1,53.9999983520508,8|0,0:2|0:0,0:0:0:0:
475,148,155297,2,0,L|418:143,1,53.9999983520508,2|0,0:3|0:0,0:0:0:0:
280,263,155455,6,0,P|286:209|291:155,1,107.999996704102,10|2,0:1|0:3,0:0:0:0:
68,42,155771,1,10,0:2:0:0:
171,225,155928,1,2,0:2:0:0:
218,19,156086,5,10,0:1:0:0:
190,249,156244,1,2,0:2:0:0:
72,88,156402,5,10,0:2:0:0:
181,276,156560,1,2,0:2:0:0:
357,136,156718,6,0,B|253:124|253:170|157:156,1,202.500007724762,10|0,0:1|0:0,0:0:0:0:
131,196,157034,2,0,P|132:112|206:151,1,202.500007724762,10|0,0:2|0:0,0:0:0:0:
221,153,157350,2,0,P|123:101|128:213,1,270.000010299683,10|8,0:1|0:2,0:0:0:0:
299,362,157823,1,2,0:2:0:0:
324,225,157981,6,0,P|269:229|220:248,1,107.999996704102,12|2,0:1|0:2,0:0:0:0:
409,114,158297,1,10,0:2:0:0:
390,316,158455,1,2,0:2:0:0:
264,137,158613,2,0,L|245:30,1,107.999996704102,10|2,0:1|0:3,0:0:0:0:
192,236,158928,1,8,0:2:0:0:
409,114,159086,1,2,0:2:0:0:
322,316,159244,6,0,L|340:210,1,107.999996704102,8|2,0:1|0:2,0:0:0:0:
175,40,159560,1,10,0:2:0:0:
244,241,159718,1,2,0:2:0:0:
401,109,159876,6,0,L|348:116,1,53.9999983520508,10|0,0:1|0:0,0:0:0:0:
147,263,160034,1,2,0:2:0:0:
189,47,160192,6,0,L|196:102,1,53.9999983520508,8|0,0:2|0:0,0:0:0:0:
340,296,160350,1,2,0:3:0:0:
410,125,160507,5,14,0:1:0:0:
260,350,160665,1,2,0:2:0:0:
210,107,160823,1,10,0:2:0:0:
438,234,160981,1,10,0:1:0:0:
100,240,161139,5,14,0:1:0:0:
441,145,161297,1,2,0:2:0:0:
74,91,161455,1,8,0:2:0:0:
368,275,161613,1,8,0:1:0:0:
187,13,161771,6,0,P|182:66|177:120,1,107.999996704102,14|8,0:2|0:1,0:0:0:0:
381,329,162086,1,14,0:2:0:0:
285,104,162244,1,10,0:2:0:0:
285,104,162323,1,10,0:2:0:0:
285,104,162402,1,10,0:2:0:0:
138,187,162560,5,10,0:3:0:0:
364,246,162718,1,10,0:3:0:0:
175,287,162876,1,10,0:3:0:0:
256,352,163034,6,0,B|300:224|212:224|255:106,1,252,14|0,0:1|0:0,0:0:0:0:
254,106,163665,2,0,B|300:224|212:224|256:352,1,252,14|0,0:1|0:0,0:0:0:0:
355,281,164297,5,10,0:2:0:0:
153,161,164455,1,10,0:2:0:0:
391,300,164613,1,10,0:2:0:0:
118,139,164771,1,10,0:2:0:0:
425,322,164928,1,10,0:2:0:0:
424,322,165244,6,0,P|430:236|350:267,1,202.500007724762,10|0,0:2|0:0,0:0:0:0:
275,362,165560,6,0,B|304:324|304:324|298:269|293:210,1,161.999995056153,14|0,0:1|0:0,0:0:0:0:
218,165,165876,1,10,0:2:0:0:
9,300,166034,2,0,B|54:330|54:330|106:317,1,107.999996704102,2|10,0:2|0:1,0:0:0:0:
303,182,166350,1,2,0:2:0:0:
72,235,166507,1,10,0:2:0:0:
187,16,166665,6,0,B|179:78|179:78|190:108|190:108|178:187,1,161.999995056153,2|0,0:2|0:0,0:0:0:0:
105,215,166981,1,2,0:2:0:0:
338,298,167139,2,0,L|324:246,1,53.9999983520508,10|0,0:2|0:0,0:0:0:0:
405,174,167297,2,0,L|424:123,1,53.9999983520508,2|0,0:2|0:0,0:0:0:0:
306,21,167455,6,0,L|290:75,1,53.9999983520508,10|0,0:1|0:0,0:0:0:0:
405,174,167613,2,0,L|423:227,1,53.9999983520508,2|0,0:2|0:0,0:0:0:0:
267,356,167771,6,0,L|253:298,1,53.9999983520508,10|0,0:2|0:0,0:0:0:0:
380,220,167928,2,0,L|369:168,1,53.9999983520508,2|0,0:2|0:0,0:0:0:0:
257,15,168086,6,0,B|286:185,1,161.999995056153,10|0,0:1|0:0,0:0:0:0:
233,229,168402,1,10,0:2:0:0:
27,87,168560,2,0,B|45:50|45:50|86:39|121:24|121:24|160:33,1,161.999995056153,2|0,0:2|0:0,0:0:0:0:
125,208,168876,2,0,B|112:190|100:177|100:177|108:109,1,107.999996704102,2|10,0:2|0:2,0:0:0:0:
273,230,169192,1,2,0:2:0:0:
36,318,169350,5,8,0:3:0:0:
204,146,169507,1,10,0:2:0:0:
204,146,169586,1,10,0:2:0:0:
204,146,169665,1,10,0:2:0:0:
173,362,169823,1,10,0:2:0:0:
20,206,169981,6,0,L|73:198,1,53.9999983520508,2|0,0:2|0:0,0:0:0:0:
180,302,170139,2,0,L|121:294,1,53.9999983520508,14|0,0:2|0:0,0:0:0:0:
86,170,170297,6,0,L|139:160,1,53.9999983520508,10|0,0:1|0:0,0:0:0:0:
253,336,170455,2,0,L|199:327,1,53.9999983520508,10|0,0:3|0:0,0:0:0:0:
298,156,170613,6,0,B|363:143|363:143|388:119|388:119|448:108,1,161.999995056153,14|0,0:1|0:0,0:0:0:0:
511,185,170928,1,10,0:2:0:0:
213,95,171086,2,0,B|190:145|190:145|205:198,1,107.999996704102,2|8,0:2|0:1,0:0:0:0:
388,18,171402,1,2,0:2:0:0:
357,237,171560,2,0,B|313:208|313:208|298:156,1,107.999996704102,10|2,0:2|0:2,0:0:0:0:
54,13,171876,6,0,L|85:173,1,161.999995056153,10|0,0:1|0:0,0:0:0:0:
38,241,172192,1,10,0:2:0:0:
174,93,172350,2,0,B|229:82|229:82|276:106,1,107.999996704102,2|8,0:2|0:1,0:0:0:0:
329,285,172665,1,2,0:2:0:0:
166,187,172823,2,0,B|221:176|221:176|268:200,1,107.999996704102,10|2,0:2|0:2,0:0:0:0:
160,336,173139,5,14,0:1:0:0:
366,276,173297,1,0,0:0:0:0:
88,172,173455,5,8,0:2:0:0:
393,272,173613,1,10,0:1:0:0:
158,102,173771,5,14,0:1:0:0:
369,186,173929,1,0,0:0:0:0:
86,266,174087,5,8,0:2:0:0:
396,190,174245,1,2,0:2:0:0:
147,44,174402,5,10,0:3:0:0:
189,229,174560,1,8,0:2:0:0:
199,271,174639,1,8,0:2:0:0:
209,312,174718,1,8,0:2:0:0:
81,164,174876,1,10,0:2:0:0:
337,24,175034,5,10,0:1:0:0:
326,71,175113,1,8,0:2:0:0:
316,118,175192,1,8,0:2:0:0:
278,148,175271,5,8,0:2:0:0:
281,163,175350,1,8,0:2:0:0:
285,178,175428,1,8,0:3:0:0:
289,193,175507,1,8,0:3:0:0:
293,208,175586,1,8,0:3:0:0:
326,236,175665,5,14,0:1:0:0:
425,150,175823,1,2,0:2:0:0:
363,354,175981,1,10,0:2:0:0:
188,282,176139,2,0,B|221:270|254:276|254:276|280:250|280:250|311:254|338:243,1,161.999995056153,2|0,0:2|0:0,0:0:0:0:
418,290,176455,1,2,0:2:0:0:
265,155,176613,1,10,0:2:0:0:
223,362,176771,1,2,0:2:0:0:
50,269,176928,5,10,0:1:0:0:
52,258,177007,1,0,0:0:0:0:
54,247,177086,2,0,L|64:193,1,53.9999983520508,2|2,0:2|0:2,0:0:0:0:
252,29,177244,1,10,0:2:0:0:
257,50,177323,1,0,0:0:0:0:
262,71,177402,2,0,L|276:130,1,58.4999973220826,2|2,0:2|0:2,0:0:0:0:
146,303,177560,5,10,0:1:0:0:
151,270,177639,1,0,0:0:0:0:
158,238,177718,2,0,L|168:175,1,62.9999980773926,2|2,0:2|0:2,0:0:0:0:
366,37,177876,1,10,0:2:0:0:
376,79,177955,1,0,0:0:0:0:
389,120,178034,2,0,L|406:185,1,67.5000025749208,2|2,0:2|0:2,0:0:0:0:
259,346,178192,6,0,L|276:239,1,107.999996704102,10|2,0:1|0:3,0:0:0:0:
71,282,178507,1,8,0:2:0:0:
133,69,178665,1,2,0:2:0:0:
133,69,178744,1,2,0:2:0:0:
133,69,178823,2,0,P|143:126|154:184,1,116.999994644165,10|2,0:1|0:3,0:0:0:0:
304,299,179139,1,8,0:2:0:0:
422,100,179297,1,2,0:2:0:0:
404,88,179376,1,2,0:2:0:0:
384,79,179455,6,0,B|316:47|241:77|241:77|263:88|276:101,1,188.999994232178,10|0,0:1|0:0,0:0:0:0:
398,184,179771,2,0,B|453:165|500:179|500:179|480:190|462:207,1,125.999996154785,8|2,0:2|0:3,0:0:0:0:
173,330,180086,6,0,B|115:349|115:349|31:314|31:314|12:267,1,202.500007724762,10|0,0:1|0:0,0:0:0:0:
69,194,180402,2,0,B|140:185|140:185|178:236,1,135.000005149842,8|2,0:2|0:3,0:0:0:0:
407,382,180718,6,0,P|413:329|421:275,1,107.999996704102,14|2,0:1|0:3,0:0:0:0:
287,82,181034,1,8,0:2:0:0:
128,291,181192,2,0,P|178:307|224:281,1,107.999996704102,2|8,0:2|0:1,0:0:0:0:
353,116,181507,1,2,0:2:0:0:
294,234,181665,1,10,0:2:0:0:
251,36,181823,1,2,0:2:0:0:
459,152,181981,5,14,0:1:0:0:
311,260,182139,1,2,0:2:0:0:
357,159,182297,1,10,0:2:0:0:
386,339,182455,1,2,0:2:0:0:
203,281,182613,1,8,0:3:0:0:
198,265,182692,1,8,0:3:0:0:
193,249,182771,1,10,0:3:0:0:
188,233,182850,1,8,0:3:0:0:
169,185,182928,5,10,0:2:0:0:
161,228,183007,1,8,0:2:0:0:
156,271,183086,1,10,0:2:0:0:
150,314,183165,1,8,0:2:0:0:
142,362,183244,5,14,0:1:0:0:
43,112,183402,1,2,0:2:0:0:
69,311,183560,5,8,0:2:0:0:
211,43,183718,1,2,0:2:0:0:
354,275,183876,5,8,0:1:0:0:
47,149,184034,1,0,0:0:0:0:
417,137,184192,5,10,0:2:0:0:
93,222,184350,1,2,0:2:0:0:
335,26,184507,5,10,0:1:0:0:
387,40,184586,1,2,0:2:0:0:
419,83,184665,1,2,0:2:0:0:
417,137,184744,1,2,0:2:0:0:
387,105,184823,5,10,0:2:0:0:
345,91,184902,1,2,0:2:0:0:
302,95,184981,1,2,0:2:0:0:
266,119,185060,1,2,0:2:0:0:
297,124,185139,5,10,0:1:0:0:
324,141,185218,1,2,0:2:0:0:
339,169,185297,1,2,0:2:0:0:
339,201,185376,1,2,0:2:0:0:
327,227,185455,6,0,P|284:195|230:193,1,108,10|2,0:2|0:2,0:0:0:0:
256,273,185771,5,12,0:1:0:0:
161,47,185928,1,10,0:2:0:0:
161,47,186007,1,10,0:2:0:0:
161,47,186086,2,0,B|179:134|122:134|145:232,1,188.999994232178,10|8,0:2|0:3,0:0:0:0:
33,260,186402,2,0,P|83:224|144:231,1,125.999996154785,10|8,0:1|0:3,0:0:0:0:
173,337,186639,2,0,P|124:374|63:367,1,125.999996154785,10|0,0:3|0:0,0:0:0:0:
105,299,186876,1,14,0:1:0:0:
426,370,187034,6,0,P|434:316|443:263,1,107.999996704102,10|10,0:2|0:3,0:0:0:0:
251,72,187350,1,8,0:3:0:0:
333,302,187507,1,8,0:2:0:0:
333,302,187586,1,8,0:2:0:0:
333,302,187665,1,8,0:2:0:0:
443,87,187823,5,8,0:1:0:0:
68,204,187981,1,8,0:2:0:0:
480,352,188297,5,14,0:1:0:0:
480,352,188613,1,2,0:3:0:0:
510,196,188771,1,8,0:2:0:0:
402,306,188928,1,2,0:2:0:0:
317,322,189244,5,10,0:1:0:0:
254,262,189560,1,8,0:1:0:0:
298,187,189876,1,10,0:2:0:0:
261,108,190191,5,10,0:1:0:0:
261,108,190507,1,2,0:3:0:0:
374,219,190665,1,8,0:2:0:0:
211,181,190823,1,2,0:2:0:0:
179,100,191139,5,10,0:1:0:0:
228,29,191455,1,8,0:1:0:0:
261,108,191771,1,10,0:2:0:0:
211,181,192086,5,14,0:1:0:0:
211,181,192402,1,2,0:3:0:0:
61,127,192560,1,8,0:2:0:0:
155,251,192718,1,2,0:2:0:0:
189,330,193033,5,10,0:1:0:0:
274,341,193350,1,8,0:1:0:0:
333,278,193665,1,10,0:2:0:0:
295,200,193981,5,14,0:1:0:0:
295,200,194297,1,2,0:3:0:0:
226,57,194455,1,8,0:3:0:0:
209,214,194613,1,2,0:2:0:0:
209,214,194928,5,10,0:2:0:0:
152,153,195086,1,8,0:3:0:0:
152,153,195165,1,0,0:0:0:0:
152,153,195244,1,8,0:3:0:0:
295,200,195402,1,8,0:3:0:0:
122,231,195560,1,10,0:3:0:0:
237,132,195718,1,8,0:3:0:0:
267,285,195876,5,14,0:1:0:0:
267,285,196192,1,2,0:2:0:0:
120,344,196350,1,10,0:2:0:0:
209,214,196507,1,2,0:2:0:0:
237,132,196823,5,10,0:1:0:0:
179,68,197139,1,10,0:1:0:0:
94,85,197455,1,10,0:2:0:0:
66,167,197770,5,14,0:1:0:0:
66,167,198086,1,10,0:1:0:0:
0,311,198244,1,10,0:3:0:0:
127,235,198402,1,2,0:2:0:0:
93,314,198718,5,14,0:2:0:0:
93,314,199034,1,10,0:1:0:0:
238,355,199192,1,8,0:2:0:0:
236,348,199271,1,0,0:0:0:0:
234,340,199350,2,0,L|225:292,1,40.4999987640381,8|0,0:2|0:0,0:0:0:0:
338,259,199507,2,0,L|346:213,1,45,8|0,0:2|0:0,0:0:0:0:
268,94,199665,6,0,P|215:91|174:125,1,108,14|0,0:1|0:0,0:0:0:0:
174,125,199981,6,0,P|238:114|291:154,1,135.000005149842,10|0,0:1|0:0,0:0:0:0:
248,70,200297,6,0,P|195:76|160:116,1,108,10|0,0:1|0:0,0:0:0:0:
160,116,200613,6,0,P|221:94|280:124,1,135.000005149842,10|12,0:1|0:2,0:0:0:0:
254,374,200928,5,10,0:1:0:0:
219,173,201086,1,2,0:2:0:0:
170,311,201244,1,10,0:1:0:0:
330,232,201402,5,10,0:3:0:0:
333,221,201481,1,0,0:0:0:0:
336,210,201560,1,8,0:1:0:0:
185,158,201717,1,10,0:3:0:0:
182,147,201796,1,0,0:0:0:0:
179,136,201875,1,8,0:1:0:0:
299,43,202034,2,0,L|293:78,1,36,8|8,0:3|0:3,0:0:0:0:
204,202,202192,6,0,P|163:169|111:176,1,108,14|0,0:1|0:0,0:0:0:0:
111,176,202507,6,0,L|251:161,1,135.000005149842,10|8,0:1|0:3,0:0:0:0:
363,277,202822,6,0,P|322:244|269:251,1,108,10|0,0:1|0:0,0:0:0:0:
270,250,203138,6,0,L|410:235,1,135.000005149842,10|12,0:1|0:2,0:0:0:0:
134,343,203455,5,10,0:1:0:0:
66,142,203613,1,10,0:3:0:0:
234,314,203771,1,10,0:1:0:0:
36,258,203928,1,10,0:3:0:0:
36,258,204007,1,0,0:0:0:0:
36,258,204086,2,0,L|82:250,1,45,8|0,0:1|0:0,0:0:0:0:
260,171,204244,2,0,L|207:164,1,45,10|8,0:3|0:3,0:0:0:0:
61,67,204402,1,8,0:3:0:0:
236,281,204560,6,0,P|333:261|430:243,1,198.000006042481,14|8,0:1|0:1,0:0:0:0:
347,135,205034,1,10,0:2:0:0:
302,378,205192,1,8,0:3:0:0:
302,378,205271,1,8,0:3:0:0:
302,378,205350,1,8,0:3:0:0:
201,252,205507,1,10,0:1:0:0:
424,301,205665,1,10,0:2:0:0:
416,51,205823,6,0,P|314:34|237:104,1,215.999993408203,14|8,0:1|0:1,0:0:0:0:
492,271,206297,1,8,0:2:0:0:
354,142,206455,1,8,0:2:0:0:
354,142,206534,1,8,0:2:0:0:
354,142,206613,1,8,0:2:0:0:
390,334,206771,1,8,0:1:0:0:
448,83,206928,1,8,0:2:0:0:
239,271,207086,6,0,L|215:110,1,161.999995056153,12|0,0:1|0:0,0:0:0:0:
374,23,207402,1,10,0:2:0:0:
371,36,207481,1,8,0:2:0:0:
368,52,207559,2,0,L|357:114,1,62.9999980773926,10|8,0:3|0:3,0:0:0:0:
147,251,207718,2,0,L|135:189,1,62.9999980773926,10|8,0:3|0:3,0:0:0:0:
373,283,207875,6,0,L|361:344,1,62.9999980773926,10|8,0:3|0:3,0:0:0:0:
215,110,208033,2,0,L|201:40,1,62.9999980773926,10|8,0:1|0:1,0:0:0:0:
62,333,208192,1,10,0:2:0:0:
62,333,208271,1,8,0:2:0:0:
62,333,208350,1,10,0:1:0:0:
455,223,208665,5,10,0:2:0:0:
56,117,208823,1,10,0:2:0:0:
439,191,209139,5,10,0:3:0:0:
115,317,209455,1,14,0:2:0:0:
254,68,209771,6,0,B|245:121|265:121|255:175,1,107.999996704102,2|2,0:2|0:2,0:0:0:0:
179,355,210560,1,2,0:2:0:0:
353,278,210718,1,2,0:2:0:0:
255,29,211034,6,0,B|225:120|280:120|254:224,1,198.000006042481,2|2,0:2|0:2,0:0:0:0:
215,350,211823,2,0,P|211:325|215:301,1,49.5000015106202,2|0,0:2|0:0,0:0:0:0:
336,86,211981,6,0,P|414:44|410:134,1,216,10|0,0:2|0:0,0:0:0:0:
345,239,212296,6,0,P|340:292|349:345,2,107.999996704102,2|2|2,0:2|0:2|0:2,0:0:0:0:
345,239,213243,2,0,P|356:263|359:290,1,53.9999983520508,2|2,0:2|0:2,0:0:0:0:
207,330,213559,1,2,0:2:0:0:
231,207,213717,1,2,0:2:0:0:
282,280,213875,1,2,0:2:0:0:
158,257,214033,1,2,0:2:0:0:
116,363,214191,2,0,P|63:364|21:333,1,107.999996704102,2|0,0:2|0:0,0:0:0:0:
78,220,214665,6,0,L|88:273,1,53.9999983520508,2|0,0:2|0:0,0:0:0:0:
183,290,214980,1,2,0:2:0:0:
161,195,215138,1,2,0:2:0:0:
64,210,215296,1,2,0:2:0:0:
81,317,215454,5,2,0:2:0:0:
53,203,215612,1,2,0:2:0:0:
168,181,215770,1,2,0:2:0:0:
196,293,215928,1,2,0:2:0:0:
284,210,216086,5,2,0:2:0:0:
168,181,216243,1,2,0:2:0:0:
196,293,216401,1,2,0:2:0:0:
284,210,216559,1,2,0:2:0:0:
284,210,216875,1,2,0:2:0:0:
284,210,217191,1,0,0:0:0:0:
247,82,217349,6,0,L|240:136,1,53.9999983520508,2|0,0:2|0:0,0:0:0:0:
297,280,217665,2,0,L|304:226,1,53.9999983520508,2|0,0:2|0:0,0:0:0:0:
250,154,217980,1,2,0:2:0:0:
181,233,218138,2,0,L|210:238,1,26.9999991760254,2|2,0:2|0:2,0:0:0:0:
297,280,218296,1,2,0:2:0:0:
250,154,218454,1,2,0:2:0:0:
297,280,218612,5,2,0:2:0:0:
389,178,218770,1,2,0:2:0:0:
374,313,218928,1,2,0:2:0:0:
445,251,219086,1,2,0:2:0:0:
454,339,219243,2,0,P|400:341|355:369,1,107.999996704102,2|0,0:2|0:0,0:0:0:0:
211,331,219717,6,0,L|201:277,1,53.9999983520508,2|0,0:2|0:0,0:0:0:0:
283,184,220033,1,2,0:2:0:0:
284,268,220191,1,2,0:2:0:0:
207,153,220349,1,2,0:2:0:0:
377,209,220507,5,2,0:2:0:0:
210,235,220665,1,2,0:2:0:0:
301,98,220822,1,2,0:2:0:0:
296,281,220980,1,2,0:2:0:0:
194,150,221138,6,0,P|234:151|269:169,1,80.9999975280763,2|0,0:2|0:0,0:0:0:0:
194,216,221454,2,0,P|224:181|269:169,1,94.499997116089
249,267,221770,2,0,P|242:215|269:169,1,108
331,261,222086,2,0,P|282:226|269:169,1,121.499996292114
342,19,222401,6,0,P|370:87|349:157,1,148.50000453186,2|0,0:2|0:0,0:0:0:0:
226,92,222717,2,0,P|270:34|341:18,1,148.50000453186,2|0,0:2|0:0,0:0:0:0:
349,156,223033,2,0,P|277:144|227:91,1,148.50000453186
342,19,223349,2,0,P|369:86|349:156,1,148.50000453186,2|0,0:2|0:0,0:0:0:0:
63,346,224296,6,2,L|46:329,15,22.5,2|2|2|2|2|2|2|2|2|2|2|2|2|2|2|2,0:2|0:0|0:0|0:0|0:0|0:0|0:0|0:0|0:2|0:0|0:0|0:0|0:0|0:0|0:0|0:0,0:0:0:0:
83,365,224928,6,0,L|67:254,1,112.5,14|0,0:1|0:0,0:0:0:0:
304,14,225243,2,0,L|288:125,1,112.5,10|0,0:2|0:0,0:0:0:0:
84,238,225559,1,10,0:1:0:0:
164,24,225717,2,0,L|172:79,1,56.25,0|2,0:0|0:2,0:0:0:0:
277,277,225875,1,10,0:2:0:0:
56,125,226033,1,2,0:2:0:0:
294,158,226191,6,0,L|239:172,1,56.25,10|0,0:1|0:0,0:0:0:0:
91,318,226349,1,2,0:2:0:0:
360,263,226507,6,0,L|304:251,1,56.25,10|0,0:2|0:0,0:0:0:0:
113,127,226665,1,2,0:2:0:0:
340,16,226822,6,0,P|351:42|355:69,1,56.25,10|0,0:1|0:0,0:0:0:0:
215,255,226980,2,0,P|219:227|230:201,1,56.25
438,81,227138,6,0,P|435:107|420:135,1,56.25,8|0,0:2|0:0,0:0:0:0:
154,159,227296,2,0,P|170:138|198:123,1,56.25,2|0,0:2|0:0,0:0:0:0:
467,244,227454,6,0,P|415:223|359:220,1,112.5,8|2,0:1|0:2,0:0:0:0:
163,358,227770,1,10,0:2:0:0:
392,298,227928,1,2,0:2:0:0:
104,229,228086,1,10,0:1:0:0:
289,96,228243,1,2,0:2:0:0:
286,124,228322,1,2,0:2:0:0:
283,152,228401,1,10,0:2:0:0:
89,278,228559,1,2,0:2:0:0:
113,22,228717,6,0,L|135:132,1,112.5,10|10,0:1|0:2,0:0:0:0:
130,154,228954,1,10,0:2:0:0:
124,175,229033,1,10,0:2:0:0:
335,302,229191,6,0,B|416:334|484:293|484:293|453:289|430:270,1,209.250001596451,10|0,0:2|0:0,0:0:0:0:
306,308,229507,2,0,B|396:357|493:310|493:310|452:307|413:279,1,279.000002128601,14|8,0:2|0:2,0:0:0:0:
225,257,229901,1,8,0:2:0:0:
224,257,229980,6,0,P|207:310|215:365,1,112.5,14|0,0:1|0:0,0:0:0:0:
359,126,230296,2,0,P|352:70|347:14,1,112.5,10|0,0:2|0:0,0:0:0:0:
466,248,230612,1,10,0:1:0:0:
227,151,230770,1,0,0:0:0:0:
227,151,230849,1,2,0:2:0:0:
227,151,230928,1,10,0:2:0:0:
474,64,231086,1,2,0:2:0:0:
342,265,231243,5,8,0:1:0:0:
273,60,231401,1,2,0:2:0:0:
509,163,231559,1,10,0:2:0:0:
246,241,231717,1,2,0:2:0:0:
469,325,231875,1,10,0:1:0:0:
383,106,232033,5,8,0:2:0:0:
383,106,232112,1,8,0:2:0:0:
383,106,232191,2,0,L|388:174,1,56.25,8|0,0:2|0:0,0:0:0:0:
172,291,232349,1,10,0:3:0:0:
158,63,232507,5,12,0:1:0:0:
466,201,232665,1,2,0:2:0:0:
78,250,232822,5,10,0:2:0:0:
401,101,232980,1,10,0:1:0:0:
200,358,233138,5,10,0:2:0:0:
131,20,233296,1,10,0:1:0:0:
456,274,233454,5,10,0:2:0:0:
41,165,233612,1,10,0:1:0:0:
371,17,233770,6,0,L|358:128,1,112.5,14|8,0:2|0:1,0:0:0:0:
207,365,234086,1,8,0:2:0:0:
200,306,234165,1,8,0:0:0:0:
194,253,234243,1,8,0:2:0:0:
190,196,234322,1,8,0:2:0:0:
186,139,234401,1,8,0:2:0:0:
183,82,234480,1,8,0:0:0:0:
176,26,234559,5,8,0:3:0:0:
131,35,234638,1,8,0:3:0:0:
94,61,234717,1,10,0:3:0:0:
77,103,234796,1,8,0:3:0:0:
77,148,234875,1,10,0:3:0:0:
96,188,234954,1,8,0:3:0:0:
131,220,235033,6,0,B|235:205|198:275|311:266,1,182.250000695229,14|0,0:1|0:0,0:0:0:0:
349,320,235349,1,10,0:2:0:0:
216,125,235507,1,2,0:2:0:0:
65,371,235665,2,0,P|54:315|43:260,1,112.5,10|2,0:1|0:3,0:0:0:0:
319,203,235980,1,8,0:2:0:0:
72,109,236138,1,2,0:2:0:0:
361,143,236296,5,8,0:1:0:0:
138,257,236454,1,2,0:2:0:0:
235,32,236612,1,10,0:2:0:0:
301,270,236770,1,2,0:2:0:0:
80,123,236928,6,0,L|136:129,1,56.25,10|0,0:1|0:0,0:0:0:0:
350,48,237086,1,2,0:3:0:0:
217,262,237243,2,0,L|224:205,1,56.25,8|0,0:2|0:0,0:0:0:0:
332,33,237401,2,0,L|325:89,1,56.25,2|0,0:3|0:0,0:0:0:0:
226,287,237559,6,0,P|170:279|114:273,1,112.5,10|2,0:1|0:3,0:0:0:0:
301,111,237875,1,10,0:2:0:0:
357,338,238033,1,2,0:2:0:0:
183,193,238191,5,10,0:1:0:0:
434,111,238349,1,2,0:2:0:0:
193,175,238507,5,10,0:2:0:0:
399,283,238665,1,2,0:2:0:0:
305,65,238822,6,0,B|297:14|249:7|249:7|214:42|215:82|241:118,1,209.250001596451,10|0,0:1|0:0,0:0:0:0:
384,204,239138,2,0,B|375:152|327:145|327:145|292:180|293:220|320:256,1,209.250001596451,10|0,0:2|0:0,0:0:0:0:
435,384,239454,2,0,P|444:314|455:245,1,139.500001064301,10|8,0:1|0:2,0:0:0:0:
510,178,239691,1,8,0:2:0:0:
506,156,239770,1,8,0:2:0:0:
264,15,239928,1,10,0:2:0:0:
250,31,240007,1,8,0:2:0:0:
239,45,240086,6,0,L|261:178,1,121.500000463486,12|2,0:1|0:2,0:0:0:0:
91,356,240401,1,10,0:2:0:0:
157,123,240559,1,2,0:2:0:0:
309,303,240717,2,0,P|248:295|188:287,1,121.500000463486,10|0,0:1|0:0,0:0:0:0:
147,16,241033,1,8,0:2:0:0:
253,198,241191,1,2,0:2:0:0:
2,144,241349,6,0,P|62:136|122:128,1,121.500000463486,8|2,0:1|0:2,0:0:0:0:
315,313,241665,1,10,0:2:0:0:
100,228,241822,1,2,0:2:0:0:
269,92,241980,1,10,0:1:0:0:
193,319,242138,1,8,0:2:0:0:
193,319,242217,1,8,0:2:0:0:
193,319,242296,1,8,0:2:0:0:
410,253,242454,1,8,0:3:0:0:
112,119,242612,5,14,0:1:0:0:
386,227,242770,1,2,0:2:0:0:
100,304,242928,1,10,0:2:0:0:
395,190,243086,1,10,0:1:0:0:
205,360,243243,5,14,0:1:0:0:
300,24,243401,1,2,0:2:0:0:
441,321,243559,1,8,0:2:0:0:
69,197,243717,1,8,0:1:0:0:
404,42,243875,6,0,P|399:73|395:103,1,60.7500002317429,14|0,0:2|0:0,0:0:0:0:
328,348,244033,2,0,P|322:318|317:288,1,60.7500002317429,8|0,0:1|0:0,0:0:0:0:
148,108,244191,1,10,0:2:0:0:
360,200,244349,2,0,B|222:181|262:266|119:249,1,243.000000926971,14|8,0:1|0:3,0:0:0:0:
65,128,244822,1,8,0:2:0:0:
62,110,244901,1,8,0:2:0:0:
58,92,244980,1,10,0:2:0:0:
55,73,245059,1,8,0:3:0:0:
78,36,245138,5,12,0:1:0:0:
441,145,245296,1,2,0:2:0:0:
224,207,245454,1,10,0:2:0:0:
291,1,245612,1,10,0:1:0:0:
417,340,245770,5,14,0:1:0:0:
62,220,245928,1,2,0:2:0:0:
415,46,246086,1,10,0:2:0:0:
323,375,246243,1,2,0:2:0:0:
101,135,246401,6,0,L|161:126,1,60.7500002317429,14|0,0:1|0:0,0:0:0:0:
406,267,246559,2,0,L|345:258,1,60.7500002317429,8|0,0:1|0:0,0:0:0:0:
178,44,246717,1,8,0:2:0:0:
241,323,246875,2,0,P|251:202|278:83,1,243.000000926971,14|10,0:1|0:1,0:0:0:0:
438,140,247349,1,8,0:2:0:0:
420,144,247428,1,8,0:2:0:0:
402,147,247507,1,10,0:2:0:0:
384,150,247586,1,8,0:2:0:0:
357,174,247665,5,0,0:0:0:0:
149,102,247822,1,2,0:2:0:0:
290,33,247980,1,2,0:2:0:0:
217,245,248138,1,2,0:2:0:0:
178,112,248296,5,2,0:2:0:0:
331,159,248454,1,2,0:2:0:0:
269,87,248612,1,2,0:2:0:0:
241,179,248770,1,2,0:2:0:0:
242,21,251454,6,0,L|268:235,1,215.999993408203,14|8,0:1|0:2,0:0:0:0:
70,340,251928,1,2,0:2:0:0:
70,340,252007,1,2,0:2:0:0:
70,340,252086,1,10,0:1:0:0:
166,131,252243,1,2,0:2:0:0:
227,368,252401,1,10,0:2:0:0:
47,209,252559,1,2,0:2:0:0:
417,285,252717,5,10,0:1:0:0:
135,359,252875,1,2,0:2:0:0:
154,169,253033,5,10,0:2:0:0:
401,268,253191,1,2,0:2:0:0:
387,84,253349,5,10,0:1:0:0:
167,152,253507,1,2,0:2:0:0:
183,3,253665,5,10,0:2:0:0:
370,74,253822,1,2,0:2:0:0:
289,257,253980,6,0,P|226:175|124:189,1,215.999993408203,10|8,0:1|0:2,0:0:0:0:
42,361,254454,1,2,0:2:0:0:
42,361,254533,1,2,0:2:0:0:
42,361,254612,1,10,0:1:0:0:
193,260,254770,1,2,0:2:0:0:
11,169,254928,1,10,0:2:0:0:
162,363,255086,1,2,0:2:0:0:
256,104,255243,5,10,0:1:0:0:
184,368,255401,1,2,0:2:0:0:
176,144,255559,5,10,0:2:0:0:
416,208,255717,1,2,0:2:0:0:
224,224,255875,5,10,0:1:0:0:
280,8,256033,1,2,0:2:0:0:
304,184,256191,5,10,0:2:0:0:
104,124,256349,1,2,0:2:0:0:
298,316,256507,6,0,P|404:299|511:283,1,215.999993408203,14|8,0:1|0:2,0:0:0:0:
334,157,256980,1,2,0:2:0:0:
334,157,257059,1,2,0:2:0:0:
334,157,257138,1,10,0:1:0:0:
232,367,257296,1,2,0:2:0:0:
134,206,257454,1,10,0:2:0:0:
325,346,257612,1,2,0:2:0:0:
488,152,257770,5,10,0:1:0:0:
259,281,257928,1,2,0:2:0:0:
272,73,258086,5,10,0:2:0:0:
350,317,258243,1,2,0:2:0:0:
119,376,258401,5,10,0:3:0:0:
112,338,258480,1,8,0:2:0:0:
106,300,258559,1,10,0:2:0:0:
99,262,258638,1,8,0:2:0:0:
93,224,258717,1,10,0:2:0:0:
279,41,258875,1,10,0:2:0:0:
279,41,258954,1,8,0:2:0:0:
279,41,259033,6,0,P|266:134|290:253,1,195.750005973816,14|0,0:1|0:0,0:0:0:0:
388,290,259349,2,0,P|297:269|227:332,1,195.750005973816,10|0,0:2|0:0,0:0:0:0:
121,192,259665,2,0,P|212:170|282:233,1,195.750005973816,10|0,0:2|0:0,0:0:0:0:
390,92,259980,2,0,P|298:70|228:133,1,195.750005973816,10|0,0:2|0:0,0:0:0:0:
332,350,260296,6,0,B|350:255|302:255|323:157,1,195.750005973816,14|0,0:2|0:0,0:0:0:0:
323,156,260612,1,10,0:2:0:0:
216,312,260770,1,8,0:3:0:0:
197,318,260849,1,8,0:3:0:0:
170,319,260928,1,10,0:3:0:0:
139,308,261007,1,0,0:3:0:0:
108,283,261086,5,8,0:2:0:0:
97,238,261165,1,8,0:2:0:0:
122,193,261243,1,8,0:2:0:0:
170,160,261322,1,8,0:2:0:0:
188,104,261401,1,8,0:2:0:0:
162,51,261480,1,8,0:2:0:0:
108,39,261559,6,0,B|96:144|142:144|127:252,1,215.999993408203,14|8,0:1|0:2,0:0:0:0:
13,365,262033,1,2,0:2:0:0:
13,365,262112,1,2,0:2:0:0:
13,365,262191,1,10,0:1:0:0:
245,296,262349,1,2,0:2:0:0:
43,212,262507,1,8,0:2:0:0:
271,312,262665,6,0,P|352:300|432:289,1,161.999995056153,2|0,0:2|0:0,0:0:0:0:
502,218,262980,1,2,0:2:0:0:
235,158,263138,1,10,0:2:0:0:
446,321,263296,1,2,0:2:0:0:
408,77,263454,5,10,0:1:0:0:
361,299,263612,1,2,0:2:0:0:
296,96,263770,5,10,0:2:0:0:
351,272,263928,1,2,0:2:0:0:
181,140,264086,6,0,P|286:131|372:192,1,215.999993408203,10|8,0:1|0:2,0:0:0:0:
163,332,264559,1,2,0:2:0:0:
163,332,264638,1,2,0:2:0:0:
163,332,264717,1,10,0:1:0:0:
96,102,264875,1,2,0:2:0:0:
265,225,265033,1,8,0:2:0:0:
58,383,265191,6,0,P|45:302|34:222,1,161.999995056153,2|0,0:2|0:0,0:0:0:0:
79,135,265507,1,2,0:2:0:0:
235,311,265665,1,10,0:2:0:0:
8,213,265822,1,2,0:2:0:0:
285,138,265980,5,10,0:1:0:0:
141,291,266138,1,2,0:2:0:0:
209,72,266296,5,10,0:2:0:0:
244,282,266454,1,2,0:2:0:0:
58,142,266612,5,14,0:1:0:0:
424,261,266770,1,8,0:2:0:0:
424,261,266849,1,8,0:2:0:0:
424,261,266928,1,10,0:2:0:0:
149,344,267086,1,10,0:1:0:0:
321,55,267401,1,10,0:1:0:0:
29,176,267717,6,0,P|108:178|174:224,1,161.999995056153,14|0,0:1|0:0,0:0:0:0:
307,318,268033,2,0,P|312:286|318:256,1,62.9999980773926,8|0,0:2|0:3,0:0:0:0:
195,58,268191,2,0,P|202:89|207:120,1,62.9999980773926,8|0,0:2|0:3,0:0:0:0:
86,278,268349,1,8,0:3:0:0:
86,278,268428,1,8,0:1:0:0:
86,278,268507,1,8,0:3:0:0:
439,193,268665,1,8,0:3:0:0:
77,79,268822,1,8,0:2:0:0:
297,236,269296,5,2,0:2:0:0:
209,213,269454,1,2,0:2:0:0:
272,148,269612,1,2,0:2:0:0:
272,148,269928,5,2,0:2:0:0:
226,337,270086,1,2,0:2:0:0:
212,38,270559,5,14,0:2:0:0:
297,351,270875,1,10,0:2:0:0:
256,192,271033,5,14,0:2:0:0:
256,192,271112,12,0,277033,0:0:0:0:
