osu file format v14

[General]
AudioFilename: audio.mp3
AudioLeadIn: 1000
PreviewTime: 75402
Countdown: 0
SampleSet: Soft
StackLeniency: 0.6
Mode: 0
LetterboxInBreaks: 0
WidescreenStoryboard: 1

[Editor]
Bookmarks: 1350,12718,13665,22823,30402,40507,49350,58192,65771,75876,82507,85981,96086,107455,117560,127981,142823,152928,163034,165560,183244,188297,199665,212296,224928,235033,248928,251454
DistanceSpacing: 0.5
BeatDivisor: 4
GridSize: 16
TimelineZoom: 3.399999

[Metadata]
Title:Zenryoku Happy Life
TitleUnicode:全力ハッピーライフ
Artist:ShinRa-Bansho
ArtistUnicode:森羅万象
Creator:Asagi
Version:Lunatic
Source:東方永夜抄 ~ Imperishable Night.
Tags:ayaponzu* touhou project 2hu Full Power 狂気の瞳 ~ Invisible Full Moon あやぽんず* Lunatic Red Eyes Reisen Udongein Inaba kaztora reitaisai 15 シンクロ2 Synchro 2 ZUN 太田順也 Caral usagi bunny rabbit pyon j-pop jpop japanese video game midorijeon
BeatmapID:3828378
BeatmapSetID:819611

[Difficulty]
HPDrainRate:5
CircleSize:3.8
OverallDifficulty:7.2
ApproachRate:9
SliderMultiplier:1.5
SliderTickRate:1

[Events]
//Background and Video events
0,0,"pyon.png",0,0
//Break Periods
2,97350,105592
2,212495,223696
2,248969,250854
//Storyboard Layer 0 (Background)
//Storyboard Layer 1 (Fail)
//Storyboard Layer 2 (Pass)
//Storyboard Layer 3 (Foreground)
//Storyboard Layer 4 (Overlay)
//Storyboard Sound Samples

[TimingPoints]
1350,315.789473684211,4,2,2,70,1,0
1350,-90.9090909090909,4,2,2,70,0,0
1665,-90.9090909090909,4,2,12,70,0,0
1744,-90.9090909090909,4,2,2,70,0,0
1823,-90.9090909090909,4,2,12,70,0,0
1902,-90.9090909090909,4,2,2,70,0,0
2139,-90.9090909090909,4,2,12,70,0,0
2218,-90.9090909090909,4,2,2,70,0,0
2455,-90.9090909090909,4,2,12,70,0,0
2534,-90.9090909090909,4,2,2,70,0,0
2613,-90.9090909090909,4,2,3,70,0,0
2928,-90.9090909090909,4,2,12,70,0,0
3007,-90.9090909090909,4,2,2,70,0,0
3086,-90.9090909090909,4,2,12,70,0,0
3165,-90.9090909090909,4,2,2,70,0,0
3402,-90.9090909090909,4,2,12,70,0,0
3481,-90.9090909090909,4,2,2,70,0,0
3718,-90.9090909090909,4,2,12,70,0,0
3797,-90.9090909090909,4,2,2,70,0,0
3876,-90.9090909090909,4,2,5,70,0,0
4192,-90.9090909090909,4,2,12,70,0,0
4271,-90.9090909090909,4,2,2,70,0,0
4350,-90.9090909090909,4,2,12,70,0,0
4429,-90.9090909090909,4,2,2,70,0,0
4665,-90.9090909090909,4,2,12,70,0,0
4744,-90.9090909090909,4,2,2,70,0,0
4981,-90.9090909090909,4,2,12,70,0,0
5060,-90.9090909090909,4,2,2,70,0,0
5455,-90.9090909090909,4,2,5,70,0,0
5771,-90.9090909090909,4,2,3,70,0,0
6086,-90.9090909090909,4,2,3,70,0,0
6402,-90.9090909090909,4,2,2,70,0,0
6718,-90.9090909090909,4,2,12,70,0,0
6797,-90.9090909090909,4,2,2,70,0,0
6876,-90.9090909090909,4,2,12,70,0,0
6955,-90.9090909090909,4,2,2,70,0,0
7192,-90.9090909090909,4,2,12,70,0,0
7271,-90.9090909090909,4,2,2,70,0,0
7507,-90.9090909090909,4,2,12,70,0,0
7586,-90.9090909090909,4,2,2,70,0,0
7665,-90.9090909090909,4,2,3,70,0,0
7981,-90.9090909090909,4,2,12,70,0,0
8060,-90.9090909090909,4,2,2,70,0,0
8139,-90.9090909090909,4,2,12,70,0,0
8218,-90.9090909090909,4,2,2,70,0,0
8455,-90.9090909090909,4,2,12,70,0,0
8534,-90.9090909090909,4,2,2,70,0,0
8771,-90.9090909090909,4,2,12,70,0,0
8850,-90.9090909090909,4,2,2,70,0,0
8928,-125,4,2,5,70,0,0
9244,-125,4,2,6,70,0,0
9323,-125,4,2,2,70,0,0
9560,-125,4,2,2,70,0,0
9876,-125,4,2,6,70,0,0
9955,-125,4,2,2,70,0,0
10192,-100,4,2,3,70,0,0
10507,-90.9090909090909,4,2,2,70,0,0
10823,-83.3333333333333,4,2,1,70,0,0
11139,-76.9230769230769,4,2,1,70,0,0
12718,-100,4,2,1,75,0,1
12797,-100,4,2,2,75,0,0
13192,-100,4,2,13,75,0,0
13271,-100,4,2,2,75,0,0
13507,-100,4,2,13,75,0,0
13586,-100,4,2,2,75,0,0
13823,-100,4,2,13,75,0,0
13902,-100,4,2,2,75,0,0
14139,-100,4,2,13,75,0,0
14218,-100,4,2,2,75,0,0
14455,-100,4,2,13,75,0,0
14534,-100,4,2,2,75,0,0
14771,-100,4,2,13,75,0,0
14850,-100,4,2,2,75,0,0
15086,-100,4,2,13,75,0,0
15165,-100,4,2,2,75,0,0
15402,-100,4,2,12,75,0,0
15481,-100,4,2,2,75,0,0
15718,-100,4,2,13,75,0,0
15797,-100,4,2,2,75,0,0
16034,-100,4,2,13,75,0,0
16113,-100,4,2,2,75,0,0
16350,-100,4,2,13,75,0,0
16429,-100,4,2,2,75,0,0
16665,-100,4,2,13,75,0,0
16744,-100,4,2,2,75,0,0
16981,-100,4,2,13,75,0,0
17060,-100,4,2,2,75,0,0
17297,-100,4,2,13,75,0,0
17376,-100,4,2,2,75,0,0
17613,-100,4,2,13,75,0,0
17692,-100,4,2,2,75,0,0
18244,-100,4,2,13,75,0,0
18323,-100,4,2,2,75,0,0
18560,-100,4,2,13,75,0,0
18639,-100,4,2,2,75,0,0
18876,-100,4,2,13,75,0,0
18955,-100,4,2,2,75,0,0
19192,-100,4,2,13,75,0,0
19271,-100,4,2,2,75,0,0
19507,-100,4,2,13,75,0,0
19586,-100,4,2,2,75,0,0
19665,-100,4,2,1,75,0,0
20297,-83.3333333333333,4,2,2,75,0,0
20534,-83.3333333333333,4,2,2,5,0,0
20613,-83.3333333333333,4,2,12,75,0,0
20692,-83.3333333333333,4,2,2,75,0,0
20850,-83.3333333333333,4,2,2,5,0,0
20928,-83.3333333333333,4,2,12,75,0,0
21007,-83.3333333333333,4,2,2,75,0,0
21165,-83.3333333333333,4,2,2,5,0,0
21244,-83.3333333333333,4,2,12,75,0,0
21323,-83.3333333333333,4,2,2,75,0,0
21481,-83.3333333333333,4,2,2,5,0,0
21560,-83.3333333333333,4,2,2,75,0,0
21797,-83.3333333333333,4,2,2,5,0,0
21876,-83.3333333333333,4,2,12,75,0,0
21955,-83.3333333333333,4,2,2,75,0,0
22665,-83.3333333333333,4,2,2,75,0,0
22823,-100,4,2,2,75,0,0
23297,-100,4,2,13,75,0,0
23376,-100,4,2,2,75,0,0
23613,-100,4,2,13,75,0,0
23692,-100,4,2,2,75,0,0
23928,-100,4,2,13,75,0,0
24007,-100,4,2,2,75,0,0
24244,-100,4,2,13,75,0,0
24323,-100,4,2,2,75,0,0
24560,-100,4,2,13,75,0,0
24639,-100,4,2,2,75,0,0
24876,-100,4,2,13,75,0,0
24955,-100,4,2,2,75,0,0
25192,-100,4,2,13,75,0,0
25271,-100,4,2,2,75,0,0
25507,-100,4,2,12,75,0,0
25586,-100,4,2,2,75,0,0
26139,-100,4,2,13,75,0,0
26218,-100,4,2,2,75,0,0
26455,-100,4,2,13,75,0,0
26534,-100,4,2,2,75,0,0
26771,-100,4,2,13,75,0,0
26850,-100,4,2,2,75,0,0
27086,-100,4,2,13,75,0,0
27165,-100,4,2,2,75,0,0
27402,-100,4,2,13,75,0,0
27481,-100,4,2,2,75,0,0
27718,-100,4,2,13,75,0,0
27797,-100,4,2,2,75,0,0
28192,-100,4,2,2,75,0,0
28350,-100,4,2,1,75,0,0
28507,-100,4,2,2,75,0,0
28823,-100,4,2,3,75,0,0
28981,-100,4,2,2,75,0,0
29771,-100,4,2,3,75,0,0
30402,-100,4,2,2,65,0,0
30481,-100,4,2,2,65,0,0
34192,-125,4,2,2,65,0,0
34350,-125,4,2,1,65,0,0
34981,-125,4,2,3,65,0,0
35297,-125,4,2,4,65,0,0
35455,-125,4,2,2,65,0,0
35928,-125,4,2,12,65,0,0
36007,-125,4,2,2,65,0,0
36876,-125,4,2,8,65,0,0
36955,-125,4,2,2,65,0,0
37192,-125,4,2,12,65,0,0
37271,-125,4,2,2,65,0,0
37665,-125,4,2,8,65,0,0
37744,-125,4,2,2,65,0,0
37981,-125,4,2,5,65,0,0
38139,-125,4,2,1,65,0,0
38455,-125,4,2,2,65,0,0
39086,-125,4,2,3,65,0,0
39244,-125,4,2,2,65,0,0
40192,-76.9230769230769,4,2,69,80,0,0
40271,-76.9230769230769,4,2,2,65,0,0
40507,-100,4,2,2,70,0,0
40981,-100,4,2,8,70,0,0
41060,-100,4,2,2,70,0,0
41297,-100,4,2,9,70,0,0
41376,-100,4,2,2,70,0,0
41613,-100,4,2,8,70,0,0
41692,-100,4,2,2,70,0,0
41928,-100,4,2,8,70,0,0
42007,-100,4,2,2,70,0,0
42244,-100,4,2,8,70,0,0
42323,-100,4,2,2,70,0,0
42560,-100,4,2,9,70,0,0
42639,-100,4,2,2,70,0,0
42876,-100,4,2,8,70,0,0
42955,-100,4,2,2,70,0,0
43192,-100,4,2,8,70,0,0
43271,-100,4,2,2,70,0,0
43507,-100,4,2,9,70,0,0
43586,-100,4,2,2,70,0,0
43823,-100,4,2,9,70,0,0
43902,-100,4,2,2,70,0,0
44139,-100,4,2,9,70,0,0
44218,-100,4,2,2,70,0,0
44455,-100,4,2,9,70,0,0
44534,-100,4,2,2,70,0,0
44771,-100,4,2,9,70,0,0
44850,-100,4,2,2,70,0,0
45086,-100,4,2,9,70,0,0
45165,-100,4,2,2,70,0,0
45402,-100,4,2,8,70,0,0
45481,-100,4,2,2,70,0,0
45718,-100,4,2,8,70,0,0
45797,-100,4,2,2,70,0,0
46034,-100,4,2,8,70,0,0
46113,-100,4,2,2,70,0,0
46350,-100,4,2,8,70,0,0
46429,-100,4,2,2,70,0,0
46665,-100,4,2,9,70,0,0
46744,-100,4,2,2,70,0,0
46981,-100,4,2,9,70,0,0
47060,-100,4,2,2,70,0,0
47297,-100,4,2,8,70,0,0
47376,-100,4,2,2,70,0,0
47613,-100,4,2,8,70,0,0
47692,-100,4,2,2,70,0,0
47928,-100,4,2,8,70,0,0
48007,-100,4,2,2,70,0,0
48560,-100,4,2,6,70,0,0
48639,-100,4,2,2,70,0,0
48876,-100,4,2,6,70,0,0
48955,-100,4,2,2,70,0,0
49192,-100,4,2,6,70,0,0
49271,-100,4,2,2,70,0,0
49350,-100,4,2,2,70,0,0
49823,-100,4,2,3,70,0,0
50139,-100,4,2,1,70,0,0
50297,-100,4,2,2,70,0,0
50455,-100,4,2,3,70,0,0
50613,-100,4,2,3,70,0,0
50928,-83.3333333333333,4,2,3,70,0,0
51165,-83.3333333333333,4,2,3,5,0,0
51244,-83.3333333333333,4,2,3,70,0,0
51876,-100,4,2,2,70,0,0
52192,-100,4,2,7,70,0,0
52271,-100,4,2,2,70,0,0
52823,-100,4,2,7,70,0,0
52902,-100,4,2,2,70,0,0
53455,-83.3333333333333,4,2,2,70,0,0
53692,-83.3333333333333,4,2,2,5,0,0
53771,-83.3333333333333,4,2,3,70,0,0
54402,-100,4,2,2,70,0,0
54876,-100,4,2,3,70,0,0
55665,-100,4,2,1,70,0,0
55744,-100,4,2,2,70,0,0
55981,-83.3333333333333,4,2,2,70,0,0
56139,-83.3333333333333,4,2,8,70,0,0
56218,-83.3333333333333,4,2,2,5,0,0
56297,-83.3333333333333,4,2,2,70,0,0
56455,-83.3333333333333,4,2,8,70,0,0
56534,-83.3333333333333,4,2,2,70,0,0
56771,-83.3333333333333,4,2,8,70,0,0
56850,-83.3333333333333,4,2,2,70,0,0
56928,-100,4,2,2,70,0,0
57086,-100,4,2,9,70,0,0
57165,-100,4,2,2,70,0,0
57402,-100,4,2,9,70,0,0
57481,-100,4,2,2,70,0,0
57718,-100,4,2,9,70,0,0
57797,-100,4,2,2,70,0,0
58034,-100,4,2,9,70,0,0
58113,-100,4,2,2,70,0,0
58507,-100,4,2,6,70,0,0
58586,-100,4,2,2,70,0,0
58823,-100,4,2,3,70,0,0
59139,-90.9090909090909,4,2,6,70,0,0
59218,-90.9090909090909,4,2,2,70,0,0
59455,-90.9090909090909,4,2,2,70,0,0
59928,-83.3333333333333,4,2,3,70,0,0
60244,-83.3333333333333,4,2,1,70,0,0
60402,-100,4,2,2,70,0,0
60560,-100,4,2,3,70,0,0
60718,-125,4,2,3,70,0,0
61034,-83.3333333333333,4,2,3,70,0,0
61981,-100,4,2,2,70,0,0
62139,-100,4,2,9,70,0,0
62218,-100,4,2,2,70,0,0
62455,-100,4,2,9,70,0,0
62534,-100,4,2,2,70,0,0
62771,-100,4,2,8,70,0,0
62850,-100,4,2,2,70,0,0
63086,-100,4,2,8,70,0,0
63165,-100,4,2,2,70,0,0
63402,-100,4,2,8,70,0,0
63481,-100,4,2,2,70,0,0
63718,-100,4,2,12,70,0,0
63797,-100,4,2,2,70,0,0
64034,-100,4,2,12,70,0,0
64113,-100,4,2,2,70,0,0
64350,-100,4,2,2,70,0,0
64981,-100,4,2,3,70,0,0
65455,-100,4,2,12,70,0,0
65534,-100,4,2,2,70,0,0
66244,-100,4,2,13,70,0,0
66323,-100,4,2,2,70,0,0
66560,-100,4,2,13,70,0,0
66639,-100,4,2,2,70,0,0
66876,-90.9090909090909,4,2,13,70,0,0
66955,-90.9090909090909,4,2,2,70,0,0
67192,-90.9090909090909,4,2,13,70,0,0
67271,-90.9090909090909,4,2,2,70,0,0
67507,-83.3333333333333,4,2,13,70,0,0
67586,-83.3333333333333,4,2,2,70,0,0
67823,-83.3333333333333,4,2,13,70,0,0
67902,-83.3333333333333,4,2,2,70,0,0
68139,-83.3333333333333,4,2,12,70,0,0
68218,-83.3333333333333,4,2,2,70,0,0
68297,-100,4,2,2,70,0,0
68928,-100,4,2,1,70,0,0
69402,-100,4,2,2,70,0,0
69876,-100,4,2,3,70,0,0
70034,-100,4,2,2,70,0,0
70192,-100,4,2,2,70,0,0
70507,-100,4,2,3,70,0,0
70665,-100,4,2,2,70,0,0
71139,-100,4,2,2,70,0,0
71455,-100,4,2,2,70,0,0
71771,-100,4,2,2,70,0,0
71928,-100,4,2,12,70,0,0
72007,-100,4,2,2,70,0,0
72718,-100,4,2,5,70,0,0
73350,-100,4,2,5,50,0,0
74613,-166.666666666667,4,2,5,50,0,0
75560,-76.9230769230769,4,2,69,100,0,0
75639,-76.9230769230769,4,2,5,70,0,0
75876,-90.9090909090909,4,2,1,80,0,1
75955,-90.9090909090909,4,2,2,80,0,1
76192,-90.9090909090909,4,2,6,80,0,1
76271,-90.9090909090909,4,2,2,80,0,1
76507,-90.9090909090909,4,2,6,80,0,1
76586,-90.9090909090909,4,2,2,80,0,1
76823,-90.9090909090909,4,2,6,80,0,1
76902,-90.9090909090909,4,2,2,80,0,1
77139,-90.9090909090909,4,2,6,80,0,1
77218,-90.9090909090909,4,2,2,80,0,1
77455,-90.9090909090909,4,2,6,80,0,1
77534,-90.9090909090909,4,2,2,80,0,1
77771,-90.9090909090909,4,2,6,80,0,1
77850,-90.9090909090909,4,2,2,80,0,1
78086,-90.9090909090909,4,2,6,80,0,1
78165,-90.9090909090909,4,2,2,80,0,1
78402,-90.9090909090909,4,2,6,80,0,1
78481,-90.9090909090909,4,2,2,80,0,1
78718,-90.9090909090909,4,2,6,80,0,1
78797,-90.9090909090909,4,2,2,80,0,1
79034,-90.9090909090909,4,2,6,80,0,1
79113,-90.9090909090909,4,2,2,80,0,1
79350,-90.9090909090909,4,2,6,80,0,1
79429,-90.9090909090909,4,2,2,80,0,1
80139,-76.9230769230769,4,2,12,80,0,1
80218,-76.9230769230769,4,2,2,80,0,1
80376,-76.9230769230769,4,2,2,5,0,1
80455,-76.9230769230769,4,2,3,80,0,1
80928,-90.9090909090909,4,2,2,80,0,1
81244,-90.9090909090909,4,2,6,80,0,1
81323,-90.9090909090909,4,2,2,80,0,1
81560,-90.9090909090909,4,2,6,80,0,1
81639,-90.9090909090909,4,2,2,80,0,1
81876,-90.9090909090909,4,2,6,80,0,1
81955,-90.9090909090909,4,2,2,80,0,1
82192,-90.9090909090909,4,2,6,80,0,1
82271,-90.9090909090909,4,2,2,80,0,1
82507,-90.9090909090909,4,2,6,80,0,1
82586,-90.9090909090909,4,2,2,80,0,1
82823,-90.9090909090909,4,2,6,80,0,1
82902,-90.9090909090909,4,2,2,80,0,1
83139,-90.9090909090909,4,2,6,80,0,1
83218,-90.9090909090909,4,2,2,80,0,1
83771,-90.9090909090909,4,2,6,80,0,1
83850,-90.9090909090909,4,2,2,80,0,1
84086,-90.9090909090909,4,2,6,80,0,1
84165,-90.9090909090909,4,2,2,80,0,1
84402,-90.9090909090909,4,2,6,80,0,1
84481,-90.9090909090909,4,2,2,80,0,1
85034,-90.9090909090909,4,2,3,80,0,1
85665,-90.9090909090909,4,2,3,80,0,0
85981,-90.9090909090909,4,2,2,80,0,1
86455,-90.9090909090909,4,2,13,80,0,1
86534,-90.9090909090909,4,2,2,80,0,1
86771,-90.9090909090909,4,2,12,80,0,1
86850,-90.9090909090909,4,2,2,80,0,1
87086,-90.9090909090909,4,2,13,80,0,1
87165,-90.9090909090909,4,2,2,80,0,1
87402,-90.9090909090909,4,2,13,80,0,1
87481,-90.9090909090909,4,2,2,80,0,1
87718,-90.9090909090909,4,2,13,80,0,1
87797,-90.9090909090909,4,2,2,80,0,1
88034,-90.9090909090909,4,2,12,80,0,1
88113,-90.9090909090909,4,2,2,80,0,1
88350,-90.9090909090909,4,2,12,80,0,1
88429,-90.9090909090909,4,2,2,80,0,1
88665,-90.9090909090909,4,2,12,80,0,1
88744,-90.9090909090909,4,2,2,80,0,1
88981,-90.9090909090909,4,2,13,80,0,1
89060,-90.9090909090909,4,2,2,80,0,1
89297,-90.9090909090909,4,2,13,80,0,1
89376,-90.9090909090909,4,2,2,80,0,1
89613,-90.9090909090909,4,2,13,80,0,1
89692,-90.9090909090909,4,2,2,80,0,1
89771,-76.9230769230769,4,2,2,80,0,1
89928,-76.9230769230769,4,2,12,80,0,1
90007,-76.9230769230769,4,2,2,5,0,1
90086,-76.9230769230769,4,2,2,80,0,1
90244,-76.9230769230769,4,2,12,80,0,1
90323,-76.9230769230769,4,2,2,5,0,1
90402,-76.9230769230769,4,2,2,80,0,1
90560,-76.9230769230769,4,2,12,80,0,1
90639,-76.9230769230769,4,2,2,80,0,1
90876,-76.9230769230769,4,2,13,80,0,1
90955,-76.9230769230769,4,2,2,80,0,1
91034,-90.9090909090909,4,2,2,80,0,1
91507,-90.9090909090909,4,2,13,80,0,1
91586,-90.9090909090909,4,2,2,80,0,1
91823,-90.9090909090909,4,2,12,80,0,1
91902,-90.9090909090909,4,2,2,80,0,1
92139,-90.9090909090909,4,2,13,80,0,1
92218,-90.9090909090909,4,2,2,80,0,1
92455,-90.9090909090909,4,2,13,80,0,1
92534,-90.9090909090909,4,2,2,80,0,1
92771,-90.9090909090909,4,2,13,80,0,1
92850,-90.9090909090909,4,2,2,80,0,1
93402,-90.9090909090909,4,2,3,80,0,1
93560,-90.9090909090909,4,2,2,80,0,1
94192,-90.9090909090909,4,2,3,80,0,1
94823,-90.9090909090909,4,2,2,80,0,1
95139,-90.9090909090909,4,2,5,80,0,1
95455,-90.9090909090909,4,2,2,80,0,1
95928,-90.9090909090909,4,2,12,80,0,1
96007,-90.9090909090909,4,2,2,80,0,1
96086,-90.9090909090909,4,2,2,80,0,0
106192,-125,4,2,3,60,0,0
106665,-125,4,2,1,60,0,0
106823,-125,4,2,2,60,0,0
106981,-125,4,2,3,60,0,0
107139,-76.9230769230769,4,2,69,90,0,0
107218,-76.9230769230769,4,2,3,60,0,0
107376,-76.9230769230769,4,2,3,5,0,0
107455,-100,4,2,2,70,0,0
107928,-100,4,2,8,70,0,0
108007,-100,4,2,2,70,0,0
108244,-100,4,2,9,70,0,0
108323,-100,4,2,2,70,0,0
108560,-100,4,2,8,70,0,0
108639,-100,4,2,2,70,0,0
108876,-100,4,2,8,70,0,0
108955,-100,4,2,2,70,0,0
109192,-100,4,2,8,70,0,0
109271,-100,4,2,2,70,0,0
109507,-100,4,2,9,70,0,0
109586,-100,4,2,2,70,0,0
109823,-100,4,2,8,70,0,0
109902,-100,4,2,2,70,0,0
110139,-100,4,2,8,70,0,0
110218,-100,4,2,2,70,0,0
110455,-100,4,2,9,70,0,0
110534,-100,4,2,2,70,0,0
110771,-100,4,2,9,70,0,0
110850,-100,4,2,2,70,0,0
111086,-100,4,2,9,70,0,0
111165,-100,4,2,2,70,0,0
111402,-100,4,2,9,70,0,0
111481,-100,4,2,2,70,0,0
111718,-100,4,2,9,70,0,0
111797,-100,4,2,2,70,0,0
112034,-100,4,2,9,70,0,0
112113,-100,4,2,2,70,0,0
112350,-100,4,2,9,70,0,0
112429,-100,4,2,2,70,0,0
112981,-100,4,2,8,70,0,0
113060,-100,4,2,2,70,0,0
113297,-100,4,2,9,70,0,0
113376,-100,4,2,2,70,0,0
113613,-100,4,2,9,70,0,0
113692,-100,4,2,2,70,0,0
113928,-100,4,2,9,70,0,0
114007,-100,4,2,2,70,0,0
114244,-100,4,2,8,70,0,0
114323,-100,4,2,2,70,0,0
114560,-100,4,2,12,70,0,0
114639,-100,4,2,2,70,0,0
114876,-100,4,2,12,70,0,0
114955,-100,4,2,2,70,0,0
115507,-100,4,2,12,70,0,0
115586,-100,4,2,2,70,0,0
115823,-100,4,2,12,70,0,0
115902,-100,4,2,2,70,0,0
116139,-100,4,2,12,70,0,0
116218,-100,4,2,2,70,0,0
116297,-100,4,2,2,70,0,0
116771,-100,4,2,3,70,0,0
117086,-83.3333333333333,4,2,1,70,0,0
117244,-83.3333333333333,4,2,2,70,0,0
117402,-83.3333333333333,4,2,3,70,0,0
117560,-100,4,2,3,70,0,0
117876,-83.3333333333333,4,2,3,70,0,0
118113,-83.3333333333333,4,2,3,5,0,0
118192,-83.3333333333333,4,2,3,70,0,0
118350,-83.3333333333333,4,2,1,70,0,0
118507,-83.3333333333333,4,2,2,70,0,0
118665,-83.3333333333333,4,2,3,70,0,0
118823,-100,4,2,2,70,0,0
119139,-100,4,2,7,70,0,0
119218,-100,4,2,2,70,0,0
119771,-100,4,2,7,70,0,0
119850,-100,4,2,2,70,0,0
120086,-100,4,2,2,70,0,0
120402,-83.3333333333333,4,2,2,70,0,0
120639,-83.3333333333333,4,2,2,5,0,0
120718,-83.3333333333333,4,2,3,70,0,0
121350,-100,4,2,2,70,0,0
121823,-100,4,2,3,70,0,0
122613,-100,4,2,5,70,0,0
122928,-83.3333333333333,4,2,5,70,0,0
123086,-83.3333333333333,4,2,8,70,0,0
123165,-83.3333333333333,4,2,2,5,0,0
123244,-83.3333333333333,4,2,2,70,0,0
123402,-83.3333333333333,4,2,8,70,0,0
123481,-83.3333333333333,4,2,2,70,0,0
123718,-83.3333333333333,4,2,8,70,0,0
123797,-83.3333333333333,4,2,2,70,0,0
123876,-100,4,2,2,70,0,0
124034,-100,4,2,9,70,0,0
124113,-100,4,2,2,70,0,0
124350,-100,4,2,9,70,0,0
124429,-100,4,2,2,70,0,0
124665,-100,4,2,9,70,0,0
124744,-100,4,2,2,70,0,0
124981,-100,4,2,9,70,0,0
125060,-100,4,2,2,70,0,0
125455,-100,4,2,6,70,0,0
125534,-100,4,2,2,70,0,0
125771,-100,4,2,3,70,0,0
126086,-90.9090909090909,4,2,6,70,0,0
126165,-90.9090909090909,4,2,2,70,0,0
126876,-83.3333333333333,4,2,3,70,0,0
127192,-83.3333333333333,4,2,1,70,0,0
127350,-100,4,2,2,70,0,0
127507,-100,4,2,3,70,0,0
127665,-125,4,2,3,70,0,0
127902,-125,4,2,3,5,0,0
127981,-83.3333333333333,4,2,3,70,0,0
128218,-83.3333333333333,4,2,3,5,0,0
128297,-83.3333333333333,4,2,3,70,0,0
128928,-100,4,2,2,70,0,0
129402,-100,4,2,9,70,0,0
129481,-100,4,2,2,70,0,0
129718,-100,4,2,8,70,0,0
129797,-100,4,2,2,70,0,0
130034,-100,4,2,8,70,0,0
130113,-100,4,2,2,70,0,0
130665,-100,4,2,8,70,0,0
130744,-100,4,2,2,70,0,0
131297,-100,4,2,3,70,0,0
131928,-100,4,2,2,70,0,0
132402,-100,4,2,6,70,0,0
132481,-100,4,2,2,70,0,0
132718,-100,4,2,2,70,0,0
133192,-100,4,2,13,70,0,0
133271,-100,4,2,2,70,0,0
133507,-100,4,2,13,70,0,0
133586,-100,4,2,2,70,0,0
133823,-90.9090909090909,4,2,13,70,0,0
133902,-90.9090909090909,4,2,2,70,0,0
134139,-90.9090909090909,4,2,13,70,0,0
134218,-90.9090909090909,4,2,2,70,0,0
134455,-83.3333333333333,4,2,13,70,0,0
134534,-83.3333333333333,4,2,2,70,0,0
134771,-83.3333333333333,4,2,13,70,0,0
134850,-83.3333333333333,4,2,2,70,0,0
135086,-83.3333333333333,4,2,12,70,0,0
135165,-83.3333333333333,4,2,2,70,0,0
135244,-100,4,2,2,70,0,0
135402,-100,4,2,13,70,0,0
135481,-100,4,2,2,70,0,0
135718,-100,4,2,13,70,0,0
135797,-100,4,2,2,70,0,0
135876,-100,4,2,6,70,0,0
135955,-100,4,2,2,70,0,0
136034,-100,4,2,1,70,0,0
136192,-100,4,2,2,70,0,0
136350,-100,4,2,3,70,0,0
136665,-100,4,2,1,70,0,0
136823,-100,4,2,2,70,0,0
137455,-100,4,2,3,70,0,0
137613,-100,4,2,2,70,0,0
137928,-100,4,2,1,70,0,0
138086,-100,4,2,2,70,0,0
138402,-100,4,2,2,70,0,0
138560,-100,4,2,3,70,0,0
138718,-100,4,2,3,70,0,0
138876,-100,4,2,12,70,0,0
138955,-100,4,2,2,70,0,0
139665,-100,4,2,5,70,0,0
140297,-100,4,2,5,50,0,0
141560,-100,4,2,5,50,0,0
141876,-100,4,2,5,70,0,0
142113,-100,4,2,5,5,0,0
142192,-111.111111111111,4,2,5,70,0,0
142428,-111.111111111111,4,2,5,5,0,0
142507,-125,4,2,5,70,0,0
142744,-125,4,2,5,5,0,0
142823,-90.9090909090909,4,2,1,80,0,1
142902,-90.9090909090909,4,2,2,80,0,1
143139,-90.9090909090909,4,2,6,80,0,1
143218,-90.9090909090909,4,2,2,80,0,1
143454,-90.9090909090909,4,2,6,80,0,1
143533,-90.9090909090909,4,2,2,80,0,1
143770,-90.9090909090909,4,2,6,80,0,1
143849,-90.9090909090909,4,2,2,80,0,1
144086,-90.9090909090909,4,2,6,80,0,1
144165,-90.9090909090909,4,2,2,80,0,1
144402,-90.9090909090909,4,2,6,80,0,1
144481,-90.9090909090909,4,2,2,80,0,1
144718,-90.9090909090909,4,2,6,80,0,1
144797,-90.9090909090909,4,2,2,80,0,1
145033,-90.9090909090909,4,2,6,80,0,1
145112,-90.9090909090909,4,2,2,80,0,1
145349,-90.9090909090909,4,2,6,80,0,1
145428,-90.9090909090909,4,2,2,80,0,1
145665,-90.9090909090909,4,2,6,80,0,1
145744,-90.9090909090909,4,2,2,80,0,1
145981,-90.9090909090909,4,2,6,80,0,1
146060,-90.9090909090909,4,2,2,80,0,1
146297,-90.9090909090909,4,2,6,80,0,1
146376,-90.9090909090909,4,2,2,80,0,1
147086,-76.9230769230769,4,2,12,80,0,1
147165,-76.9230769230769,4,2,2,80,0,1
147323,-76.9230769230769,4,2,2,5,0,1
147402,-76.9230769230769,4,2,3,80,0,1
147876,-90.9090909090909,4,2,2,80,0,1
148191,-90.9090909090909,4,2,6,80,0,1
148270,-90.9090909090909,4,2,2,80,0,1
148507,-90.9090909090909,4,2,6,80,0,1
148586,-90.9090909090909,4,2,2,80,0,1
148823,-90.9090909090909,4,2,6,80,0,1
148902,-90.9090909090909,4,2,2,80,0,1
149139,-90.9090909090909,4,2,6,80,0,1
149218,-90.9090909090909,4,2,2,80,0,1
149454,-90.9090909090909,4,2,6,80,0,1
149533,-90.9090909090909,4,2,2,80,0,1
149770,-90.9090909090909,4,2,6,80,0,1
149849,-90.9090909090909,4,2,2,80,0,1
150086,-90.9090909090909,4,2,6,80,0,1
150165,-90.9090909090909,4,2,2,80,0,1
150718,-90.9090909090909,4,2,6,80,0,1
150797,-90.9090909090909,4,2,2,80,0,1
151033,-90.9090909090909,4,2,6,80,0,1
151112,-90.9090909090909,4,2,2,80,0,1
151349,-90.9090909090909,4,2,6,80,0,1
151428,-90.9090909090909,4,2,2,80,0,1
151981,-90.9090909090909,4,2,3,80,0,1
152297,-90.9090909090909,4,2,3,80,0,0
152455,-90.9090909090909,4,2,1,80,0,0
152613,-90.9090909090909,4,2,2,80,0,0
152771,-90.9090909090909,4,2,3,80,0,0
152928,-90.9090909090909,4,2,2,80,0,1
153402,-90.9090909090909,4,2,13,80,0,1
153481,-90.9090909090909,4,2,2,80,0,1
153718,-90.9090909090909,4,2,12,80,0,1
153797,-90.9090909090909,4,2,2,80,0,1
154033,-90.9090909090909,4,2,13,80,0,1
154112,-90.9090909090909,4,2,2,80,0,1
154349,-90.9090909090909,4,2,13,80,0,1
154428,-90.9090909090909,4,2,2,80,0,1
154665,-90.9090909090909,4,2,13,80,0,1
154744,-90.9090909090909,4,2,2,80,0,1
154981,-90.9090909090909,4,2,12,80,0,1
155060,-90.9090909090909,4,2,2,80,0,1
155297,-90.9090909090909,4,2,12,80,0,1
155376,-90.9090909090909,4,2,2,80,0,1
155612,-90.9090909090909,4,2,12,80,0,1
155691,-90.9090909090909,4,2,2,80,0,1
155928,-90.9090909090909,4,2,13,80,0,1
156007,-90.9090909090909,4,2,2,80,0,1
156244,-90.9090909090909,4,2,13,80,0,1
156323,-90.9090909090909,4,2,2,80,0,1
156560,-90.9090909090909,4,2,13,80,0,1
156639,-90.9090909090909,4,2,2,80,0,1
156718,-76.9230769230769,4,2,2,80,0,1
156875,-76.9230769230769,4,2,12,80,0,1
156955,-76.9230769230769,4,2,2,5,0,1
157034,-76.9230769230769,4,2,2,80,0,1
157191,-76.9230769230769,4,2,12,80,0,1
157271,-76.9230769230769,4,2,2,5,0,1
157350,-76.9230769230769,4,2,2,80,0,1
157507,-76.9230769230769,4,2,12,80,0,1
157586,-76.9230769230769,4,2,2,80,0,1
157823,-76.9230769230769,4,2,13,80,0,1
157902,-76.9230769230769,4,2,2,80,0,1
157981,-90.9090909090909,4,2,2,80,0,1
158454,-90.9090909090909,4,2,13,80,0,1
158533,-90.9090909090909,4,2,2,80,0,1
158770,-90.9090909090909,4,2,12,80,0,1
158849,-90.9090909090909,4,2,2,80,0,1
159086,-90.9090909090909,4,2,13,80,0,1
159165,-90.9090909090909,4,2,2,80,0,1
159402,-90.9090909090909,4,2,13,80,0,1
159481,-90.9090909090909,4,2,2,80,0,1
159718,-90.9090909090909,4,2,13,80,0,1
159797,-90.9090909090909,4,2,2,80,0,1
160349,-90.9090909090909,4,2,12,80,0,1
160428,-90.9090909090909,4,2,2,80,0,1
161139,-90.9090909090909,4,2,3,80,0,1
161771,-90.9090909090909,4,2,5,80,0,1
162086,-90.9090909090909,4,2,2,80,0,1
162560,-90.9090909090909,4,2,1,80,0,1
162718,-90.9090909090909,4,2,2,80,0,1
162876,-90.9090909090909,4,2,3,80,0,1
163034,-166.666666666667,4,2,2,80,0,0
163586,-166.666666666667,4,2,2,5,0,0
163665,-166.666666666667,4,2,3,80,0,0
164218,-166.666666666667,4,2,3,5,0,0
164297,-166.666666666667,4,2,3,60,0,0
164455,-166.666666666667,4,2,3,63,0,0
164613,-166.666666666667,4,2,3,67,0,0
164771,-166.666666666667,4,2,3,70,0,0
164928,-166.666666666667,4,2,3,73,0,0
165086,-166.666666666667,4,2,3,77,0,0
165165,-166.666666666667,4,2,3,78,0,0
165244,-71.4285714285714,4,2,69,100,0,0
165323,-71.4285714285714,4,2,3,80,0,0
165481,-71.4285714285714,4,2,3,5,0,0
165560,-90.9090909090909,4,2,1,75,0,1
165639,-90.9090909090909,4,2,2,75,0,0
166034,-90.9090909090909,4,2,13,75,0,0
166113,-90.9090909090909,4,2,2,75,0,0
166350,-90.9090909090909,4,2,13,75,0,0
166429,-90.9090909090909,4,2,2,75,0,0
166665,-90.9090909090909,4,2,13,75,0,0
166744,-90.9090909090909,4,2,2,75,0,0
166981,-90.9090909090909,4,2,13,75,0,0
167060,-90.9090909090909,4,2,2,75,0,0
167297,-90.9090909090909,4,2,13,75,0,0
167376,-90.9090909090909,4,2,2,75,0,0
167613,-90.9090909090909,4,2,13,75,0,0
167692,-90.9090909090909,4,2,2,75,0,0
167928,-90.9090909090909,4,2,13,75,0,0
168007,-90.9090909090909,4,2,2,75,0,0
168244,-90.9090909090909,4,2,12,75,0,0
168323,-90.9090909090909,4,2,2,75,0,0
168560,-90.9090909090909,4,2,13,75,0,0
168639,-90.9090909090909,4,2,2,75,0,0
168876,-90.9090909090909,4,2,13,75,0,0
168955,-90.9090909090909,4,2,2,75,0,0
169192,-90.9090909090909,4,2,13,75,0,0
169271,-90.9090909090909,4,2,2,75,0,0
169823,-90.9090909090909,4,2,12,75,0,0
169902,-90.9090909090909,4,2,2,75,0,0
170139,-90.9090909090909,4,2,5,75,0,0
170297,-76.9230769230769,4,2,5,75,0,0
170455,-76.9230769230769,4,2,3,75,0,0
170613,-90.9090909090909,4,2,2,75,0,0
171086,-90.9090909090909,4,2,13,75,0,0
171165,-90.9090909090909,4,2,2,75,0,0
171402,-90.9090909090909,4,2,13,75,0,0
171481,-90.9090909090909,4,2,2,75,0,0
171718,-90.9090909090909,4,2,13,75,0,0
171797,-90.9090909090909,4,2,2,75,0,0
172034,-90.9090909090909,4,2,12,75,0,0
172113,-90.9090909090909,4,2,2,75,0,0
172350,-90.9090909090909,4,2,13,75,0,0
172429,-90.9090909090909,4,2,2,75,0,0
172665,-90.9090909090909,4,2,13,75,0,0
172744,-90.9090909090909,4,2,2,75,0,0
172981,-90.9090909090909,4,2,13,75,0,0
173060,-90.9090909090909,4,2,2,75,0,0
173139,-111.111111111111,4,2,3,75,0,0
173455,-76.9230769230769,4,2,6,75,0,0
173534,-76.9230769230769,4,2,2,75,0,0
173771,-111.111111111111,4,2,2,75,0,0
174086,-76.9230769230769,4,2,6,75,0,0
174165,-76.9230769230769,4,2,2,75,0,0
174402,-90.9090909090909,4,2,1,75,0,0
175271,-90.9090909090909,4,2,1,75,0,0
175507,-90.9090909090909,4,2,2,75,0,0
175665,-90.9090909090909,4,2,2,75,0,0
176139,-90.9090909090909,4,2,13,75,0,0
176218,-90.9090909090909,4,2,2,75,0,0
176455,-90.9090909090909,4,2,13,75,0,0
176534,-90.9090909090909,4,2,2,75,0,0
176771,-90.9090909090909,4,2,13,75,0,0
176850,-90.9090909090909,4,2,2,75,0,0
177086,-90.9090909090909,4,2,13,75,0,0
177165,-90.9090909090909,4,2,2,75,0,0
177402,-90.9090909090909,4,2,13,75,0,0
177481,-90.9090909090909,4,2,2,75,0,0
177718,-90.9090909090909,4,2,13,75,0,0
177797,-90.9090909090909,4,2,2,75,0,0
178034,-90.9090909090909,4,2,13,75,0,0
178113,-90.9090909090909,4,2,2,75,0,0
178192,-90.9090909090909,4,2,2,75,0,0
178350,-90.9090909090909,4,2,12,75,0,0
178429,-90.9090909090909,4,2,2,75,0,0
178665,-90.9090909090909,4,2,13,75,0,0
178744,-90.9090909090909,4,2,2,75,0,0
178823,-83.3333333333333,4,2,2,75,0,0
178981,-83.3333333333333,4,2,12,75,0,0
179060,-83.3333333333333,4,2,2,75,0,0
179297,-83.3333333333333,4,2,13,75,0,0
179376,-83.3333333333333,4,2,2,75,0,0
179455,-76.9230769230769,4,2,2,75,0,0
179613,-76.9230769230769,4,2,12,75,0,0
179692,-76.9230769230769,4,2,2,75,0,0
179928,-76.9230769230769,4,2,12,75,0,0
180007,-76.9230769230769,4,2,2,75,0,0
180086,-71.4285714285714,4,2,2,75,0,0
180244,-71.4285714285714,4,2,13,75,0,0
180323,-71.4285714285714,4,2,2,75,0,0
180560,-71.4285714285714,4,2,12,75,0,0
180639,-71.4285714285714,4,2,2,75,0,0
180718,-83.3333333333333,4,2,2,75,0,0
180876,-83.3333333333333,4,2,12,75,0,0
180955,-83.3333333333333,4,2,2,75,0,0
181034,-90.9090909090909,4,2,2,75,0,0
181192,-90.9090909090909,4,2,13,75,0,0
181271,-90.9090909090909,4,2,2,75,0,0
181507,-90.9090909090909,4,2,13,75,0,0
181586,-90.9090909090909,4,2,2,75,0,0
181823,-90.9090909090909,4,2,13,75,0,0
181902,-90.9090909090909,4,2,2,75,0,0
181981,-90.9090909090909,4,2,3,75,0,0
182139,-90.9090909090909,4,2,13,75,0,0
182218,-90.9090909090909,4,2,2,75,0,0
182455,-90.9090909090909,4,2,13,75,0,0
182534,-90.9090909090909,4,2,2,75,0,0
182613,-90.9090909090909,4,2,2,55,0,0
182928,-90.9090909090909,4,2,2,75,0,0
183244,-76.9230769230769,4,2,2,75,0,0
183560,-76.9230769230769,4,2,6,75,0,0
183639,-76.9230769230769,4,2,2,75,0,0
183876,-76.9230769230769,4,2,6,75,0,0
183955,-76.9230769230769,4,2,2,75,0,0
184192,-76.9230769230769,4,2,6,75,0,0
184271,-76.9230769230769,4,2,2,75,0,0
184507,-90.9090909090909,4,2,6,75,0,0
184586,-90.9090909090909,4,2,2,75,0,0
184823,-90.9090909090909,4,2,6,75,0,0
184902,-90.9090909090909,4,2,2,75,0,0
185139,-90.9090909090909,4,2,6,75,0,0
185218,-90.9090909090909,4,2,2,75,0,0
185455,-100,4,2,6,75,0,0
185534,-100,4,2,2,75,0,0
185771,-125,4,2,2,75,0,0
186086,-83.3333333333333,4,2,2,75,0,0
186560,-83.3333333333333,4,2,3,75,0,0
186876,-83.3333333333333,4,2,2,75,0,0
187034,-83.3333333333333,4,2,69,100,0,0
187113,-83.3333333333333,4,2,2,75,0,0
187192,-83.3333333333333,4,2,1,75,0,0
187350,-83.3333333333333,4,2,2,75,0,0
188297,315.789473684211,3,2,2,65,1,0
188297,-166.666666666667,3,2,2,65,0,0
188375,-166.666666666667,3,2,2,65,0,0
188612,-166.666666666667,3,2,10,65,0,0
188691,-166.666666666667,3,2,2,65,0,0
188928,-166.666666666667,3,2,11,65,0,0
189007,-166.666666666667,3,2,2,65,0,0
189244,-166.666666666667,3,2,10,65,0,0
189323,-166.666666666667,3,2,2,65,0,0
189560,-166.666666666667,3,2,10,65,0,0
189639,-166.666666666667,3,2,2,65,0,0
189875,-166.666666666667,3,2,10,65,0,0
189954,-166.666666666667,3,2,2,65,0,0
190191,-166.666666666667,3,2,10,65,0,0
190270,-166.666666666667,3,2,2,65,0,0
190507,-166.666666666667,3,2,10,65,0,0
190586,-166.666666666667,3,2,2,65,0,0
190823,-166.666666666667,3,2,11,65,0,0
190902,-166.666666666667,3,2,2,65,0,0
191139,-166.666666666667,3,2,10,65,0,0
191218,-166.666666666667,3,2,2,65,0,0
191454,-166.666666666667,3,2,10,65,0,0
191533,-166.666666666667,3,2,2,65,0,0
191770,-166.666666666667,3,2,10,65,0,0
191849,-166.666666666667,3,2,2,65,0,0
192402,-166.666666666667,3,2,10,65,0,0
192481,-166.666666666667,3,2,2,65,0,0
192718,-166.666666666667,3,2,11,65,0,0
192797,-166.666666666667,3,2,2,65,0,0
193033,-166.666666666667,3,2,10,65,0,0
193112,-166.666666666667,3,2,2,65,0,0
193349,-166.666666666667,3,2,10,65,0,0
193428,-166.666666666667,3,2,2,65,0,0
193665,-166.666666666667,3,2,10,65,0,0
193744,-166.666666666667,3,2,2,65,0,0
193981,-166.666666666667,3,2,3,65,0,0
194297,-166.666666666667,3,2,10,65,0,0
194376,-166.666666666667,3,2,2,65,0,0
194454,-166.666666666667,3,2,1,65,0,0
195244,-166.666666666667,3,2,2,65,0,0
195402,-166.666666666667,3,2,3,65,0,0
195560,-166.666666666667,3,2,4,65,0,0
195875,-166.666666666667,3,2,2,65,0,0
196191,-166.666666666667,3,2,11,65,0,0
196270,-166.666666666667,3,2,2,65,0,0
196507,-166.666666666667,3,2,11,65,0,0
196586,-166.666666666667,3,2,2,65,0,0
196823,-166.666666666667,3,2,10,65,0,0
196902,-166.666666666667,3,2,2,65,0,0
197139,-166.666666666667,3,2,10,65,0,0
197218,-166.666666666667,3,2,2,65,0,0
197454,-166.666666666667,3,2,10,65,0,0
197533,-166.666666666667,3,2,2,65,0,0
197770,-166.666666666667,3,2,3,65,0,0
198086,-166.666666666667,3,2,10,65,0,0
198165,-166.666666666667,3,2,2,65,0,0
198244,-166.666666666667,3,2,1,65,0,0
198718,-166.666666666667,3,2,3,65,0,0
199349,-100,3,2,3,65,0,0
199507,-100,3,2,3,65,0,0
199665,315.789473684211,4,2,1,70,1,0
199665,-166.666666666667,4,2,1,70,0,0
199743,-166.666666666667,4,2,2,70,0,0
199901,-100,4,2,2,5,0,0
199980,-83.3333333333333,4,2,2,70,0,0
200296,-166.666666666667,4,2,2,70,0,0
200533,-166.666666666667,4,2,2,5,0,0
200612,-83.3333333333333,4,2,2,70,0,0
200928,-125,4,2,2,70,0,0
201401,-125,4,2,1,70,0,0
201717,-125,4,2,2,70,0,0
202033,-125,4,2,3,70,0,0
202191,-166.666666666667,4,2,1,70,0,0
202428,-166.666666666667,4,2,1,5,0,0
202507,-83.3333333333333,4,2,1,70,0,0
202822,-166.666666666667,4,2,1,70,0,0
202980,-166.666666666667,4,2,2,70,0,0
203059,-166.666666666667,4,2,2,5,0,0
203138,-83.3333333333333,4,2,2,70,0,0
203296,-83.3333333333333,4,2,5,70,0,0
203454,-125,4,2,5,70,0,0
203612,-125,4,2,1,70,0,0
203928,-125,4,2,2,70,0,0
204243,-125,4,2,3,70,0,0
204559,-100,4,2,2,70,0,0
205191,-100,4,2,3,70,0,0
205823,-100,4,2,3,70,0,0
207559,-100,4,2,1,70,0,0
207717,-100,4,2,2,70,0,0
207875,-100,4,2,3,70,0,0
208191,-100,4,2,3,70,0,0
208349,-100,4,2,12,70,0,0
208428,-100,4,2,2,70,0,0
209138,-100,4,2,1,70,0,0
209454,-100,4,2,5,70,0,0
209770,-125,4,2,5,55,0,0
209771,-125,4,2,5,55,0,0
211033,-83.3333333333333,4,2,5,65,0,0
211980,-66.6666666666667,4,2,69,100,0,0
212059,-66.6666666666667,4,2,5,65,0,0
212217,-66.6666666666667,4,2,5,5,0,0
212296,-66.6666666666667,4,2,5,50,0,0
224296,-125,4,2,5,70,0,0
224928,-90.9090909090909,4,2,1,80,0,1
225007,-90.9090909090909,4,2,2,80,0,1
225243,-90.9090909090909,4,2,6,80,0,1
225322,-90.9090909090909,4,2,2,80,0,1
225559,-90.9090909090909,4,2,6,80,0,1
225638,-90.9090909090909,4,2,2,80,0,1
225875,-90.9090909090909,4,2,6,80,0,1
225954,-90.9090909090909,4,2,2,80,0,1
226191,-90.9090909090909,4,2,6,80,0,1
226270,-90.9090909090909,4,2,2,80,0,1
226507,-90.9090909090909,4,2,6,80,0,1
226586,-90.9090909090909,4,2,2,80,0,1
226822,-90.9090909090909,4,2,6,80,0,1
226901,-90.9090909090909,4,2,2,80,0,1
227138,-90.9090909090909,4,2,6,80,0,1
227217,-90.9090909090909,4,2,2,80,0,1
227454,-90.9090909090909,4,2,6,80,0,1
227533,-90.9090909090909,4,2,2,80,0,1
227770,-90.9090909090909,4,2,6,80,0,1
227849,-90.9090909090909,4,2,2,80,0,1
228086,-90.9090909090909,4,2,6,80,0,1
228165,-90.9090909090909,4,2,2,80,0,1
228401,-90.9090909090909,4,2,6,80,0,1
228480,-90.9090909090909,4,2,2,80,0,1
229191,-76.9230769230769,4,2,12,80,0,1
229270,-76.9230769230769,4,2,2,80,0,1
229507,-76.9230769230769,4,2,5,80,0,1
229980,-90.9090909090909,4,2,2,80,0,1
230296,-90.9090909090909,4,2,6,80,0,1
230375,-90.9090909090909,4,2,2,80,0,1
230612,-90.9090909090909,4,2,6,80,0,1
230691,-90.9090909090909,4,2,2,80,0,1
230928,-90.9090909090909,4,2,6,80,0,1
231007,-90.9090909090909,4,2,2,80,0,1
231243,-90.9090909090909,4,2,6,80,0,1
231322,-90.9090909090909,4,2,2,80,0,1
231559,-90.9090909090909,4,2,6,80,0,1
231638,-90.9090909090909,4,2,2,80,0,1
231875,-90.9090909090909,4,2,6,80,0,1
231954,-90.9090909090909,4,2,2,80,0,1
232033,-90.9090909090909,4,2,2,80,0,1
232191,-90.9090909090909,4,2,2,80,0,1
232349,-90.9090909090909,4,2,3,80,0,1
232507,-90.9090909090909,4,2,2,80,0,1
232822,-90.9090909090909,4,2,6,80,0,1
232901,-90.9090909090909,4,2,2,80,0,1
233138,-90.9090909090909,4,2,6,80,0,1
233217,-90.9090909090909,4,2,2,80,0,1
233454,-90.9090909090909,4,2,6,80,0,1
233533,-90.9090909090909,4,2,2,80,0,1
234086,-90.9090909090909,4,2,2,80,0,1
234401,-90.9090909090909,4,2,2,80,0,0
234559,-90.9090909090909,4,2,1,65,0,0
234717,-90.9090909090909,4,2,2,80,0,0
234876,-90.9090909090909,4,2,3,80,0,0
235033,-90.9090909090909,4,2,2,80,0,1
235507,-90.9090909090909,4,2,13,80,0,1
235586,-90.9090909090909,4,2,2,80,0,1
235823,-90.9090909090909,4,2,12,80,0,1
235902,-90.9090909090909,4,2,2,80,0,1
236138,-90.9090909090909,4,2,13,80,0,1
236217,-90.9090909090909,4,2,2,80,0,1
236454,-90.9090909090909,4,2,13,80,0,1
236533,-90.9090909090909,4,2,2,80,0,1
236770,-90.9090909090909,4,2,13,80,0,1
236849,-90.9090909090909,4,2,2,80,0,1
237086,-90.9090909090909,4,2,12,80,0,1
237165,-90.9090909090909,4,2,2,80,0,1
237402,-90.9090909090909,4,2,12,80,0,1
237481,-90.9090909090909,4,2,2,80,0,1
237717,-90.9090909090909,4,2,12,80,0,1
237796,-90.9090909090909,4,2,2,80,0,1
238033,-90.9090909090909,4,2,13,80,0,1
238112,-90.9090909090909,4,2,2,80,0,1
238349,-90.9090909090909,4,2,13,80,0,1
238428,-90.9090909090909,4,2,2,80,0,1
238665,-90.9090909090909,4,2,13,80,0,1
238744,-90.9090909090909,4,2,2,80,0,1
238822,-76.9230769230769,4,2,2,80,0,1
238980,-76.9230769230769,4,2,12,80,0,1
239059,-76.9230769230769,4,2,2,5,0,1
239138,-76.9230769230769,4,2,2,80,0,1
239296,-76.9230769230769,4,2,12,80,0,1
239375,-76.9230769230769,4,2,2,5,0,1
239454,-76.9230769230769,4,2,2,80,0,1
239928,-76.9230769230769,4,2,2,80,0,1
240086,-90.9090909090909,4,2,2,80,0,1
240559,-90.9090909090909,4,2,13,80,0,1
240638,-90.9090909090909,4,2,2,80,0,1
240875,-90.9090909090909,4,2,12,80,0,1
240954,-90.9090909090909,4,2,2,80,0,1
241191,-90.9090909090909,4,2,13,80,0,1
241270,-90.9090909090909,4,2,2,80,0,1
241507,-90.9090909090909,4,2,13,80,0,1
241586,-90.9090909090909,4,2,2,80,0,1
241823,-90.9090909090909,4,2,13,80,0,1
241902,-90.9090909090909,4,2,2,80,0,1
242454,-90.9090909090909,4,2,3,80,0,1
242612,-90.9090909090909,4,2,2,80,0,1
242928,-90.9090909090909,4,2,6,80,0,1
243007,-90.9090909090909,4,2,2,80,0,1
243244,-90.9090909090909,4,2,3,80,0,1
243559,-90.9090909090909,4,2,6,80,0,1
243638,-90.9090909090909,4,2,2,80,0,1
244349,-90.9090909090909,4,2,3,80,0,1
244665,-90.9090909090909,4,2,2,80,0,1
244980,-90.9090909090909,4,2,3,80,0,1
245138,-90.9090909090909,4,2,5,80,0,1
245454,-90.9090909090909,4,2,6,80,0,1
245533,-90.9090909090909,4,2,2,80,0,1
245770,-90.9090909090909,4,2,3,80,0,1
246086,-90.9090909090909,4,2,6,80,0,1
246165,-90.9090909090909,4,2,2,80,0,1
246875,-90.9090909090909,4,2,3,80,0,1
247665,-142.857142857143,4,2,3,60,0,0
248296,-166.666666666667,4,2,3,60,0,0
248612,-166.666666666667,4,2,3,60,0,0
251454,-100,4,2,1,75,0,1
251533,-100,4,2,2,75,0,0
251928,-100,4,2,13,75,0,0
252007,-100,4,2,2,75,0,0
252243,-100,4,2,13,75,0,0
252322,-100,4,2,2,75,0,0
252559,-100,4,2,13,75,0,0
252638,-100,4,2,2,75,0,0
252875,-100,4,2,13,75,0,0
252954,-100,4,2,2,75,0,0
253191,-100,4,2,13,75,0,0
253270,-100,4,2,2,75,0,0
253507,-100,4,2,13,75,0,0
253586,-100,4,2,2,75,0,0
253822,-100,4,2,13,75,0,0
253901,-100,4,2,2,75,0,0
254138,-100,4,2,12,75,0,0
254217,-100,4,2,2,75,0,0
254454,-100,4,2,13,75,0,0
254533,-100,4,2,2,75,0,0
254770,-100,4,2,13,75,0,0
254849,-100,4,2,2,75,0,0
255086,-100,4,2,13,75,0,0
255165,-100,4,2,2,75,0,0
255401,-100,4,2,13,75,0,0
255480,-100,4,2,2,75,0,0
255717,-100,4,2,13,75,0,0
255796,-100,4,2,2,75,0,0
256033,-100,4,2,13,75,0,0
256112,-100,4,2,2,75,0,0
256349,-100,4,2,13,75,0,0
256428,-100,4,2,2,75,0,0
256980,-100,4,2,13,75,0,0
257059,-100,4,2,2,75,0,0
257296,-100,4,2,13,75,0,0
257375,-100,4,2,2,75,0,0
257612,-100,4,2,13,75,0,0
257691,-100,4,2,2,75,0,0
257928,-100,4,2,13,75,0,0
258007,-100,4,2,2,75,0,0
258243,-100,4,2,13,75,0,0
258322,-100,4,2,2,75,0,0
258401,-100,4,2,1,75,0,0
259033,-83.3333333333333,4,2,2,75,0,0
259270,-83.3333333333333,4,2,2,5,0,0
259349,-83.3333333333333,4,2,12,75,0,0
259428,-83.3333333333333,4,2,2,75,0,0
259586,-83.3333333333333,4,2,2,5,0,0
259665,-83.3333333333333,4,2,12,75,0,0
259743,-83.3333333333333,4,2,2,75,0,0
259901,-83.3333333333333,4,2,2,5,0,0
259980,-83.3333333333333,4,2,12,75,0,0
260059,-83.3333333333333,4,2,2,75,0,0
260217,-83.3333333333333,4,2,2,5,0,0
260296,-83.3333333333333,4,2,2,75,0,0
260533,-83.3333333333333,4,2,2,5,0,0
260612,-83.3333333333333,4,2,12,75,0,0
260691,-83.3333333333333,4,2,2,75,0,0
261086,-83.3333333333333,4,2,2,65,0,0
261243,-83.3333333333333,4,2,2,75,0,0
261559,-100,4,2,2,75,0,0
262033,-100,4,2,13,75,0,0
262112,-100,4,2,2,75,0,0
262349,-100,4,2,13,75,0,0
262428,-100,4,2,2,75,0,0
262664,-100,4,2,13,75,0,0
262743,-100,4,2,2,75,0,0
262980,-100,4,2,13,75,0,0
263059,-100,4,2,2,75,0,0
263296,-100,4,2,13,75,0,0
263375,-100,4,2,2,75,0,0
263612,-100,4,2,13,75,0,0
263691,-100,4,2,2,75,0,0
263928,-100,4,2,13,75,0,0
264007,-100,4,2,2,75,0,0
264243,-100,4,2,12,75,0,0
264322,-100,4,2,2,75,0,0
264559,-100,4,2,13,75,0,0
264638,-100,4,2,2,75,0,0
264875,-100,4,2,13,75,0,0
264954,-100,4,2,2,75,0,0
265191,-100,4,2,13,75,0,0
265270,-100,4,2,2,75,0,0
265507,-100,4,2,13,75,0,0
265586,-100,4,2,2,75,0,0
265822,-100,4,2,13,75,0,0
265901,-100,4,2,2,75,0,0
266138,-100,4,2,13,75,0,0
266217,-100,4,2,2,75,0,0
266454,-100,4,2,13,75,0,0
266533,-100,4,2,2,75,0,0
267086,-100,4,2,12,75,0,0
267165,-100,4,2,2,75,0,0
267401,-100,4,2,12,75,0,0
267480,-100,4,2,2,75,0,0
268112,-100,4,2,1,75,0,0
268349,-100,4,2,1,75,0,0
268507,-100,4,2,2,75,0,0
268665,-100,4,2,3,75,0,0
269296,-100,4,2,3,55,0,0
270559,-100,4,2,4,75,0,0
271033,-100,4,2,5,75,0,0
271665,-100,4,2,5,75,0,0
272928,-100,4,2,5,65,0,0
274191,-100,4,2,5,55,0,0
275454,-100,4,2,5,45,0,0
276717,-100,4,2,5,35,0,0
277033,-100,4,2,5,5,0,0

[Colours]
Combo1 : 164,72,255
Combo2 : 255,79,79
Combo3 : 255,159,64
Combo4 : 255,130,255

[HitObjects]
187,290,1350,6,0,P|133:230|143:150,1,165.000005035401,14|10,0:1|0:2,0:0:0:0:
325,94,1823,2,0,P|378:153|368:233,1,165.000005035401,10|10,0:2|0:2,0:0:0:0:
368,233,2455,1,10,0:2:0:0:
162,119,2613,6,0,P|244:114|324:93,1,165.000005035401,14|10,0:1|0:2,0:0:0:0:
349,264,3086,2,0,P|267:269|187:290,1,165.000005035401,10|10,0:2|0:2,0:0:0:0:
187,289,3718,1,10,0:2:0:0:
52,138,3876,6,0,P|105:196|182:177,1,165.000005035401,14|10,0:1|0:2,0:0:0:0:
242,16,4350,2,0,B|232:89|280:94|268:176,2,165.000005035401,10|10|10,0:2|0:2|0:2,0:0:0:0:
242,16,5455,6,0,P|280:16|331:5,1,82.5000025177003,14|0,0:2|0:0,0:0:0:0:
464,114,5771,2,0,P|386:102|343:168,1,165.000005035401,14|8,0:2|0:3,0:0:0:0:
165,285,6244,1,8,0:3:0:0:
165,285,6402,6,0,P|161:202|144:122,1,165.000005035401,14|10,0:1|0:2,0:0:0:0:
347,99,6876,2,0,P|350:181|367:261,1,165.000005035401,10|10,0:2|0:2,0:0:0:0:
367,261,7507,1,10,0:2:0:0:
188,349,7665,6,0,P|120:309|129:231,1,165.000005035401,14|10,0:1|0:2,0:0:0:0:
324,349,8139,2,0,P|392:309|383:231,1,165.000005035401,10|10,0:2|0:2,0:0:0:0:
383,232,8771,1,10,0:2:0:0:
383,51,8928,6,0,B|320:46|320:46|276:82,1,120,14|8,0:1|0:2,0:0:0:0:
413,138,9560,2,0,B|350:133|350:133|306:169,1,120,14|8,0:1|0:2,0:0:0:0:
29,208,10192,6,0,L|103:199,1,75,14|0,0:2|0:0,0:0:0:0:
191,332,10507,2,0,L|109:322,1,82.5000025177003,14|0,0:2|0:0,0:0:0:0:
199,140,10823,2,0,L|208:229,1,89.9999972534181,8|8,0:3|0:2,0:0:0:0:
356,375,11139,2,0,L|369:278,1,97.4999955368044,8|8,0:2|0:2,0:0:0:0:
43,355,12718,6,0,P|81:290|151:299,1,150,14|8,0:1|0:2,0:0:0:0:
218,170,13192,1,2,0:2:0:0:
218,170,13271,1,2,0:2:0:0:
218,170,13350,2,0,P|182:180|144:183,1,75,10|2,0:1|0:2,0:0:0:0:
297,279,13665,2,0,P|332:289|370:292,1,75,10|2,0:2|0:2,0:0:0:0:
511,180,13981,5,10,0:1:0:0:
349,202,14139,1,2,0:2:0:0:
440,91,14297,2,0,P|429:128|424:165,1,75,10|2,0:2|0:2,0:2:0:0:
480,275,14613,5,10,0:1:0:0:
333,187,14771,1,2,0:2:0:0:
435,169,14928,2,0,P|440:131|450:96,1,75,10|2,0:2|0:2,0:2:0:0:
292,29,15244,6,0,P|220:18|172:72,1,150,10|8,0:1|0:2,0:0:0:0:
33,121,15718,1,2,0:2:0:0:
33,121,15797,1,2,0:2:0:0:
33,121,15876,2,0,P|28:83|22:46,1,75,10|2,0:1|0:2,0:0:0:0:
124,151,16192,2,0,P|129:188|134:225,1,75,10|2,0:2|0:2,0:0:0:0:
12,365,16507,5,10,0:1:0:0:
52,243,16665,1,2,0:2:0:0:
189,312,16823,2,0,P|152:313|116:323,1,75,10|2,0:2|0:2,0:0:0:0:
3,359,17139,5,10,0:1:0:0:
41,232,17297,1,2,0:2:0:0:
118,335,17455,2,0,P|154:325|191:324,1,75,10|2,0:2|0:2,0:0:0:0:
310,384,17771,6,0,P|316:309|329:235,1,150,14|8,0:1|0:2,0:0:0:0:
427,277,18244,1,2,0:2:0:0:
427,277,18323,1,2,0:2:0:0:
427,277,18402,2,0,P|463:272|494:252,1,75,10|2,0:1|0:2,0:0:0:0:
368,147,18718,2,0,P|331:142|300:122,1,75,10|2,0:2|0:2,0:0:0:0:
125,27,19034,5,10,0:1:0:0:
99,122,19192,1,2,0:2:0:0:
191,95,19350,5,10,0:2:0:0:
203,192,19508,1,2,0:2:0:0:
107,132,19665,5,10,0:3:0:0:
45,226,19823,2,0,L|-2:233,2,37.5,10|8|10,0:2|0:2|0:2,0:0:0:0:
149,300,20139,1,10,0:2:0:0:
149,300,20218,1,8,0:2:0:0:
149,300,20297,6,0,P|193:297|232:275,1,89.9999972534181,14|0,0:1|0:0,0:0:0:0:
403,191,20613,2,0,P|363:169|319:166,1,89.9999972534181,10|0,0:2|0:0,0:0:0:0:
320,344,20928,2,0,P|326:299|333:255,1,89.9999972534181,10|0,0:2|0:0,0:0:0:0:
209,90,21244,2,0,P|216:134|223:178,1,89.9999972534181,10|0,0:2|0:0,0:0:0:0:
396,51,21560,6,0,P|351:49|308:35,1,89.9999972534181,14|0,0:2|0:0,0:0:0:0:
391,176,21876,2,0,P|438:176|480:162,1,89.9999972534181,10|0,0:2|0:2,0:0:0:0:
233,97,22192,2,0,P|147:103|114:182,1,179.999994506836,10|0,0:3|0:2,0:0:0:0:
249,365,22665,1,8,0:2:0:0:
249,365,22744,1,8,0:2:0:0:
249,365,22823,6,0,B|230:280|272:294|261:206,1,150,14|8,0:1|0:2,0:0:0:0:
347,333,23297,1,2,0:2:0:0:
347,333,23376,1,2,0:2:0:0:
347,333,23455,2,0,P|383:346|423:348,1,75,10|2,0:1|0:2,0:0:0:0:
502,277,23771,1,8,0:2:0:0:
490,170,23928,6,0,P|415:169|346:139,1,150,2|2,0:2|0:2,0:0:0:0:
243,12,24402,2,0,P|261:44|265:81,1,75,10|2,0:2|0:2,0:0:0:0:
167,215,24718,2,0,P|167:177|184:144,1,75,10|2,0:1|0:2,0:0:0:0:
302,287,25034,5,10,0:2:0:0:
255,200,25192,1,2,0:2:0:0:
213,347,25350,6,0,P|156:300|83:308,1,150,10|8,0:1|0:2,0:0:0:0:
0,211,25823,1,2,0:2:0:0:
0,211,25902,1,2,0:2:0:0:
0,211,25981,2,0,P|37:211|71:197,1,75,10|2,0:1|0:2,0:0:0:0:
117,110,26297,1,8,0:2:0:0:
210,217,26455,6,0,P|216:142|223:67,1,150,2|2,0:2|0:2,0:0:0:0:
389,177,26928,2,0,P|354:190|317:190,1,75,10|2,0:2|0:2,0:0:0:0:
225,44,27244,2,0,P|262:43|296:57,1,75,10|2,0:1|0:2,0:0:0:0:
171,129,27560,5,10,0:2:0:0:
125,45,27718,1,2,0:2:0:0:
34,128,27876,6,0,P|39:165|44:202,1,75,14|8,0:1|0:2,0:0:0:0:
154,191,28192,1,10,0:2:0:0:
227,328,28350,2,0,P|231:290|237:253,1,75,10|8,0:3|0:3,0:0:0:0:
95,289,28665,2,0,P|60:302|22:301,1,75,10|8,0:3|0:3,0:0:0:0:
199,170,28981,6,0,P|272:169|321:225,1,150,14|10,0:1|0:2,0:0:0:0:
380,357,29455,1,10,0:2:0:0:
419,198,29613,1,10,0:2:0:0:
328,258,29771,1,14,0:2:0:0:
477,337,29928,1,10,0:2:0:0:
477,337,30007,1,10,0:2:0:0:
477,337,30086,2,0,P|483:300|489:263,1,75,10|10,0:2|0:3,0:0:0:0:
484,80,30402,5,14,0:1:0:0:
412,104,30718,1,10,0:1:0:0:
338,88,31034,1,8,0:1:0:0:
296,25,31350,1,8,0:1:0:0:
46,56,31665,5,10,0:1:0:0:
97,110,31981,1,8,0:1:0:0:
170,95,32297,1,8,0:1:0:0:
220,150,32613,1,8,0:1:0:0:
164,366,32928,5,8,0:1:0:0:
92,343,33244,1,10,0:1:0:0:
117,272,33560,1,8,0:1:0:0:
188,293,33876,1,8,0:1:0:0:
376,358,34192,6,0,P|379:328|382:298,2,60,10|10|10,0:1|0:3|0:1,0:0:0:0:
333,225,34665,1,2,0:2:0:0:
291,316,34823,2,0,P|241:312|214:277,1,90,8|8,0:1|0:3,0:0:0:0:
213,271,35139,2,0,P|210:241|207:211,1,60,10|8,0:1|0:3,0:0:0:0:
141,109,35455,6,0,P|199:117|256:99,1,120,14|8,0:1|0:1,0:0:0:0:
323,22,35928,1,2,0:3:0:0:
411,60,36086,2,0,L|417:122,1,60,8|2,0:1|0:2,0:0:0:0:
486,247,36402,2,0,P|455:216|411:220,1,90,10|0,0:1|0:0,0:0:0:0:
393,228,36718,6,0,P|363:231|333:232,2,60,10|2|8,0:1|0:3|0:1,0:0:0:0:
410,317,37192,1,2,0:3:0:0:
324,352,37350,2,0,P|294:349|270:331,1,60,8|2,0:1|0:2,0:0:0:0:
230,193,37665,2,0,P|231:222|234:252,1,60,10|0,0:1|0:0,0:0:0:0:
120,372,37981,6,0,P|115:312|108:252,1,120,14|10,0:1|0:1,0:0:0:0:
123,119,38455,1,8,0:3:0:0:
0,188,38613,2,0,P|29:183|59:179,1,60,10|10,0:1|0:3,0:0:0:0:
170,42,38928,2,0,P|140:37|110:33,1,60,10|10,0:1|0:3,0:0:0:0:
221,158,39244,5,14,0:1:0:0:
221,158,39402,1,2,0:0:0:0:
311,83,39560,2,0,L|317:23,1,60,2|2,0:2|0:2,0:0:0:0:
476,170,39876,2,0,P|431:174|395:149,1,90,8|8,0:3|0:2,0:0:0:0:
382,137,40192,6,0,P|374:209|367:282,1,146.249993305207,10|0,0:2|0:2,0:0:0:0:
317,346,40507,6,0,P|279:344|250:323,1,75,14|0,0:1|0:0,0:0:0:0:
225,205,40823,2,0,P|153:199|107:260,1,150,10|8,0:2|0:1,0:0:0:0:
92,355,41297,1,2,0:2:0:0:
8,305,41455,2,0,P|5:268|0:231,1,75,8|2,0:2|0:3,0:0:0:0:
9,71,41771,6,0,B|94:66|74:106|153:100,1,150,10|8,0:1|0:2,0:0:0:0:
315,62,42244,1,2,0:3:0:0:
258,191,42402,2,0,P|241:157|243:120,1,75,10|2,0:1|0:2,0:0:0:0:
386,13,42718,2,0,P|402:46|400:83,1,75,10|2,0:2|0:3,0:0:0:0:
411,202,43034,6,0,P|447:195|485:193,1,75,10|2,0:1|0:3,0:0:0:0:
331,147,43350,1,10,0:2:0:0:
301,274,43507,2,0,P|228:281|174:232,1,150,2|2,0:2|0:2,0:0:0:0:
90,161,43981,1,10,0:2:0:0:
4,227,44139,6,0,P|8:264|11:301,1,75,2|8,0:2|0:1,0:0:0:0:
85,152,44455,2,0,P|80:114|77:77,1,75,2|8,0:2|0:2,0:0:0:0:
250,122,44771,2,0,P|216:138|179:144,1,75,2|8,0:2|0:1,0:0:0:0:
306,46,45086,1,2,0:2:0:0:
338,180,45244,2,0,P|371:191|414:191,1,75,10|2,0:2|0:3,0:0:0:0:
230,355,45560,5,8,0:1:0:0:
230,355,45876,2,0,P|226:317|221:280,1,75,10|2,0:2|0:3,0:0:0:0:
246,191,46192,1,10,0:1:0:0:
131,279,46350,2,0,P|94:276|62:257,1,75,2|8,0:3|0:2,0:0:0:0:
215,105,46665,6,0,P|288:107|335:162,1,150,2|2,0:2|0:2,0:0:0:0:
450,249,47139,2,0,P|453:211|457:174,1,75,10|2,0:2|0:3,0:0:0:0:
336,290,47455,2,0,P|332:327|328:364,1,75,10|2,0:1|0:3,0:0:0:0:
495,364,47771,2,0,P|463:344|426:344,1,75,10|2,0:2|0:3,0:0:0:0:
269,220,48086,6,0,P|337:249|411:242,1,150,14|8,0:1|0:2,0:0:0:0:
451,122,48560,1,2,0:3:0:0:
353,148,48718,2,0,P|357:110|361:73,1,75,8|2,0:1|0:3,0:0:0:0:
229,14,49034,2,0,P|233:51|237:88,1,75,8|2,0:2|0:3,0:0:0:0:
67,244,49350,5,14,0:1:0:0:
89,72,49507,1,10,0:1:0:0:
163,227,49665,1,10,0:2:0:0:
25,169,49823,2,0,P|98:149|173:147,1,150,14|8,0:1|0:3,0:0:0:0:
245,273,50297,1,8,0:3:0:0:
491,140,50613,5,8,0:2:0:0:
491,140,50928,2,0,P|424:129|384:187,1,134.999995880127,10|0,0:2|0:0,0:0:0:0:
375,193,51244,2,0,P|367:125|359:58,1,134.999995880127,10|8,0:2|0:2,0:0:0:0:
359,58,51560,1,8,0:2:0:0:
422,287,51876,6,0,P|457:299|494:297,2,75,14|2|2,0:1|0:2|0:2,0:0:0:0:
361,199,52350,1,10,0:1:0:0:
256,226,52507,2,0,P|259:283|262:339,1,112.5,8|0,0:2|0:0,0:0:0:0:
254,355,52823,2,0,P|216:357|179:361,1,75,2|0,0:2|0:0,0:0:0:0:
48,233,53139,5,8,0:1:0:0:
48,233,53455,2,0,P|113:229|145:165,1,134.999995880127,10|0,0:1|0:0,0:0:0:0:
137,147,53771,2,0,P|91:152|47:154,1,89.9999972534181,14|8,0:2|0:2,0:0:0:0:
47,154,54007,1,8,0:2:0:0:
47,154,54086,1,8,0:2:0:0:
268,132,54402,5,14,0:1:0:0:
349,21,54560,1,8,0:1:0:0:
404,203,54718,1,10,0:2:0:0:
503,92,54876,2,0,P|434:71|368:117,1,150,14|8,0:1|0:2,0:0:0:0:
345,134,55271,1,8,0:2:0:0:
345,134,55350,2,0,P|341:96|338:59,1,75,8|8,0:2|0:3,0:0:0:0:
358,258,55665,5,14,0:1:0:0:
357,258,55981,2,0,P|419:246|454:311,1,134.999995880127,10|0,0:2|0:0,0:0:0:0:
458,321,56297,2,0,B|353:313|395:366|286:357,1,179.999994506836,10|8,0:1|0:2,0:0:0:0:
48,185,56928,5,10,0:1:0:0:
135,234,57086,1,2,0:2:0:0:
6,267,57244,1,10,0:2:0:0:
165,318,57402,2,0,P|216:266|209:194,1,150,2|2,0:2|0:2,0:0:0:0:
111,42,57876,2,0,P|114:79|117:116,1,75,10|2,0:2|0:2,0:0:0:0:
252,44,58192,5,14,0:1:0:0:
252,44,58350,1,8,0:1:0:0:
341,186,58507,2,0,P|412:186|450:125,1,150,8|14,0:2|0:1,0:0:0:0:
318,98,58981,5,8,0:1:0:0:
261,244,59139,2,0,P|183:243|139:151,1,165.000005035401,8|14,0:2|0:1,0:0:0:0:
174,19,59613,5,8,0:1:0:0:
225,167,59771,1,8,0:2:0:0:
78,61,59928,2,0,P|167:63|253:89,1,179.999994506836,14|8,0:1|0:3,0:0:0:0:
447,118,60402,6,0,L|453:79,3,37.5,8|8|8|8,0:3|0:3|0:3|0:3,0:0:0:0:
457,65,60718,6,0,L|467:157,1,90,2|0,0:2|0:0,0:0:0:0:
498,190,61034,6,0,P|436:184|370:253,1,134.999995880127,10|0,0:2|0:0,0:0:0:0:
373,245,61350,2,0,P|417:243|458:264,1,89.9999972534181,14|8,0:2|0:2,0:0:0:0:
457,263,61586,1,8,0:2:0:0:
457,263,61665,1,8,0:2:0:0:
188,358,61981,5,14,0:1:0:0:
222,241,62139,1,2,0:2:0:0:
174,349,62297,1,10,0:2:0:0:
60,338,62455,2,0,P|4:292|14:220,1,150,2|0,0:2|0:0,0:0:0:0:
134,160,62928,2,0,L|142:234,1,75,10|2,0:2|0:3,0:0:0:0:
0,106,63244,6,0,P|37:101|74:95,1,75,10|2,0:1|0:3,0:0:0:0:
225,26,63560,2,0,P|187:21|150:15,1,75,10|2,0:2|0:3,0:0:0:0:
229,124,63876,5,10,0:1:0:0:
322,55,64034,1,10,0:1:0:0:
306,203,64192,1,10,0:2:0:0:
447,169,64350,6,0,P|456:94|466:20,1,150,14|10,0:1|0:1,0:0:0:0:
348,49,64823,1,10,0:2:0:0:
368,218,64981,2,0,P|442:217|512:242,1,150,14|8,0:1|0:1,0:0:0:0:
460,323,65455,2,0,P|425:312|388:311,1,75,8|0,0:2|0:0,0:0:0:0:
197,371,65771,6,0,P|191:333|186:296,2,75,14|2|10,0:1|0:2|0:2,0:0:0:0:
103,251,66244,2,0,P|176:257|246:226,1,150,2|2,0:2|0:2,0:0:0:0:
156,120,66718,1,10,0:2:0:0:
95,229,66876,6,0,P|175:241|248:201,1,165.000005035401,2|2,0:2|0:2,0:0:0:0:
272,31,67350,1,10,0:2:0:0:
419,86,67507,6,0,B|328:72|335:130|242:115,1,179.999994506836,2|2,0:2|0:2,0:0:0:0:
397,181,67981,1,10,0:2:0:0:
146,356,68297,5,14,0:1:0:0:
109,214,68455,1,2,0:2:0:0:
16,308,68613,2,0,P|53:302|90:296,1,75,10|2,0:2|0:2,0:0:0:0:
198,220,68928,1,10,0:3:0:0:
44,163,69086,1,10,0:2:0:0:
44,163,69165,1,10,0:2:0:0:
44,163,69244,1,10,0:2:0:0:
181,21,69402,6,0,P|236:67|235:140,1,150,14|10,0:1|0:1,0:0:0:0:
119,294,69876,2,0,P|114:256|110:219,1,75,14|8,0:2|0:3,0:0:0:0:
111,220,70113,1,8,0:3:0:0:
111,220,70192,1,8,0:3:0:0:
208,156,70350,1,8,0:3:0:0:
249,328,70507,1,8,0:3:0:0:
380,204,70665,6,0,P|308:192|257:246,1,150,14|10,0:1|0:2,0:0:0:0:
388,355,71139,1,10,0:2:0:0:
388,355,71297,1,10,0:2:0:0:
478,312,71455,5,10,0:2:0:0:
338,268,71613,1,10,0:2:0:0:
497,203,71771,5,10,0:2:0:0:
327,252,71928,1,10,0:2:0:0:
369,79,72244,5,10,0:2:0:0:
418,253,72402,1,10,0:2:0:0:
187,99,72718,5,14,0:2:0:0:
152,373,74613,6,0,P|156:269|245:321,1,247.4999924469,2|0,0:2|0:0,0:0:0:0:
254,354,75560,6,0,L|240:208,1,146.249993305207,10|0,0:2|0:0,0:0:0:0:
189,135,75876,6,0,P|230:130|271:125,1,82.5000025177003,14|0,0:1|0:0,0:0:0:0:
441,36,76192,2,0,P|399:32|358:27,1,82.5000025177003,10|0,0:2|0:0,0:0:0:0:
378,203,76507,2,0,P|382:161|387:121,1,82.5000025177003,10|0,0:1|0:0,0:0:0:0:
388,122,76744,1,2,0:2:0:0:
388,122,76823,1,10,0:2:0:0:
482,240,76981,1,2,0:2:0:0:
400,308,77139,6,0,P|360:308|322:291,1,82.5000025177003,10|2,0:1|0:2,0:0:0:0:
158,352,77455,2,0,P|198:352|236:335,1,82.5000025177003,10|2,0:2|0:2,0:0:0:0:
301,201,77771,5,10,0:1:0:0:
168,153,77928,1,0,0:0:0:0:
291,214,78086,1,8,0:2:0:0:
182,264,78244,1,2,0:2:0:0:
56,198,78402,6,0,P|51:157|45:116,1,82.5000025177003,8|2,0:1|0:2,0:0:0:0:
149,17,78718,2,0,P|154:58|160:99,1,82.5000025177003,10|2,0:2|0:2,0:0:0:0:
331,35,79034,2,0,P|290:41|249:46,1,82.5000025177003,10|2,0:1|0:2,0:0:0:0:
249,46,79271,1,0,0:0:0:0:
249,46,79350,1,10,0:2:0:0:
239,182,79507,1,2,0:2:0:0:
342,129,79665,5,10,0:1:0:0:
170,105,79823,1,10,0:2:0:0:
170,105,79902,1,10,0:2:0:0:
170,105,79981,1,10,0:2:0:0:
320,223,80139,6,0,P|382:221|429:154,1,146.249993305207,10|0,0:2|0:0,0:0:0:0:
442,147,80455,2,0,P|400:231|301:232,1,194.999991073609,14|8,0:2|0:2,0:0:0:0:
237,207,80850,1,8,0:2:0:0:
237,207,80928,6,0,P|241:166|246:125,1,82.5000025177003,14|0,0:1|0:0,0:0:0:0:
108,281,81244,2,0,P|113:321|117:362,1,82.5000025177003,10|0,0:2|0:0,0:0:0:0:
53,198,81560,2,0,P|92:193|134:187,1,82.5000025177003,10|0,0:1|0:0,0:0:0:0:
135,188,81797,1,2,0:2:0:0:
135,188,81876,1,10,0:2:0:0:
269,130,82034,1,2,0:2:0:0:
274,290,82192,6,0,P|234:290|197:272,1,82.5000025177003,8|2,0:1|0:2,0:0:0:0:
371,353,82507,2,0,P|411:353|448:335,1,82.5000025177003,10|2,0:2|0:2,0:0:0:0:
460,177,82823,5,10,0:1:0:0:
383,266,82981,1,0,0:0:0:0:
338,132,83139,1,8,0:2:0:0:
390,254,83297,1,2,0:2:0:0:
424,99,83455,6,0,P|428:58|432:14,1,82.5000025177003,12|2,0:1|0:2,0:0:0:0:
235,54,83771,1,10,0:2:0:0:
353,160,83928,1,10,0:1:0:0:
324,10,84086,5,10,0:2:0:0:
264,146,84244,1,10,0:1:0:0:
402,87,84402,1,10,0:2:0:0:
357,174,84560,1,10,0:1:0:0:
183,102,84718,6,0,P|141:102|99:129,1,82.5000025177003,14|8,0:2|0:1,0:0:0:0:
0,258,85034,2,0,P|40:258|76:238,1,82.5000025177003,12|0,0:2|0:2,0:0:0:0:
3,86,85350,2,0,P|11:126|18:166,1,82.5000025177003,8|8,0:2|0:2,0:0:0:0:
152,303,85665,1,10,0:2:0:0:
156,282,85744,1,8,0:2:0:0:
158,261,85823,1,10,0:2:0:0:
161,240,85902,1,8,0:2:0:0:
165,219,85981,6,0,L|174:137,1,82.5000025177003,14|0,0:1|0:0,0:0:0:0:
245,25,86297,1,10,0:2:0:0:
252,192,86455,1,2,0:2:0:0:
105,85,86613,2,0,P|183:109|265:105,1,165.000005035401,10|8,0:1|0:2,0:0:0:0:
425,136,87086,1,2,0:2:0:0:
341,8,87244,6,0,P|347:48|354:89,1,82.5000025177003,8|2,0:1|0:2,0:0:0:0:
500,225,87560,2,0,P|506:184|513:143,1,82.5000025177003,10|2,0:2|0:2,0:0:0:0:
343,259,87876,2,0,P|379:276|420:277,1,82.5000025177003,10|2,0:1|0:3,0:0:0:0:
299,179,88192,1,10,0:2:0:0:
261,304,88350,1,2,0:3:0:0:
125,180,88507,6,0,P|41:176|1:244,1,165.000005035401,10|10,0:1|0:2,0:0:0:0:
159,303,88981,1,2,0:2:0:0:
216,195,89139,2,0,P|220:154|225:113,1,82.5000025177003,10|2,0:1|0:2,0:0:0:0:
84,244,89455,2,0,P|79:284|74:325,1,82.5000025177003,10|2,0:2|0:2,0:0:0:0:
226,207,89771,6,0,P|294:197|338:253,1,146.249993305207,10|0,0:1|0:0,0:0:0:0:
337,275,90086,2,0,P|405:265|449:321,1,146.249993305207,10|0,0:2|0:0,0:0:0:0:
455,341,90402,2,0,P|465:244|475:147,1,194.999991073609,10|8,0:1|0:2,0:0:0:0:
397,37,90876,1,2,0:2:0:0:
311,137,91034,6,0,P|346:158|401:160,1,82.5000025177003,12|2,0:1|0:2,0:0:0:0:
262,48,91350,1,10,0:2:0:0:
208,171,91507,1,2,0:2:0:0:
124,62,91665,2,0,P|42:58|0:126,1,165.000005035401,10|8,0:1|0:2,0:0:0:0:
11,277,92139,1,2,0:2:0:0:
95,211,92297,6,0,P|89:170|83:129,1,82.5000025177003,8|2,0:1|0:2,0:0:0:0:
200,165,92613,1,10,0:2:0:0:
145,285,92771,1,2,0:2:0:0:
267,361,92928,2,0,P|272:320|278:279,1,82.5000025177003,10|8,0:1|0:2,0:0:0:0:
278,279,93165,1,8,0:2:0:0:
278,279,93244,1,8,0:2:0:0:
217,193,93402,1,8,0:3:0:0:
391,274,93560,6,0,P|431:273|468:255,1,82.5000025177003,14|2,0:1|0:2,0:0:0:0:
305,197,93875,2,0,P|264:196|227:178,1,82.5000025177003,10|10,0:2|0:1,0:0:0:0:
159,62,94192,5,14,0:1:0:0:
304,24,94350,1,2,0:2:0:0:
171,74,94507,1,8,0:2:0:0:
286,111,94665,1,8,0:1:0:0:
97,204,94823,6,0,P|90:163|83:122,1,82.5000025177003,14|8,0:2|0:1,0:0:0:0:
231,263,95139,2,0,P|224:303|217:344,1,82.5000025177003,12|0,0:2|0:0,0:0:0:0:
192,181,95455,1,10,0:3:0:0:
314,311,95613,2,0,L|357:306,2,41.2500012588501,10|10|10,0:2|0:2|0:2,0:0:0:0:
146,263,95928,1,10,0:1:0:0:
290,169,96086,5,2,0:2:0:0:
213,344,106192,6,0,P|182:345|148:357,2,60,10|2|2,0:2|0:2|0:2,0:0:0:0:
303,292,106665,2,0,P|317:293|332:296,2,30,10|8|8,0:3|0:3|0:3,0:0:0:0:
207,236,106981,1,10,0:3:0:0:
277,74,107139,6,0,P|347:73|388:130,1,146.249993305207,10|0,0:2|0:0,0:0:0:0:
400,145,107455,6,0,P|404:107|408:70,1,75,14|0,0:1|0:0,0:0:0:0:
489,220,107771,2,0,B|400:210|436:261|347:249,1,150,10|8,0:2|0:1,0:0:0:0:
205,175,108244,1,2,0:2:0:0:
247,315,108402,2,0,P|251:277|260:241,1,75,8|2,0:2|0:3,0:0:0:0:
126,123,108718,6,0,P|51:127|24:197,1,150,10|8,0:1|0:2,0:0:0:0:
101,351,109192,1,2,0:3:0:0:
1,276,109350,2,0,P|38:276|73:263,1,75,10|2,0:1|0:2,0:0:0:0:
189,365,109665,2,0,P|151:365|116:352,1,75,10|2,0:2|0:3,0:0:0:0:
161,203,109981,6,0,P|166:240|171:277,1,75,10|2,0:1|0:3,0:0:0:0:
272,357,110297,1,10,0:2:0:0:
387,327,110455,2,0,P|432:270|412:200,1,150,2|2,0:2|0:2,0:0:0:0:
285,131,110928,1,10,0:2:0:0:
380,54,111086,6,0,P|374:91|370:128,1,75,2|8,0:2|0:1,0:0:0:0:
214,30,111402,2,0,P|250:34|292:38,1,75,2|8,0:2|0:2,0:0:0:0:
160,121,111718,2,0,P|98:113|58:205,1,150,2|2,0:2|0:2,0:0:0:0:
109,335,112192,2,0,P|104:297|99:260,1,75,10|2,0:2|0:2,0:0:0:0:
301,141,112507,5,12,0:1:0:0:
301,141,112823,2,0,P|305:178|309:215,1,75,10|2,0:2|0:3,0:0:0:0:
407,219,113139,1,10,0:1:0:0:
459,369,113297,2,0,P|462:331|467:294,1,75,2|8,0:2|0:2,0:0:0:0:
301,309,113613,6,0,P|335:322|372:324,1,75,2|8,0:2|0:1,0:0:0:0:
232,229,113928,1,2,0:2:0:0:
218,357,114086,2,0,P|181:372|144:374,1,75,10|2,0:2|0:3,0:0:0:0:
83,234,114402,2,0,P|120:233|152:251,1,75,10|2,0:1|0:3,0:0:0:0:
22,377,114718,2,0,P|16:339|10:302,1,75,10|2,0:2|0:3,0:0:0:0:
0,146,115034,6,0,P|72:143|125:80,1,150,14|8,0:1|0:2,0:0:0:0:
208,13,115507,1,2,0:3:0:0:
276,120,115665,2,0,P|239:122|206:137,1,75,8|2,0:1|0:3,0:0:0:0:
340,32,115981,2,0,P|377:34|410:49,1,75,8|2,0:2|0:3,0:0:0:0:
487,216,116297,5,14,0:1:0:0:
312,189,116455,1,10,0:1:0:0:
481,123,116613,1,10,0:2:0:0:
404,248,116771,2,0,P|401:210|398:173,1,75,14|0,0:1|0:0,0:0:0:0:
225,142,117086,5,10,0:3:0:0:
319,263,117244,1,10,0:3:0:0:
312,170,117402,1,10,0:3:0:0:
237,307,117560,1,10,0:2:0:0:
237,307,117876,6,0,P|173:300|130:349,1,134.999995880127,10|0,0:2|0:0,0:0:0:0:
118,374,118192,2,0,P|111:284|103:194,1,179.999994506836,14|8,0:2|0:3,0:0:0:0:
343,345,118823,6,0,P|376:361|418:360,2,75,14|2|2,0:1|0:2|0:2,0:0:0:0:
290,249,119297,1,10,0:1:0:0:
361,172,119455,2,0,P|415:163|459:196,1,112.5,8|0,0:2|0:0,0:0:0:0:
474,208,119771,2,0,P|476:171|480:124,1,75,2|0,0:2|0:0,0:0:0:0:
318,16,120086,5,10,0:2:0:0:
318,16,120402,2,0,P|314:77|308:154,1,134.999995880127,10|0,0:2|0:0,0:0:0:0:
301,167,120718,2,0,P|345:170|390:175,1,89.9999972534181,14|8,0:2|0:2,0:0:0:0:
390,175,120955,1,8,0:2:0:0:
390,175,121034,1,8,0:2:0:0:
216,301,121350,5,14,0:1:0:0:
152,375,121507,1,10,0:1:0:0:
122,255,121665,1,10,0:2:0:0:
55,372,121823,2,0,P|-1:327|10:256,1,150,14|8,0:1|0:2,0:0:0:0:
25,238,122218,1,8,0:2:0:0:
25,238,122297,2,0,P|21:200|17:163,1,75,8|8,0:2|0:3,0:0:0:0:
211,74,122613,5,14,0:1:0:0:
211,74,122928,2,0,P|277:78|316:27,1,134.999995880127,10|0,0:2|0:0,0:0:0:0:
323,10,123244,2,0,B|302:104|362:95|345:185,1,179.999994506836,10|8,0:1|0:2,0:0:0:0:
101,328,123876,5,10,0:1:0:0:
165,257,124034,1,2,0:2:0:0:
190,370,124192,1,10,0:2:0:0:
258,246,124350,2,0,P|335:243|369:301,1,150,2|2,0:2|0:2,0:0:0:0:
470,369,124823,2,0,P|475:331|481:292,1,75,10|2,0:2|0:2,0:0:0:0:
393,178,125139,5,14,0:1:0:0:
393,178,125297,1,8,0:1:0:0:
466,54,125455,2,0,P|394:45|344:98,1,150,8|14,0:2|0:1,0:0:0:0:
265,262,125928,5,8,0:1:0:0:
167,131,126086,2,0,P|244:119|291:183,1,165.000005035401,8|14,0:2|0:1,0:0:0:0:
279,359,126560,5,8,0:1:0:0:
216,196,126718,1,8,0:2:0:0:
376,301,126876,2,0,P|290:278|200:278,1,179.999994506836,14|8,0:1|0:3,0:0:0:0:
23,198,127350,6,0,L|30:239,3,37.5,8|8|8|8,0:3|0:3|0:3|0:3,0:0:0:0:
38,250,127665,6,0,P|41:205|45:160,1,90,2|0,0:2|0:0,0:0:0:0:
43,133,127981,6,0,P|116:130|155:176,1,134.999995880127,10|0,0:2|0:0,0:0:0:0:
156,193,128297,2,0,P|200:195|245:198,1,89.9999972534181,14|8,0:2|0:2,0:0:0:0:
246,199,128534,1,8,0:2:0:0:
246,199,128613,1,8,0:2:0:0:
486,101,128928,5,14,0:1:0:0:
427,19,129086,1,2,0:2:0:0:
501,108,129244,1,10,0:2:0:0:
379,177,129402,2,0,P|322:129|333:59,1,150,2|0,0:2|0:0,0:0:0:0:
488,118,129876,2,0,P|483:156|480:193,1,75,10|2,0:2|0:3,0:0:0:0:
433,341,130192,6,0,P|470:343|507:347,1,75,14|0,0:1|0:0,0:0:0:0:
367,260,130507,2,0,P|329:257|292:253,1,75,10|2,0:2|0:3,0:0:0:0:
171,344,130823,5,10,0:1:0:0:
1,308,130981,1,10,0:1:0:0:
162,246,131139,1,10,0:2:0:0:
90,377,131297,6,0,P|84:302|75:227,1,150,14|10,0:1|0:1,0:0:0:0:
19,140,131771,1,10,0:2:0:0:
169,236,131928,2,0,P|241:229|267:163,1,150,14|8,0:1|0:1,0:0:0:0:
207,66,132402,2,0,P|169:69|132:72,1,75,8|0,0:2|0:0,0:0:0:0:
319,13,132718,6,0,L|326:87,2,75,14|2|10,0:1|0:2|0:2,0:0:0:0:
406,141,133192,2,0,P|332:128|262:155,1,150,2|2,0:2|0:2,0:0:0:0:
345,253,133665,5,10,0:2:0:0:
410,126,133823,2,0,P|329:113|253:142,1,165.000005035401,2|2,0:2|0:2,0:0:0:0:
212,313,134297,5,10,0:2:0:0:
103,193,134455,2,0,B|202:184|174:240|275:229,1,179.999994506836,2|2,0:2|0:2,0:0:0:0:
127,288,134928,1,10,0:2:0:0:
426,320,135244,5,14,0:1:0:0:
475,197,135402,1,2,0:2:0:0:
358,259,135560,2,0,P|353:221|346:184,1,75,10|2,0:2|0:2,0:0:0:0:
471,85,135876,1,10,0:1:0:0:
450,200,136034,1,10,0:3:0:0:
450,200,136113,1,10,0:3:0:0:
450,200,136192,1,10,0:3:0:0:
305,51,136350,6,0,P|233:43|192:101,1,150,14|10,0:2|0:3,0:0:0:0:
170,247,136823,1,10,0:3:0:0:
64,165,136981,2,0,L|59:127,2,37.5,8|8|8,0:2|0:2|0:2,0:0:0:0:
89,298,137297,1,8,0:3:0:0:
151,145,137455,1,8,0:3:0:0:
3,255,137613,6,0,P|77:250|152:223,1,150,14|10,0:1|0:3,0:0:0:0:
308,263,138086,1,10,0:3:0:0:
174,323,138244,1,10,0:2:0:0:
174,323,138323,1,10,0:2:0:0:
174,323,138402,1,10,0:2:0:0:
246,194,138560,1,10,0:3:0:0:
325,268,138718,5,10,0:3:0:0:
138,216,138876,1,10,0:1:0:0:
275,86,139192,5,10,0:2:0:0:
219,290,139350,1,10,0:2:0:0:
109,36,139665,5,14,0:2:0:0:
46,281,141560,6,0,L|42:243,3,37.5
42,227,141876,6,0,P|92:212|132:252,1,112.5,2|0,0:2|0:0,0:0:0:0:
135,264,142192,6,0,P|186:255|219:289,1,101.249996910095,2|0,0:2|0:0,0:0:0:0:
220,301,142507,6,0,P|263:295|296:323,1,90,2|0,0:2|0:0,0:0:0:0:
303,337,142823,6,0,L|314:255,1,82.5000025177003,14|0,0:1|0:0,0:0:0:0:
237,100,143139,2,0,P|231:140|226:181,1,82.5000025177003,10|0,0:2|0:0,0:0:0:0:
409,149,143455,2,0,P|368:154|327:159,1,82.5000025177003,10|0,0:1|0:0,0:0:0:0:
327,159,143692,1,2,0:2:0:0:
327,159,143771,1,10,0:2:0:0:
406,259,143928,1,2,0:2:0:0:
313,341,144086,6,0,P|272:339|236:319,1,82.5000025177003,10|2,0:1|0:2,0:0:0:0:
71,292,144402,2,0,P|111:290|147:270,1,82.5000025177003,10|2,0:2|0:2,0:0:0:0:
208,136,144718,5,10,0:1:0:0:
86,203,144876,1,0,0:0:0:0:
235,241,145034,1,8,0:2:0:0:
101,194,145192,1,2,0:2:0:0:
187,48,145350,6,0,P|228:44|269:39,1,82.5000025177003,8|2,0:1|0:2,0:0:0:0:
394,186,145665,2,0,P|353:181|312:175,1,82.5000025177003,10|2,0:2|0:2,0:0:0:0:
378,5,145981,2,0,P|373:45|368:86,1,82.5000025177003,10|2,0:1|0:2,0:0:0:0:
369,87,146218,1,2,0:2:0:0:
369,87,146297,1,10,0:2:0:0:
292,197,146455,1,2,0:2:0:0:
394,186,146613,5,10,0:1:0:0:
272,93,146771,1,10,0:2:0:0:
272,93,146850,1,10,0:2:0:0:
272,93,146928,1,10,0:2:0:0:
118,169,147086,6,0,P|134:235|146:312,1,146.249993305207,10|0,0:2|0:0,0:0:0:0:
160,335,147402,2,0,P|148:239|123:144,1,194.999991073609,10|8,0:2|0:2,0:0:0:0:
171,83,147797,1,8,0:2:0:0:
171,83,147876,6,0,P|211:75|255:65,1,82.5000025177003,14|0,0:1|0:0,0:0:0:0:
344,173,148192,2,0,P|303:181|263:190,1,82.5000025177003,10|0,0:2|0:0,0:0:0:0:
321,8,148507,2,0,P|341:40|343:86,1,82.5000025177003,10|0,0:1|0:0,0:0:0:0:
343,83,148744,1,2,0:2:0:0:
343,83,148823,1,10,0:2:0:0:
253,184,148981,1,2,0:2:0:0:
366,275,149139,6,0,P|406:270|440:247,1,82.5000025177003,8|2,0:1|0:2,0:0:0:0:
275,331,149455,2,0,P|234:330|196:313,1,82.5000025177003,10|2,0:2|0:2,0:0:0:0:
155,204,149771,5,10,0:1:0:0:
223,106,149928,1,0,0:0:0:0:
255,248,150086,1,8,0:2:0:0:
240,126,150244,1,2,0:2:0:0:
62,207,150402,6,0,P|55:166|48:125,1,82.5000025177003,12|2,0:1|0:2,0:0:0:0:
222,78,150718,1,10,0:2:0:0:
149,210,150876,1,10,0:1:0:0:
127,67,151034,5,10,0:2:0:0:
234,187,151192,1,10,0:1:0:0:
105,277,151350,1,10,0:2:0:0:
143,192,151507,1,10,0:1:0:0:
290,305,151665,6,0,P|330:303|364:279,1,82.5000025177003,14|8,0:2|0:1,0:0:0:0:
512,215,151981,2,0,P|471:211|433:186,1,82.5000025177003,12|8,0:2|0:2,0:0:0:0:
310,66,152297,5,8,0:2:0:0:
312,84,152376,1,8,0:0:0:0:
317,104,152455,1,8,0:2:0:0:
322,124,152534,1,8,0:2:0:0:
326,144,152613,2,0,L|335:187,3,41.2500012588501,10|8|10|8,0:3|0:3|0:3|0:3,0:0:0:0:
351,201,152928,6,0,P|355:159|360:119,1,82.5000025177003,14|0,0:1|0:0,0:0:0:0:
510,62,153244,1,10,0:2:0:0:
438,192,153402,1,2,0:2:0:0:
403,45,153560,2,0,P|325:32|270:94,1,165.000005035401,10|8,0:1|0:2,0:0:0:0:
118,167,154034,1,2,0:2:0:0:
160,48,154192,6,0,P|183:80|188:121,1,82.5000025177003,8|2,0:1|0:2,0:0:0:0:
57,235,154507,2,0,P|32:196|30:153,1,82.5000025177003,10|2,0:2|0:2,0:0:0:0:
166,246,154823,2,0,P|161:287|157:328,1,82.5000025177003,10|2,0:1|0:3,0:0:0:0:
260,383,155139,1,8,0:2:0:0:
284,218,155297,1,2,0:3:0:0:
384,308,155455,6,0,P|462:310|499:241,1,165.000005035401,10|10,0:1|0:2,0:0:0:0:
354,175,155928,1,2,0:2:0:0:
454,82,156086,2,0,P|448:122|444:163,1,82.5000025177003,10|2,0:1|0:2,0:0:0:0:
298,98,156402,2,0,P|304:58|308:17,1,82.5000025177003,10|2,0:2|0:2,0:0:0:0:
91,112,156718,6,0,P|158:98|202:152,1,146.249993305207,10|0,0:1|0:0,0:0:0:0:
202,177,157034,2,0,P|134:162|90:216,1,146.249993305207,10|0,0:2|0:0,0:0:0:0:
91,241,157350,2,0,B|206:234|159:303|274:297,1,194.999991073609,10|8,0:1|0:2,0:0:0:0:
450,228,157823,1,2,0:2:0:0:
352,362,157981,6,0,P|356:320|360:279,1,82.5000025177003,12|2,0:1|0:2,0:0:0:0:
380,150,158297,1,10,0:2:0:0:
275,293,158455,1,2,0:2:0:0:
450,228,158613,2,0,P|368:235|288:203,1,165.000005035401,10|8,0:1|0:2,0:0:0:0:
237,87,159086,1,2,0:2:0:0:
112,135,159244,6,0,P|107:176|103:217,1,82.5000025177003,8|2,0:1|0:2,0:0:0:0:
84,346,159560,1,10,0:2:0:0:
190,203,159718,1,2,0:2:0:0:
13,267,159876,2,0,P|95:260|175:292,1,165.000005035401,10|8,0:1|0:2,0:0:0:0:
312,359,160350,1,2,0:3:0:0:
276,197,160507,6,0,P|271:237|264:278,1,82.5000025177003,14|2,0:1|0:2,0:0:0:0:
404,376,160823,2,0,P|409:335|416:294,1,82.5000025177003,10|10,0:2|0:1,0:0:0:0:
504,180,161139,5,14,0:1:0:0:
356,121,161297,1,2,0:2:0:0:
487,192,161455,1,8,0:2:0:0:
359,223,161613,1,8,0:1:0:0:
431,80,161771,6,0,P|471:74|512:69,1,82.5000025177003,14|8,0:2|0:1,0:0:0:0:
307,16,162086,2,0,P|266:20|224:24,1,82.5000025177003,14|10,0:2|0:2,0:0:0:0:
224,24,162323,1,10,0:2:0:0:
224,24,162402,1,10,0:2:0:0:
166,127,162560,1,10,0:3:0:0:
337,195,162719,2,0,P|352:157|347:117,1,82.5000025177003,10|10,0:3|0:3,0:0:0:0:
245,172,163034,6,0,B|236:261|276:258|266:349,2,179.999994506836,14|14|10,0:1|0:1|0:2,0:0:0:0:
326,75,164455,5,10,0:2:0:0:
197,42,164613,1,10,0:2:0:0:
340,79,164771,1,10,0:2:0:0:
187,42,164928,1,10,0:2:0:0:
186,42,165244,6,0,P|257:32|256:102,1,157.499995193482,10|0,0:2|0:0,0:0:0:0:
179,142,165560,6,0,L|82:134,1,82.5000025177003,14|0,0:1|0:0,0:0:0:0:
8,218,165876,1,10,0:2:0:0:
63,320,166034,2,0,B|125:325|125:325|152:354|152:354|214:358,1,165.000005035401,2|2,0:2|0:2,0:0:0:0:
241,194,166507,1,10,0:2:0:0:
352,241,166665,6,0,B|315:281|315:281|199:274,1,165.000005035401,2|2,0:2|0:2,0:0:0:0:
124,167,167139,2,0,L|131:84,1,82.5000025177003,10|2,0:2|0:2,0:0:0:0:
251,39,167455,5,10,0:1:0:0:
235,171,167613,1,2,0:2:0:0:
277,54,167771,5,10,0:2:0:0:
261,160,167928,1,2,0:2:0:0:
402,10,168086,6,0,B|448:38|448:38|438:149,1,165.000005035401,10|10,0:1|0:2,0:0:0:0:
264,177,168560,2,0,B|297:155|297:155|339:159,1,82.5000025177003,2|0,0:2|0:0,0:0:0:0:
475,243,168876,2,0,B|411:237|411:237|389:256|389:256|317:250,1,165.000005035401,2|2,0:2|0:2,0:0:0:0:
222,326,169350,5,8,0:3:0:0:
161,214,169507,1,10,0:2:0:0:
161,214,169586,1,10,0:2:0:0:
161,214,169665,1,10,0:2:0:0:
124,333,169823,1,10,0:2:0:0:
251,244,169981,6,0,B|292:240|292:240|324:265,1,82.5000025177003,2|14,0:2|0:2,0:0:0:0:
124,333,170297,2,0,B|75:336|75:336|36:300,1,97.4999955368044,10|10,0:1|0:3,0:0:0:0:
0,173,170613,6,0,L|164:155,1,165.000005035401,14|10,0:1|0:2,0:0:0:0:
226,6,171086,2,0,L|235:88,1,82.5000025177003,2|8,0:2|0:1,0:0:0:0:
395,134,171402,1,2,0:2:0:0:
313,0,171560,2,0,L|323:88,1,82.5000025177003,10|2,0:2|0:2,0:0:0:0:
448,226,171876,6,0,B|489:190|489:190|476:80,1,165.000005035401,10|10,0:1|0:2,0:0:0:0:
355,218,172350,2,0,L|273:227,1,82.5000025177003,2|8,0:2|0:1,0:0:0:0:
450,245,172665,1,2,0:2:0:0:
350,128,172823,2,0,L|268:137,1,82.5000025177003,10|2,0:2|0:2,0:0:0:0:
98,283,173139,6,0,P|134:250|183:258,1,101.249996910095,14|0,0:1|0:0,0:0:0:0:
195,271,173455,6,0,L|185:173,1,97.4999955368044,8|10,0:2|0:1,0:0:0:0:
366,75,173771,6,0,P|317:83|281:51,1,101.249996910095,14|0,0:1|0:0,0:0:0:0:
266,33,174087,6,0,L|275:129,1,97.4999955368044,8|2,0:2|0:2,0:0:0:0:
338,262,174402,1,10,0:3:0:0:
370,115,174560,2,0,L|365:74,2,41.2500012588501,8|8|8,0:2|0:2|0:2,0:0:0:0:
444,230,174876,1,10,0:2:0:0:
291,166,175034,5,10,0:1:0:0:
270,170,175113,1,8,0:2:0:0:
254,184,175192,1,8,0:2:0:0:
245,203,175271,1,8,0:2:0:0:
242,223,175350,2,0,L|245:267,3,41.2500012588501,8|8|8|8,0:2|0:3|0:3|0:3,0:0:0:0:
232,287,175665,6,0,B|193:298|193:298|156:276,1,82.5000025177003,14|2,0:1|0:2,0:0:0:0:
328,239,175981,1,10,0:2:0:0:
384,346,176139,2,0,B|421:305|421:305|412:195,1,165.000005035401,2|2,0:2|0:2,0:0:0:0:
481,57,176613,2,0,P|462:93|419:101,1,82.5000025177003,10|2,0:2|0:2,0:0:0:0:
309,73,176928,6,0,L|305:31,2,41.2500012588501,10|0|2,0:1|0:0|0:2,0:0:0:0:
287,191,177244,2,0,L|290:232,2,41.2500012588501,10|0|2,0:2|0:0|0:2,0:0:0:0:
208,59,177560,6,0,L|204:17,2,41.2500012588501,10|0|2,0:1|0:0|0:2,0:0:0:0:
189,223,177876,2,0,L|192:264,2,41.2500012588501,10|0|2,0:2|0:0|0:2,0:0:0:0:
108,96,178192,6,0,P|31:94|0:170,1,165.000005035401,10|8,0:1|0:2,0:0:0:0:
98,315,178665,1,2,0:2:0:0:
98,315,178744,1,2,0:2:0:0:
98,315,178823,2,0,B|131:326|169:323|169:323|185:354|185:354|222:350|258:361,1,179.999994506836,10|8,0:1|0:2,0:0:0:0:
424,211,179297,5,2,0:2:0:0:
424,211,179376,1,2,0:2:0:0:
424,211,179455,2,0,B|392:227|349:223|349:223|330:259|330:259|284:254|250:269,1,194.999991073609,10|8,0:1|0:2,0:0:0:0:
101,138,179928,1,2,0:3:0:0:
252,58,180086,6,0,B|271:54|289:50|289:50|327:74|364:83|364:83|367:99|373:119,1,157.499995193482,10|0,0:1|0:0,0:0:0:0:
384,133,180402,2,0,P|388:80|393:28,1,104.999996795654,8|2,0:2|0:3,0:0:0:0:
210,163,180718,6,0,B|128:175|90:119|90:119|114:128|146:123,1,179.999994506836,14|8,0:1|0:2,0:0:0:0:
318,6,181192,2,0,P|307:87|298:169,1,165.000005035401,2|2,0:2|0:2,0:0:0:0:
319,342,181665,1,10,0:2:0:0:
388,197,181823,1,2,0:2:0:0:
241,250,181981,2,0,P|282:254|322:259,1,82.5000025177003,14|2,0:1|0:2,0:0:0:0:
498,213,182297,1,10,0:2:0:0:
436,353,182455,5,2,0:2:0:0:
433,332,182534,1,8,0:3:0:0:
429,311,182613,2,0,L|420:252,3,41.2500012588501,8|8|2|8,0:3|0:3|0:3|0:3,0:0:0:0:
483,219,182928,2,0,L|489:172,3,41.2500012588501,10|8|10|8,0:2|0:2|0:2|0:2,0:0:0:0:
454,106,183244,6,0,P|405:100|357:94,1,97.4999955368044,14|2,0:1|0:2,0:0:0:0:
104,16,183560,2,0,P|110:64|116:112,1,97.4999955368044,8|2,0:2|0:2,0:0:0:0:
264,110,183876,1,8,0:1:0:0:
383,282,184034,2,0,P|388:233|394:185,1,97.4999955368044,0|10,0:0|0:2,0:0:0:0:
226,332,184350,1,2,0:2:0:0:
99,257,184507,5,10,0:1:0:0:
92,237,184586,1,2,0:2:0:0:
89,216,184665,1,2,0:2:0:0:
95,196,184744,1,2,0:2:0:0:
108,180,184823,2,0,L|149:183,3,41.2500012588501,10|2|2|2,0:2|0:2|0:2|0:2,0:0:0:0:
211,231,185139,2,0,L|255:234,3,41.2500012588501,10|2|2|2,0:1|0:2|0:2|0:2,0:0:0:0:
314,187,185455,2,0,P|385:185|410:251,1,150,10|12,0:2|0:1,0:0:0:0:
244,352,185928,5,10,0:2:0:0:
244,352,186007,1,10,0:2:0:0:
244,352,186086,2,0,P|176:345|109:340,1,134.999995880127,10|8,0:2|0:3,0:0:0:0:
48,297,186402,2,0,P|24:236|59:180,2,134.999995880127,10|10|14,0:1|0:3|0:1,0:0:0:0:
261,239,187034,6,0,P|266:149|273:59,1,179.999994506836,10|8,0:2|0:3,0:0:0:0:
171,183,187507,1,8,0:2:0:0:
171,183,187586,1,8,0:2:0:0:
171,183,187665,1,8,0:2:0:0:
360,130,187823,1,8,0:1:0:0:
182,30,187981,1,8,0:2:0:0:
181,29,188297,6,0,P|138:40|82:41,1,89.9999972534181,14|2,0:1|0:3,0:0:0:0:
30,150,188928,1,2,0:2:0:0:
124,235,189244,2,0,P|167:223|212:219,2,89.9999972534181,10|8|10,0:1|0:1|0:2,0:0:0:0:
330,150,190191,6,0,P|373:160|429:161,1,89.9999972534181,10|2,0:1|0:3,0:0:0:0:
481,270,190822,1,2,0:2:0:0:
387,355,191138,2,0,P|343:343|298:339,2,89.9999972534181,10|8|10,0:1|0:1|0:2,0:0:0:0:
158,355,192086,6,0,P|137:315|141:271,1,89.9999972534181,14|2,0:1|0:3,0:0:0:0:
256,186,192718,1,2,0:2:0:0:
388,228,193033,2,0,P|408:267|404:311,2,89.9999972534181,10|8|10,0:1|0:1|0:2,0:0:0:0:
252,27,193981,6,0,L|261:117,1,89.9999972534181,14|2,0:1|0:3,0:0:0:0:
86,259,194612,1,2,0:2:0:0:
86,259,194928,5,10,0:2:0:0:
155,307,195086,2,0,L|189:302,2,22.4999993133545,8|0|8,0:3|0:0|0:3,0:0:0:0:
38,323,195402,1,8,0:3:0:0:
108,371,195560,1,10,0:3:0:0:
68,132,195875,5,14,0:1:0:0:
68,132,196191,2,0,L|73:184,1,44.999998626709,2|10,0:2|0:2,0:0:0:0:
139,231,196507,2,0,L|228:220,2,89.9999972534181,2|10|10,0:2|0:1|0:1,0:0:0:0:
242,113,197454,1,10,0:2:0:0:
319,334,197770,5,14,0:1:0:0:
319,334,198086,2,0,L|314:282,1,44.999998626709,10|10,0:1|0:3,0:0:0:0:
378,231,198402,2,0,L|467:220,2,89.9999972534181,2|14|10,0:2|0:2|0:1,0:0:0:0:
237,163,199191,5,8,0:2:0:0:
300,282,199349,1,8,0:2:0:0:
328,146,199507,1,8,0:2:0:0:
212,249,199665,6,0,P|178:251|144:255,1,67.4999979400635,14|0,0:1|0:0,0:0:0:0:
132,262,199980,6,0,L|123:172,1,89.9999972534181,10|0,0:1|0:0,0:0:0:0:
286,180,200296,6,0,P|319:176|353:173,1,67.4999979400635,10|0,0:1|0:0,0:0:0:0:
369,180,200612,6,0,L|360:90,1,89.9999972534181,10|12,0:1|0:2,0:0:0:0:
234,62,200928,6,0,L|227:2,2,60,10|2|10,0:1|0:2|0:1,0:0:0:0:
181,154,201401,2,0,L|185:195,2,30,10|0|8,0:3|0:0|0:1,0:0:0:0:
115,87,201717,2,0,L|112:51,2,30,10|0|8,0:3|0:0|0:1,0:0:0:0:
28,208,202033,1,8,0:3:0:0:
28,208,202112,1,8,0:3:0:0:
28,208,202191,6,0,P|61:204|91:174,1,67.4999979400635,14|0,0:1|0:0,0:0:0:0:
93,170,202507,6,0,L|102:269,1,89.9999972534181,10|8,0:1|0:3,0:0:0:0:
221,308,202822,6,0,P|254:304|284:274,1,67.4999979400635,10|0,0:1|0:0,0:0:0:0:
286,270,203138,6,0,L|295:369,1,89.9999972534181,10|12,0:1|0:2,0:0:0:0:
383,194,203454,6,0,L|378:134,2,60,10|10|10,0:1|0:3|0:1,0:0:0:0:
440,330,203928,1,10,0:3:0:0:
440,330,204007,1,0,0:0:0:0:
440,330,204086,1,8,0:1:0:0:
472,189,204243,1,10,0:3:0:0:
358,275,204401,1,8,0:3:0:0:
301,73,204559,6,0,P|229:67|188:128,1,150,14|8,0:1|0:1,0:0:0:0:
161,286,205033,1,10,0:2:0:0:
26,217,205191,1,8,0:3:0:0:
26,217,205270,1,8,0:3:0:0:
26,217,205349,2,0,P|63:211|100:205,1,75,8|10,0:3|0:1,0:0:0:0:
284,258,205665,1,10,0:2:0:0:
200,356,205822,6,0,P|193:281|183:207,1,150,14|8,0:1|0:1,0:0:0:0:
292,133,206296,1,8,0:2:0:0:
370,258,206454,1,8,0:2:0:0:
370,258,206533,1,8,0:2:0:0:
370,258,206612,2,0,P|406:254|435:230,1,75,8|8,0:2|0:1,0:0:0:0:
376,42,206928,1,8,0:2:0:0:
445,140,207086,6,0,P|367:137|291:111,1,150,12|10,0:1|0:2,0:0:0:0:
299,114,207480,1,8,0:2:0:0:
299,114,207559,1,10,0:3:0:0:
183,43,207717,1,10,0:3:0:0:
205,191,207875,1,10,0:3:0:0:
299,95,208033,1,10,0:1:0:0:
88,139,208191,1,10,0:2:0:0:
88,139,208270,1,8,0:2:0:0:
88,139,208349,1,10,0:1:0:0:
237,295,208665,5,10,0:2:0:0:
188,77,208822,1,10,0:2:0:0:
268,317,209138,5,10,0:3:0:0:
331,48,209454,1,14,0:2:0:0:
268,317,209770,6,0,B|271:261|245:260|248:199,1,120,2|2,0:2|0:2,0:0:0:0:
298,68,210559,1,2,0:2:0:0:
184,114,210717,1,2,0:2:0:0:
266,345,211033,6,0,B|276:256|241:256|251:166,1,179.999994506836,2|2,0:2|0:2,0:0:0:0:
310,66,211822,1,2,0:2:0:0:
173,304,211980,6,0,P|81:318|111:229,1,225.000008583069,10|2,0:2|0:2,0:0:0:0:
400,352,224296,6,2,P|426:267|337:274,1,210,2|2,0:2|0:0,0:0:0:0:
315,292,224928,6,0,P|275:292|237:276,1,82.5000025177003,14|0,0:1|0:0,0:0:0:0:
78,209,225243,2,0,P|118:209|156:193,1,82.5000025177003,10|0,0:2|0:0,0:0:0:0:
234,20,225559,2,0,P|239:60|245:101,1,82.5000025177003,10|0,0:1|0:0,0:0:0:0:
245,101,225796,1,2,0:2:0:0:
245,101,225875,1,10,0:2:0:0:
358,185,226033,1,2,0:2:0:0:
463,116,226191,6,0,P|422:109|381:102,1,82.5000025177003,10|2,0:1|0:2,0:0:0:0:
352,270,226507,2,0,P|392:276|433:283,1,82.5000025177003,10|2,0:2|0:2,0:0:0:0:
249,206,226822,5,10,0:1:0:0:
148,296,226980,1,0,0:0:0:0:
259,227,227138,1,8,0:2:0:0:
297,359,227296,1,2,0:2:0:0:
130,289,227454,6,0,P|125:247|120:206,1,82.5000025177003,8|2,0:1|0:2,0:0:0:0:
9,80,227770,2,0,P|41:104|81:101,1,82.5000025177003,10|2,0:2|0:2,0:0:0:0:
204,7,228086,2,0,L|195:90,1,82.5000025177003,10|2,0:1|0:2,0:0:0:0:
195,89,228322,1,2,0:2:0:0:
195,89,228401,1,10,0:2:0:0:
238,217,228559,1,2,0:2:0:0:
134,189,228717,5,10,0:1:0:0:
310,133,228875,1,10,0:2:0:0:
310,133,228954,1,10,0:2:0:0:
310,133,229033,1,10,0:2:0:0:
330,297,229191,6,0,P|257:295|193:328,1,146.249993305207,10|0,0:2|0:0,0:0:0:0:
165,322,229507,2,0,P|251:278|348:280,1,194.999991073609,14|8,0:2|0:2,0:0:0:0:
426,307,229901,1,8,0:2:0:0:
426,307,229980,6,0,P|432:266|439:225,1,82.5000025177003,14|0,0:1|0:0,0:0:0:0:
337,61,230296,2,0,P|331:101|323:142,1,82.5000025177003,10|0,0:2|0:0,0:0:0:0:
502,140,230612,2,0,P|458:136|414:122,1,82.5000025177003,10|0,0:1|0:0,0:0:0:0:
421,125,230849,1,2,0:2:0:0:
421,125,230928,1,10,0:2:0:0:
328,53,231086,1,2,0:2:0:0:
287,242,231243,6,0,P|327:241|364:223,1,82.5000025177003,8|2,0:1|0:2,0:0:0:0:
183,154,231559,2,0,P|142:153|105:135,1,82.5000025177003,10|2,0:2|0:2,0:0:0:0:
48,273,231875,1,10,0:1:0:0:
177,354,232033,1,8,0:2:0:0:
177,354,232112,1,8,0:2:0:0:
177,353,232191,2,0,P|180:311|185:270,1,82.5000025177003,8|10,0:2|0:3,0:0:0:0:
97,135,232507,5,12,0:1:0:0:
89,299,232665,1,2,0:2:0:0:
187,163,232822,1,10,0:2:0:0:
36,214,232980,1,10,0:1:0:0:
158,63,233138,5,10,0:2:0:0:
123,219,233296,1,10,0:1:0:0:
0,122,233454,2,0,P|40:127|81:133,1,82.5000025177003,10|10,0:2|0:1,0:0:0:0:
258,35,233770,2,0,P|217:29|176:23,1,82.5000025177003,14|8,0:2|0:1,0:0:0:0:
287,169,234086,5,8,0:2:0:0:
311,153,234165,1,8,0:0:0:0:
338,150,234243,1,8,0:2:0:0:
365,158,234322,1,8,0:2:0:0:
386,177,234401,2,0,L|381:219,3,41.2500012588501,8|8|8|8,0:2|0:0|0:2|0:2,0:0:0:0:
436,275,234717,2,0,L|430:322,3,41.2500012588501,10|8|10|8,0:3|0:3|0:3|0:3,0:0:0:0:
362,353,235033,6,0,P|321:358|285:339,1,82.5000025177003,14|0,0:1|0:0,0:0:0:0:
111,303,235349,1,10,0:2:0:0:
277,233,235507,1,2,0:2:0:0:
203,378,235665,2,0,P|194:295|184:213,1,165.000005035401,10|8,0:1|0:2,0:0:0:0:
113,67,236138,5,2,0:2:0:0:
8,164,236296,2,0,P|49:159|90:155,1,82.5000025177003,8|2,0:1|0:2,0:0:0:0:
271,36,236612,2,0,P|229:31|189:26,1,82.5000025177003,10|2,0:2|0:2,0:0:0:0:
205,205,236928,2,0,P|210:164|215:123,1,82.5000025177003,10|2,0:1|0:3,0:0:0:0:
357,80,237243,1,8,0:2:0:0:
317,253,237401,1,2,0:3:0:0:
461,238,237559,6,0,P|419:170|341:174,1,165.000005035401,10|10,0:1|0:2,0:0:0:0:
303,344,238033,1,2,0:2:0:0:
431,355,238191,2,0,P|471:348|512:343,1,82.5000025177003,10|2,0:1|0:2,0:0:0:0:
317,253,238507,2,0,P|276:259|235:264,1,82.5000025177003,10|2,0:2|0:2,0:0:0:0:
10,345,238822,6,0,P|80:348|122:292,1,146.249993305207,10|0,0:1|0:0,0:0:0:0:
124,268,239138,2,0,P|53:271|11:215,1,146.249993305207,10|0,0:2|0:0,0:0:0:0:
9,190,239454,2,0,P|57:186|99:157,1,97.4999955368044,10|8,0:1|0:2,0:0:0:0:
96,159,239691,1,8,0:2:0:0:
96,159,239770,1,8,0:2:0:0:
248,29,239928,1,10,0:2:0:0:
248,29,240007,1,8,0:2:0:0:
248,29,240086,6,0,L|257:117,1,82.5000025177003,12|2,0:1|0:2,0:0:0:0:
273,226,240401,1,10,0:2:0:0:
333,60,240559,1,2,0:2:0:0:
184,170,240717,2,0,P|261:142|343:147,1,165.000005035401,10|8,0:1|0:2,0:0:0:0:
411,253,241191,1,2,0:2:0:0:
308,330,241349,6,0,P|288:294|287:253,1,82.5000025177003,8|2,0:1|0:2,0:0:0:0:
407,88,241665,2,0,P|426:123|427:164,1,82.5000025177003,10|2,0:2|0:2,0:0:0:0:
375,273,241980,1,10,0:1:0:0:
337,145,242138,1,8,0:2:0:0:
337,145,242217,1,8,0:2:0:0:
337,145,242296,1,8,0:2:0:0:
462,239,242454,1,8,0:3:0:0:
284,335,242612,6,0,P|244:337|208:317,1,82.5000025177003,14|2,0:1|0:2,0:0:0:0:
40,260,242928,2,0,P|80:258|118:241,1,82.5000025177003,10|10,0:2|0:1,0:0:0:0:
154,89,243243,5,14,0:1:0:0:
292,172,243401,1,2,0:2:0:0:
127,219,243559,1,8,0:2:0:0:
277,154,243717,1,8,0:1:0:0:
409,322,243875,6,0,P|414:281|420:240,1,82.5000025177003,14|8,0:2|0:1,0:0:0:0:
369,137,244191,1,10,0:2:0:0:
291,314,244349,2,0,P|211:316|160:254,1,165.000005035401,14|8,0:1|0:3,0:0:0:0:
273,184,244822,1,8,0:2:0:0:
273,184,244901,1,8,0:2:0:0:
273,184,244980,1,10,0:2:0:0:
168,52,245138,6,0,P|173:92|178:133,1,82.5000025177003,12|2,0:1|0:2,0:0:0:0:
381,223,245454,2,0,P|375:182|370:141,1,82.5000025177003,10|10,0:2|0:1,0:0:0:0:
211,296,245770,5,14,0:1:0:0:
387,353,245928,1,2,0:2:0:0:
223,314,246086,1,10,0:2:0:0:
377,235,246243,1,2,0:2:0:0:
186,145,246401,6,0,P|144:149|103:153,1,82.5000025177003,14|8,0:1|0:1,0:0:0:0:
234,48,246717,1,8,0:2:0:0:
296,200,246875,2,0,P|374:205|416:138,1,165.000005035401,14|10,0:1|0:1,0:0:0:0:
251,49,247349,1,8,0:2:0:0:
251,49,247428,1,8,0:2:0:0:
251,49,247507,1,10,0:2:0:0:
138,109,247665,6,0,L|143:161,1,52.4999983978272,0|2,0:0|0:2,0:0:0:0:
178,231,247980,2,0,L|172:178,1,52.4999983978272,2|2,0:2|0:2,0:0:0:0:
63,277,248296,6,0,L|108:273,1,44.999998626709,2|2,0:2|0:2,0:0:0:0:
178,231,248612,2,0,L|133:235,1,44.999998626709,2|2,0:2|0:2,0:0:0:0:
245,23,251454,6,0,L|263:173,1,150,14|8,0:1|0:2,0:0:0:0:
344,268,251928,1,2,0:2:0:0:
344,268,252007,1,2,0:2:0:0:
344,268,252086,2,0,P|381:264|414:247,1,75,10|2,0:1|0:2,0:0:0:0:
254,335,252401,2,0,P|216:331|183:314,1,75,10|2,0:2|0:2,0:0:0:0:
142,203,252717,5,10,0:1:0:0:
20,267,252875,1,2,0:2:0:0:
40,109,253033,2,0,P|53:143|60:180,1,75,10|2,0:2|0:2,0:0:0:0:
137,314,253349,5,10,0:1:0:0:
8,277,253507,1,2,0:2:0:0:
70,178,253665,2,0,P|63:141|49:106,1,75,10|2,0:2|0:0,0:0:0:0:
181,25,253980,6,0,P|253:23|289:85,1,150,10|8,0:1|0:2,0:0:0:0:
398,160,254454,1,2,0:2:0:0:
398,160,254533,1,2,0:2:0:0:
398,160,254612,2,0,P|392:122|387:85,1,75,10|2,0:1|0:2,0:0:0:0:
272,184,254928,2,0,P|277:221|282:258,1,75,10|2,0:2|0:2,0:0:0:0:
469,379,255243,5,10,0:1:0:0:
512,216,255401,1,2,0:2:0:0:
418,300,255559,2,0,P|380:300|344:309,1,75,10|2,0:2|0:2,0:0:0:0:
416,198,255875,5,10,0:1:0:0:
278,141,256033,1,2,0:2:0:0:
344,296,256191,2,0,P|380:287|418:287,1,75,10|2,0:2|0:2,0:0:0:0:
201,348,256507,6,0,P|129:352|87:294,1,150,14|8,0:1|0:2,0:0:0:0:
85,161,256980,1,2,0:2:0:0:
85,161,257059,1,2,0:2:0:0:
85,161,257138,2,0,P|121:154|158:146,1,75,10|2,0:1|0:2,0:0:0:0:
244,257,257454,2,0,P|207:263|170:271,1,75,10|2,0:2|0:2,0:0:0:0:
338,172,257770,5,10,0:1:0:0:
445,252,257928,1,2,0:2:0:0:
498,80,258086,5,10,0:2:0:0:
428,168,258243,1,2,0:2:0:0:
345,85,258401,1,10,0:3:0:0:
343,66,258480,1,8,0:2:0:0:
340,47,258559,2,0,L|335:8,2,37.5,10|8|10,0:2|0:2|0:2,0:0:0:0:
166,145,258875,1,10,0:2:0:0:
166,145,258954,1,8,0:2:0:0:
166,145,259033,6,0,P|160:98|155:54,1,89.9999972534181,14|0,0:1|0:0,0:0:0:0:
224,247,259349,2,0,P|179:248|136:262,1,89.9999972534181,10|0,0:2|0:0,0:0:0:0:
295,131,259665,2,0,P|339:132|382:146,1,89.9999972534181,10|0,0:2|0:0,0:0:0:0:
482,307,259980,2,0,P|437:309|400:286,1,89.9999972534181,10|0,0:2|0:0,0:0:0:0:
478,132,260296,6,0,P|470:176|463:220,1,89.9999972534181,14|0,0:2|0:0,0:0:0:0:
310,354,260612,2,0,P|303:310|296:266,1,89.9999972534181,10|0,0:2|0:3,0:0:0:0:
256,80,260928,2,0,P|170:79|133:157,1,179.999994506836,10|0,0:3|0:2,0:0:0:0:
27,309,261401,1,8,0:2:0:0:
27,309,261480,1,8,0:2:0:0:
27,309,261559,6,0,B|114:295|86:350|190:336,1,150,14|8,0:1|0:2,0:0:0:0:
270,210,262033,1,2,0:2:0:0:
270,210,262112,1,2,0:2:0:0:
270,210,262191,2,0,P|260:246|255:293,1,75,10|2,0:1|0:2,0:0:0:0:
348,373,262507,1,8,0:2:0:0:
470,346,262665,6,0,P|478:271|493:198,1,150,2|2,0:2|0:2,0:0:0:0:
471,72,263138,2,0,P|434:67|401:48,1,75,10|2,0:2|0:2,0:0:0:0:
288,164,263454,2,0,P|325:163|358:146,1,75,10|2,0:1|0:2,0:0:0:0:
223,92,263770,1,10,0:2:0:0:
182,224,263928,1,2,0:2:0:0:
113,102,264086,6,0,P|41:97|-1:158,1,150,10|8,0:1|0:2,0:0:0:0:
63,317,264559,1,2,0:2:0:0:
63,317,264638,1,2,0:2:0:0:
63,317,264717,2,0,P|58:274|47:221,1,75,10|2,0:1|0:2,0:0:0:0:
163,173,265033,1,8,0:2:0:0:
210,346,265191,6,0,P|283:350|327:294,1,150,2|2,0:2|0:2,0:0:0:0:
390,164,265665,2,0,P|352:159|315:154,1,75,10|2,0:2|0:2,0:0:0:0:
169,255,265980,2,0,P|206:259|243:264,1,75,10|2,0:1|0:2,0:0:0:0:
301,140,266296,1,10,0:2:0:0:
142,63,266454,1,2,0:2:0:0:
213,161,266612,6,0,P|216:123|220:86,1,75,14|8,0:1|0:2,0:0:0:0:
220,86,266849,1,8,0:2:0:0:
220,86,266928,1,10,0:2:0:0:
123,200,267086,2,0,P|89:216|52:221,1,75,10|0,0:1|0:0,0:0:0:0:
0,62,267401,2,0,P|37:65|68:84,1,75,10|0,0:1|0:0,0:0:0:0:
241,217,267717,6,0,P|246:140|256:65,1,150,14|8,0:1|0:2,0:0:0:0:
157,189,268191,1,8,0:2:0:0:
341,156,268349,1,8,0:3:0:0:
341,156,268428,1,8,0:1:0:0:
341,156,268507,1,8,0:3:0:0:
155,84,268665,1,8,0:3:0:0:
258,224,268822,1,8,0:2:0:0:
290,55,269296,5,2,0:2:0:0:
173,102,269454,1,2,0:2:0:0:
331,160,269612,1,2,0:2:0:0:
158,223,269928,5,2,0:2:0:0:
349,171,270086,1,2,0:2:0:0:
227,79,270559,5,14,0:2:0:0:
283,311,270875,1,10,0:2:0:0:
256,192,271033,5,14,0:2:0:0:
256,192,271112,12,0,277033,0:0:0:0:
