osu file format v14

[General]
AudioFilename: audio.mp3
AudioLeadIn: 1000
PreviewTime: 75402
Countdown: 0
SampleSet: Soft
StackLeniency: 0.4
Mode: 0
LetterboxInBreaks: 0
WidescreenStoryboard: 1

[Editor]
Bookmarks: 1350,12718,22823,30402,40507,49350,58192,65771,75876,85981,96086,107455,117560,127981,142823,152928,163034,165560,183244,188297,199665,212296,224928,235033,248928,251454
DistanceSpacing: 0.7
BeatDivisor: 4
GridSize: 16
TimelineZoom: 3.399999

[Metadata]
Title:Zenryoku Happy Life
TitleUnicode:全力ハッピーライフ
Artist:ShinRa-Bansho
ArtistUnicode:森羅万象
Creator:Asagi
Version:Extra
Source:東方永夜抄 ~ Imperishable Night.
Tags:ayaponzu* touhou project 2hu Full Power 狂気の瞳 ~ Invisible Full Moon あやぽんず* Lunatic Red Eyes Reisen Udongein Inaba kaztora reitaisai 15 シンクロ2 Synchro 2 ZUN 太田順也 Caral usagi bunny rabbit pyon j-pop jpop japanese video game midorijeon
BeatmapID:1837214
BeatmapSetID:819611

[Difficulty]
HPDrainRate:5.5
CircleSize:4
OverallDifficulty:8.4
ApproachRate:9.3
SliderMultiplier:1.6
SliderTickRate:1

[Events]
//Background and Video events
0,0,"pyon.png",0,0
//Break Periods
2,97350,105622
2,212495,223726
2,248969,250884
//Storyboard Layer 0 (Background)
//Storyboard Layer 1 (Fail)
//Storyboard Layer 2 (Pass)
//Storyboard Layer 3 (Foreground)
//Storyboard Layer 4 (Overlay)
//Storyboard Sound Samples

[TimingPoints]
1350,315.789473684211,4,2,2,70,1,0
1350,-90.9090909090909,4,2,2,70,0,0
1665,-90.9090909090909,4,2,12,70,0,0
1744,-90.9090909090909,4,2,2,70,0,0
1823,-90.9090909090909,4,2,12,70,0,0
1902,-90.9090909090909,4,2,2,70,0,0
2139,-90.9090909090909,4,2,12,70,0,0
2218,-90.9090909090909,4,2,2,70,0,0
2455,-90.9090909090909,4,2,12,70,0,0
2534,-90.9090909090909,4,2,2,70,0,0
2613,-90.9090909090909,4,2,3,70,0,0
2928,-90.9090909090909,4,2,12,70,0,0
3007,-90.9090909090909,4,2,2,70,0,0
3086,-90.9090909090909,4,2,12,70,0,0
3165,-90.9090909090909,4,2,2,70,0,0
3402,-90.9090909090909,4,2,12,70,0,0
3481,-90.9090909090909,4,2,2,70,0,0
3718,-90.9090909090909,4,2,12,70,0,0
3797,-90.9090909090909,4,2,2,70,0,0
3876,-90.9090909090909,4,2,5,70,0,0
4192,-90.9090909090909,4,2,12,70,0,0
4271,-90.9090909090909,4,2,2,70,0,0
4350,-90.9090909090909,4,2,12,70,0,0
4429,-90.9090909090909,4,2,2,70,0,0
4665,-90.9090909090909,4,2,12,70,0,0
4744,-90.9090909090909,4,2,2,70,0,0
4981,-90.9090909090909,4,2,12,70,0,0
5060,-90.9090909090909,4,2,2,70,0,0
5455,-90.9090909090909,4,2,5,70,0,0
5771,-90.9090909090909,4,2,3,70,0,0
6086,-90.9090909090909,4,2,3,70,0,0
6402,-90.9090909090909,4,2,2,70,0,0
6718,-90.9090909090909,4,2,12,70,0,0
6797,-90.9090909090909,4,2,2,70,0,0
6876,-90.9090909090909,4,2,12,70,0,0
6955,-90.9090909090909,4,2,2,70,0,0
7192,-90.9090909090909,4,2,12,70,0,0
7271,-90.9090909090909,4,2,2,70,0,0
7507,-90.9090909090909,4,2,12,70,0,0
7586,-90.9090909090909,4,2,2,70,0,0
7665,-90.9090909090909,4,2,3,70,0,0
7981,-90.9090909090909,4,2,12,70,0,0
8060,-90.9090909090909,4,2,2,70,0,0
8139,-90.9090909090909,4,2,12,70,0,0
8218,-90.9090909090909,4,2,2,70,0,0
8455,-90.9090909090909,4,2,12,70,0,0
8534,-90.9090909090909,4,2,2,70,0,0
8771,-90.9090909090909,4,2,12,70,0,0
8850,-90.9090909090909,4,2,2,70,0,0
8928,-125,4,2,5,70,0,0
9244,-125,4,2,6,70,0,0
9323,-125,4,2,2,70,0,0
9560,-125,4,2,2,70,0,0
9876,-125,4,2,6,70,0,0
9955,-125,4,2,2,70,0,0
10192,-100,4,2,3,70,0,0
10507,-90.9090909090909,4,2,2,70,0,0
10823,-83.3333333333333,4,2,1,70,0,0
11139,-76.9230769230769,4,2,1,70,0,0
12718,-100,4,2,1,75,0,1
12797,-100,4,2,2,75,0,0
13192,-100,4,2,13,75,0,0
13271,-100,4,2,2,75,0,0
13507,-100,4,2,13,75,0,0
13586,-100,4,2,2,75,0,0
13823,-100,4,2,13,75,0,0
13902,-100,4,2,2,75,0,0
14139,-100,4,2,13,75,0,0
14218,-100,4,2,2,75,0,0
14455,-100,4,2,13,75,0,0
14534,-100,4,2,2,75,0,0
14771,-100,4,2,13,75,0,0
14850,-100,4,2,2,75,0,0
15086,-100,4,2,13,75,0,0
15165,-100,4,2,2,75,0,0
15402,-100,4,2,12,75,0,0
15481,-100,4,2,2,75,0,0
15718,-100,4,2,13,75,0,0
15797,-100,4,2,2,75,0,0
16034,-100,4,2,13,75,0,0
16113,-100,4,2,2,75,0,0
16350,-100,4,2,13,75,0,0
16429,-100,4,2,2,75,0,0
16665,-100,4,2,13,75,0,0
16744,-100,4,2,2,75,0,0
16981,-100,4,2,13,75,0,0
17060,-100,4,2,2,75,0,0
17297,-100,4,2,13,75,0,0
17376,-100,4,2,2,75,0,0
17613,-100,4,2,13,75,0,0
17692,-100,4,2,2,75,0,0
18244,-100,4,2,13,75,0,0
18323,-100,4,2,2,75,0,0
18560,-100,4,2,13,75,0,0
18639,-100,4,2,2,75,0,0
18876,-100,4,2,13,75,0,0
18955,-100,4,2,2,75,0,0
19192,-100,4,2,13,75,0,0
19271,-100,4,2,2,75,0,0
19507,-100,4,2,13,75,0,0
19586,-100,4,2,2,75,0,0
19665,-100,4,2,1,75,0,0
20297,-83.3333333333333,4,2,2,75,0,0
20534,-83.3333333333333,4,2,2,5,0,0
20613,-83.3333333333333,4,2,12,75,0,0
20692,-83.3333333333333,4,2,2,75,0,0
20850,-83.3333333333333,4,2,2,5,0,0
20928,-83.3333333333333,4,2,12,75,0,0
21007,-83.3333333333333,4,2,2,75,0,0
21165,-83.3333333333333,4,2,2,5,0,0
21244,-83.3333333333333,4,2,12,75,0,0
21323,-83.3333333333333,4,2,2,75,0,0
21481,-83.3333333333333,4,2,2,5,0,0
21560,-83.3333333333333,4,2,2,75,0,0
21797,-83.3333333333333,4,2,2,5,0,0
21876,-83.3333333333333,4,2,12,75,0,0
21955,-83.3333333333333,4,2,2,75,0,0
22192,-83.3333333333333,4,2,2,75,0,0
22271,-83.3333333333333,4,2,2,75,0,0
22665,-83.3333333333333,4,2,2,75,0,0
22823,-100,4,2,2,75,0,0
23297,-100,4,2,13,75,0,0
23376,-100,4,2,2,75,0,0
23613,-100,4,2,13,75,0,0
23692,-100,4,2,2,75,0,0
23928,-100,4,2,13,75,0,0
24007,-100,4,2,2,75,0,0
24244,-100,4,2,13,75,0,0
24323,-100,4,2,2,75,0,0
24560,-100,4,2,13,75,0,0
24639,-100,4,2,2,75,0,0
24876,-100,4,2,13,75,0,0
24955,-100,4,2,2,75,0,0
25192,-100,4,2,13,75,0,0
25271,-100,4,2,2,75,0,0
25507,-100,4,2,12,75,0,0
25586,-100,4,2,2,75,0,0
26139,-100,4,2,13,75,0,0
26218,-100,4,2,2,75,0,0
26455,-100,4,2,13,75,0,0
26534,-100,4,2,2,75,0,0
26771,-100,4,2,13,75,0,0
26850,-100,4,2,2,75,0,0
27086,-100,4,2,13,75,0,0
27165,-100,4,2,2,75,0,0
27402,-100,4,2,13,75,0,0
27481,-100,4,2,2,75,0,0
27718,-100,4,2,13,75,0,0
27797,-100,4,2,2,75,0,0
28192,-100,4,2,2,75,0,0
28350,-100,4,2,1,75,0,0
28507,-100,4,2,2,75,0,0
28823,-100,4,2,3,75,0,0
28981,-100,4,2,2,75,0,0
29771,-100,4,2,3,75,0,0
30402,-100,4,2,2,65,0,0
30481,-100,4,2,2,65,0,0
34192,-125,4,2,2,65,0,0
34350,-125,4,2,1,65,0,0
34981,-125,4,2,3,65,0,0
35297,-125,4,2,4,65,0,0
35455,-125,4,2,2,65,0,0
35928,-125,4,2,12,65,0,0
36007,-125,4,2,2,65,0,0
36876,-125,4,2,8,65,0,0
36955,-125,4,2,2,65,0,0
37192,-125,4,2,12,65,0,0
37271,-125,4,2,2,65,0,0
37665,-125,4,2,8,65,0,0
37744,-125,4,2,2,65,0,0
37981,-125,4,2,5,65,0,0
38139,-125,4,2,1,65,0,0
38455,-125,4,2,2,65,0,0
39086,-125,4,2,3,65,0,0
39244,-125,4,2,2,65,0,0
40192,-76.9230769230769,4,2,69,80,0,0
40271,-76.9230769230769,4,2,2,65,0,0
40507,-100,4,2,2,70,0,0
40981,-100,4,2,8,70,0,0
41060,-100,4,2,2,70,0,0
41297,-100,4,2,9,70,0,0
41376,-100,4,2,2,70,0,0
41613,-100,4,2,8,70,0,0
41692,-100,4,2,2,70,0,0
41928,-100,4,2,8,70,0,0
42007,-100,4,2,2,70,0,0
42244,-100,4,2,8,70,0,0
42323,-100,4,2,2,70,0,0
42560,-100,4,2,9,70,0,0
42639,-100,4,2,2,70,0,0
42876,-100,4,2,8,70,0,0
42955,-100,4,2,2,70,0,0
43192,-100,4,2,8,70,0,0
43271,-100,4,2,2,70,0,0
43507,-100,4,2,9,70,0,0
43586,-100,4,2,2,70,0,0
43823,-100,4,2,9,70,0,0
43902,-100,4,2,2,70,0,0
44139,-100,4,2,9,70,0,0
44218,-100,4,2,2,70,0,0
44455,-100,4,2,9,70,0,0
44534,-100,4,2,2,70,0,0
44771,-100,4,2,9,70,0,0
44850,-100,4,2,2,70,0,0
45086,-100,4,2,9,70,0,0
45165,-100,4,2,2,70,0,0
45402,-100,4,2,8,70,0,0
45481,-100,4,2,2,70,0,0
45718,-100,4,2,8,70,0,0
45797,-100,4,2,2,70,0,0
46034,-100,4,2,8,70,0,0
46113,-100,4,2,2,70,0,0
46350,-100,4,2,8,70,0,0
46429,-100,4,2,2,70,0,0
46665,-100,4,2,9,70,0,0
46744,-100,4,2,2,70,0,0
46981,-100,4,2,9,70,0,0
47060,-100,4,2,2,70,0,0
47297,-100,4,2,8,70,0,0
47376,-100,4,2,2,70,0,0
47613,-100,4,2,8,70,0,0
47692,-100,4,2,2,70,0,0
47928,-100,4,2,8,70,0,0
48007,-100,4,2,2,70,0,0
48560,-100,4,2,6,70,0,0
48639,-100,4,2,2,70,0,0
48876,-100,4,2,6,70,0,0
48955,-100,4,2,2,70,0,0
49192,-100,4,2,6,70,0,0
49271,-100,4,2,2,70,0,0
49350,-100,4,2,2,70,0,0
49823,-100,4,2,3,70,0,0
50139,-100,4,2,1,70,0,0
50297,-100,4,2,2,70,0,0
50455,-100,4,2,3,70,0,0
50613,-100,4,2,3,70,0,0
50928,-83.3333333333333,4,2,3,70,0,0
51165,-83.3333333333333,4,2,3,5,0,0
51244,-83.3333333333333,4,2,3,70,0,0
51876,-100,4,2,2,70,0,0
52192,-100,4,2,7,70,0,0
52271,-100,4,2,2,70,0,0
52823,-100,4,2,7,70,0,0
52902,-100,4,2,2,70,0,0
53455,-83.3333333333333,4,2,2,70,0,0
53692,-83.3333333333333,4,2,2,5,0,0
53771,-83.3333333333333,4,2,3,70,0,0
54402,-100,4,2,2,70,0,0
54876,-100,4,2,3,70,0,0
55665,-100,4,2,1,70,0,0
55744,-100,4,2,2,70,0,0
55981,-83.3333333333333,4,2,2,70,0,0
56139,-83.3333333333333,4,2,8,70,0,0
56218,-83.3333333333333,4,2,2,5,0,0
56297,-83.3333333333333,4,2,2,70,0,0
56455,-83.3333333333333,4,2,8,70,0,0
56534,-83.3333333333333,4,2,2,70,0,0
56771,-83.3333333333333,4,2,8,70,0,0
56850,-83.3333333333333,4,2,2,70,0,0
56928,-100,4,2,2,70,0,0
57086,-100,4,2,9,70,0,0
57165,-100,4,2,2,70,0,0
57402,-100,4,2,9,70,0,0
57481,-100,4,2,2,70,0,0
57718,-100,4,2,9,70,0,0
57797,-100,4,2,2,70,0,0
58034,-100,4,2,9,70,0,0
58113,-100,4,2,2,70,0,0
58507,-100,4,2,6,70,0,0
58586,-100,4,2,2,70,0,0
58823,-100,4,2,3,70,0,0
59139,-90.9090909090909,4,2,6,70,0,0
59218,-90.9090909090909,4,2,2,70,0,0
59455,-90.9090909090909,4,2,2,70,0,0
59928,-83.3333333333333,4,2,3,70,0,0
60244,-83.3333333333333,4,2,1,70,0,0
60402,-100,4,2,2,70,0,0
60560,-100,4,2,3,70,0,0
60718,-125,4,2,3,70,0,0
61034,-83.3333333333333,4,2,3,70,0,0
61981,-100,4,2,2,70,0,0
62139,-100,4,2,9,70,0,0
62218,-100,4,2,2,70,0,0
62455,-100,4,2,9,70,0,0
62534,-100,4,2,2,70,0,0
62771,-100,4,2,8,70,0,0
62850,-100,4,2,2,70,0,0
63086,-100,4,2,8,70,0,0
63165,-100,4,2,2,70,0,0
63402,-100,4,2,8,70,0,0
63481,-100,4,2,2,70,0,0
63718,-100,4,2,12,70,0,0
63797,-100,4,2,2,70,0,0
64034,-100,4,2,12,70,0,0
64113,-100,4,2,2,70,0,0
64350,-100,4,2,2,70,0,0
64981,-100,4,2,3,70,0,0
65455,-100,4,2,12,70,0,0
65534,-100,4,2,2,70,0,0
66244,-100,4,2,13,70,0,0
66323,-100,4,2,2,70,0,0
66560,-100,4,2,13,70,0,0
66639,-100,4,2,2,70,0,0
66876,-90.9090909090909,4,2,13,70,0,0
66955,-90.9090909090909,4,2,2,70,0,0
67192,-90.9090909090909,4,2,13,70,0,0
67271,-90.9090909090909,4,2,2,70,0,0
67507,-83.3333333333333,4,2,13,70,0,0
67586,-83.3333333333333,4,2,2,70,0,0
67823,-83.3333333333333,4,2,13,70,0,0
67902,-83.3333333333333,4,2,2,70,0,0
68139,-83.3333333333333,4,2,12,70,0,0
68218,-83.3333333333333,4,2,2,70,0,0
68297,-100,4,2,2,70,0,0
68928,-100,4,2,1,70,0,0
69402,-100,4,2,2,70,0,0
69876,-100,4,2,3,70,0,0
70034,-100,4,2,2,70,0,0
70192,-100,4,2,2,70,0,0
70507,-100,4,2,3,70,0,0
70665,-100,4,2,2,70,0,0
71139,-100,4,2,2,70,0,0
71455,-100,4,2,2,70,0,0
71771,-100,4,2,2,70,0,0
71928,-100,4,2,12,70,0,0
72007,-100,4,2,2,70,0,0
72718,-100,4,2,5,70,0,0
73350,-100,4,2,5,50,0,0
74613,-166.666666666667,4,2,5,50,0,0
75560,-76.9230769230769,4,2,69,100,0,0
75639,-76.9230769230769,4,2,5,70,0,0
75876,-90.9090909090909,4,2,1,80,0,1
75955,-90.9090909090909,4,2,2,80,0,1
76192,-90.9090909090909,4,2,6,80,0,1
76271,-90.9090909090909,4,2,2,80,0,1
76507,-90.9090909090909,4,2,6,80,0,1
76586,-90.9090909090909,4,2,2,80,0,1
76823,-90.9090909090909,4,2,6,80,0,1
76902,-90.9090909090909,4,2,2,80,0,1
77139,-90.9090909090909,4,2,6,80,0,1
77218,-90.9090909090909,4,2,2,80,0,1
77455,-90.9090909090909,4,2,6,80,0,1
77534,-90.9090909090909,4,2,2,80,0,1
77771,-90.9090909090909,4,2,6,80,0,1
77850,-90.9090909090909,4,2,2,80,0,1
78086,-90.9090909090909,4,2,6,80,0,1
78165,-90.9090909090909,4,2,2,80,0,1
78402,-90.9090909090909,4,2,6,80,0,1
78481,-90.9090909090909,4,2,2,80,0,1
78718,-90.9090909090909,4,2,6,80,0,1
78797,-90.9090909090909,4,2,2,80,0,1
79034,-90.9090909090909,4,2,6,80,0,1
79113,-90.9090909090909,4,2,2,80,0,1
79350,-90.9090909090909,4,2,6,80,0,1
79429,-90.9090909090909,4,2,2,80,0,1
80139,-76.9230769230769,4,2,12,80,0,1
80218,-76.9230769230769,4,2,2,80,0,1
80376,-76.9230769230769,4,2,2,5,0,1
80455,-76.9230769230769,4,2,3,80,0,1
80928,-90.9090909090909,4,2,2,80,0,1
81244,-90.9090909090909,4,2,6,80,0,1
81323,-90.9090909090909,4,2,2,80,0,1
81560,-90.9090909090909,4,2,6,80,0,1
81639,-90.9090909090909,4,2,2,80,0,1
81876,-90.9090909090909,4,2,6,80,0,1
81955,-90.9090909090909,4,2,2,80,0,1
82192,-90.9090909090909,4,2,6,80,0,1
82271,-90.9090909090909,4,2,2,80,0,1
82507,-90.9090909090909,4,2,6,80,0,1
82586,-90.9090909090909,4,2,2,80,0,1
82823,-90.9090909090909,4,2,6,80,0,1
82902,-90.9090909090909,4,2,2,80,0,1
83139,-90.9090909090909,4,2,6,80,0,1
83218,-90.9090909090909,4,2,2,80,0,1
83771,-90.9090909090909,4,2,6,80,0,1
83850,-90.9090909090909,4,2,2,80,0,1
84086,-90.9090909090909,4,2,6,80,0,1
84165,-90.9090909090909,4,2,2,80,0,1
84402,-90.9090909090909,4,2,6,80,0,1
84481,-90.9090909090909,4,2,2,80,0,1
85034,-90.9090909090909,4,2,3,80,0,1
85665,-90.9090909090909,4,2,3,80,0,0
85981,-90.9090909090909,4,2,2,80,0,1
86455,-90.9090909090909,4,2,13,80,0,1
86534,-90.9090909090909,4,2,2,80,0,1
86771,-90.9090909090909,4,2,12,80,0,1
86850,-90.9090909090909,4,2,2,80,0,1
87086,-90.9090909090909,4,2,13,80,0,1
87165,-90.9090909090909,4,2,2,80,0,1
87402,-90.9090909090909,4,2,13,80,0,1
87481,-90.9090909090909,4,2,2,80,0,1
87718,-90.9090909090909,4,2,13,80,0,1
87797,-90.9090909090909,4,2,2,80,0,1
88034,-90.9090909090909,4,2,12,80,0,1
88113,-90.9090909090909,4,2,2,80,0,1
88350,-90.9090909090909,4,2,12,80,0,1
88429,-90.9090909090909,4,2,2,80,0,1
88665,-90.9090909090909,4,2,12,80,0,1
88744,-90.9090909090909,4,2,2,80,0,1
88981,-90.9090909090909,4,2,13,80,0,1
89060,-90.9090909090909,4,2,2,80,0,1
89297,-90.9090909090909,4,2,13,80,0,1
89376,-90.9090909090909,4,2,2,80,0,1
89613,-90.9090909090909,4,2,13,80,0,1
89692,-90.9090909090909,4,2,2,80,0,1
89771,-76.9230769230769,4,2,2,80,0,1
89928,-76.9230769230769,4,2,12,80,0,1
90007,-76.9230769230769,4,2,2,5,0,1
90086,-76.9230769230769,4,2,2,80,0,1
90244,-76.9230769230769,4,2,12,80,0,1
90323,-76.9230769230769,4,2,2,5,0,1
90402,-76.9230769230769,4,2,2,80,0,1
90560,-76.9230769230769,4,2,12,80,0,1
90639,-76.9230769230769,4,2,2,80,0,1
90876,-76.9230769230769,4,2,13,80,0,1
90955,-76.9230769230769,4,2,2,80,0,1
91034,-90.9090909090909,4,2,2,80,0,1
91507,-90.9090909090909,4,2,13,80,0,1
91586,-90.9090909090909,4,2,2,80,0,1
91823,-90.9090909090909,4,2,12,80,0,1
91902,-90.9090909090909,4,2,2,80,0,1
92139,-90.9090909090909,4,2,13,80,0,1
92218,-90.9090909090909,4,2,2,80,0,1
92455,-90.9090909090909,4,2,13,80,0,1
92534,-90.9090909090909,4,2,2,80,0,1
92771,-90.9090909090909,4,2,13,80,0,1
92850,-90.9090909090909,4,2,2,80,0,1
93402,-90.9090909090909,4,2,3,80,0,1
93560,-90.9090909090909,4,2,2,80,0,1
94192,-90.9090909090909,4,2,3,80,0,1
94823,-90.9090909090909,4,2,2,80,0,1
95139,-90.9090909090909,4,2,5,80,0,1
95455,-90.9090909090909,4,2,2,80,0,1
95928,-90.9090909090909,4,2,12,80,0,1
96007,-90.9090909090909,4,2,2,80,0,1
96086,-90.9090909090909,4,2,2,80,0,0
97350,-90.9090909090909,4,2,2,50,0,0
97428,-90.9090909090909,4,2,5,50,0,0
106192,-125,4,2,3,60,0,0
106665,-125,4,2,1,60,0,0
106823,-125,4,2,2,60,0,0
106981,-125,4,2,3,60,0,0
107139,-76.9230769230769,4,2,69,90,0,0
107218,-76.9230769230769,4,2,3,60,0,0
107376,-76.9230769230769,4,2,3,5,0,0
107455,-100,4,2,2,70,0,0
107928,-100,4,2,8,70,0,0
108007,-100,4,2,2,70,0,0
108244,-100,4,2,9,70,0,0
108323,-100,4,2,2,70,0,0
108560,-100,4,2,8,70,0,0
108639,-100,4,2,2,70,0,0
108876,-100,4,2,8,70,0,0
108955,-100,4,2,2,70,0,0
109192,-100,4,2,8,70,0,0
109271,-100,4,2,2,70,0,0
109507,-100,4,2,9,70,0,0
109586,-100,4,2,2,70,0,0
109823,-100,4,2,8,70,0,0
109902,-100,4,2,2,70,0,0
110139,-100,4,2,8,70,0,0
110218,-100,4,2,2,70,0,0
110455,-100,4,2,9,70,0,0
110534,-100,4,2,2,70,0,0
110771,-100,4,2,9,70,0,0
110850,-100,4,2,2,70,0,0
111086,-100,4,2,9,70,0,0
111165,-100,4,2,2,70,0,0
111402,-100,4,2,9,70,0,0
111481,-100,4,2,2,70,0,0
111718,-100,4,2,9,70,0,0
111797,-100,4,2,2,70,0,0
112034,-100,4,2,9,70,0,0
112113,-100,4,2,2,70,0,0
112350,-100,4,2,9,70,0,0
112429,-100,4,2,2,70,0,0
112981,-100,4,2,8,70,0,0
113060,-100,4,2,2,70,0,0
113297,-100,4,2,9,70,0,0
113376,-100,4,2,2,70,0,0
113613,-100,4,2,9,70,0,0
113692,-100,4,2,2,70,0,0
113928,-100,4,2,9,70,0,0
114007,-100,4,2,2,70,0,0
114244,-100,4,2,8,70,0,0
114323,-100,4,2,2,70,0,0
114560,-100,4,2,12,70,0,0
114639,-100,4,2,2,70,0,0
114876,-100,4,2,12,70,0,0
114955,-100,4,2,2,70,0,0
115507,-100,4,2,12,70,0,0
115586,-100,4,2,2,70,0,0
115823,-100,4,2,12,70,0,0
115902,-100,4,2,2,70,0,0
116139,-100,4,2,12,70,0,0
116218,-100,4,2,2,70,0,0
116297,-100,4,2,2,70,0,0
116771,-100,4,2,3,70,0,0
117086,-83.3333333333333,4,2,1,70,0,0
117244,-83.3333333333333,4,2,2,70,0,0
117402,-83.3333333333333,4,2,3,70,0,0
117560,-100,4,2,3,70,0,0
117876,-83.3333333333333,4,2,3,70,0,0
118113,-83.3333333333333,4,2,3,5,0,0
118192,-83.3333333333333,4,2,3,70,0,0
118350,-83.3333333333333,4,2,1,70,0,0
118507,-83.3333333333333,4,2,2,70,0,0
118665,-83.3333333333333,4,2,3,70,0,0
118823,-100,4,2,2,70,0,0
119139,-100,4,2,7,70,0,0
119218,-100,4,2,2,70,0,0
119771,-100,4,2,7,70,0,0
119850,-100,4,2,2,70,0,0
120086,-100,4,2,2,70,0,0
120402,-83.3333333333333,4,2,2,70,0,0
120639,-83.3333333333333,4,2,2,5,0,0
120718,-83.3333333333333,4,2,3,70,0,0
121350,-100,4,2,2,70,0,0
121823,-100,4,2,3,70,0,0
122613,-100,4,2,5,70,0,0
122928,-83.3333333333333,4,2,5,70,0,0
123086,-83.3333333333333,4,2,8,70,0,0
123165,-83.3333333333333,4,2,2,5,0,0
123244,-83.3333333333333,4,2,2,70,0,0
123402,-83.3333333333333,4,2,8,70,0,0
123481,-83.3333333333333,4,2,2,70,0,0
123718,-83.3333333333333,4,2,8,70,0,0
123797,-83.3333333333333,4,2,2,70,0,0
123876,-100,4,2,2,70,0,0
124034,-100,4,2,9,70,0,0
124113,-100,4,2,2,70,0,0
124350,-100,4,2,9,70,0,0
124429,-100,4,2,2,70,0,0
124665,-100,4,2,9,70,0,0
124744,-100,4,2,2,70,0,0
124981,-100,4,2,9,70,0,0
125060,-100,4,2,2,70,0,0
125455,-100,4,2,6,70,0,0
125534,-100,4,2,2,70,0,0
125771,-100,4,2,3,70,0,0
126086,-90.9090909090909,4,2,6,70,0,0
126165,-90.9090909090909,4,2,2,70,0,0
126876,-83.3333333333333,4,2,3,70,0,0
127192,-83.3333333333333,4,2,1,70,0,0
127350,-100,4,2,2,70,0,0
127507,-100,4,2,3,70,0,0
127665,-125,4,2,3,70,0,0
127902,-125,4,2,3,5,0,0
127981,-83.3333333333333,4,2,3,70,0,0
128218,-83.3333333333333,4,2,3,5,0,0
128297,-83.3333333333333,4,2,3,70,0,0
128928,-100,4,2,2,70,0,0
129402,-100,4,2,9,70,0,0
129481,-100,4,2,2,70,0,0
129718,-100,4,2,8,70,0,0
129797,-100,4,2,2,70,0,0
130034,-100,4,2,8,70,0,0
130113,-100,4,2,2,70,0,0
130665,-100,4,2,8,70,0,0
130744,-100,4,2,2,70,0,0
131297,-100,4,2,3,70,0,0
131928,-100,4,2,2,70,0,0
132402,-100,4,2,6,70,0,0
132481,-100,4,2,2,70,0,0
132718,-100,4,2,2,70,0,0
133192,-100,4,2,13,70,0,0
133271,-100,4,2,2,70,0,0
133507,-100,4,2,13,70,0,0
133586,-100,4,2,2,70,0,0
133823,-90.9090909090909,4,2,13,70,0,0
133902,-90.9090909090909,4,2,2,70,0,0
134139,-90.9090909090909,4,2,13,70,0,0
134218,-90.9090909090909,4,2,2,70,0,0
134455,-83.3333333333333,4,2,13,70,0,0
134534,-83.3333333333333,4,2,2,70,0,0
134771,-83.3333333333333,4,2,13,70,0,0
134850,-83.3333333333333,4,2,2,70,0,0
135086,-83.3333333333333,4,2,12,70,0,0
135165,-83.3333333333333,4,2,2,70,0,0
135244,-100,4,2,2,70,0,0
135402,-100,4,2,13,70,0,0
135481,-100,4,2,2,70,0,0
135718,-100,4,2,13,70,0,0
135797,-100,4,2,2,70,0,0
135876,-100,4,2,6,70,0,0
135955,-100,4,2,2,70,0,0
136034,-100,4,2,1,70,0,0
136192,-100,4,2,2,70,0,0
136350,-100,4,2,3,70,0,0
136665,-100,4,2,1,70,0,0
136823,-100,4,2,2,70,0,0
137455,-100,4,2,3,70,0,0
137613,-100,4,2,2,70,0,0
137928,-100,4,2,1,70,0,0
138086,-100,4,2,2,70,0,0
138402,-100,4,2,2,70,0,0
138560,-100,4,2,3,70,0,0
138718,-100,4,2,3,70,0,0
138876,-100,4,2,12,70,0,0
138955,-100,4,2,2,70,0,0
139665,-100,4,2,5,70,0,0
140297,-100,4,2,5,50,0,0
141560,-100,4,2,5,50,0,0
141876,-100,4,2,5,70,0,0
142113,-100,4,2,5,5,0,0
142192,-111.111111111111,4,2,5,70,0,0
142428,-111.111111111111,4,2,5,5,0,0
142507,-125,4,2,5,70,0,0
142744,-125,4,2,5,5,0,0
142823,-90.9090909090909,4,2,1,80,0,1
142902,-90.9090909090909,4,2,2,80,0,1
143139,-90.9090909090909,4,2,6,80,0,1
143218,-90.9090909090909,4,2,2,80,0,1
143454,-90.9090909090909,4,2,6,80,0,1
143533,-90.9090909090909,4,2,2,80,0,1
143770,-90.9090909090909,4,2,6,80,0,1
143849,-90.9090909090909,4,2,2,80,0,1
144086,-90.9090909090909,4,2,6,80,0,1
144165,-90.9090909090909,4,2,2,80,0,1
144402,-90.9090909090909,4,2,6,80,0,1
144481,-90.9090909090909,4,2,2,80,0,1
144718,-90.9090909090909,4,2,6,80,0,1
144797,-90.9090909090909,4,2,2,80,0,1
145033,-90.9090909090909,4,2,6,80,0,1
145112,-90.9090909090909,4,2,2,80,0,1
145349,-90.9090909090909,4,2,6,80,0,1
145428,-90.9090909090909,4,2,2,80,0,1
145665,-90.9090909090909,4,2,6,80,0,1
145744,-90.9090909090909,4,2,2,80,0,1
145981,-90.9090909090909,4,2,6,80,0,1
146060,-90.9090909090909,4,2,2,80,0,1
146297,-90.9090909090909,4,2,6,80,0,1
146376,-90.9090909090909,4,2,2,80,0,1
147086,-76.9230769230769,4,2,12,80,0,1
147165,-76.9230769230769,4,2,2,80,0,1
147323,-76.9230769230769,4,2,2,5,0,1
147402,-76.9230769230769,4,2,3,80,0,1
147876,-90.9090909090909,4,2,2,80,0,1
148191,-90.9090909090909,4,2,6,80,0,1
148270,-90.9090909090909,4,2,2,80,0,1
148507,-90.9090909090909,4,2,6,80,0,1
148586,-90.9090909090909,4,2,2,80,0,1
148823,-90.9090909090909,4,2,6,80,0,1
148902,-90.9090909090909,4,2,2,80,0,1
149139,-90.9090909090909,4,2,6,80,0,1
149218,-90.9090909090909,4,2,2,80,0,1
149454,-90.9090909090909,4,2,6,80,0,1
149533,-90.9090909090909,4,2,2,80,0,1
149770,-90.9090909090909,4,2,6,80,0,1
149849,-90.9090909090909,4,2,2,80,0,1
150086,-90.9090909090909,4,2,6,80,0,1
150165,-90.9090909090909,4,2,2,80,0,1
150718,-90.9090909090909,4,2,6,80,0,1
150797,-90.9090909090909,4,2,2,80,0,1
151033,-90.9090909090909,4,2,6,80,0,1
151112,-90.9090909090909,4,2,2,80,0,1
151349,-90.9090909090909,4,2,6,80,0,1
151428,-90.9090909090909,4,2,2,80,0,1
151981,-90.9090909090909,4,2,3,80,0,1
152297,-90.9090909090909,4,2,3,80,0,0
152455,-90.9090909090909,4,2,1,80,0,0
152613,-90.9090909090909,4,2,2,80,0,0
152771,-90.9090909090909,4,2,3,80,0,0
152928,-90.9090909090909,4,2,2,80,0,1
153402,-90.9090909090909,4,2,13,80,0,1
153481,-90.9090909090909,4,2,2,80,0,1
153718,-90.9090909090909,4,2,12,80,0,1
153797,-90.9090909090909,4,2,2,80,0,1
154033,-90.9090909090909,4,2,13,80,0,1
154112,-90.9090909090909,4,2,2,80,0,1
154349,-90.9090909090909,4,2,13,80,0,1
154428,-90.9090909090909,4,2,2,80,0,1
154665,-90.9090909090909,4,2,13,80,0,1
154744,-90.9090909090909,4,2,2,80,0,1
154981,-90.9090909090909,4,2,12,80,0,1
155060,-90.9090909090909,4,2,2,80,0,1
155297,-90.9090909090909,4,2,12,80,0,1
155376,-90.9090909090909,4,2,2,80,0,1
155612,-90.9090909090909,4,2,12,80,0,1
155691,-90.9090909090909,4,2,2,80,0,1
155928,-90.9090909090909,4,2,13,80,0,1
156007,-90.9090909090909,4,2,2,80,0,1
156244,-90.9090909090909,4,2,13,80,0,1
156323,-90.9090909090909,4,2,2,80,0,1
156560,-90.9090909090909,4,2,13,80,0,1
156639,-90.9090909090909,4,2,2,80,0,1
156718,-76.9230769230769,4,2,2,80,0,1
156875,-76.9230769230769,4,2,12,80,0,1
156955,-76.9230769230769,4,2,2,5,0,1
157034,-76.9230769230769,4,2,2,80,0,1
157191,-76.9230769230769,4,2,12,80,0,1
157271,-76.9230769230769,4,2,2,5,0,1
157350,-76.9230769230769,4,2,2,80,0,1
157507,-76.9230769230769,4,2,12,80,0,1
157586,-76.9230769230769,4,2,2,80,0,1
157823,-76.9230769230769,4,2,13,80,0,1
157902,-76.9230769230769,4,2,2,80,0,1
157981,-90.9090909090909,4,2,2,80,0,1
158454,-90.9090909090909,4,2,13,80,0,1
158533,-90.9090909090909,4,2,2,80,0,1
158770,-90.9090909090909,4,2,12,80,0,1
158849,-90.9090909090909,4,2,2,80,0,1
159086,-90.9090909090909,4,2,13,80,0,1
159165,-90.9090909090909,4,2,2,80,0,1
159402,-90.9090909090909,4,2,13,80,0,1
159481,-90.9090909090909,4,2,2,80,0,1
159718,-90.9090909090909,4,2,13,80,0,1
159797,-90.9090909090909,4,2,2,80,0,1
160349,-90.9090909090909,4,2,12,80,0,1
160428,-90.9090909090909,4,2,2,80,0,1
161139,-90.9090909090909,4,2,3,80,0,1
161771,-90.9090909090909,4,2,5,80,0,1
162086,-90.9090909090909,4,2,2,80,0,1
162560,-90.9090909090909,4,2,1,80,0,1
162718,-90.9090909090909,4,2,2,80,0,1
162876,-90.9090909090909,4,2,3,80,0,1
163034,-166.666666666667,4,2,2,80,0,0
163586,-166.666666666667,4,2,2,5,0,0
163665,-166.666666666667,4,2,3,80,0,0
164218,-166.666666666667,4,2,3,5,0,0
164297,-166.666666666667,4,2,3,60,0,0
164455,-166.666666666667,4,2,3,63,0,0
164613,-166.666666666667,4,2,3,67,0,0
164771,-166.666666666667,4,2,3,70,0,0
164928,-166.666666666667,4,2,3,73,0,0
165086,-166.666666666667,4,2,3,77,0,0
165165,-166.666666666667,4,2,3,78,0,0
165244,-71.4285714285714,4,2,69,100,0,0
165323,-71.4285714285714,4,2,3,80,0,0
165481,-71.4285714285714,4,2,3,5,0,0
165560,-90.9090909090909,4,2,1,75,0,1
165639,-90.9090909090909,4,2,2,75,0,0
166034,-90.9090909090909,4,2,13,75,0,0
166113,-90.9090909090909,4,2,2,75,0,0
166350,-90.9090909090909,4,2,13,75,0,0
166429,-90.9090909090909,4,2,2,75,0,0
166665,-90.9090909090909,4,2,13,75,0,0
166744,-90.9090909090909,4,2,2,75,0,0
166981,-90.9090909090909,4,2,13,75,0,0
167060,-90.9090909090909,4,2,2,75,0,0
167297,-90.9090909090909,4,2,13,75,0,0
167376,-90.9090909090909,4,2,2,75,0,0
167613,-90.9090909090909,4,2,13,75,0,0
167692,-90.9090909090909,4,2,2,75,0,0
167928,-90.9090909090909,4,2,13,75,0,0
168007,-90.9090909090909,4,2,2,75,0,0
168244,-90.9090909090909,4,2,12,75,0,0
168323,-90.9090909090909,4,2,2,75,0,0
168560,-90.9090909090909,4,2,13,75,0,0
168639,-90.9090909090909,4,2,2,75,0,0
168876,-90.9090909090909,4,2,13,75,0,0
168955,-90.9090909090909,4,2,2,75,0,0
169192,-90.9090909090909,4,2,13,75,0,0
169271,-90.9090909090909,4,2,2,75,0,0
169823,-90.9090909090909,4,2,12,75,0,0
169902,-90.9090909090909,4,2,2,75,0,0
170139,-90.9090909090909,4,2,5,75,0,0
170297,-76.9230769230769,4,2,5,75,0,0
170455,-76.9230769230769,4,2,3,75,0,0
170613,-90.9090909090909,4,2,2,75,0,0
171086,-90.9090909090909,4,2,13,75,0,0
171165,-90.9090909090909,4,2,2,75,0,0
171402,-90.9090909090909,4,2,13,75,0,0
171481,-90.9090909090909,4,2,2,75,0,0
171718,-90.9090909090909,4,2,13,75,0,0
171797,-90.9090909090909,4,2,2,75,0,0
172034,-90.9090909090909,4,2,12,75,0,0
172113,-90.9090909090909,4,2,2,75,0,0
172350,-90.9090909090909,4,2,13,75,0,0
172429,-90.9090909090909,4,2,2,75,0,0
172665,-90.9090909090909,4,2,13,75,0,0
172744,-90.9090909090909,4,2,2,75,0,0
172981,-90.9090909090909,4,2,13,75,0,0
173060,-90.9090909090909,4,2,2,75,0,0
173139,-111.111111111111,4,2,3,75,0,0
173455,-76.9230769230769,4,2,6,75,0,0
173534,-76.9230769230769,4,2,2,75,0,0
173771,-111.111111111111,4,2,2,75,0,0
174086,-76.9230769230769,4,2,6,75,0,0
174165,-76.9230769230769,4,2,2,75,0,0
174402,-90.9090909090909,4,2,1,75,0,0
175271,-90.9090909090909,4,2,1,75,0,0
175507,-90.9090909090909,4,2,2,75,0,0
175665,-90.9090909090909,4,2,2,75,0,0
176139,-90.9090909090909,4,2,13,75,0,0
176218,-90.9090909090909,4,2,2,75,0,0
176455,-90.9090909090909,4,2,13,75,0,0
176534,-90.9090909090909,4,2,2,75,0,0
176771,-90.9090909090909,4,2,13,75,0,0
176850,-90.9090909090909,4,2,2,75,0,0
177086,-90.9090909090909,4,2,13,75,0,0
177165,-90.9090909090909,4,2,2,75,0,0
177402,-90.9090909090909,4,2,13,75,0,0
177481,-90.9090909090909,4,2,2,75,0,0
177718,-90.9090909090909,4,2,13,75,0,0
177797,-90.9090909090909,4,2,2,75,0,0
177876,-76.9230769230769,4,2,2,75,0,0
178034,-76.9230769230769,4,2,13,75,0,0
178113,-76.9230769230769,4,2,2,75,0,0
178192,-90.9090909090909,4,2,2,75,0,0
178350,-90.9090909090909,4,2,12,75,0,0
178429,-90.9090909090909,4,2,2,75,0,0
178665,-90.9090909090909,4,2,13,75,0,0
178744,-90.9090909090909,4,2,2,75,0,0
178823,-83.3333333333333,4,2,2,75,0,0
178981,-83.3333333333333,4,2,12,75,0,0
179060,-83.3333333333333,4,2,2,75,0,0
179297,-83.3333333333333,4,2,13,75,0,0
179376,-83.3333333333333,4,2,2,75,0,0
179455,-76.9230769230769,4,2,2,75,0,0
179613,-76.9230769230769,4,2,12,75,0,0
179692,-76.9230769230769,4,2,2,75,0,0
179928,-76.9230769230769,4,2,12,75,0,0
180007,-76.9230769230769,4,2,2,75,0,0
180086,-71.4285714285714,4,2,2,75,0,0
180244,-71.4285714285714,4,2,13,75,0,0
180323,-71.4285714285714,4,2,2,75,0,0
180560,-71.4285714285714,4,2,12,75,0,0
180639,-71.4285714285714,4,2,2,75,0,0
180718,-83.3333333333333,4,2,2,75,0,0
180876,-83.3333333333333,4,2,12,75,0,0
180955,-83.3333333333333,4,2,2,75,0,0
181034,-90.9090909090909,4,2,2,75,0,0
181192,-90.9090909090909,4,2,13,75,0,0
181271,-90.9090909090909,4,2,2,75,0,0
181507,-90.9090909090909,4,2,13,75,0,0
181586,-90.9090909090909,4,2,2,75,0,0
181823,-90.9090909090909,4,2,13,75,0,0
181902,-90.9090909090909,4,2,2,75,0,0
181981,-90.9090909090909,4,2,3,75,0,0
182139,-90.9090909090909,4,2,13,75,0,0
182218,-90.9090909090909,4,2,2,75,0,0
182455,-90.9090909090909,4,2,13,75,0,0
182534,-90.9090909090909,4,2,2,75,0,0
182613,-90.9090909090909,4,2,1,55,0,0
182928,-90.9090909090909,4,2,2,75,0,0
183244,-76.9230769230769,4,2,2,75,0,0
183560,-76.9230769230769,4,2,6,75,0,0
183639,-76.9230769230769,4,2,2,75,0,0
183876,-76.9230769230769,4,2,6,75,0,0
183955,-76.9230769230769,4,2,2,75,0,0
184192,-76.9230769230769,4,2,6,75,0,0
184271,-76.9230769230769,4,2,2,75,0,0
184507,-90.9090909090909,4,2,6,75,0,0
184586,-90.9090909090909,4,2,2,75,0,0
184823,-90.9090909090909,4,2,6,75,0,0
184902,-90.9090909090909,4,2,2,75,0,0
185139,-90.9090909090909,4,2,6,75,0,0
185218,-90.9090909090909,4,2,2,75,0,0
185455,-125,4,2,6,75,0,0
185534,-125,4,2,2,75,0,0
185771,-125,4,2,2,75,0,0
186086,-83.3333333333333,4,2,2,75,0,0
186560,-83.3333333333333,4,2,3,75,0,0
186876,-83.3333333333333,4,2,2,75,0,0
187034,-83.3333333333333,4,2,69,100,0,0
187113,-83.3333333333333,4,2,2,75,0,0
187192,-83.3333333333333,4,2,1,75,0,0
187350,-83.3333333333333,4,2,2,75,0,0
188297,315.789473684211,3,2,2,65,1,0
188297,-166.666666666667,3,2,2,65,0,0
188375,-166.666666666667,3,2,2,65,0,0
188612,-166.666666666667,3,2,10,65,0,0
188691,-166.666666666667,3,2,2,65,0,0
188928,-166.666666666667,3,2,11,65,0,0
189007,-166.666666666667,3,2,2,65,0,0
189244,-166.666666666667,3,2,10,65,0,0
189323,-166.666666666667,3,2,2,65,0,0
189560,-166.666666666667,3,2,10,65,0,0
189639,-166.666666666667,3,2,2,65,0,0
189875,-166.666666666667,3,2,10,65,0,0
189954,-166.666666666667,3,2,2,65,0,0
190191,-166.666666666667,3,2,10,65,0,0
190270,-166.666666666667,3,2,2,65,0,0
190507,-166.666666666667,3,2,10,65,0,0
190586,-166.666666666667,3,2,2,65,0,0
190823,-166.666666666667,3,2,11,65,0,0
190902,-166.666666666667,3,2,2,65,0,0
191139,-166.666666666667,3,2,10,65,0,0
191218,-166.666666666667,3,2,2,65,0,0
191454,-166.666666666667,3,2,10,65,0,0
191533,-166.666666666667,3,2,2,65,0,0
191770,-166.666666666667,3,2,10,65,0,0
191849,-166.666666666667,3,2,2,65,0,0
192402,-166.666666666667,3,2,10,65,0,0
192481,-166.666666666667,3,2,2,65,0,0
192718,-166.666666666667,3,2,11,65,0,0
192797,-166.666666666667,3,2,2,65,0,0
193033,-166.666666666667,3,2,10,65,0,0
193112,-166.666666666667,3,2,2,65,0,0
193349,-166.666666666667,3,2,10,65,0,0
193428,-166.666666666667,3,2,2,65,0,0
193665,-166.666666666667,3,2,10,65,0,0
193744,-166.666666666667,3,2,2,65,0,0
193981,-166.666666666667,3,2,3,65,0,0
194297,-166.666666666667,3,2,10,65,0,0
194376,-166.666666666667,3,2,2,65,0,0
194454,-166.666666666667,3,2,1,65,0,0
195244,-166.666666666667,3,2,2,65,0,0
195402,-166.666666666667,3,2,3,65,0,0
195560,-166.666666666667,3,2,4,65,0,0
195875,-166.666666666667,3,2,2,65,0,0
196191,-166.666666666667,3,2,11,65,0,0
196270,-166.666666666667,3,2,2,65,0,0
196507,-166.666666666667,3,2,11,65,0,0
196586,-166.666666666667,3,2,2,65,0,0
196823,-166.666666666667,3,2,10,65,0,0
196902,-166.666666666667,3,2,2,65,0,0
197139,-166.666666666667,3,2,10,65,0,0
197218,-166.666666666667,3,2,2,65,0,0
197454,-166.666666666667,3,2,10,65,0,0
197533,-166.666666666667,3,2,2,65,0,0
197770,-166.666666666667,3,2,3,65,0,0
198086,-166.666666666667,3,2,10,65,0,0
198165,-166.666666666667,3,2,2,65,0,0
198244,-166.666666666667,3,2,1,65,0,0
198718,-166.666666666667,3,2,3,65,0,0
199349,-100,3,2,3,65,0,0
199507,-100,3,2,3,65,0,0
199665,315.789473684211,4,2,1,70,1,0
199665,-166.666666666667,4,2,1,70,0,0
199743,-166.666666666667,4,2,2,70,0,0
199901,-100,4,2,2,5,0,0
199980,-83.3333333333333,4,2,2,70,0,0
199981,-83.3333333333333,4,2,2,70,0,0
200296,-166.666666666667,4,2,2,70,0,0
200297,-166.666666666667,4,2,2,70,0,0
200533,-166.666666666667,4,2,2,5,0,0
200612,-83.3333333333333,4,2,2,70,0,0
200613,-83.3333333333333,4,2,2,70,0,0
200928,-125,4,2,2,70,0,0
201401,-125,4,2,1,70,0,0
201717,-125,4,2,2,70,0,0
202033,-125,4,2,3,70,0,0
202191,-166.666666666667,4,2,1,70,0,0
202192,-166.666666666667,4,2,1,70,0,0
202428,-166.666666666667,4,2,1,5,0,0
202507,-83.3333333333333,4,2,1,70,0,0
202822,-166.666666666667,4,2,1,70,0,0
202980,-166.666666666667,4,2,2,70,0,0
203059,-166.666666666667,4,2,2,5,0,0
203138,-83.3333333333333,4,2,2,70,0,0
203296,-83.3333333333333,4,2,5,70,0,0
203454,-125,4,2,5,70,0,0
203455,-125,4,2,5,70,0,0
203612,-125,4,2,1,70,0,0
203928,-125,4,2,2,70,0,0
204243,-125,4,2,3,70,0,0
204559,-100,4,2,2,70,0,0
205191,-100,4,2,3,70,0,0
205823,-100,4,2,3,70,0,0
207559,-100,4,2,1,70,0,0
207717,-100,4,2,2,70,0,0
207875,-100,4,2,3,70,0,0
208191,-100,4,2,3,70,0,0
208349,-100,4,2,12,70,0,0
208428,-100,4,2,2,70,0,0
209138,-100,4,2,1,70,0,0
209454,-100,4,2,5,70,0,0
209770,-125,4,2,5,55,0,0
209771,-125,4,2,5,55,0,0
211033,-83.3333333333333,4,2,5,65,0,0
211980,-66.6666666666667,4,2,69,100,0,0
212059,-66.6666666666667,4,2,5,65,0,0
212217,-66.6666666666667,4,2,5,5,0,0
212296,-66.6666666666667,4,2,5,50,0,0
224296,-125,4,2,5,70,0,0
224928,-90.9090909090909,4,2,1,80,0,1
225007,-90.9090909090909,4,2,2,80,0,1
225243,-90.9090909090909,4,2,6,80,0,1
225322,-90.9090909090909,4,2,2,80,0,1
225559,-90.9090909090909,4,2,6,80,0,1
225638,-90.9090909090909,4,2,2,80,0,1
225875,-90.9090909090909,4,2,6,80,0,1
225954,-90.9090909090909,4,2,2,80,0,1
226191,-90.9090909090909,4,2,6,80,0,1
226270,-90.9090909090909,4,2,2,80,0,1
226507,-90.9090909090909,4,2,6,80,0,1
226586,-90.9090909090909,4,2,2,80,0,1
226822,-90.9090909090909,4,2,6,80,0,1
226901,-90.9090909090909,4,2,2,80,0,1
227138,-90.9090909090909,4,2,6,80,0,1
227217,-90.9090909090909,4,2,2,80,0,1
227454,-90.9090909090909,4,2,6,80,0,1
227533,-90.9090909090909,4,2,2,80,0,1
227770,-90.9090909090909,4,2,6,80,0,1
227849,-90.9090909090909,4,2,2,80,0,1
228086,-90.9090909090909,4,2,6,80,0,1
228165,-90.9090909090909,4,2,2,80,0,1
228401,-90.9090909090909,4,2,6,80,0,1
228480,-90.9090909090909,4,2,2,80,0,1
229191,-76.9230769230769,4,2,12,80,0,1
229270,-76.9230769230769,4,2,2,80,0,1
229507,-76.9230769230769,4,2,5,80,0,1
229980,-90.9090909090909,4,2,2,80,0,1
230296,-90.9090909090909,4,2,6,80,0,1
230375,-90.9090909090909,4,2,2,80,0,1
230612,-90.9090909090909,4,2,6,80,0,1
230691,-90.9090909090909,4,2,2,80,0,1
230928,-90.9090909090909,4,2,6,80,0,1
231007,-90.9090909090909,4,2,2,80,0,1
231243,-90.9090909090909,4,2,6,80,0,1
231322,-90.9090909090909,4,2,2,80,0,1
231559,-90.9090909090909,4,2,6,80,0,1
231638,-90.9090909090909,4,2,2,80,0,1
231875,-90.9090909090909,4,2,6,80,0,1
231954,-90.9090909090909,4,2,2,80,0,1
232033,-90.9090909090909,4,2,2,80,0,1
232191,-90.9090909090909,4,2,2,80,0,1
232349,-90.9090909090909,4,2,3,80,0,1
232507,-90.9090909090909,4,2,2,80,0,1
232822,-90.9090909090909,4,2,6,80,0,1
232901,-90.9090909090909,4,2,2,80,0,1
233138,-90.9090909090909,4,2,6,80,0,1
233217,-90.9090909090909,4,2,2,80,0,1
233454,-90.9090909090909,4,2,6,80,0,1
233533,-90.9090909090909,4,2,2,80,0,1
234086,-90.9090909090909,4,2,2,80,0,1
234401,-90.9090909090909,4,2,2,80,0,0
234559,-90.9090909090909,4,2,1,65,0,0
234717,-90.9090909090909,4,2,2,80,0,0
234876,-90.9090909090909,4,2,3,80,0,0
235033,-90.9090909090909,4,2,2,80,0,1
235507,-90.9090909090909,4,2,13,80,0,1
235586,-90.9090909090909,4,2,2,80,0,1
235823,-90.9090909090909,4,2,12,80,0,1
235902,-90.9090909090909,4,2,2,80,0,1
236138,-90.9090909090909,4,2,13,80,0,1
236217,-90.9090909090909,4,2,2,80,0,1
236454,-90.9090909090909,4,2,13,80,0,1
236533,-90.9090909090909,4,2,2,80,0,1
236770,-90.9090909090909,4,2,13,80,0,1
236849,-90.9090909090909,4,2,2,80,0,1
237086,-90.9090909090909,4,2,12,80,0,1
237165,-90.9090909090909,4,2,2,80,0,1
237402,-90.9090909090909,4,2,12,80,0,1
237481,-90.9090909090909,4,2,2,80,0,1
237717,-90.9090909090909,4,2,12,80,0,1
237796,-90.9090909090909,4,2,2,80,0,1
238033,-90.9090909090909,4,2,13,80,0,1
238112,-90.9090909090909,4,2,2,80,0,1
238349,-90.9090909090909,4,2,13,80,0,1
238428,-90.9090909090909,4,2,2,80,0,1
238665,-90.9090909090909,4,2,13,80,0,1
238744,-90.9090909090909,4,2,2,80,0,1
238822,-76.9230769230769,4,2,2,80,0,1
238980,-76.9230769230769,4,2,12,80,0,1
239059,-76.9230769230769,4,2,2,5,0,1
239138,-76.9230769230769,4,2,2,80,0,1
239296,-76.9230769230769,4,2,12,80,0,1
239375,-76.9230769230769,4,2,2,5,0,1
239454,-76.9230769230769,4,2,2,80,0,1
239928,-76.9230769230769,4,2,2,80,0,1
240086,-90.9090909090909,4,2,2,80,0,1
240559,-90.9090909090909,4,2,13,80,0,1
240638,-90.9090909090909,4,2,2,80,0,1
240875,-90.9090909090909,4,2,12,80,0,1
240954,-90.9090909090909,4,2,2,80,0,1
241191,-90.9090909090909,4,2,13,80,0,1
241270,-90.9090909090909,4,2,2,80,0,1
241507,-90.9090909090909,4,2,13,80,0,1
241586,-90.9090909090909,4,2,2,80,0,1
241823,-90.9090909090909,4,2,13,80,0,1
241902,-90.9090909090909,4,2,2,80,0,1
242454,-90.9090909090909,4,2,3,80,0,1
242612,-90.9090909090909,4,2,2,80,0,1
242928,-90.9090909090909,4,2,6,80,0,1
243007,-90.9090909090909,4,2,2,80,0,1
243244,-90.9090909090909,4,2,3,80,0,1
243559,-90.9090909090909,4,2,6,80,0,1
243638,-90.9090909090909,4,2,2,80,0,1
244349,-90.9090909090909,4,2,3,80,0,1
244665,-90.9090909090909,4,2,2,80,0,1
244980,-90.9090909090909,4,2,3,80,0,1
245138,-90.9090909090909,4,2,5,80,0,1
245454,-90.9090909090909,4,2,6,80,0,1
245533,-90.9090909090909,4,2,2,80,0,1
245770,-90.9090909090909,4,2,3,80,0,1
246086,-90.9090909090909,4,2,6,80,0,1
246165,-90.9090909090909,4,2,2,80,0,1
246875,-90.9090909090909,4,2,3,80,0,1
247665,-90.9090909090909,4,2,3,60,0,0
248296,-166.666666666667,4,2,3,60,0,0
248612,-166.666666666667,4,2,3,60,0,0
251454,-100,4,2,1,75,0,1
251533,-100,4,2,2,75,0,0
251928,-100,4,2,13,75,0,0
252007,-100,4,2,2,75,0,0
252243,-100,4,2,13,75,0,0
252322,-100,4,2,2,75,0,0
252559,-100,4,2,13,75,0,0
252638,-100,4,2,2,75,0,0
252875,-100,4,2,13,75,0,0
252954,-100,4,2,2,75,0,0
253191,-100,4,2,13,75,0,0
253270,-100,4,2,2,75,0,0
253507,-100,4,2,13,75,0,0
253586,-100,4,2,2,75,0,0
253822,-100,4,2,13,75,0,0
253901,-100,4,2,2,75,0,0
254138,-100,4,2,12,75,0,0
254217,-100,4,2,2,75,0,0
254454,-100,4,2,13,75,0,0
254533,-100,4,2,2,75,0,0
254770,-100,4,2,13,75,0,0
254849,-100,4,2,2,75,0,0
255086,-100,4,2,13,75,0,0
255165,-100,4,2,2,75,0,0
255401,-100,4,2,13,75,0,0
255480,-100,4,2,2,75,0,0
255717,-100,4,2,13,75,0,0
255796,-100,4,2,2,75,0,0
256033,-100,4,2,13,75,0,0
256112,-100,4,2,2,75,0,0
256349,-100,4,2,13,75,0,0
256428,-100,4,2,2,75,0,0
256980,-100,4,2,13,75,0,0
257059,-100,4,2,2,75,0,0
257296,-100,4,2,13,75,0,0
257375,-100,4,2,2,75,0,0
257612,-100,4,2,13,75,0,0
257691,-100,4,2,2,75,0,0
257928,-100,4,2,13,75,0,0
258007,-100,4,2,2,75,0,0
258243,-100,4,2,13,75,0,0
258322,-100,4,2,2,75,0,0
258401,-100,4,2,1,75,0,0
259033,-83.3333333333333,4,2,2,75,0,0
259270,-83.3333333333333,4,2,2,5,0,0
259349,-83.3333333333333,4,2,12,75,0,0
259428,-83.3333333333333,4,2,2,75,0,0
259586,-83.3333333333333,4,2,2,5,0,0
259665,-83.3333333333333,4,2,12,75,0,0
259743,-83.3333333333333,4,2,2,75,0,0
259901,-83.3333333333333,4,2,2,5,0,0
259980,-83.3333333333333,4,2,12,75,0,0
260059,-83.3333333333333,4,2,2,75,0,0
260217,-83.3333333333333,4,2,2,5,0,0
260296,-83.3333333333333,4,2,2,75,0,0
260533,-83.3333333333333,4,2,2,5,0,0
260612,-83.3333333333333,4,2,12,75,0,0
260691,-83.3333333333333,4,2,2,75,0,0
261086,-83.3333333333333,4,2,2,65,0,0
261243,-83.3333333333333,4,2,2,75,0,0
261559,-100,4,2,2,75,0,0
262033,-100,4,2,13,75,0,0
262112,-100,4,2,2,75,0,0
262349,-100,4,2,13,75,0,0
262428,-100,4,2,2,75,0,0
262664,-100,4,2,13,75,0,0
262743,-100,4,2,2,75,0,0
262980,-100,4,2,13,75,0,0
263059,-100,4,2,2,75,0,0
263296,-100,4,2,13,75,0,0
263375,-100,4,2,2,75,0,0
263612,-100,4,2,13,75,0,0
263691,-100,4,2,2,75,0,0
263928,-100,4,2,13,75,0,0
264007,-100,4,2,2,75,0,0
264243,-100,4,2,12,75,0,0
264322,-100,4,2,2,75,0,0
264559,-100,4,2,13,75,0,0
264638,-100,4,2,2,75,0,0
264875,-100,4,2,13,75,0,0
264954,-100,4,2,2,75,0,0
265191,-100,4,2,13,75,0,0
265270,-100,4,2,2,75,0,0
265507,-100,4,2,13,75,0,0
265586,-100,4,2,2,75,0,0
265822,-100,4,2,13,75,0,0
265901,-100,4,2,2,75,0,0
266138,-100,4,2,13,75,0,0
266217,-100,4,2,2,75,0,0
266454,-100,4,2,13,75,0,0
266533,-100,4,2,2,75,0,0
267086,-100,4,2,12,75,0,0
267165,-100,4,2,2,75,0,0
267401,-100,4,2,12,75,0,0
267480,-100,4,2,2,75,0,0
268112,-100,4,2,1,75,0,0
268349,-100,4,2,1,75,0,0
268507,-100,4,2,2,75,0,0
268665,-100,4,2,3,75,0,0
269296,-100,4,2,3,55,0,0
270559,-100,4,2,4,75,0,0
271033,-100,4,2,5,75,0,0
271665,-100,4,2,5,75,0,0
272928,-100,4,2,5,65,0,0
274191,-100,4,2,5,55,0,0
275454,-100,4,2,5,45,0,0
276717,-100,4,2,5,35,0,0
277033,-100,4,2,5,5,0,0

[Colours]
Combo1 : 164,72,255
Combo2 : 255,79,79
Combo3 : 255,159,64
Combo4 : 255,130,255

[HitObjects]
116,289,1350,6,0,P|200:279|255:343,1,176.000005371094,14|10,0:1|0:2,0:0:0:0:
395,290,1823,2,0,P|310:280|255:344,1,176.000005371094,10|10,0:2|0:2,0:0:0:0:
255,344,2455,1,10,0:2:0:0:
394,121,2613,6,0,P|416:205|395:290,1,176.000005371094,14|10,0:1|0:2,0:0:0:0:
117,121,3086,2,0,P|95:205|117:290,1,176.000005371094,10|10,0:2|0:2,0:0:0:0:
117,290,3718,1,10,0:2:0:0:
215,93,3876,6,0,P|127:92|43:66,1,176.000005371094,14|10,0:1|0:2,0:0:0:0:
305,193,4350,2,0,P|392:193|476:219,2,176.000005371094,10|10|10,0:2|0:2|0:2,0:0:0:0:
305,193,5455,2,0,P|321:233|316:276,1,88.000002685547,14|0,0:2|0:0,0:0:0:0:
209,133,5771,2,0,P|279:84|363:101,1,176.000005371094,14|8,0:2|0:3,0:0:0:0:
212,244,6244,1,8,0:3:0:0:
212,244,6402,6,0,P|125:246|46:208,1,176.000005371094,14|10,0:1|0:2,0:0:0:0:
300,322,6876,2,0,P|387:324|466:286,1,176.000005371094,10|10,0:2|0:2,0:0:0:0:
465,286,7507,1,10,0:2:0:0:
374,103,7665,6,0,P|364:190|377:276,1,176.000005371094,14|10,0:1|0:2,0:0:0:0:
137,210,8139,2,0,P|146:122|133:36,1,176.000005371094,10|10,0:2|0:2,0:0:0:0:
133,36,8771,1,10,0:2:0:0:
271,97,8928,6,0,B|335:108|335:108|386:68,1,128,14|8,0:1|0:2,0:0:0:0:
292,187,9560,2,0,B|356:198|356:198|407:158,1,128,14|8,0:1|0:2,0:0:0:0:
304,277,10192,6,0,L|383:289,1,80,14|0,0:2|0:0,0:0:0:0:
209,347,10507,2,0,L|120:360,1,88.000002685547,14|0,0:2|0:0,0:0:0:0:
41,129,10823,2,0,L|145:143,1,95.9999970703126,8|8,0:3|0:2,0:0:0:0:
373,250,11139,2,0,L|270:266,1,103.999995239258,8|8,0:2|0:2,0:0:0:0:
264,18,12718,6,0,P|254:97|245:176,1,160,14|8,0:1|0:2,0:0:0:0:
76,137,13192,1,2,0:2:0:0:
76,137,13271,1,2,0:2:0:0:
76,137,13350,2,0,P|109:116|151:110,1,80,10|2,0:1|0:2,0:0:0:0:
251,270,13665,2,0,P|211:263|177:242,1,80,10|2,0:2|0:2,0:0:0:0:
337,141,13981,5,10,0:1:0:0:
396,323,14139,1,2,0:2:0:0:
346,173,14297,5,10,0:2:0:0:
295,341,14455,1,2,0:2:0:0:
214,243,14613,5,10,0:1:0:0:
366,192,14771,1,2,0:2:0:0:
231,226,14928,5,10,0:2:0:0:
363,281,15086,1,2,0:2:0:0:
418,112,15244,6,0,P|340:100|278:147,1,160,10|8,0:1|0:2,0:0:0:0:
166,17,15718,1,2,0:2:0:0:
166,17,15797,1,2,0:2:0:0:
166,17,15876,2,0,P|178:54|183:94,1,80,10|2,0:1|0:2,0:0:0:0:
69,225,16192,2,0,P|74:185|86:147,1,80,10|2,0:2|0:2,0:0:0:0:
212,289,16507,5,10,0:1:0:0:
29,350,16665,1,2,0:2:0:0:
197,262,16823,5,10,0:2:0:0:
31,203,16981,1,2,0:2:0:0:
132,334,17139,5,10,0:1:0:0:
166,177,17297,1,2,0:2:0:0:
145,353,17455,5,10,0:2:0:0:
80,223,17613,1,2,0:2:0:0:
269,314,17771,6,0,L|428:296,1,160,14|8,0:1|0:2,0:0:0:0:
489,201,18244,1,2,0:2:0:0:
489,201,18323,1,2,0:2:0:0:
488,201,18402,2,0,P|448:196|411:180,1,80,10|2,0:1|0:2,0:0:0:0:
482,26,18718,2,0,P|476:65|469:105,1,80,10|2,0:2|0:2,0:0:0:0:
298,227,19034,5,10,0:1:0:0:
379,52,19192,1,2,0:2:0:0:
246,83,19350,5,10,0:2:0:0:
327,238,19507,1,2,0:2:0:0:
373,88,19665,5,10,0:3:0:0:
200,167,19823,2,0,L|160:160,2,40,10|8|10,0:2|0:2|0:2,0:0:0:0:
354,279,20139,1,10,0:2:0:0:
354,279,20218,1,8,0:2:0:0:
354,278,20297,6,0,L|254:296,1,95.9999970703126,14|0,0:1|0:0,0:0:0:0:
352,114,20613,2,0,L|452:132,1,95.9999970703126,10|0,0:2|0:0,0:0:0:0:
251,162,20928,2,0,P|237:116|242:69,1,95.9999970703126,10|0,0:2|0:0,0:0:0:0:
448,239,21244,2,0,P|453:286|439:331,1,95.9999970703126,10|0,0:2|0:0,0:0:0:0:
251,161,21560,6,0,P|292:138|339:134,1,95.9999970703126,14|0,0:2|0:0,0:0:0:0:
163,295,21876,2,0,P|115:291|74:267,1,95.9999970703126,10|0,0:2|0:2,0:0:0:0:
172,15,22192,2,0,B|184:105|132:111|146:202,1,191.999994140625,10|0,0:3|0:2,0:0:0:0:
338,352,22665,1,8,0:2:0:0:
338,352,22744,1,8,0:2:0:0:
338,351,22823,6,0,P|353:272|336:194,1,160,14|8,0:1|0:2,0:0:0:0:
178,231,23297,1,2,0:2:0:0:
178,231,23376,1,2,0:2:0:0:
178,231,23455,2,0,P|208:256|246:267,1,80,10|2,0:1|0:2,0:0:0:0:
347,120,23771,1,8,0:2:0:0:
273,272,23928,6,0,P|193:275|116:300,1,160,2|2,0:2|0:2,0:0:0:0:
18,105,24402,1,10,0:2:0:0:
193,183,24560,1,2,0:2:0:0:
15,264,24718,5,10,0:1:0:0:
48,89,24876,1,2,0:2:0:0:
47,253,25034,5,10,0:2:0:0:
73,110,25192,1,2,0:2:0:0:
162,270,25350,6,0,P|239:261|285:194,1,160,10|8,0:1|0:2,0:0:0:0:
157,94,25823,1,2,0:2:0:0:
157,94,25902,1,2,0:2:0:0:
157,94,25981,2,0,P|165:134|189:168,1,80,10|2,0:1|0:2,0:0:0:0:
303,57,26297,1,8,0:2:0:0:
206,178,26455,6,0,L|220:-1,1,160,2|2,0:2|0:2,0:0:0:0:
435,56,26928,1,10,0:2:0:0:
249,101,27086,1,2,0:2:0:0:
436,222,27244,5,10,0:1:0:0:
403,47,27402,1,2,0:2:0:0:
404,211,27560,5,10,0:2:0:0:
378,68,27718,1,2,0:2:0:0:
308,221,27876,6,0,P|345:234|385:234,1,80,14|8,0:1|0:2,0:0:0:0:
263,127,28192,1,10,0:2:0:0:
240,307,28350,2,0,P|202:320|162:320,1,80,10|8,0:3|0:3,0:0:0:0:
101,157,28665,2,0,P|140:159|176:176,1,80,10|8,0:3|0:3,0:0:0:0:
22,369,28981,6,0,P|14:289|6:209,1,160,14|10,0:1|0:2,0:0:0:0:
187,27,29455,1,10,0:2:0:0:
115,248,29613,1,10,0:2:0:0:
51,71,29771,5,14,0:2:0:0:
302,106,29928,1,10,0:2:0:0:
302,106,30007,1,10,0:2:0:0:
302,106,30086,1,10,0:2:0:0:
96,234,30244,1,10,0:3:0:0:
322,17,30402,5,14,0:1:0:0:
354,90,30718,1,10,0:1:0:0:
429,115,31034,1,8,0:1:0:0:
503,86,31350,1,8,0:1:0:0:
444,318,31665,5,10,0:1:0:0:
370,348,31981,1,8,0:1:0:0:
338,274,32297,1,8,0:1:0:0:
412,244,32613,1,8,0:1:0:0:
197,338,32928,5,8,0:1:0:0:
121,364,33244,1,10,0:1:0:0:
79,295,33560,1,8,0:1:0:0:
0,310,33876,1,8,0:1:0:0:
77,77,34192,6,0,P|106:64|138:61,2,64,10|10|10,0:1|0:3|0:1,0:0:0:0:
27,176,34665,1,2,0:2:0:0:
130,150,34823,2,0,P|161:152|192:167,1,64,8|8,0:1|0:3,0:0:0:0:
219,183,35060,1,8,0:3:0:0:
219,183,35139,2,0,L|225:119,1,64,10|8,0:1|0:3,0:0:0:0:
377,7,35455,6,0,L|365:134,1,128,14|8,0:1|0:1,0:0:0:0:
446,187,35928,1,2,0:3:0:0:
510,122,36086,2,0,P|483:104|450:96,1,64,8|2,0:1|0:2,0:0:0:0:
354,222,36402,2,0,P|385:220|414:207,1,64,10|0,0:1|0:0,0:0:0:0:
450,190,36639,1,0,0:0:0:0:
450,190,36718,6,0,L|445:253,2,64,10|2|8,0:1|0:3|0:1,0:0:0:0:
367,306,37192,1,2,0:3:0:0:
450,349,37350,2,0,P|480:341|512:338,1,64,8|2,0:1|0:2,0:0:0:0:
360,287,37665,2,0,P|328:284|297:276,1,64,10|0,0:1|0:0,0:0:0:0:
98,244,37981,6,0,P|160:253|198:303,1,128,14|10,0:1|0:1,0:0:0:0:
114,331,38455,1,8,0:3:0:0:
5,226,38613,2,0,L|16:289,1,64,10|10,0:1|0:3,0:0:0:0:
129,154,38928,2,0,L|117:216,1,64,10|10,0:1|0:3,0:0:0:0:
52,90,39244,5,14,0:1:0:0:
125,238,39402,1,2,0:0:0:0:
145,56,39560,1,2,0:2:0:0:
43,185,39718,1,2,0:2:0:0:
229,104,39876,2,0,L|243:9,1,96,8|8,0:3|0:2,0:0:0:0:
242,9,40192,6,0,L|261:163,1,155.999992858887,10|0,0:2|0:2,0:0:0:0:
309,259,40507,6,0,P|271:246|227:245,1,80,14|0,0:1|0:0,0:0:0:0:
412,332,40823,2,0,P|451:329|489:317,1,80,10|2,0:2|0:3,0:0:0:0:
334,247,41139,1,8,0:1:0:0:
334,247,41297,1,2,0:2:0:0:
436,159,41455,2,0,L|430:242,1,80,8|2,0:2|0:3,0:0:0:0:
303,349,41771,6,0,P|220:348|156:301,1,160,10|8,0:1|0:2,0:0:0:0:
144,141,42244,1,2,0:3:0:0:
239,174,42402,2,0,P|253:211|254:251,1,80,10|2,0:1|0:2,0:0:0:0:
127,129,42718,2,0,P|127:89|141:51,1,80,10|2,0:2|0:3,0:0:0:0:
153,223,43034,6,0,P|114:226|75:236,1,80,10|2,0:1|0:3,0:0:0:0:
220,130,43350,1,10,0:2:0:0:
252,293,43507,2,0,P|331:293|408:315,1,160,2|2,0:2|0:2,0:0:0:0:
507,255,43981,1,10,0:2:0:0:
433,140,44139,6,0,P|427:179|422:219,1,80,2|8,0:2|0:1,0:0:0:0:
347,88,44455,2,0,P|351:48|355:8,1,80,2|8,0:2|0:2,0:0:0:0:
259,168,44771,2,0,P|298:170|336:182,1,80,2|8,0:2|0:1,0:0:0:0:
196,101,45086,1,2,0:2:0:0:
138,234,45244,2,0,P|99:236|62:221,1,80,10|2,0:2|0:3,0:0:0:0:
106,68,45560,6,0,P|112:107|116:147,1,80,8|2,0:1|0:3,0:0:0:0:
234,279,45876,2,0,P|238:239|244:199,1,80,10|2,0:2|0:3,0:0:0:0:
160,357,46192,1,10,0:1:0:0:
329,286,46350,2,0,P|369:291|404:310,1,80,2|8,0:3|0:2,0:0:0:0:
134,347,46665,6,0,P|128:307|123:267,1,80,2|8,0:2|0:1,0:0:0:0:
312,297,46981,1,2,0:2:0:0:
242,149,47139,2,0,P|237:189|232:229,1,80,10|2,0:2|0:3,0:0:0:0:
65,191,47455,2,0,P|102:177|142:175,1,80,10|2,0:1|0:3,0:0:0:0:
115,49,47771,2,0,P|77:62|37:64,1,80,10|2,0:2|0:3,0:0:0:0:
226,210,48086,6,0,P|233:130|240:50,1,160,14|8,0:1|0:2,0:0:0:0:
361,147,48560,1,2,0:3:0:0:
414,25,48718,2,0,P|375:29|339:47,1,80,8|2,0:1|0:3,0:0:0:0:
462,161,49034,2,0,P|479:125|479:85,1,80,8|2,0:2|0:3,0:0:0:0:
288,300,49350,5,14,0:1:0:0:
477,207,49507,1,10,0:1:0:0:
275,158,49665,1,10,0:2:0:0:
386,310,49823,2,0,P|379:230|372:150,1,160,14|8,0:1|0:3,0:0:0:0:
488,349,50297,1,8,0:3:0:0:
274,72,50613,5,8,0:2:0:0:
274,72,50928,2,0,P|200:66|154:122,1,143.999995605469,10|0,0:2|0:0,0:0:0:0:
235,139,51244,2,0,P|161:133|115:189,1,143.999995605469,10|8,0:2|0:2,0:0:0:0:
195,209,51560,2,0,P|241:220|285:203,1,95.9999970703126,8|8,0:2|0:3,0:0:0:0:
445,32,51876,5,14,0:1:0:0:
504,137,52034,1,2,0:2:0:0:
474,44,52192,1,2,0:2:0:0:
418,177,52350,1,10,0:1:0:0:
284,107,52507,2,0,L|402:90,1,120,8|0,0:2|0:0,0:0:0:0:
470,128,52823,2,0,L|390:116,1,80,2|0,0:2|0:0,0:0:0:0:
168,230,53139,1,8,0:1:0:0:
168,230,53455,6,0,P|238:239|281:300,1,143.999995605469,10|0,0:1|0:0,0:0:0:0:
199,310,53771,2,0,P|151:310|112:336,1,95.9999970703126,14|8,0:2|0:2,0:0:0:0:
89,361,54007,1,8,0:2:0:0:
89,361,54086,2,0,P|81:313|74:266,1,95.9999970703126,8|8,0:2|0:3,0:0:0:0:
109,74,54402,5,14,0:1:0:0:
4,218,54560,1,8,0:1:0:0:
33,25,54718,1,10,0:2:0:0:
198,110,54876,2,0,P|118:117|44:145,1,160,14|8,0:1|0:2,0:0:0:0:
44,145,55271,1,8,0:2:0:0:
44,145,55350,1,8,0:2:0:0:
210,212,55507,1,8,0:3:0:0:
240,24,55665,5,14,0:1:0:0:
240,23,55981,2,0,L|259:176,1,143.999995605469,10|0,0:2|0:0,0:0:0:0:
315,218,56297,2,0,P|383:210|415:149,1,143.999995605469,10|0,0:1|0:0,0:0:0:0:
324,48,56613,2,0,L|337:147,1,95.9999970703126,8|2,0:2|0:3,0:0:0:0:
492,249,56928,5,10,0:1:0:0:
415,106,57086,1,2,0:2:0:0:
402,284,57244,1,10,0:2:0:0:
503,151,57402,1,2,0:2:0:0:
319,243,57560,2,0,L|309:163,1,80,8|2,0:1|0:2,0:0:0:0:
494,269,57876,2,0,L|484:349,1,80,10|2,0:2|0:2,0:0:0:0:
300,270,58192,5,14,0:1:0:0:
423,176,58350,1,8,0:1:0:0:
327,357,58507,2,0,P|247:345|205:276,1,160,8|14,0:2|0:1,0:0:0:0:
412,141,58981,5,8,0:1:0:0:
346,340,59139,2,0,P|261:334|215:263,1,176.000005371094,8|14,0:2|0:1,0:0:0:0:
400,106,59613,5,8,0:1:0:0:
312,252,59771,1,8,0:2:0:0:
350,19,59928,2,0,P|442:18|500:91,1,191.999994140625,14|8,0:1|0:3,0:0:0:0:
327,230,60402,2,0,L|321:188,3,40,8|8|8|8,0:3|0:3|0:3|0:3,0:0:0:0:
308,163,60718,6,0,L|298:262,1,96,2|0,0:2|0:0,0:0:0:0:
359,323,61034,6,0,P|291:299|220:299,1,143.999995605469,10|0,0:2|0:0,0:0:0:0:
134,369,61350,2,0,P|180:360|213:326,1,95.9999970703126,14|8,0:2|0:2,0:0:0:0:
141,283,61586,1,8,0:2:0:0:
141,283,61665,2,0,P|94:274|61:240,1,95.9999970703126,8|8,0:2|0:3,0:0:0:0:
72,48,61981,5,14,0:1:0:0:
140,199,62139,1,2,0:2:0:0:
179,30,62297,1,10,0:2:0:0:
52,154,62455,1,2,0:2:0:0:
231,245,62613,2,0,L|246:125,1,120,8|0,0:1|0:0,0:0:0:0:
268,38,62928,2,0,L|278:120,1,80,10|2,0:2|0:3,0:0:0:0:
490,97,63244,6,0,P|450:89|411:81,1,80,10|2,0:1|0:3,0:0:0:0:
253,228,63560,2,0,P|292:220|331:212,1,80,10|2,0:2|0:3,0:0:0:0:
440,286,63876,1,10,0:1:0:0:
392,106,64034,1,10,0:1:0:0:
323,306,64192,1,10,0:2:0:0:
508,214,64350,6,0,P|429:200|350:186,1,160,14|10,0:1|0:1,0:0:0:0:
236,117,64823,1,10,0:2:0:0:
200,319,64981,2,0,P|277:323|334:270,1,160,14|8,0:1|0:1,0:0:0:0:
255,154,65455,2,0,P|251:193|246:233,1,80,8|0,0:2|0:0,0:0:0:0:
31,294,65771,5,14,0:1:0:0:
111,169,65928,1,2,0:2:0:0:
125,319,66086,1,10,0:2:0:0:
27,205,66244,2,0,P|105:201|171:244,1,160,2|2,0:2|0:2,0:0:0:0:
128,354,66718,5,10,0:2:0:0:
6,190,66876,2,0,P|89:169|168:205,1,176.000005371094,2|2,0:2|0:2,0:0:0:0:
333,311,67350,5,10,0:2:0:0:
254,65,67507,2,0,B|233:157|282:161|257:254,1,191.999994140625,2|2,0:2|0:2,0:0:0:0:
350,104,67981,1,10,0:2:0:0:
126,332,68297,6,0,P|84:330|48:312,1,80,14|2,0:1|0:2,0:0:0:0:
193,190,68613,1,10,0:2:0:0:
217,347,68771,1,2,0:2:0:0:
109,238,68928,1,10,0:3:0:0:
293,293,69086,2,0,L|333:287,2,40,10|10|10,0:2|0:2|0:2,0:0:0:0:
119,198,69402,6,0,P|198:199|270:166,1,160,14|10,0:1|0:1,0:0:0:0:
423,49,69876,1,14,0:2:0:0:
375,209,70034,1,8,0:3:0:0:
375,209,70113,1,8,0:3:0:0:
375,209,70192,2,0,P|368:169|362:130,1,80,8|8,0:3|0:3,0:0:0:0:
491,255,70507,1,8,0:3:0:0:
314,352,70665,6,0,P|234:341|155:332,1,160,14|10,0:1|0:2,0:0:0:0:
100,158,71139,1,10,0:2:0:0:
252,230,71297,1,10,0:2:0:0:
128,298,71455,1,10,0:2:0:0:
216,121,71613,1,10,0:2:0:0:
302,314,71771,1,10,0:2:0:0:
13,179,71928,1,10,0:2:0:0:
435,49,72244,5,10,0:2:0:0:
100,158,72402,1,10,0:2:0:0:
487,273,72718,5,14,0:2:0:0:
487,273,74613,6,0,P|411:224|419:341,1,263.99999194336,2|0,0:2|0:0,0:0:0:0:
437,354,75560,6,0,P|366:324|286:327,1,155.999992858887,10|0,0:2|0:0,0:0:0:0:
175,367,75876,6,0,L|188:279,1,88.000002685547,14|0,0:1|0:0,0:0:0:0:
3,141,76192,2,0,L|16:229,1,88.000002685547,10|0,0:2|0:0,0:0:0:0:
218,134,76507,1,10,0:1:0:0:
98,297,76665,1,0,0:0:0:0:
98,297,76744,1,2,0:2:0:0:
98,297,76823,1,10,0:2:0:0:
114,91,76981,1,2,0:2:0:0:
231,248,77139,6,0,P|274:244|313:224,1,88.000002685547,10|2,0:1|0:2,0:0:0:0:
454,350,77455,2,0,P|410:346|371:326,1,88.000002685547,10|2,0:2|0:2,0:0:0:0:
362,90,77771,5,10,0:1:0:0:
429,260,77928,1,0,0:0:0:0:
491,50,78086,1,8,0:2:0:0:
446,239,78244,1,2,0:2:0:0:
282,101,78402,6,0,P|325:103|364:123,1,88.000002685547,8|2,0:1|0:2,0:0:0:0:
155,169,78718,2,0,P|146:124|138:82,1,88.000002685547,10|2,0:2|0:2,0:0:0:0:
330,2,79034,1,10,0:1:0:0:
296,205,79192,1,2,0:2:0:0:
296,205,79271,1,0,0:0:0:0:
296,205,79350,1,10,0:2:0:0:
160,65,79507,1,2,0:2:0:0:
403,210,79665,6,0,P|411:165|420:123,1,88.000002685547,10|10,0:1|0:2,0:0:0:0:
419,123,79902,1,10,0:2:0:0:
419,123,79981,1,10,0:2:0:0:
434,372,80139,6,0,P|381:318|307:329,1,155.999992858887,10|0,0:2|0:0,0:0:0:0:
457,372,80455,2,0,P|384:302|284:316,1,207.999990478516,14|8,0:2|0:2,0:0:0:0:
169,383,80850,1,8,0:2:0:0:
169,383,80928,6,0,P|163:339|158:295,1,88.000002685547,14|0,0:1|0:0,0:0:0:0:
394,117,81244,2,0,P|388:160|383:204,1,88.000002685547,10|0,0:2|0:0,0:0:0:0:
173,268,81560,1,10,0:1:0:0:
308,152,81718,1,0,0:0:0:0:
308,152,81797,1,2,0:2:0:0:
308,152,81876,1,10,0:2:0:0:
287,354,82034,1,2,0:2:0:0:
148,241,82192,6,0,P|104:242|64:260,1,88.000002685547,8|2,0:1|0:2,0:0:0:0:
260,167,82507,2,0,P|265:123|271:79,1,88.000002685547,10|2,0:2|0:2,0:0:0:0:
88,33,82823,5,10,0:1:0:0:
148,241,82981,1,0,0:0:0:0:
69,49,83139,1,8,0:2:0:0:
0,219,83297,1,2,0:2:0:0:
201,150,83455,6,0,P|157:145|113:139,1,88.000002685547,12|2,0:1|0:2,0:0:0:0:
281,52,83771,1,10,0:2:0:0:
370,247,83928,1,10,0:1:0:0:
140,370,84086,5,10,0:2:0:0:
201,150,84244,1,10,0:1:0:0:
397,326,84402,5,10,0:2:0:0:
93,239,84560,1,10,0:1:0:0:
302,83,84718,6,0,L|292:171,1,88.000002685547,14|8,0:2|0:1,0:0:0:0:
23,69,85034,2,0,P|61:54|110:52,1,88.000002685547,12|0,0:2|0:2,0:0:0:0:
193,269,85350,2,0,P|149:267|108:251,1,88.000002685547,8|8,0:2|0:2,0:0:0:0:
313,51,85665,1,10,0:2:0:0:
317,72,85744,1,8,0:2:0:0:
320,93,85823,1,10,0:2:0:0:
324,114,85902,1,8,0:2:0:0:
330,148,85981,6,0,L|345:238,1,88.000002685547,14|0,0:1|0:0,0:0:0:0:
314,369,86297,1,10,0:2:0:0:
241,203,86455,1,2,0:2:0:0:
435,269,86613,2,0,P|349:260|268:293,1,176.000005371094,10|8,0:1|0:2,0:0:0:0:
101,232,87086,1,2,0:2:0:0:
159,361,87244,6,0,P|176:321|177:278,1,88.000002685547,8|2,0:1|0:2,0:0:0:0:
28,173,87560,2,0,P|10:213|9:256,1,88.000002685547,10|2,0:2|0:2,0:0:0:0:
91,88,87876,2,0,P|48:80|5:70,1,88.000002685547,10|2,0:1|0:3,0:0:0:0:
189,221,88192,1,10,0:2:0:0:
176,19,88350,1,2,0:3:0:0:
172,201,88507,6,0,P|177:157|182:113,1,88.000002685547,10|2,0:1|0:3,0:0:0:0:
372,48,88823,1,10,0:2:0:0:
307,215,88981,1,2,0:2:0:0:
204,101,89139,6,0,P|248:106|292:111,1,88.000002685547,10|2,0:1|0:2,0:0:0:0:
369,302,89455,1,10,0:2:0:0:
189,237,89613,1,2,0:2:0:0:
311,95,89771,6,0,B|320:171|283:181|294:250,1,155.999992858887,10|0,0:1|0:0,0:0:0:0:
369,302,90086,2,0,P|296:287|246:343,1,155.999992858887,10|0,0:2|0:0,0:0:0:0:
276,264,90402,2,0,P|375:271|420:360,1,207.999990478516,10|8,0:1|0:2,0:0:0:0:
244,369,90876,1,2,0:2:0:0:
139,245,91034,6,0,P|133:201|127:157,1,88.000002685547,12|2,0:1|0:2,0:0:0:0:
179,12,91350,1,10,0:2:0:0:
217,191,91507,1,2,0:2:0:0:
37,118,91665,2,0,P|124:125|206:93,1,176.000005371094,10|8,0:1|0:2,0:0:0:0:
372,168,92139,1,2,0:2:0:0:
322,23,92297,6,0,P|303:62|299:106,1,88.000002685547,8|2,0:1|0:2,0:0:0:0:
396,267,92613,1,10,0:2:0:0:
395,80,92771,1,2,0:2:0:0:
295,234,92928,1,10,0:1:0:0:
466,157,93086,2,0,L|511:165,2,44.0000013427735,8|8|8,0:2|0:2|0:2,0:0:0:0:
298,105,93402,1,8,0:3:0:0:
413,290,93560,6,0,P|458:290|498:273,1,88.000002685547,14|2,0:1|0:2,0:0:0:0:
309,353,93876,2,0,P|264:353|224:336,1,88.000002685547,10|10,0:2|0:1,0:0:0:0:
104,156,94192,5,14,0:1:0:0:
294,253,94350,1,2,0:2:0:0:
43,299,94507,1,8,0:2:0:0:
266,227,94665,1,8,0:1:0:0:
5,118,94823,6,0,L|19:205,1,88.000002685547,14|8,0:2|0:1,0:0:0:0:
252,313,95139,2,0,L|266:226,1,88.000002685547,12|0,0:2|0:0,0:0:0:0:
50,309,95455,1,10,0:3:0:0:
221,137,95613,1,10,0:2:0:0:
221,137,95692,1,10,0:2:0:0:
221,137,95771,1,10,0:2:0:0:
168,365,95928,1,10,0:1:0:0:
91,149,96086,5,2,0:2:0:0:
152,171,106192,6,0,P|145:202|147:234,2,64,10|2|2,0:2|0:2|0:2,0:0:0:0:
227,99,106665,1,10,0:3:0:0:
227,99,106744,1,8,0:3:0:0:
227,99,106823,1,8,0:3:0:0:
244,200,106981,1,10,0:3:0:0:
61,270,107139,6,0,P|137:271|199:317,1,155.999992858887,10|0,0:2|0:0,0:0:0:0:
281,371,107455,6,0,P|280:331|294:293,1,80,14|0,0:1|0:0,0:0:0:0:
459,159,107771,2,0,P|473:196|472:236,1,80,10|2,0:2|0:3,0:0:0:0:
369,344,108086,1,8,0:1:0:0:
388,209,108244,1,2,0:2:0:0:
465,337,108402,2,0,P|427:322|388:318,1,80,8|2,0:2|0:3,0:0:0:0:
296,168,108718,6,0,P|375:166|443:127,1,160,10|8,0:1|0:2,0:0:0:0:
291,78,109192,1,2,0:3:0:0:
244,244,109350,2,0,P|205:235|165:231,1,80,10|2,0:1|0:2,0:0:0:0:
33,185,109665,2,0,P|71:178|110:150,1,80,10|2,0:2|0:3,0:0:0:0:
24,12,109981,6,0,L|37:90,1,80,10|2,0:1|0:3,0:0:0:0:
144,59,110297,1,10,0:2:0:0:
218,195,110455,2,0,L|230:116,1,80,2|8,0:2|0:1,0:0:0:0:
386,90,110771,1,2,0:2:0:0:
314,192,110928,1,10,0:2:0:0:
328,27,111086,6,0,P|363:9|403:5,1,80,2|8,0:2|0:1,0:0:0:0:
500,146,111402,2,0,P|460:142|424:124,1,80,2|8,0:2|0:2,0:0:0:0:
410,311,111718,2,0,P|419:272|428:233,1,80,2|8,0:2|0:1,0:0:0:0:
277,279,112034,1,2,0:2:0:0:
317,113,112192,2,0,P|327:151|336:190,1,80,10|2,0:2|0:2,0:0:0:0:
166,335,112507,6,0,P|126:335|89:319,1,80,12|0,0:1|0:0,0:0:0:0:
194,191,112823,2,0,P|217:223|225:267,1,80,10|2,0:2|0:3,0:0:0:0:
89,211,113139,1,10,0:1:0:0:
175,94,113297,2,0,P|214:99|254:104,1,80,2|8,0:2|0:2,0:0:0:0:
95,190,113613,6,0,P|55:195|15:200,1,80,2|8,0:2|0:1,0:0:0:0:
156,82,113928,1,2,0:2:0:0:
243,232,114086,2,0,P|282:230|317:211,1,80,10|2,0:2|0:3,0:0:0:0:
241,67,114402,2,0,L|255:145,1,80,10|2,0:1|0:3,0:0:0:0:
406,255,114718,2,0,P|413:215|419:176,1,80,10|2,0:2|0:3,0:0:0:0:
469,336,115034,6,0,P|404:293|325:292,1,160,14|8,0:1|0:2,0:0:0:0:
158,249,115507,1,2,0:3:0:0:
219,367,115665,2,0,P|234:327|233:287,1,80,8|2,0:1|0:3,0:0:0:0:
84,194,115981,2,0,P|69:231|68:270,1,80,8|2,0:2|0:3,0:0:0:0:
184,131,116297,5,14,0:1:0:0:
88,57,116455,1,10,0:1:0:0:
158,249,116613,1,10,0:2:0:0:
288,135,116771,2,0,L|168:122,1,120,14|0,0:1|0:0,0:0:0:0:
91,86,117086,6,0,L|86:137,1,47.9999985351563,10|0,0:3|0:0,0:0:0:0:
142,248,117244,2,0,L|146:200,1,47.9999985351563,10|0,0:3|0:0,0:0:0:0:
73,100,117402,2,0,L|68:151,1,47.9999985351563,10|0,0:3|0:0,0:0:0:0:
62,287,117560,5,10,0:2:0:0:
62,287,117876,2,0,P|116:330|186:320,1,143.999995605469,10|0,0:2|0:0,0:0:0:0:
97,346,118192,2,0,P|190:343|248:270,1,191.999994140625,14|8,0:2|0:3,0:0:0:0:
466,356,118823,5,14,0:1:0:0:
508,218,118981,1,2,0:2:0:0:
436,328,119139,1,2,0:2:0:0:
464,225,119297,1,10,0:1:0:0:
351,356,119455,2,0,L|331:238,1,120,8|0,0:2|0:0,0:0:0:0:
372,157,119771,2,0,L|360:236,1,80,2|0,0:2|0:0,0:0:0:0:
241,40,120086,1,10,0:2:0:0:
241,40,120402,6,0,P|170:36|115:80,1,143.999995605469,10|0,0:2|0:0,0:0:0:0:
67,160,120718,2,0,P|114:163|155:188,1,95.9999970703126,14|8,0:2|0:2,0:0:0:0:
189,215,120955,1,8,0:2:0:0:
189,215,121034,2,0,P|193:167|199:119,1,95.9999970703126,8|8,0:2|0:3,0:0:0:0:
74,275,121350,5,14,0:1:0:0:
184,340,121507,1,10,0:1:0:0:
67,160,121665,1,10,0:2:0:0:
4,346,121823,2,0,P|79:320|159:320,1,160,14|8,0:1|0:2,0:0:0:0:
159,320,122218,1,8,0:2:0:0:
159,320,122297,1,8,0:2:0:0:
0,219,122455,1,8,0:3:0:0:
221,128,122613,5,14,0:1:0:0:
221,128,122928,2,0,P|238:197|231:268,1,143.999995605469,10|0,0:2|0:0,0:0:0:0:
164,313,123244,2,0,P|232:301|284:347,1,143.999995605469,10|0,0:1|0:0,0:0:0:0:
360,383,123560,2,0,P|365:335|371:287,1,95.9999970703126,8|2,0:2|0:3,0:0:0:0:
421,122,123876,5,10,0:1:0:0:
460,296,124034,1,2,0:2:0:0:
329,167,124192,1,10,0:2:0:0:
506,205,124350,1,2,0:2:0:0:
328,273,124507,2,0,L|314:194,1,80,8|2,0:1|0:2,0:0:0:0:
458,57,124823,2,0,L|444:135,1,80,10|2,0:2|0:2,0:0:0:0:
291,187,125139,5,14,0:1:0:0:
363,57,125297,1,8,0:1:0:0:
183,162,125455,2,0,L|153:0,1,160,8|14,0:2|0:1,0:0:0:0:
363,57,125928,5,8,0:1:0:0:
280,210,126086,2,0,P|193:205|116:248,1,176.000005371094,8|14,0:2|0:1,0:0:0:0:
295,299,126560,5,8,0:1:0:0:
258,91,126718,1,8,0:2:0:0:
106,240,126876,2,0,P|187:192|281:198,1,191.999994140625,14|8,0:1|0:3,0:0:0:0:
235,374,127350,2,0,L|225:335,3,40,8|8|8|8,0:3|0:3|0:3|0:3,0:0:0:0:
178,312,127665,6,0,P|225:309|267:287,1,96,2|0,0:2|0:0,0:0:0:0:
360,254,127981,6,0,P|289:250|229:213,1,143.999995605469,10|0,0:2|0:0,0:0:0:0:
139,182,128297,2,0,P|186:178|228:156,1,95.9999970703126,14|8,0:2|0:2,0:0:0:0:
318,72,128534,1,8,0:2:0:0:
318,72,128613,2,0,L|311:167,1,95.9999970703126,8|8,0:2|0:3,0:0:0:0:
467,281,128928,5,14,0:1:0:0:
408,124,129086,1,2,0:2:0:0:
359,290,129244,1,10,0:2:0:0:
488,188,129402,1,2,0:2:0:0:
272,239,129560,2,0,P|212:230|153:221,1,120,8|0,0:1|0:0,0:0:0:0:
56,206,129876,2,0,L|134:192,1,80,10|2,0:2|0:3,0:0:0:0:
63,28,130192,6,0,P|71:67|78:106,1,80,14|0,0:1|0:0,0:0:0:0:
226,235,130507,2,0,P|233:195|241:156,1,80,10|2,0:2|0:3,0:0:0:0:
72,281,130823,1,10,0:1:0:0:
151,166,130981,1,10,0:1:0:0:
205,345,131139,1,10,0:2:0:0:
360,282,131297,6,0,P|303:229|226:235,1,160,14|10,0:1|0:1,0:0:0:0:
31,167,131771,1,10,0:2:0:0:
133,359,131928,2,0,P|128:279|122:199,1,160,14|8,0:1|0:1,0:0:0:0:
10,62,132402,2,0,P|14:101|18:141,1,80,8|0,0:2|0:0,0:0:0:0:
221,197,132718,5,14,0:1:0:0:
113,97,132876,1,2,0:2:0:0:
101,246,133034,1,10,0:2:0:0:
247,188,133192,2,0,P|263:111|245:33,1,160,2|2,0:2|0:2,0:0:0:0:
93,115,133665,5,10,0:2:0:0:
273,196,133823,2,0,P|291:110|271:25,1,176.000005371094,2|2,0:2|0:2,0:0:0:0:
72,157,134297,5,10,0:2:0:0:
198,343,134455,2,0,B|213:250|159:252|177:155,1,191.999994140625,2|2,0:2|0:2,0:0:0:0:
100,309,134928,1,10,0:2:0:0:
313,50,135244,6,0,P|352:50|388:68,1,80,14|2,0:1|0:2,0:0:0:0:
261,200,135560,1,10,0:2:0:0:
189,43,135718,1,2,0:2:0:0:
331,134,135876,1,10,0:1:0:0:
163,181,136034,2,0,L|117:172,2,40,10|10|10,0:3|0:3|0:3,0:0:0:0:
368,301,136350,6,0,P|288:298|214:328,1,160,14|10,0:2|0:3,0:0:0:0:
67,284,136823,1,10,0:3:0:0:
138,145,136981,1,8,0:2:0:0:
138,145,137060,1,8,0:2:0:0:
138,145,137139,2,0,P|144:184|151:223,1,80,8|8,0:2|0:3,0:0:0:0:
33,88,137455,1,8,0:3:0:0:
258,167,137613,6,0,P|337:169|411:139,1,160,14|10,0:1|0:3,0:0:0:0:
229,65,138086,1,10,0:3:0:0:
197,273,138244,1,10,0:2:0:0:
197,273,138323,1,10,0:2:0:0:
197,273,138402,1,10,0:2:0:0:
352,215,138560,1,10,0:3:0:0:
88,161,138718,1,10,0:3:0:0:
398,95,138876,1,10,0:1:0:0:
74,177,139192,5,10,0:2:0:0:
415,301,139350,1,10,0:2:0:0:
43,351,139665,5,14,0:2:0:0:
43,351,141560,6,0,L|36:311,3,40
3,283,141876,6,0,P|61:285|110:251,1,120,2|0,0:2|0:0,0:0:0:0:
111,252,142192,6,0,P|57:254|11:228,1,107.999996704102,2|0,0:2|0:0,0:0:0:0:
11,228,142507,6,0,P|58:227|99:203,1,96,2|0,0:2|0:0,0:0:0:0:
20,59,142823,6,0,L|34:146,1,88.000002685547,14|0,0:1|0:0,0:0:0:0:
192,292,143139,2,0,L|206:205,1,88.000002685547,10|0,0:2|0:0,0:0:0:0:
52,153,143455,1,10,0:1:0:0:
91,359,143613,1,0,0:0:0:0:
91,359,143692,1,2,0:2:0:0:
91,359,143771,1,10,0:2:0:0:
189,170,143928,1,2,0:2:0:0:
0,269,144086,6,0,P|40:252|84:248,1,88.000002685547,10|2,0:1|0:2,0:0:0:0:
283,341,144402,2,0,P|239:344|200:326,1,88.000002685547,10|2,0:2|0:2,0:0:0:0:
178,95,144718,5,10,0:1:0:0:
256,260,144876,1,0,0:0:0:0:
339,58,145034,1,8,0:2:0:0:
273,235,145192,1,2,0:2:0:0:
502,179,145350,6,0,P|459:172|416:165,1,88.000002685547,8|2,0:1|0:2,0:0:0:0:
248,333,145665,2,0,P|291:326|334:319,1,88.000002685547,10|2,0:2|0:2,0:0:0:0:
380,142,145981,1,10,0:1:0:0:
196,251,146139,1,2,0:2:0:0:
196,251,146218,1,2,0:2:0:0:
196,251,146297,1,10,0:2:0:0:
405,293,146455,1,2,0:2:0:0:
264,102,146613,6,0,L|278:188,1,88.000002685547,10|10,0:1|0:2,0:0:0:0:
278,188,146850,1,10,0:2:0:0:
278,188,146928,1,10,0:2:0:0:
120,317,147086,6,0,B|52:339|12:300|12:300|34:300|50:290,1,155.999992858887,10|0,0:2|0:0,0:0:0:0:
126,344,147402,2,0,B|46:366|-17:318|-17:318|20:322|39:312,1,207.999990478516,10|8,0:2|0:2,0:0:0:0:
192,288,147797,1,8,0:2:0:0:
192,288,147876,6,0,P|208:328|206:372,1,88.000002685547,14|0,0:1|0:0,0:0:0:0:
4,234,148192,2,0,P|2:190|18:149,1,88.000002685547,10|0,0:2|0:0,0:0:0:0:
234,72,148507,1,10,0:1:0:0:
95,211,148665,1,0,0:0:0:0:
95,211,148744,1,2,0:2:0:0:
95,211,148823,1,10,0:2:0:0:
117,17,148981,1,2,0:2:0:0:
212,174,149139,6,0,P|255:174|298:156,1,88.000002685547,8|2,0:1|0:2,0:0:0:0:
488,80,149455,2,0,L|401:64,1,88.000002685547,10|2,0:2|0:2,0:0:0:0:
272,257,149771,5,10,0:1:0:0:
448,171,149928,1,0,0:0:0:0:
240,81,150086,1,8,0:2:0:0:
420,170,150244,1,2,0:2:0:0:
278,344,150402,6,0,P|285:301|291:258,1,88.000002685547,12|2,0:1|0:2,0:0:0:0:
128,83,150718,1,10,0:2:0:0:
190,287,150876,1,10,0:1:0:0:
369,187,151034,5,10,0:2:0:0:
117,94,151192,1,10,0:1:0:0:
14,295,151350,5,10,0:2:0:0:
267,207,151507,1,10,0:1:0:0:
85,16,151665,6,0,L|97:103,1,88.000002685547,14|8,0:2|0:1,0:0:0:0:
346,269,151981,2,0,L|360:182,1,88.000002685547,12|8,0:2|0:2,0:0:0:0:
75,210,152297,1,8,0:2:0:0:
58,250,152376,1,8,0:0:0:0:
63,293,152455,1,8,0:2:0:0:
94,323,152534,1,8,0:2:0:0:
137,331,152613,5,10,0:3:0:0:
167,325,152692,1,8,0:3:0:0:
192,307,152771,1,10,0:3:0:0:
203,278,152850,1,8,0:3:0:0:
201,251,152928,6,0,P|155:250|117:268,1,88.000002685547,14|0,0:1|0:0,0:0:0:0:
271,135,153244,1,10,0:2:0:0:
255,321,153402,1,2,0:2:0:0:
162,159,153560,2,0,P|247:169|298:240,1,176.000005371094,10|8,0:1|0:2,0:0:0:0:
171,279,154034,1,2,0:2:0:0:
62,180,154192,6,0,L|46:93,1,88.000002685547,8|2,0:1|0:2,0:0:0:0:
122,291,154507,2,0,P|80:311|40:311,1,88.000002685547,10|2,0:2|0:2,0:0:0:0:
177,133,154823,2,0,P|220:133|259:153,1,88.000002685547,10|2,0:1|0:3,0:0:0:0:
336,323,155139,1,8,0:2:0:0:
194,223,155297,1,2,0:3:0:0:
423,285,155455,6,0,P|430:241|437:198,1,88.000002685547,10|2,0:1|0:3,0:0:0:0:
492,78,155771,1,10,0:2:0:0:
315,182,155928,1,2,0:2:0:0:
364,17,156086,2,0,P|371:60|378:103,1,88.000002685547,10|2,0:1|0:2,0:0:0:0:
213,245,156402,1,10,0:2:0:0:
282,85,156560,1,2,0:2:0:0:
478,234,156718,6,0,P|400:227|335:266,1,155.999992858887,10|0,0:1|0:0,0:0:0:0:
261,313,157034,2,0,B|322:294|365:340|365:340|346:334|323:339,1,155.999992858887,10|0,0:2|0:0,0:0:0:0:
225,298,157350,2,0,P|326:289|403:355,1,207.999990478516,10|8,0:1|0:2,0:0:0:0:
345,197,157823,1,2,0:2:0:0:
150,353,157981,6,0,P|141:309|133:266,1,88.000002685547,12|2,0:1|0:2,0:0:0:0:
151,111,158297,1,10,0:2:0:0:
230,282,158455,1,2,0:2:0:0:
36,224,158613,2,0,P|123:226|201:187,1,176.000005371094,10|8,0:1|0:2,0:0:0:0:
104,112,159086,1,2,0:2:0:0:
281,257,159244,6,0,P|290:213|298:170,1,88.000002685547,8|2,0:1|0:2,0:0:0:0:
280,15,159560,1,10,0:2:0:0:
201,186,159718,1,2,0:2:0:0:
394,128,159876,2,0,P|306:130|228:91,1,176.000005371094,10|8,0:1|0:2,0:0:0:0:
340,21,160350,1,2,0:3:0:0:
497,102,160507,6,0,P|489:145|483:188,1,88.000002685547,14|2,0:1|0:2,0:0:0:0:
369,356,160823,2,0,P|362:312|355:269,1,88.000002685547,10|10,0:2|0:1,0:0:0:0:
212,108,161139,1,14,0:1:0:0:
453,206,161297,1,2,0:2:0:0:
241,281,161455,1,8,0:2:0:0:
425,184,161613,1,8,0:1:0:0:
193,96,161771,6,0,P|149:94|109:112,1,88.000002685547,14|8,0:2|0:1,0:0:0:0:
322,255,162086,2,0,P|365:256|405:238,1,88.000002685547,14|10,0:2|0:2,0:0:0:0:
405,237,162323,1,10,0:2:0:0:
405,237,162402,1,10,0:2:0:0:
168,178,162560,1,10,0:3:0:0:
359,126,162718,1,10,0:3:0:0:
188,76,162876,1,10,0:3:0:0:
260,148,163034,6,0,B|280:239|230:257|249:337,2,191.999994140625,14|14|10,0:1|0:1|0:2,0:0:0:0:
166,187,164455,5,10,0:2:0:0:
346,292,164613,1,10,0:2:0:0:
151,178,164771,1,10,0:2:0:0:
360,301,164928,1,10,0:2:0:0:
360,300,165244,6,0,P|350:228|284:257,1,167.999994873047,10|0,0:2|0:0,0:0:0:0:
235,357,165560,6,0,B|258:319|258:319|246:232,1,132.00000402832,14|0,0:1|0:0,0:0:0:0:
173,198,165876,1,10,0:2:0:0:
57,352,166034,2,0,L|44:264,1,88.000002685547,2|10,0:2|0:1,0:0:0:0:
153,101,166350,1,2,0:2:0:0:
141,281,166507,1,10,0:2:0:0:
10,176,166665,6,0,B|47:182|81:171|81:171|111:199|111:199|143:191|173:198,1,176.000005371094,2|2,0:2|0:2,0:0:0:0:
89,20,167139,2,0,B|52:32|52:32|44:54|34:77,1,88.000002685547,10|2,0:2|0:2,0:0:0:0:
198,218,167455,5,10,0:1:0:0:
247,65,167613,1,2,0:2:0:0:
110,217,167771,5,10,0:2:0:0:
172,18,167928,1,2,0:2:0:0:
286,218,168086,6,0,B|330:217|355:226|355:226|376:203|404:189,1,132.00000402832,10|0,0:1|0:0,0:0:0:0:
403,110,168402,1,10,0:2:0:0:
231,289,168560,2,0,B|193:245|193:245|197:214|200:171,1,132.00000402832,2|0,0:2|0:0,0:0:0:0:
222,79,168876,2,0,B|197:61|183:38|183:38|168:162,1,176.000005371094,2|2,0:2|0:2,0:0:0:0:
6,231,169350,5,8,0:3:0:0:
84,109,169507,1,10,0:2:0:0:
84,109,169586,1,10,0:2:0:0:
84,109,169665,1,10,0:2:0:0:
109,312,169823,1,10,0:2:0:0:
202,219,169981,6,0,B|163:198|163:198|120:207,1,88.000002685547,2|14,0:2|0:2,0:0:0:0:
382,323,170297,2,0,B|435:336|435:336|479:311,1,103.999995239258,10|10,0:1|0:3,0:0:0:0:
290,96,170613,6,0,B|303:272,1,176.000005371094,14|10,0:1|0:2,0:0:0:0:
480,209,171086,2,0,B|442:185|442:185|398:194,1,88.000002685547,2|8,0:2|0:1,0:0:0:0:
427,284,171402,1,2,0:2:0:0:
494,120,171560,2,0,B|457:96|457:96|412:105,1,88.000002685547,10|2,0:2|0:2,0:0:0:0:
175,232,171876,6,0,B|306:216|306:216|283:253,1,176.000005371094,10|10,0:1|0:2,0:0:0:0:
153,254,172350,2,0,L|138:163,1,88.000002685547,2|8,0:2|0:1,0:0:0:0:
320,51,172665,1,2,0:2:0:0:
245,193,172823,2,0,L|230:102,1,88.000002685547,10|2,0:2|0:2,0:0:0:0:
62,308,173139,6,0,B|117:318|117:318|160:288,1,107.999996704102,14|0,0:1|0:0,0:0:0:0:
141,207,173455,6,0,B|91:196|91:196|46:226,1,103.999995239258,8|10,0:2|0:1,0:0:0:0:
262,331,173771,6,0,B|316:341|316:341|360:311,1,107.999996704102,14|0,0:1|0:0,0:0:0:0:
342,230,174087,6,0,B|291:219|291:219|247:249,1,103.999995239258,8|2,0:2|0:2,0:0:0:0:
454,329,174402,5,10,0:3:0:0:
512,146,174560,1,8,0:2:0:0:
512,146,174639,1,8,0:2:0:0:
512,146,174718,1,8,0:2:0:0:
342,230,174876,1,10,0:2:0:0:
477,348,175034,5,10,0:1:0:0:
473,326,175113,1,8,0:2:0:0:
470,304,175192,1,8,0:2:0:0:
465,282,175271,1,8,0:2:0:0:
436,253,175350,2,0,L|445:200,3,44.0000013427735,8|8|8|8,0:2|0:3|0:3|0:3,0:0:0:0:
456,165,175665,6,0,P|419:187|375:188,1,88.000002685547,14|2,0:1|0:2,0:0:0:0:
379,11,175981,1,10,0:2:0:0:
235,104,176139,2,0,B|271:99|304:115|304:115|339:93|339:93|369:106|401:100,1,176.000005371094,2|2,0:2|0:2,0:0:0:0:
248,192,176613,1,10,0:2:0:0:
268,12,176771,1,2,0:2:0:0:
365,182,176928,5,10,0:1:0:0:
363,196,177007,1,0,0:0:0:0:
361,210,177086,1,2,0:2:0:0:
279,83,177244,2,0,L|284:35,2,44.0000013427735,10|0|2,0:2|0:0|0:2,0:0:0:0:
391,173,177560,5,10,0:1:0:0:
386,199,177639,1,0,0:0:0:0:
382,225,177718,1,2,0:2:0:0:
259,64,177876,2,0,L|266:-2,2,51.999997619629,10|0|2,0:2|0:0|0:2,0:0:0:0:
115,190,178192,6,0,B|71:197|71:197|33:174,1,88.000002685547,10|2,0:1|0:3,0:0:0:0:
167,88,178507,1,8,0:2:0:0:
245,259,178665,1,2,0:2:0:0:
245,259,178744,1,2,0:2:0:0:
245,259,178823,2,0,L|255:163,1,95.9999970703126,10|2,0:1|0:3,0:0:0:0:
133,308,179139,1,8,0:2:0:0:
368,232,179297,1,2,0:2:0:0:
368,232,179376,1,2,0:2:0:0:
368,232,179455,6,0,P|446:232|500:295,1,155.999992858887,10|0,0:1|0:0,0:0:0:0:
409,317,179771,2,0,P|359:325|319:358,1,103.999995239258,8|2,0:2|0:3,0:0:0:0:
223,123,180086,6,0,B|239:158|232:188|232:188|272:205|272:205|268:230|276:262,1,167.999994873047,10|0,0:1|0:0,0:0:0:0:
177,266,180402,2,0,P|144:222|144:167,1,111.999996582031,8|2,0:2|0:3,0:0:0:0:
410,52,180718,6,0,B|411:96|383:118|383:118|397:153|397:153|365:180|365:224,1,191.999994140625,14|8,0:1|0:2,0:0:0:0:
192,59,181192,2,0,B|245:21|319:47|319:47|297:52|277:68,1,176.000005371094,2|2,0:2|0:2,0:0:0:0:
145,203,181665,1,10,0:2:0:0:
346,137,181823,1,2,0:2:0:0:
165,289,181981,6,0,P|122:290|83:271,1,88.000002685547,14|2,0:1|0:2,0:0:0:0:
207,176,182297,1,10,0:2:0:0:
255,365,182455,2,0,P|339:375|403:318,1,176.000005371094,2|10,0:2|0:3,0:0:0:0:
282,141,182928,5,10,0:2:0:0:
290,175,183007,1,8,0:2:0:0:
295,210,183086,1,10,0:2:0:0:
302,245,183165,1,8,0:2:0:0:
309,285,183244,5,14,0:1:0:0:
130,144,183402,1,2,0:2:0:0:
398,222,183560,2,0,P|409:171|419:120,1,103.999995239258,8|2,0:2|0:2,0:0:0:0:
238,59,183876,1,8,0:1:0:0:
147,347,184034,2,0,P|136:296|126:245,1,103.999995239258,0|10,0:0|0:2,0:0:0:0:
307,184,184350,1,2,0:2:0:0:
439,354,184507,5,10,0:1:0:0:
396,365,184586,1,2,0:2:0:0:
352,357,184665,1,2,0:2:0:0:
320,326,184744,1,2,0:2:0:0:
314,284,184823,5,10,0:2:0:0:
340,282,184902,1,2,0:2:0:0:
364,271,184981,1,2,0:2:0:0:
381,251,185060,1,2,0:2:0:0:
393,221,185139,6,0,L|401:264,3,44.0000013427735,10|2|2|2,0:1|0:2|0:2|0:2,0:0:0:0:
420,185,185455,2,0,P|372:189|329:169,1,96,10|2,0:2|0:2,0:0:0:0:
387,107,185771,5,12,0:1:0:0:
134,23,185928,1,10,0:2:0:0:
134,23,186007,1,10,0:2:0:0:
134,23,186086,2,0,P|141:94|133:166,1,143.999995605469,10|8,0:2|0:3,0:0:0:0:
81,238,186402,2,0,P|134:194|204:204,2,143.999995605469,10|10|14,0:1|0:3|0:1,0:0:0:0:
394,371,187034,6,0,P|402:323|411:276,1,95.9999970703126,10|10,0:2|0:3,0:0:0:0:
280,143,187350,1,8,0:3:0:0:
318,305,187507,1,8,0:2:0:0:
318,305,187586,1,8,0:2:0:0:
318,305,187665,1,8,0:2:0:0:
456,190,187823,1,8,0:1:0:0:
229,235,187981,1,8,0:2:0:0:
505,50,188297,6,0,P|457:50|412:33,1,95.9999970703126,14|2,0:1|0:3,0:0:0:0:
412,178,188928,1,2,0:2:0:0:
263,120,189244,2,0,P|310:120|355:103,1,95.9999970703126,10|8,0:1|0:1,0:0:0:0:
356,248,189875,1,10,0:2:0:0:
7,334,190191,6,0,P|54:333|99:350,1,95.9999970703126,10|2,0:1|0:3,0:0:0:0:
100,206,190822,1,2,0:2:0:0:
249,264,191138,2,0,P|201:263|156:280,1,95.9999970703126,10|8,0:1|0:1,0:0:0:0:
156,136,191769,1,10,0:2:0:0:
353,25,192086,6,0,P|363:71|360:119,1,95.9999970703126,14|2,0:1|0:3,0:0:0:0:
255,54,192718,1,2,0:2:0:0:
177,210,193033,2,0,P|166:163|169:115,2,95.9999970703126,10|8|10,0:1|0:1|0:2,0:0:0:0:
384,335,193981,6,0,P|336:334|292:352,1,95.9999970703126,14|2,0:1|0:3,0:0:0:0:
136,266,194612,1,2,0:2:0:0:
136,266,194928,5,10,0:2:0:0:
199,325,195086,2,0,L|232:321,2,23.9999992675781,8|0|8,0:3|0:0|0:3,0:0:0:0:
120,350,195402,1,8,0:3:0:0:
216,242,195560,1,10,0:3:0:0:
5,68,195875,5,14,0:1:0:0:
5,68,196191,2,0,P|6:91|7:115,1,47.9999985351563,2|10,0:2|0:2,0:0:0:0:
74,183,196507,2,0,P|121:180|169:178,2,95.9999970703126,2|10|10,0:2|0:1|0:1,0:0:0:0:
194,80,197454,1,10,0:2:0:0:
303,226,197770,5,14,0:1:0:0:
303,226,198086,2,0,L|301:175,1,47.9999985351563,10|10,0:1|0:3,0:0:0:0:
215,264,198402,2,0,L|221:362,2,95.9999970703126,2|14|10,0:2|0:2|0:1,0:0:0:0:
181,147,199191,5,8,0:2:0:0:
315,281,199349,1,8,0:2:0:0:
118,244,199507,1,8,0:2:0:0:
302,193,199665,6,0,P|337:191|373:188,1,71.9999978027344,14|0,0:1|0:0,0:0:0:0:
405,201,199980,6,0,L|398:105,1,95.9999970703126,10|0,0:1|0:0,0:0:0:0:
315,281,200296,6,0,P|279:282|243:285,1,71.9999978027344,10|0,0:1|0:0,0:0:0:0:
214,302,200612,6,0,L|207:206,1,95.9999970703126,10|12,0:1|0:2,0:0:0:0:
77,59,200928,6,0,P|45:61|13:63,2,64,10|2|10,0:1|0:2|0:1,0:0:0:0:
179,110,201401,2,0,L|226:104,2,32,10|0|8,0:3|0:0|0:1,0:0:0:0:
74,159,201717,2,0,L|36:163,2,32,10|0|8,0:3|0:0|0:1,0:0:0:0:
210,230,202033,1,8,0:3:0:0:
210,230,202112,1,8,0:3:0:0:
210,230,202191,6,0,P|175:234|146:256,1,71.9999978027344,14|0,0:1|0:0,0:0:0:0:
140,278,202507,6,0,L|235:266,1,95.9999970703126,10|8,0:1|0:3,0:0:0:0:
357,140,202822,6,0,P|321:143|292:165,1,71.9999978027344,10|0,0:1|0:0,0:0:0:0:
287,188,203138,6,0,L|382:176,1,95.9999970703126,10|12,0:1|0:2,0:0:0:0:
448,307,203454,6,0,L|511:315,2,64,10|10|10,0:1|0:3|0:1,0:0:0:0:
320,366,203928,1,10,0:3:0:0:
320,366,204007,1,0,0:0:0:0:
320,366,204086,1,8,0:1:0:0:
312,195,204243,1,10,0:3:0:0:
418,316,204401,1,8,0:3:0:0:
177,179,204559,6,0,P|162:101|179:24,1,160,14|8,0:1|0:1,0:0:0:0:
282,148,205033,1,10,0:2:0:0:
194,272,205191,1,8,0:3:0:0:
194,272,205270,1,8,0:3:0:0:
194,272,205349,2,0,P|151:270|116:252,1,80,8|10,0:3|0:1,0:0:0:0:
269,174,205665,1,10,0:2:0:0:
313,352,205822,6,0,P|391:352|447:298,1,160,14|8,0:1|0:1,0:0:0:0:
251,270,206296,1,8,0:2:0:0:
350,177,206454,1,8,0:2:0:0:
350,177,206533,1,8,0:2:0:0:
350,177,206612,2,0,P|353:217|357:257,1,80,8|8,0:2|0:1,0:0:0:0:
428,77,206928,1,8,0:2:0:0:
221,179,207086,6,0,P|141:166|62:155,1,160,12|10,0:1|0:2,0:0:0:0:
62,155,207480,1,8,0:2:0:0:
62,155,207559,1,10,0:3:0:0:
230,74,207717,1,10,0:3:0:0:
113,314,207875,1,10,0:3:0:0:
89,173,208033,1,10,0:1:0:0:
287,359,208191,1,10,0:2:0:0:
287,359,208270,1,8,0:2:0:0:
287,359,208349,1,10,0:1:0:0:
108,90,208665,5,10,0:2:0:0:
425,199,208822,1,10,0:2:0:0:
111,270,209138,5,10,0:3:0:0:
407,190,209454,1,14,0:2:0:0:
260,341,209770,6,0,B|268:285|240:267|249:215,1,128,2|2,0:2|0:2,0:0:0:0:
312,58,210559,1,2,0:2:0:0:
196,101,210717,1,2,0:2:0:0:
264,360,211033,6,0,B|279:272|232:264|248:172,1,191.999994140625,2|2,0:2|0:2,0:0:0:0:
312,58,211822,1,2,0:2:0:0:
173,319,211980,6,0,P|77:334|121:247,1,240.000009155274,10|2,0:2|0:2,0:0:0:0:
149,366,224296,6,2,P|161:273|75:308,1,224,2|2,0:2|0:0,0:0:0:0:
63,337,224928,6,0,P|54:293|45:250,1,88.000002685547,14|0,0:1|0:0,0:0:0:0:
209,89,225243,2,0,P|200:132|191:175,1,88.000002685547,10|0,0:2|0:0,0:0:0:0:
16,233,225559,1,10,0:1:0:0:
127,55,225717,1,0,0:0:0:0:
127,55,225796,1,2,0:2:0:0:
127,55,225875,1,10,0:2:0:0:
142,257,226033,1,2,0:2:0:0:
2,98,226191,6,0,P|48:97|87:80,1,88.000002685547,10|2,0:1|0:2,0:0:0:0:
255,236,226507,2,0,P|209:235|170:218,1,88.000002685547,10|2,0:2|0:2,0:0:0:0:
270,40,226822,5,10,0:1:0:0:
489,107,226980,1,0,0:0:0:0:
288,200,227138,1,8,0:2:0:0:
472,136,227296,1,2,0:2:0:0:
406,364,227454,6,0,P|400:320|394:276,1,88.000002685547,8|2,0:1|0:2,0:0:0:0:
303,140,227770,1,10,0:2:0:0:
276,309,227928,1,2,0:2:0:0:
417,250,228086,1,10,0:1:0:0:
189,228,228243,1,2,0:2:0:0:
189,228,228322,1,2,0:2:0:0:
189,228,228401,1,10,0:2:0:0:
423,144,228559,1,2,0:2:0:0:
221,315,228717,6,0,P|177:308|133:303,1,88.000002685547,10|10,0:1|0:2,0:0:0:0:
134,304,228954,1,10,0:2:0:0:
134,304,229033,1,10,0:2:0:0:
16,118,229191,6,0,B|77:127|136:108|136:108|121:123|110:145,1,155.999992858887,10|0,0:2|0:0,0:0:0:0:
6,141,229507,2,0,B|79:154|155:131|155:131|134:152|125:180,1,207.999990478516,14|8,0:2|0:2,0:0:0:0:
71,312,229901,1,8,0:2:0:0:
71,312,229980,6,0,P|51:272|54:226,1,88.000002685547,14|0,0:1|0:0,0:0:0:0:
225,72,230296,2,0,P|244:111|242:154,1,88.000002685547,10|0,0:2|0:0,0:0:0:0:
9,96,230612,1,10,0:1:0:0:
144,263,230770,1,0,0:0:0:0:
144,263,230849,1,2,0:2:0:0:
144,263,230928,1,10,0:2:0:0:
122,51,231086,1,2,0:2:0:0:
11,192,231243,6,0,P|54:187|98:181,1,88.000002685547,8|2,0:1|0:2,0:0:0:0:
284,342,231559,2,0,P|240:336|196:331,1,88.000002685547,10|2,0:2|0:2,0:0:0:0:
159,111,231875,1,10,0:1:0:0:
374,248,232033,1,8,0:2:0:0:
374,248,232112,1,8,0:2:0:0:
374,248,232191,1,8,0:2:0:0:
134,277,232349,1,10,0:3:0:0:
337,82,232507,6,0,P|331:125|326:169,1,88.000002685547,12|2,0:1|0:2,0:0:0:0:
138,194,232822,1,10,0:2:0:0:
221,1,232980,1,10,0:1:0:0:
315,207,233138,5,10,0:2:0:0:
69,109,233296,1,10,0:1:0:0:
298,189,233454,5,10,0:2:0:0:
57,290,233612,1,10,0:1:0:0:
340,374,233770,6,0,L|352:287,1,88.000002685547,14|8,0:2|0:1,0:0:0:0:
490,160,234086,2,0,L|482:117,3,44.0000013427735,8|8|8|8,0:2|0:0|0:2|0:2,0:0:0:0:
509,201,234401,5,8,0:2:0:0:
467,186,234480,1,8,0:0:0:0:
423,191,234559,1,8,0:3:0:0:
387,216,234638,1,8,0:3:0:0:
347,246,234717,5,10,0:3:0:0:
317,253,234796,1,8,0:3:0:0:
286,249,234875,1,10,0:3:0:0:
260,231,234954,1,8,0:3:0:0:
229,197,235033,6,0,L|240:289,1,88.000002685547,14|0,0:1|0:0,0:0:0:0:
131,207,235349,1,10,0:2:0:0:
299,118,235507,1,2,0:2:0:0:
330,338,235665,2,0,P|244:324|163:356,1,176.000005371094,10|8,0:1|0:2,0:0:0:0:
15,313,236138,1,2,0:2:0:0:
99,185,236296,6,0,P|113:226|109:269,1,88.000002685547,8|2,0:1|0:2,0:0:0:0:
13,103,236612,2,0,P|9:59|23:18,1,88.000002685547,10|2,0:2|0:2,0:0:0:0:
202,82,236928,2,0,P|158:76|114:71,1,88.000002685547,10|2,0:1|0:3,0:0:0:0:
242,188,237243,1,8,0:2:0:0:
325,17,237401,1,2,0:3:0:0:
390,204,237559,6,0,P|432:210|477:193,1,88.000002685547,10|2,0:1|0:3,0:0:0:0:
309,113,237875,1,10,0:2:0:0:
321,288,238033,1,2,0:2:0:0:
415,120,238191,2,0,P|410:77|405:33,1,88.000002685547,10|2,0:1|0:2,0:0:0:0:
347,202,238507,1,10,0:2:0:0:
512,121,238665,1,2,0:2:0:0:
410,323,238822,6,0,P|337:299|259:298,1,155.999992858887,10|0,0:1|0:0,0:0:0:0:
142,361,239138,2,0,P|216:361|259:299,1,155.999992858887,10|0,0:2|0:0,0:0:0:0:
163,178,239454,2,0,P|169:229|176:281,1,103.999995239258,10|8,0:1|0:2,0:0:0:0:
176,281,239691,1,8,0:2:0:0:
176,281,239770,1,8,0:2:0:0:
61,121,239928,1,10,0:2:0:0:
61,121,240007,1,8,0:2:0:0:
61,121,240086,6,0,P|57:77|52:33,1,88.000002685547,12|2,0:1|0:2,0:0:0:0:
188,141,240401,1,10,0:2:0:0:
35,241,240559,1,2,0:2:0:0:
147,59,240717,2,0,P|234:63|281:130,1,176.000005371094,10|8,0:1|0:2,0:0:0:0:
92,169,241191,1,2,0:2:0:0:
274,226,241349,6,0,P|317:223|355:201,1,88.000002685547,8|2,0:1|0:2,0:0:0:0:
188,141,241664,1,10,0:2:0:0:
257,324,241822,1,2,0:2:0:0:
281,131,241980,1,10,0:1:0:0:
162,266,242138,2,0,L|168:315,2,44.0000013427735,8|8|8,0:2|0:2|0:2,0:0:0:0:
77,156,242454,1,8,0:3:0:0:
317,276,242612,6,0,P|360:270|404:265,1,88.000002685547,14|2,0:1|0:2,0:0:0:0:
190,92,242928,2,0,P|146:97|102:102,1,88.000002685547,10|10,0:2|0:1,0:0:0:0:
300,289,243243,5,14,0:1:0:0:
470,143,243401,1,2,0:2:0:0:
200,79,243559,1,8,0:2:0:0:
449,166,243717,1,8,0:1:0:0:
192,244,243875,6,0,P|149:232|103:232,1,88.000002685547,14|8,0:2|0:1,0:0:0:0:
238,97,244191,1,10,0:2:0:0:
309,349,244349,2,0,P|393:362|461:309,1,176.000005371094,14|8,0:1|0:3,0:0:0:0:
219,218,244822,1,8,0:2:0:0:
219,218,244901,1,8,0:2:0:0:
219,218,244980,1,10,0:2:0:0:
376,66,245138,6,0,P|419:71|457:93,1,88.000002685547,12|2,0:1|0:2,0:0:0:0:
132,196,245454,2,0,P|88:190|50:168,1,88.000002685547,10|10,0:2|0:1,0:0:0:0:
255,34,245770,5,14,0:1:0:0:
334,296,245928,1,2,0:2:0:0:
125,94,246086,1,10,0:2:0:0:
390,150,246243,1,2,0:2:0:0:
189,314,246401,6,0,P|182:271|167:230,1,88.000002685547,14|8,0:1|0:1,0:0:0:0:
404,136,246717,1,8,0:2:0:0:
292,374,246875,2,0,L|313:199,1,176.000005371094,14|10,0:1|0:1,0:0:0:0:
132,36,247349,1,8,0:2:0:0:
132,36,247428,1,8,0:2:0:0:
132,36,247507,1,10,0:2:0:0:
123,162,247665,5,0,0:0:0:0:
240,93,247822,1,2,0:2:0:0:
219,184,247980,1,2,0:2:0:0:
146,71,248138,1,2,0:2:0:0:
257,168,248296,6,0,L|265:119,1,47.9999985351563,2|2,0:2|0:2,0:0:0:0:
247,45,248612,2,0,L|240:92,1,47.9999985351563,2|2,0:2|0:2,0:0:0:0:
248,366,251454,6,0,P|258:287|267:208,1,160,14|8,0:1|0:2,0:0:0:0:
86,219,251928,1,2,0:2:0:0:
86,219,252007,1,2,0:2:0:0:
86,219,252086,2,0,P|125:229|162:256,1,80,10|2,0:1|0:2,0:0:0:0:
270,105,252401,2,0,P|231:115|194:142,1,80,10|2,0:2|0:2,0:0:0:0:
393,207,252717,5,10,0:1:0:0:
452,25,252875,1,2,0:2:0:0:
402,175,253033,5,10,0:2:0:0:
351,7,253191,1,2,0:2:0:0:
270,105,253349,5,10,0:1:0:0:
422,156,253507,1,2,0:2:0:0:
287,122,253664,5,10,0:2:0:0:
419,67,253822,1,2,0:2:0:0:
477,248,253980,6,0,P|398:254|335:209,1,160,10|8,0:1|0:2,0:0:0:0:
239,352,254454,1,2,0:2:0:0:
239,352,254533,1,2,0:2:0:0:
239,352,254612,2,0,P|277:341|317:336,1,80,10|2,0:1|0:2,0:0:0:0:
201,226,254928,2,0,P|161:221|122:210,1,80,10|2,0:2|0:2,0:0:0:0:
0,62,255243,5,10,0:1:0:0:
185,10,255401,1,2,0:2:0:0:
9,84,255559,5,10,0:2:0:0:
175,139,255717,1,2,0:2:0:0:
40,215,255875,5,10,0:1:0:0:
110,71,256033,1,2,0:2:0:0:
151,231,256191,5,10,0:2:0:0:
98,95,256349,1,2,0:2:0:0:
80,291,256507,6,0,P|158:275|238:272,1,160,14|8,0:1|0:2,0:0:0:0:
396,365,256980,1,2,0:2:0:0:
396,365,257059,1,2,0:2:0:0:
396,365,257138,2,0,P|356:363|321:345,1,80,10|2,0:1|0:2,0:0:0:0:
373,185,257454,2,0,P|376:224|380:264,1,80,10|2,0:2|0:2,0:0:0:0:
281,156,257770,5,10,0:1:0:0:
442,86,257928,1,2,0:2:0:0:
271,38,258086,5,10,0:2:0:0:
419,96,258243,1,2,0:2:0:0:
266,182,258401,5,10,0:3:0:0:
242,180,258480,1,8,0:2:0:0:
218,176,258559,1,10,0:2:0:0:
194,173,258638,1,8,0:2:0:0:
170,171,258717,1,10,0:2:0:0:
5,60,258875,1,10,0:2:0:0:
5,60,258954,1,8,0:2:0:0:
5,60,259033,6,0,P|52:53|99:45,1,95.9999970703126,14|0,0:1|0:0,0:0:0:0:
266,228,259349,2,0,P|218:219|171:212,1,95.9999970703126,10|0,0:2|0:0,0:0:0:0:
222,16,259665,2,0,P|240:59|234:106,1,95.9999970703126,10|0,0:2|0:0,0:0:0:0:
65,311,259980,2,0,P|46:267|52:220,1,95.9999970703126,10|0,0:2|0:0,0:0:0:0:
285,363,260296,6,0,P|239:349|191:348,1,95.9999970703126,14|0,0:2|0:0,0:0:0:0:
419,206,260612,2,0,P|464:219|512:220,1,95.9999970703126,10|0,0:2|0:3,0:0:0:0:
334,29,260928,2,0,P|242:19|175:83,1,191.999994140625,10|0,0:3|0:2,0:0:0:0:
289,362,261401,1,8,0:2:0:0:
289,362,261480,1,8,0:2:0:0:
289,362,261559,6,0,P|296:282|303:202,1,160,14|8,0:1|0:2,0:0:0:0:
117,275,262033,1,2,0:2:0:0:
117,275,262112,1,2,0:2:0:0:
117,275,262191,2,0,P|161:274|201:257,1,80,10|2,0:1|0:2,0:0:0:0:
307,112,262507,1,8,0:2:0:0:
214,246,262665,6,0,P|135:238|73:185,1,160,2|2,0:2|0:2,0:0:0:0:
261,145,263138,1,10,0:2:0:0:
292,333,263296,1,2,0:2:0:0:
122,269,263454,5,10,0:1:0:0:
316,234,263612,1,2,0:2:0:0:
144,292,263770,5,10,0:2:0:0:
301,265,263928,1,2,0:2:0:0:
202,73,264086,6,0,P|209:153|216:233,1,160,10|8,0:1|0:2,0:0:0:0:
400,179,264559,1,2,0:2:0:0:
400,179,264638,1,2,0:2:0:0:
400,179,264717,2,0,P|364:162|317:160,1,80,10|2,0:1|0:2,0:0:0:0:
180,59,265033,1,8,0:2:0:0:
300,154,265191,6,0,P|379:146|441:93,1,160,2|2,0:2|0:2,0:0:0:0:
260,54,265665,1,10,0:2:0:0:
229,242,265823,1,2,0:2:0:0:
399,178,265981,5,10,0:1:0:0:
205,143,266139,1,2,0:2:0:0:
377,201,266297,5,10,0:2:0:0:
220,174,266455,1,2,0:2:0:0:
367,320,266612,6,0,P|407:313|447:307,1,80,14|8,0:1|0:2,0:0:0:0:
447,307,266849,1,8,0:2:0:0:
447,307,266928,1,10,0:2:0:0:
188,263,267086,2,0,P|174:300|171:340,1,80,10|0,0:1|0:0,0:0:0:0:
320,157,267401,2,0,P|333:194|336:234,1,80,10|0,0:1|0:0,0:0:0:0:
119,74,267717,6,0,P|198:71|267:33,1,160,14|8,0:1|0:2,0:0:0:0:
390,232,268191,1,8,0:2:0:0:
174,186,268349,1,8,0:3:0:0:
174,186,268428,1,8,0:1:0:0:
174,186,268507,1,8,0:3:0:0:
315,107,268665,1,8,0:3:0:0:
256,352,268822,1,8,0:2:0:0:
256,352,269296,5,2,0:2:0:0:
185,279,269454,1,2,0:2:0:0:
319,224,269612,1,2,0:2:0:0:
176,133,269928,5,2,0:2:0:0:
339,197,270086,1,2,0:2:0:0:
203,313,270559,5,14,0:2:0:0:
309,71,270875,1,10,0:2:0:0:
256,192,271033,5,14,0:2:0:0:
256,192,271112,12,0,277033,0:0:0:0:
