osu file format v14

[General]
AudioFilename: audio.ogg
AudioLeadIn: 0
PreviewTime: 43684
Countdown: 0
SampleSet: Soft
StackLeniency: 0.9
Mode: 0
LetterboxInBreaks: 0
WidescreenStoryboard: 1

[Editor]
DistanceSpacing: 1
BeatDivisor: 4
GridSize: 4
TimelineZoom: 1.6

[Metadata]
Title:Unmeisenjou no Aria
TitleUnicode:運命線上のアリア
Artist:ShinRa-Bansho
ArtistUnicode:森羅万象
Creator:Matsuyuki Ame
Version:Normal
Source:東方紅魔郷 ~ the Embodiment of Scarlet Devil.
Tags:rk657 air on the line of fate touhou zun 東方project 06 th06 team shanghai alice 上海アリス幻樂団 2hu ネタミニティ Netaminity kaztora あよ ayo ツェペシュの幼き末裔 Young Descendant Tepes osanaki matsuei final Stage 6 theme レミリア・スカーレット remilia scarlet pop jpop j-pop rock jrock j-rock japanese Comic Market 94 C94 video game videogame koumakyou
BeatmapID:4476282
BeatmapSetID:2127697

[Difficulty]
HPDrainRate:3.5
CircleSize:3.6
OverallDifficulty:5
ApproachRate:5.5
SliderMultiplier:0.999999999999999
SliderTickRate:1

[Events]
//Background and Video events
0,0,"aa.jpg",0,0
Video,784,"video.mp4"
//Break Periods
2,21920,30974
2,112731,121784
2,149054,152919
//Storyboard Layer 0 (Background)
//Storyboard Layer 1 (Fail)
//Storyboard Layer 2 (Pass)
//Storyboard Layer 3 (Foreground)
//Storyboard Layer 4 (Overlay)
//Storyboard Sound Samples

[TimingPoints]
964,324.324324324324,4,2,1,50,1,0
964,-111.111111111111,4,2,1,50,0,0
11342,-99.9999999999999,4,2,1,80,0,0
21720,-99.9999999999999,4,2,1,50,0,0
32099,-99.9999999999999,4,2,1,75,0,0
43774,-90.9090909090909,4,2,1,85,0,1
64531,-111.111111111111,4,2,1,65,0,0
69072,-111.111111111111,4,2,1,75,0,0
69720,-111.111111111111,4,2,1,50,0,0
74909,-111.111111111111,4,2,1,75,0,0
78639,-99.9999999999999,4,2,1,75,0,0
80099,-111.111111111111,4,2,1,60,0,0
85288,-99.9999999999999,4,2,1,60,0,0
86585,-99.9999999999999,4,2,1,65,0,0
87234,-99.9999999999999,4,2,1,70,0,0
87882,-99.9999999999999,4,2,1,75,0,0
91774,-90.9090909090909,4,2,1,85,0,1
112207,-90.9090909090909,4,2,1,60,0,1
112531,-100,4,2,1,60,0,0
117288,294.117647058824,4,2,1,70,1,0
117720,324.324324324324,4,2,1,70,1,0
138476,-100,4,2,1,70,0,0
140098,-100,4,2,1,50,0,0
140422,-100,4,2,1,60,0,0
140747,-100,4,2,1,70,0,0
141071,-111.111111111111,4,2,1,70,0,0
144963,-100,4,2,1,80,0,0
148855,-100,4,2,1,50,0,0
154692,-100,4,2,1,55,0,0
155017,-100,4,2,1,60,0,0
155341,-100,4,2,1,65,0,0
155665,-100,4,2,1,70,0,0
155990,-100,4,2,1,75,0,0
160530,-90.9090909090909,4,2,1,85,0,1
198152,-90.9090909090909,4,2,1,90,0,1
200747,-111.111111111111,4,2,1,90,0,0
202044,-111.111111111111,4,2,1,50,0,0
212098,-111.111111111111,4,2,1,5,0,0

[Colours]
Combo1 : 79,166,98
Combo2 : 225,221,51
Combo3 : 124,141,211
Combo4 : 193,98,126

[HitObjects]
292,301,964,6,0,P|240:311|197:321,2,89.999997253418,2|10|2,1:2|2:2|2:2,0:0:0:0:
336,295,1774,1,2,1:2:0:0:
423,275,2099,2,0,P|433:327|443:370,2,89.999997253418,2|2|2,1:2|1:2|2:2,0:0:0:0:
414,230,2909,1,2,1:2:0:0:
462,154,3234,1,10,2:2:0:0:
417,75,3558,6,0,P|467:62|506:64,2,89.999997253418,2|10|2,1:2|2:2|2:2,0:0:0:0:
374,91,4369,1,2,1:2:0:0:
284,88,4693,2,0,L|297:-3,2,89.999997253418,2|2|2,1:2|1:2|2:2,0:0:0:0:
259,126,5504,2,0,P|254:162|251:183,1,44.999998626709,2|2,1:2|1:2,0:0:0:0:
264,214,5828,1,10,2:2:0:0:
219,292,6153,6,0,P|266:306|318:303,2,89.999997253418,2|10|2,1:2|2:2|2:2,0:0:0:0:
179,271,6963,1,2,1:2:0:0:
90,289,7288,2,0,L|110:387,2,89.999997253418,2|0|2,1:2|1:1|2:2,0:0:0:0:
70,248,8099,1,2,1:2:0:0:
106,165,8423,1,10,2:2:0:0:
66,84,8747,6,0,P|114:69|160:70,1,89.999997253418,10|10,2:2|2:2,0:0:0:0:
243,97,9396,1,10,0:0:0:0:
243,97,9558,2,0,P|277:104|297:106,1,44.999998626709,10|8,2:2|2:2,0:0:0:0:
331,113,9882,1,2,1:2:0:0:
397,118,11342,5,6,1:2:0:0:
300,90,11666,1,10,2:2:0:0:
254,180,11991,2,0,P|258:239|247:277,1,99.9999999999999,2|10,1:2|2:2,0:0:0:0:
223,321,12477,1,2,2:2:0:0:
133,359,12801,1,2,2:2:0:0:
133,359,12963,2,0,L|124:303,1,50,10|2,2:2|2:2,0:0:0:0:
92,271,13288,2,0,P|53:284|4:287,2,74.9999999999999,2|2|2,1:2|2:2|2:2,0:0:0:0:
115,226,13936,6,0,P|101:160|108:117,1,99.9999999999999,2|8,1:2|2:2,0:0:0:0:
141,34,14585,1,0,1:1:0:0:
220,93,14909,1,8,2:2:0:0:
292,25,15234,2,0,L|397:40,1,99.9999999999999,0|8,1:1|2:2,0:0:0:0:
443,52,15720,1,2,2:2:0:0:
443,52,15882,1,2,1:2:0:0:
508,128,16207,2,0,P|511:166|508:184,1,50,8|8,2:2|2:2,0:0:0:0:
492,224,16531,5,6,1:2:0:0:
437,307,16855,1,10,2:2:0:0:
338,291,17180,2,0,P|315:247|314:193,1,99.9999999999999,2|10,1:2|2:2,0:0:0:0:
309,147,17666,1,2,2:2:0:0:
220,112,17991,1,2,2:2:0:0:
220,112,18153,2,0,L|161:119,1,50,10|2,2:2|2:2,0:0:0:0:
128,145,18477,2,0,L|69:152,1,50,2|2,1:2|2:2,0:0:0:0:
32,171,18801,1,10,2:2:0:0:
56,268,19126,6,0,P|49:327|72:376,2,99.9999999999999,2|8|0,1:2|2:2|1:1,0:0:0:0:
150,234,20099,1,8,2:2:0:0:
192,324,20423,2,0,P|224:327|251:332,1,50,2|8,1:2|2:2,0:0:0:0:
284,355,20747,2,0,P|308:358|333:361,1,50,10|0,2:2|1:1,0:0:0:0:
380,342,21072,2,0,P|396:296|384:245,1,99.9999999999999,10|8,2:2|3:3,0:0:0:0:
342,157,21720,1,4,1:2:0:0:
186,229,32099,6,0,P|138:242|80:241,1,99.9999999999999,6|10,1:2|2:2,0:0:0:0:
43,235,32585,1,2,2:2:0:0:
43,235,32747,2,0,P|44:185|33:133,1,99.9999999999999,2|8,1:2|2:2,0:0:0:0:
97,58,33396,2,0,P|145:44|194:44,1,99.9999999999999,0|10,1:1|2:2,0:0:0:0:
247,58,33882,1,2,2:2:0:0:
247,58,34045,1,2,1:2:0:0:
205,149,34369,1,8,2:2:0:0:
288,203,34693,6,0,P|277:259|278:313,1,99.9999999999999,0|10,1:1|2:2,0:0:0:0:
294,354,35180,1,2,2:2:0:0:
294,354,35342,2,0,L|399:341,1,99.9999999999999,2|8,1:2|2:2,0:0:0:0:
484,299,35991,1,6,1:2:0:0:
418,223,36315,1,10,2:2:0:0:
498,163,36639,2,0,P|509:107|508:53,1,99.9999999999999,2|10,1:2|2:2,0:0:0:0:
426,6,37288,6,0,P|373:16|318:18,1,99.9999999999999,4|10,1:2|2:2,0:0:0:0:
280,20,37774,1,2,2:2:0:0:
280,20,37936,1,2,1:2:0:0:
212,94,38261,1,10,2:2:0:0:
274,171,38585,2,0,P|282:225|253:281,1,99.9999999999999,2|10,1:2|2:2,0:0:0:0:
226,297,39072,2,0,P|171:299|119:310,1,99.9999999999999,2|2,2:2|2:2,0:0:0:0:
78,319,39558,1,8,2:2:0:0:
13,242,39882,5,4,1:2:0:0:
87,175,40207,1,10,2:2:0:0:
51,81,40531,2,0,P|20:88|-4:90,2,50,2|10|2,1:2|2:2|1:2,0:0:0:0:
91,50,41018,2,0,P|151:41|197:40,1,99.9999999999999,14|10,2:2|2:2,0:0:0:0:
229,70,41504,2,0,L|222:128,1,50,10|2,3:3|1:2,0:0:0:0:
216,169,41828,1,10,2:2:0:0:
310,345,42477,6,0,B|259:337|259:337|209:367,2,99.9999999999999,6|6|2,1:2|1:2|1:2,0:0:0:0:
363,357,43288,1,10,2:2:0:0:
363,357,43450,1,10,2:2:0:0:
469,328,43774,5,6,1:2:0:0:
441,221,44099,2,0,P|446:200|446:159,1,55.0000016784668,10|2,2:2|0:1,0:0:0:0:
403,133,44423,2,0,P|353:132|293:158,1,110.000003356934,2|10,1:2|2:2,0:0:0:0:
279,205,44909,1,2,2:2:0:0:
269,314,45234,2,0,P|232:311|192:303,1,55.0000016784668,2|8,0:0|0:0,0:0:0:0:
166,330,45558,1,2,2:2:0:0:
166,330,45720,2,0,P|103:317|40:317,1,110.000003356934,2|10,1:2|2:2,0:0:0:0:
0,221,46369,5,2,1:2:0:0:
50,123,46693,2,0,P|84:131|112:134,1,55.0000016784668,10|2,0:0|0:1,0:0:0:0:
157,151,47018,2,0,B|166:109|166:109|158:83|158:83|172:27,1,110.000003356934,2|10,1:2|2:2,0:0:0:0:
200,0,47504,1,2,2:2:0:0:
265,87,47828,2,0,P|293:80|330:76,1,55.0000016784668,2|8,0:0|0:0,0:0:0:0:
369,53,48153,2,0,L|357:-5,2,55.0000016784668,2|2|2,2:2|1:2|2:2,0:0:0:0:
400,98,48639,1,10,2:2:0:0:
492,158,48963,5,6,1:2:0:0:
442,256,49288,2,0,P|411:249|377:246,1,55.0000016784668,10|2,2:2|0:0,0:0:0:0:
342,216,49612,2,0,P|292:227|214:228,1,110.000003356934,2|10,1:2|2:2,0:0:0:0:
179,241,50099,1,2,2:2:0:0:
138,343,50423,2,0,P|170:352|194:353,1,55.0000016784668,2|8,0:0|0:0,0:0:0:0:
246,379,50747,1,2,2:2:0:0:
246,379,50909,2,0,P|299:367|354:365,1,110.000003356934,2|10,1:2|2:2,0:0:0:0:
461,337,51558,5,2,1:2:0:0:
416,236,51882,2,0,P|417:203|429:166,1,55.0000016784668,10|2,2:2|0:1,0:0:0:0:
467,149,52207,2,0,P|477:101|455:39,1,110.000003356934,2|10,1:2|2:2,0:0:0:0:
420,4,52693,1,2,2:2:0:0:
339,79,53018,2,0,L|271:71,1,55.0000016784668,2|12,2:2|2:2,0:0:0:0:
233,75,53342,1,2,1:2:0:0:
233,75,53504,2,0,B|243:116|243:116|235:142|235:142|251:200,1,110.000003356934,10|8,2:2|2:2,0:0:0:0:
259,239,53991,1,8,2:2:0:0:
259,239,54153,5,6,1:2:0:0:
177,312,54477,1,10,2:2:0:0:
67,299,54801,2,0,P|65:250|50:177,1,110.000003356934,2|10,1:2|2:2,0:0:0:0:
30,140,55288,1,2,2:2:0:0:
123,82,55612,2,0,P|166:86|191:93,1,55.0000016784668,2|10,2:2|2:2,0:0:0:0:
236,88,55936,1,2,2:2:0:0:
236,88,56099,2,0,P|235:36|216:-6,2,82.5000025177002,2|2|2,1:2|2:2|2:2,0:0:0:0:
252,140,56747,6,0,B|221:236|276:227|243:327,1,165.0000050354,2|2,1:2|0:1,0:0:0:0:
245,357,57396,1,0,1:1:0:0:
351,384,57720,1,8,2:2:0:0:
386,279,58045,2,0,P|441:291|486:263,1,110.000003356934,0|8,1:1|2:2,0:0:0:0:
508,217,58531,1,2,2:2:0:0:
508,217,58693,2,0,L|491:156,1,55.0000016784668,2|2,1:2|2:2,0:0:0:0:
479,110,59018,1,8,2:2:0:0:
393,40,59342,5,6,1:2:0:0:
307,109,59666,1,10,2:2:0:0:
242,19,59991,2,0,P|196:7|124:13,1,110.000003356934,2|10,1:2|2:2,0:0:0:0:
82,30,60477,1,2,2:2:0:0:
55,136,60801,2,0,P|22:146|-8:148,2,55.0000016784668,2|14|2,2:2|2:2|1:2,0:0:0:0:
108,149,61288,2,0,P|141:139|171:137,1,55.0000016784668,10|2,2:2|1:2,0:0:0:0:
206,105,61612,1,10,2:2:0:0:
287,178,61936,6,0,P|306:239|262:342,1,165.0000050354,6|8,1:2|2:2,0:0:0:0:
223,356,62585,2,0,L|102:342,1,110.000003356934,0|8,1:1|2:2,0:0:0:0:
11,302,63234,2,0,P|6:269|8:243,1,55.0000016784668,10|8,1:2|1:2,0:0:0:0:
16,196,63558,1,10,1:2:0:0:
16,196,63720,1,8,1:2:0:0:
179,40,64531,6,0,P|235:32|277:26,1,89.999997253418,6|8,1:2|2:2,0:0:0:0:
358,24,65180,2,0,P|365:80|372:122,1,89.999997253418,0|10,1:1|2:2,0:0:0:0:
354,157,65666,1,2,2:2:0:0:
354,157,65828,2,0,P|309:163|264:169,1,89.999997253418,2|10,1:2|2:2,0:0:0:0:
182,205,66477,2,0,P|188:249|194:294,1,89.999997253418,0|10,1:1|2:2,0:0:0:0:
204,342,66963,1,2,2:2:0:0:
204,342,67126,6,0,P|248:335|293:329,1,89.999997253418,2|10,1:2|2:2,0:0:0:0:
381,347,67774,2,0,P|392:295|381:254,1,89.999997253418,0|10,1:1|2:2,0:0:0:0:
367,223,68261,1,10,2:2:0:0:
367,223,68423,1,10,2:2:0:0:
407,142,68747,2,0,P|437:147|462:150,1,44.999998626709,10|4,3:3|3:3,0:0:0:0:
492,129,69072,1,6,1:2:0:0:
463,43,69396,1,6,1:2:0:0:
374,60,69720,6,0,P|317:37|237:50,1,134.999995880127,4|0,1:2|1:1,0:0:0:0:
205,67,70369,1,10,2:2:0:0:
117,44,70693,1,2,1:2:0:0:
53,107,71018,1,2,1:2:0:0:
53,107,71180,2,0,P|65:161|71:209,1,89.999997253418,8|2,2:2|1:2,0:0:0:0:
82,238,71666,1,8,2:2:0:0:
53,323,71991,1,2,1:2:0:0:
124,377,72315,6,0,B|184:348|195:382|271:351,1,134.999995880127,2|2,1:2|1:2,0:0:0:0:
297,340,72963,1,10,2:2:0:0:
340,260,73288,1,2,1:2:0:0:
268,215,73612,1,0,1:1:0:0:
268,215,73774,2,0,P|251:164|254:114,1,89.999997253418,8|8,2:2|2:2,0:0:0:0:
259,83,74261,2,0,L|319:73,1,44.999998626709,8|10,2:2|3:3,0:0:0:0:
341,99,74585,2,0,L|401:89,1,44.999998626709,6|6,3:3|3:3,0:0:0:0:
427,76,74909,5,10,1:2:0:0:
362,275,76207,1,10,1:2:0:0:
187,170,77504,1,10,1:2:0:0:
94,354,78639,6,0,P|89:309|70:245,1,99.9999999999999,4|8,1:2|3:3,0:0:0:0:
36,223,79126,2,0,P|42:195|47:161,1,50,8|4,3:3|3:3,0:0:0:0:
54,124,79450,1,8,2:2:0:0:
93,32,79774,2,0,P|128:28|147:24,1,50,8|0,2:2|1:1,0:0:0:0:
187,27,80099,6,0,P|199:61|190:131,1,89.999997253418,6|2,1:2|1:2,0:0:0:0:
182,203,80747,2,0,P|216:215|286:206,1,89.999997253418,2|0,1:2|1:1,0:0:0:0:
336,152,81396,1,0,1:1:0:0:
419,185,81720,1,2,1:2:0:0:
488,127,82045,2,0,L|473:42,2,67.4999979400635,2|2|2,1:2|2:2|2:2,0:0:0:0:
509,166,82693,6,0,P|512:224|494:273,1,89.999997253418,2|2,1:2|1:2,0:0:0:0:
445,323,83342,2,0,P|394:315|353:313,1,89.999997253418,2|0,1:2|1:1,0:0:0:0:
270,283,83991,2,0,P|269:319|263:342,1,44.999998626709,0|10,1:1|2:2,0:0:0:0:
244,366,84315,2,0,P|199:363|154:356,1,89.999997253418,2|10,1:2|3:3,0:0:0:0:
115,348,84801,1,4,3:3:0:0:
115,348,84963,1,4,3:3:0:0:
25,303,85288,6,0,P|0:258|4:194,1,99.9999999999999,6|2,1:2|1:2,0:0:0:0:
17,112,85936,2,0,L|69:121,1,50,2|0,1:2|1:1,0:0:0:0:
106,151,86261,1,0,1:1:0:0:
205,133,86585,2,0,P|211:79|218:23,1,99.9999999999999,0|2,1:1|1:2,0:0:0:0:
254,0,87072,1,2,1:2:0:0:
254,0,87234,2,0,P|284:7|316:10,1,50,2|0,1:2|1:1,0:0:0:0:
351,19,87558,1,0,1:1:0:0:
435,72,87882,6,0,P|408:125|372:133,1,99.9999999999999,6|8,1:2|2:2,0:0:0:0:
325,139,88369,1,8,2:2:0:0:
325,139,88531,2,0,P|333:179|333:206,1,50,8|8,1:2|2:2,0:0:0:0:
314,234,88855,2,0,P|322:274|322:301,1,50,8|8,1:2|2:2,0:0:0:0:
353,322,89180,1,8,2:2:0:0:
125,379,90477,6,0,L|139:269,1,99.9999999999999,4|0,1:2|1:1,0:0:0:0:
106,184,91126,2,0,P|76:190|57:193,1,50,10|8,2:2|2:2,0:0:0:0:
11,172,91450,2,0,P|5:142|2:123,1,50,10|8,2:2|2:2,0:0:0:0:
16,74,91774,5,6,1:2:0:0:
123,49,92099,2,0,P|131:84|135:110,1,55.0000016784668,10|2,0:0|0:1,0:0:0:0:
174,139,92423,2,0,P|229:119|286:118,1,110.000003356934,2|10,1:2|2:2,0:0:0:0:
334,120,92909,1,2,2:2:0:0:
375,222,93234,2,0,P|344:228|310:241,1,55.0000016784668,2|8,0:0|0:0,0:0:0:0:
283,274,93558,1,2,2:2:0:0:
283,274,93720,2,0,P|289:322|291:388,1,110.000003356934,2|10,1:2|2:2,0:0:0:0:
402,370,94369,5,2,1:2:0:0:
488,302,94693,2,0,P|483:265|481:232,1,55.0000016784668,10|2,0:0|0:1,0:0:0:0:
441,209,95018,2,0,P|435:161|432:96,1,110.000003356934,2|10,1:2|2:2,0:0:0:0:
401,54,95504,1,2,2:2:0:0:
335,142,95828,2,0,P|301:136|272:134,1,55.0000016784668,2|8,0:0|0:0,0:0:0:0:
250,88,96153,2,0,P|249:55|245:28,2,55.0000016784668,2|2|2,2:2|1:2|2:2,0:0:0:0:
200,111,96639,1,10,2:2:0:0:
102,61,96963,5,6,1:2:0:0:
21,134,97288,2,0,P|29:170|30:204,1,55.0000016784668,10|2,0:0|0:0,0:0:0:0:
26,242,97612,2,0,P|82:262|142:256,1,110.000003356934,2|10,1:2|2:2,0:0:0:0:
186,254,98099,1,2,2:2:0:0:
222,357,98423,2,0,P|258:357|297:363,1,55.0000016784668,2|8,0:0|0:0,0:0:0:0:
326,332,98747,1,2,2:2:0:0:
326,332,98909,2,0,P|312:269|316:220,1,110.000003356934,2|10,1:2|2:2,0:0:0:0:
233,150,99558,5,2,1:2:0:0:
294,58,99882,2,0,L|352:68,1,55.0000016784668,10|2,0:0|0:1,0:0:0:0:
389,105,100207,2,0,B|422:116|422:116|460:110|496:132,1,110.000003356934,2|10,1:2|2:2,0:0:0:0:
509,183,100693,1,2,2:2:0:0:
419,247,101018,2,0,P|389:239|362:235,1,55.0000016784668,2|8,2:2|2:2,0:0:0:0:
315,224,101342,1,10,2:2:0:0:
315,224,101504,2,0,P|319:281|306:331,1,110.000003356934,2|8,1:2|2:2,0:0:0:0:
281,382,101991,1,4,3:3:0:0:
281,382,102153,5,6,1:2:0:0:
187,323,102477,1,10,2:2:0:0:
227,220,102801,2,0,P|223:163|236:113,1,110.000003356934,2|10,1:2|2:2,0:0:0:0:
261,62,103288,1,2,2:2:0:0:
166,6,103612,2,0,P|161:47|152:68,1,55.0000016784668,2|10,2:2|2:2,0:0:0:0:
107,80,103936,1,2,2:2:0:0:
107,80,104099,2,0,P|65:65|22:64,2,82.5000025177002,2|2|2,1:2|2:2|2:2,0:0:0:0:
115,134,104747,6,0,B|102:191|102:191|123:234|123:234|109:298,1,165.0000050354,2|2,1:2|0:1,0:0:0:0:
99,345,105396,1,0,1:1:0:0:
207,381,105720,1,8,2:2:0:0:
207,381,105882,2,0,P|248:359|312:358,1,110.000003356934,2|2,2:2|2:2,0:0:0:0:
363,374,106369,1,10,2:2:0:0:
471,358,106693,2,0,B|468:336|468:336|480:296|478:249,1,110.000003356934,2|10,1:2|2:2,0:0:0:0:
488,198,107180,1,2,2:2:0:0:
488,198,107342,5,6,1:2:0:0:
412,117,107666,1,10,2:2:0:0:
482,31,107991,2,0,L|369:12,1,110.000003356934,2|10,1:2|2:2,0:0:0:0:
319,2,108477,1,2,2:2:0:0:
272,101,108801,2,0,P|282:140|283:164,2,55.0000016784668,2|14|2,2:2|2:2|1:2,0:0:0:0:
232,61,109288,2,0,P|198:53|166:50,1,55.0000016784668,8|8,3:3|2:2,0:0:0:0:
123,43,109612,1,2,1:2:0:0:
16,17,109936,6,0,P|7:77|30:134,1,110.000003356934,6|0,1:2|1:1,0:0:0:0:
104,196,110585,1,0,1:1:0:0:
54,293,110909,1,8,2:2:0:0:
139,362,111234,2,0,L|196:349,1,55.0000016784668,10|8,1:2|1:2,0:0:0:0:
245,365,111558,2,0,L|302:352,1,55.0000016784668,10|8,1:2|1:2,0:0:0:0:
329,306,111882,2,0,P|331:251|303:199,1,110.000003356934,0|10,1:1|3:3,0:0:0:0:
229,131,112531,5,4,1:2:0:0:
144,349,122909,6,0,B|253:372|243:313|355:343,1,200,6|0,1:2|1:1,0:0:0:0:
388,356,123720,2,0,P|391:321|398:292,1,50,2|10,2:2|2:2,0:0:0:0:
382,257,124044,2,0,P|432:259|495:239,1,99.9999999999999,2|2,2:2|2:2,0:0:0:0:
511,208,124530,1,10,2:2:0:0:
511,208,124692,1,2,2:2:0:0:
451,127,125017,2,0,P|454:94|458:65,1,50,2|10,2:2|2:2,0:0:0:0:
439,30,125341,6,0,B|385:14|388:41|318:23,1,99.9999999999999,2|2,2:2|0:1,0:0:0:0:
290,18,125828,1,10,2:2:0:0:
221,90,126152,2,0,P|230:132|233:156,1,50,2|2,1:2|2:2,0:0:0:0:
272,175,126476,1,10,2:2:0:0:
272,175,126638,2,0,P|259:230|257:285,1,99.9999999999999,2|2,2:2|2:2,0:0:0:0:
258,323,127125,1,10,2:2:0:0:
158,334,127449,2,0,P|164:366|165:386,2,50,2|2|10,1:2|2:2|2:2,0:0:0:0:
111,314,127936,6,0,P|65:317|14:267,1,99.9999999999999,2|2,2:2|2:2,0:0:0:0:
9,238,128422,2,0,L|15:185,1,50,10|2,2:2|2:2,0:0:0:0:
22,138,128747,1,2,1:2:0:0:
112,92,129071,1,10,2:2:0:0:
112,92,129233,2,0,P|134:151|125:195,1,99.9999999999999,2|2,2:2|2:2,0:0:0:0:
154,229,129719,2,0,L|211:218,1,50,10|2,2:2|2:2,0:0:0:0:
252,211,130044,1,2,1:2:0:0:
235,112,130368,1,10,2:2:0:0:
311,47,130692,6,0,P|391:31|459:79,1,150,2|2,1:2|0:1,0:0:0:0:
475,105,131341,2,0,P|468:137|466:171,1,50,2|2,1:2|2:2,0:0:0:0:
461,207,131665,1,10,2:2:0:0:
461,207,131828,1,2,2:2:0:0:
364,233,132152,2,0,P|366:257|372:282,1,50,10|10,2:2|2:2,0:0:0:0:
356,329,132476,2,0,L|298:339,1,50,2|8,1:2|3:3,0:0:0:0:
263,325,132801,1,6,3:3:0:0:
263,325,132963,2,0,L|205:335,1,50,2|0,1:2|1:1,0:0:0:0:
165,321,133287,6,0,P|155:242|121:122,1,200,6|8,1:2|2:2,0:0:0:0:
99,81,134098,1,2,2:2:0:0:
164,5,134422,2,0,P|206:30|265:24,1,99.9999999999999,2|10,2:2|2:2,0:0:0:0:
304,8,134909,1,2,2:2:0:0:
304,8,135071,1,2,1:2:0:0:
373,79,135395,2,0,P|367:112|366:130,1,50,2|2,2:2|1:2,0:0:0:0:
321,151,135719,6,0,P|318:192|330:255,1,99.9999999999999,2|0,2:2|0:0,0:0:0:0:
362,286,136206,2,0,P|397:278|416:275,2,50,2|2|10,2:2|1:2|2:2,0:0:0:0:
344,332,136692,1,10,2:2:0:0:
253,375,137017,2,0,P|207:364|150:362,1,99.9999999999999,10|14,2:2|2:2,0:0:0:0:
112,345,137503,1,2,1:2:0:0:
112,345,137665,1,10,2:2:0:0:
48,267,137990,2,0,L|-9:277,2,50,2|10|10,1:2|2:2|3:3,0:0:0:0:
82,231,138476,5,6,1:2:0:0:
35,142,138801,1,10,2:2:0:0:
103,69,139125,2,0,P|157:62|212:91,1,99.9999999999999,10|10,2:2|2:2,0:0:0:0:
263,155,139774,2,0,L|378:136,1,99.9999999999999,10|10,2:2|2:2,0:0:0:0:
414,132,140260,1,10,2:2:0:0:
414,132,140422,1,10,2:2:0:0:
489,197,140747,2,0,P|489:230|485:254,1,50,10|10,2:2|2:2,0:0:0:0:
507,286,141071,6,0,B|441:263|452:316|356:285,1,134.999995880127,6|0,1:2|0:0,0:0:0:0:
333,306,141719,2,0,P|301:278|310:182,1,134.999995880127,6|0,1:2|0:0,0:0:0:0:
286,149,142368,1,6,1:2:0:0:
256,192,142449,12,0,144314,0:0:0:0:
287,79,144963,6,0,P|250:94|185:88,1,99.9999999999999,4|8,1:2|2:2,0:0:0:0:
95,61,145611,2,0,L|106:5,2,50,8|0|8,2:2|1:1|2:2,0:0:0:0:
60,98,146098,2,0,P|57:146|78:198,1,99.9999999999999,4|8,1:2|3:3,0:0:0:0:
107,231,146584,2,0,L|98:296,1,50,4|0,3:3|1:1,0:0:0:0:
92,330,146909,1,8,2:2:0:0:
176,382,147233,2,0,P|205:372|226:372,1,50,8|4,2:2|3:3,0:0:0:0:
277,369,147557,5,14,1:2:0:0:
277,369,147719,1,8,1:2:0:0:
233,284,148044,1,8,1:2:0:0:
233,284,148206,1,8,1:2:0:0:
277,194,148530,2,0,P|332:197|378:186,1,99.9999999999999,12|6,1:2|1:2,0:0:0:0:
300,116,154044,5,6,1:2:0:0:
213,67,154368,2,0,L|161:75,1,50,10|8,1:2|0:0,0:0:0:0:
134,115,154692,2,0,P|130:179|147:222,1,99.9999999999999,10|10,1:2|1:2,0:0:0:0:
164,256,155179,1,10,2:2:0:0:
141,353,155503,2,0,P|176:355|207:364,1,50,10|8,2:2|1:2,0:0:0:0:
242,378,155828,1,10,2:2:0:0:
242,378,155990,2,0,L|354:359,1,99.9999999999999,10|10,1:2|2:2,0:0:0:0:
385,336,156476,1,8,2:2:0:0:
385,336,156638,1,10,2:2:0:0:
410,90,157936,6,0,P|360:58|264:72,1,150,2|2,1:2|1:2,0:0:0:0:
233,97,158584,2,0,P|250:176|252:259,1,150,10|6,2:2|3:3,0:0:0:0:
256,295,159233,1,0,1:1:0:0:
183,363,159557,1,10,2:2:0:0:
87,332,159882,2,0,P|75:288|73:231,1,99.9999999999999,2|10,1:2|2:2,0:0:0:0:
85,188,160368,1,0,1:1:0:0:
85,188,160530,5,4,1:2:0:0:
33,90,160855,2,0,P|42:60|43:26,1,55.0000016784668,10|2,0:0|0:1,0:0:0:0:
93,13,161179,2,0,B|154:27|150:-3|224:17,1,110.000003356934,2|10,1:2|2:2,0:0:0:0:
249,40,161665,1,2,2:2:0:0:
303,135,161990,2,0,P|294:169|290:196,1,55.0000016784668,2|8,0:0|0:0,0:0:0:0:
253,229,162314,1,2,2:2:0:0:
253,229,162476,2,0,P|245:282|271:331,1,110.000003356934,2|10,1:2|2:2,0:0:0:0:
368,380,163125,5,2,1:2:0:0:
462,323,163449,2,0,P|459:289|452:264,1,55.0000016784668,10|2,0:0|0:1,0:0:0:0:
411,233,163774,2,0,B|404:202|404:202|429:170|425:102,1,110.000003356934,2|10,1:2|2:2,0:0:0:0:
398,80,164260,1,2,2:2:0:0:
321,0,164584,2,0,P|289:8|255:9,1,55.0000016784668,2|8,2:2|0:2,0:0:0:0:
243,59,164909,2,0,P|257:98|259:119,2,55.0000016784668,2|2|2,2:2|1:2|2:2,0:0:0:0:
188,59,165395,1,10,2:2:0:0:
80,35,165719,5,6,1:2:0:0:
5,116,166044,2,0,L|23:179,1,55.0000016784668,10|2,0:0|0:0,0:0:0:0:
66,198,166368,2,0,P|54:252|72:312,1,110.000003356934,2|10,1:2|2:2,0:0:0:0:
95,351,166855,1,2,2:2:0:0:
200,381,167179,2,0,P|205:342|215:319,1,55.0000016784668,2|8,0:0|0:0,0:0:0:0:
251,290,167503,1,2,2:2:0:0:
251,290,167665,2,0,P|239:235|243:164,1,110.000003356934,2|10,1:2|2:2,0:0:0:0:
204,76,168314,5,2,1:2:0:0:
293,12,168638,2,0,P|323:2|362:2,1,55.0000016784668,10|2,0:0|0:1,0:0:0:0:
387,37,168963,2,0,B|429:46|429:46|452:40|452:40|500:52,1,110.000003356934,2|10,1:2|2:2,0:0:0:0:
511,102,169449,1,2,2:2:0:0:
458,198,169774,2,0,P|468:234|469:260,1,55.0000016784668,10|0,2:2|1:1,0:0:0:0:
482,309,170098,1,10,2:2:0:0:
482,309,170260,2,0,P|421:316|361:329,1,110.000003356934,2|8,1:2|2:2,0:0:0:0:
263,322,170909,6,0,P|273:295|275:258,1,55.0000016784668,10|10,2:2|3:3,0:0:0:0:
242,225,171233,2,0,P|188:235|133:241,1,110.000003356934,10|2,2:2|1:2,0:0:0:0:
85,268,171719,2,0,P|52:275|20:277,1,55.0000016784668,8|2,2:2|1:2,0:0:0:0:
0,230,172044,1,10,2:2:0:0:
43,129,172368,2,0,P|36:101|33:62,1,55.0000016784668,10|8,2:2|2:2,0:0:0:0:
43,24,172692,1,10,2:2:0:0:
43,24,172855,2,0,P|99:12|149:34,1,110.000003356934,2|2,1:2|1:2,0:0:0:0:
182,79,173341,1,8,2:2:0:0:
182,79,173503,5,6,1:2:0:0:
291,67,173828,2,0,P|299:98|300:125,1,55.0000016784668,10|2,0:0|0:0,0:0:0:0:
263,162,174152,2,0,P|249:226|260:288,1,110.000003356934,2|10,1:2|2:2,0:0:0:0:
284,315,174638,1,2,2:2:0:0:
387,352,174963,2,0,P|422:344|449:340,1,55.0000016784668,2|8,0:0|0:0,0:0:0:0:
478,301,175287,1,2,2:2:0:0:
478,301,175449,2,0,P|492:237|481:175,1,110.000003356934,2|10,1:2|2:2,0:0:0:0:
458,86,176098,5,2,1:2:0:0:
354,121,176422,2,0,P|340:92|336:63,1,55.0000016784668,10|2,0:0|0:1,0:0:0:0:
300,27,176747,2,0,B|264:16|264:16|230:38|177:27,1,110.000003356934,2|10,1:2|2:2,0:0:0:0:
140,38,177233,1,2,2:2:0:0:
38,78,177557,2,0,L|49:132,1,55.0000016784668,2|8,0:0|0:0,0:0:0:0:
65,189,177882,1,2,2:2:0:0:
65,189,178044,2,0,P|112:202|177:175,1,110.000003356934,2|10,1:2|2:2,0:0:0:0:
264,130,178692,5,6,1:2:0:0:
299,234,179017,2,0,P|293:269|293:296,1,55.0000016784668,10|2,0:0|0:1,0:0:0:0:
299,342,179341,1,2,1:2:0:0:
403,376,179665,2,0,L|463:366,1,55.0000016784668,10|2,0:0|0:0,0:0:0:0:
504,337,179990,2,0,P|509:285|490:216,1,110.000003356934,10|8,0:0|0:0,0:0:0:0:
448,201,180476,2,0,P|435:147|440:93,1,110.000003356934,10|8,0:0|0:0,0:0:0:0:
449,38,180963,2,0,P|415:37|391:32,1,55.0000016784668,8|8,0:0|0:0,0:0:0:0:
339,26,181287,5,6,1:2:0:0:
265,108,181611,1,10,2:2:0:0:
183,33,181936,2,0,P|134:27|81:61,1,110.000003356934,2|10,1:2|2:2,0:0:0:0:
62,107,182422,1,2,2:2:0:0:
115,203,182747,2,0,P|150:208|178:218,1,55.0000016784668,2|10,2:2|2:2,0:0:0:0:
225,204,183071,1,2,2:2:0:0:
225,204,183233,2,0,L|206:100,2,82.5000025177002,2|2|2,1:2|2:2|2:2,0:0:0:0:
273,231,183882,6,0,P|282:283|268:342,1,110.000003356934,2|10,1:2|2:2,0:0:0:0:
173,384,184530,1,2,1:2:0:0:
173,384,184692,2,0,L|158:319,1,55.0000016784668,2|8,0:0|0:0,0:0:0:0:
116,296,185017,2,0,B|60:284|66:316|-5:302,2,110.000003356934,2|2|2,2:2|2:2|2:2,0:0:0:0:
143,248,185828,2,0,P|126:176|127:127,1,110.000003356934,2|10,1:2|2:2,0:0:0:0:
44,66,186476,5,6,1:2:0:0:
134,3,186801,1,10,2:2:0:0:
231,54,187125,2,0,P|272:64|344:59,1,110.000003356934,2|10,1:2|2:2,0:0:0:0:
392,47,187611,1,2,2:2:0:0:
384,156,187936,2,0,P|417:161|446:171,1,55.0000016784668,2|8,0:0|0:0,0:0:0:0:
491,193,188260,1,2,2:2:0:0:
491,193,188422,2,0,P|502:145|503:94,2,82.5000025177002,2|2|2,1:2|2:2|2:2,0:0:0:0:
470,244,189071,6,0,P|493:284|488:357,1,110.000003356934,2|10,1:2|2:2,0:0:0:0:
392,384,189719,1,2,1:2:0:0:
392,384,189882,2,0,P|358:376|321:373,1,55.0000016784668,2|8,0:0|0:0,0:0:0:0:
300,333,190206,2,0,P|296:278|323:231,2,110.000003356934,2|2|10,2:2|1:2|2:2,0:0:0:0:
248,354,191017,2,0,P|216:359|181:365,1,55.0000016784668,10|8,2:2|2:2,0:0:0:0:
144,339,191341,2,0,P|116:343|89:347,1,55.0000016784668,10|0,2:2|1:1,0:0:0:0:
37,330,191665,5,6,1:2:0:0:
2,225,191990,1,10,2:2:0:0:
103,182,192314,2,0,P|146:191|217:182,1,110.000003356934,10|10,2:2|2:2,0:0:0:0:
265,164,192801,1,2,1:2:0:0:
265,164,192963,1,8,2:2:0:0:
295,58,193287,1,10,2:2:0:0:
404,78,193611,2,0,P|434:125|416:191,1,110.000003356934,10|8,2:2|2:2,0:0:0:0:
401,227,194098,1,2,1:2:0:0:
401,227,194260,5,10,2:2:0:0:
432,332,194584,1,10,2:2:0:0:
329,372,194909,2,0,B|294:363|294:363|254:377|213:366,1,110.000003356934,10|8,2:2|2:2,0:0:0:0:
176,346,195395,1,2,1:2:0:0:
176,346,195557,1,8,2:2:0:0:
238,254,195882,2,0,P|221:205|233:142,1,110.000003356934,12|10,2:2|2:2,0:0:0:0:
263,106,196368,1,10,2:2:0:0:
263,106,196530,2,0,L|253:37,1,55.0000016784668,10|4,3:3|3:3,0:0:0:0:
225,4,196855,6,0,P|171:15|109:21,1,110.000003356934,6|2,1:2|1:2,0:0:0:0:
30,88,197503,2,0,P|41:142|47:204,1,110.000003356934,2|2,1:2|1:2,0:0:0:0:
58,255,197990,1,2,1:2:0:0:
58,255,198152,1,8,2:2:0:0:
139,329,198476,2,0,P|165:322|193:320,1,55.0000016784668,10|10,2:2|2:2,0:0:0:0:
230,279,198801,2,0,P|261:276|289:269,1,55.0000016784668,10|10,2:2|2:2,0:0:0:0:
322,231,199125,1,10,2:2:0:0:
424,271,199449,6,0,B|462:164|387:161|425:49,1,220.000006713867,6|8,1:2|2:2,0:0:0:0:
395,7,200260,2,0,L|325:20,1,55.0000016784668,8|8,2:2|2:2,0:0:0:0:
290,27,200584,1,8,2:2:0:0:
290,27,200747,1,14,2:2:0:0:
116,124,202044,6,0,P|135:166|137:269,1,134.999995880127,6|2,1:2|1:2,0:0:0:0:
191,334,202855,1,2,1:2:0:0:
191,334,203017,1,10,2:2:0:0:
271,294,203341,2,0,B|308:282|308:282|352:301|411:287,1,134.999995880127,2|2,1:2|1:2,0:0:0:0:
478,238,204152,1,2,1:2:0:0:
478,238,204314,1,10,2:2:0:0:
447,153,204638,6,0,P|390:138|313:177,1,134.999995880127,2|2,1:2|1:2,0:0:0:0:
240,199,205449,1,2,1:2:0:0:
240,199,205611,1,10,2:2:0:0:
189,124,205936,2,0,P|188:73|206:19,2,89.999997253418,2|10|2,1:2|2:2|2:2,0:0:0:0:
121,183,206909,2,0,P|129:216|131:236,1,44.999998626709,10|4,3:3|3:3,0:0:0:0:
135,271,207233,5,6,1:2:0:0:
256,192,207314,12,0,212098,0:0:0:0:
