osu file format v14

[General]
AudioFilename: audio.ogg
AudioLeadIn: 0
PreviewTime: 43684
Countdown: 0
SampleSet: Soft
StackLeniency: 0.9
Mode: 0
LetterboxInBreaks: 0
WidescreenStoryboard: 1

[Editor]
DistanceSpacing: 1.3
BeatDivisor: 4
GridSize: 4
TimelineZoom: 1.6

[Metadata]
Title:Unmeisenjou no Aria
TitleUnicode:運命線上のアリア
Artist:ShinRa-Bansho
ArtistUnicode:森羅万象
Creator:Matsuyuki Ame
Version:Insane
Source:東方紅魔郷 ~ the Embodiment of Scarlet Devil.
Tags:rk657 air on the line of fate touhou zun 東方project 06 th06 team shanghai alice 上海アリス幻樂団 2hu ネタミニティ Netaminity kaztora あよ ayo ツェペシュの幼き末裔 Young Descendant Tepes osanaki matsuei final Stage 6 theme レミリア・スカーレット remilia scarlet pop jpop j-pop rock jrock j-rock japanese Comic Market 94 C94 video game videogame koumakyou
BeatmapID:4494516
BeatmapSetID:2127697

[Difficulty]
HPDrainRate:5
CircleSize:4
OverallDifficulty:8
ApproachRate:9
SliderMultiplier:1.6
SliderTickRate:1

[Events]
//Background and Video events
0,0,"aa.jpg",0,0
Video,784,"video.mp4"
//Break Periods
2,21920,31499
2,112731,117120
2,149054,153444
//Storyboard Layer 0 (Background)
//Storyboard Layer 1 (Fail)
//Storyboard Layer 2 (Pass)
//Storyboard Layer 3 (Foreground)
//Storyboard Layer 4 (Overlay)
//Storyboard Sound Samples

[TimingPoints]
964,324.324324324324,4,2,1,50,1,0
964,-142.857142857143,4,2,1,50,0,0
11342,-100,4,2,1,80,0,0
21720,-100,4,2,1,50,0,0
32099,-111.111111111111,4,2,1,75,0,0
35991,-90.9090909090908,4,2,1,75,0,0
36963,-111.111111111111,4,2,1,75,0,0
41018,-90.9090909090908,4,2,1,75,0,0
42477,-100,4,2,1,75,0,0
43774,-90.9090909090909,4,2,1,85,0,1
61936,-111.111111111111,4,2,1,85,0,1
64531,-142.857142857143,4,2,1,65,0,0
68423,-100,4,2,1,65,0,0
69072,-90.9090909090908,4,2,1,75,0,0
69720,-125,4,2,1,50,0,0
74909,-125,4,2,1,75,0,0
78639,-100,4,2,1,75,0,0
80099,-142.857142857143,4,2,1,60,0,0
84153,-125,4,2,1,60,0,0
85288,-111.111111111111,4,2,1,60,0,0
86585,-111.111111111111,4,2,1,65,0,0
87234,-111.111111111111,4,2,1,70,0,0
87882,-100,4,2,1,75,0,0
91774,-90.9090909090909,4,2,1,85,0,1
112207,-90.9090909090909,4,2,1,60,0,1
112531,-100,4,2,1,60,0,0
117288,294.117647058824,4,2,1,70,1,0
117720,324.324324324324,4,2,1,70,1,0
117720,-99.9999999999999,4,2,1,70,0,0
121611,-99.9999999999999,4,2,1,80,0,0
133287,-111.111111111111,4,2,1,80,0,0
137017,-99.9999999999999,4,2,1,80,0,0
138476,-125,4,2,1,70,0,0
140098,-111.111111111111,4,2,1,50,0,0
140422,-111.111111111111,4,2,1,60,0,0
140747,-111.111111111111,4,2,1,70,0,0
141071,-125,4,2,1,70,0,0
144963,-100,4,2,1,80,0,0
148855,-100,4,2,1,50,0,0
154692,-100,4,2,1,55,0,0
155017,-100,4,2,1,60,0,0
155341,-100,4,2,1,65,0,0
155665,-100,4,2,1,70,0,0
155990,-100,4,2,1,75,0,0
157936,-111.111111111111,4,2,1,75,0,0
159882,-99.9999999999999,4,2,1,75,0,0
160530,-90.9090909090909,4,2,1,85,0,1
171233,-83.3333333333333,4,2,1,85,0,1
173503,-90.9090909090909,4,2,1,85,0,1
198152,-90.9090909090909,4,2,1,90,0,1
200747,-125,4,2,1,90,0,0
202044,-142.857142857143,4,2,1,50,0,0
212098,-142.857142857143,4,2,1,5,0,0

[Colours]
Combo1 : 79,166,98
Combo2 : 225,221,51
Combo3 : 124,141,211
Combo4 : 193,98,126

[HitObjects]
252,327,964,6,0,P|237:266|248:205,1,111.999996582031,2|10,1:2|2:2,0:0:0:0:
243,217,1612,1,2,2:2:0:0:
325,152,1774,2,0,P|336:194|337:218,1,55.9999982910157,2|8,1:2|2:2,0:0:0:0:
393,291,2099,2,0,B|446:276|444:303|512:284,2,111.999996582031,2|2|2,1:2|1:2|2:2,0:0:0:0:
311,346,2909,2,0,P|287:340|254:337,1,55.9999982910157,2|0,1:2|1:1,0:0:0:0:
186,296,3234,1,10,2:2:0:0:
32,362,3558,6,0,P|42:323|30:248,1,111.999996582031,2|10,1:2|2:2,0:0:0:0:
32,252,4207,1,2,2:2:0:0:
5,158,4369,2,0,P|36:162|64:165,1,55.9999982910157,2|8,1:2|2:2,0:0:0:0:
136,62,4693,2,0,B|57:78|57:78|17:58,2,111.999996582031,2|2|2,1:2|1:2|2:2,0:0:0:0:
228,33,5504,1,2,1:2:0:0:
212,110,5666,1,2,1:2:0:0:
196,186,5828,1,10,2:2:0:0:
343,113,6153,6,0,P|388:101|457:100,1,111.999996582031,2|10,1:2|2:2,0:0:0:0:
453,99,6801,1,2,2:2:0:0:
497,190,6963,2,0,P|493:224|489:248,1,55.9999982910157,2|8,1:2|2:2,0:0:0:0:
405,294,7288,2,0,P|390:249|401:179,2,111.999996582031,2|0|2,1:2|1:1|2:2,0:0:0:0:
349,372,8099,2,0,P|319:363|287:361,1,55.9999982910157,2|0,1:2|1:1,0:0:0:0:
229,290,8423,2,0,P|259:281|291:279,1,55.9999982910157,10|0,2:2|1:1,0:0:0:0:
385,185,8747,5,10,2:2:0:0:
278,160,8909,1,0,1:1:0:0:
330,45,9072,2,0,P|341:81|341:110,1,55.9999982910157,10|8,2:2|2:2,0:0:0:0:
348,116,9315,1,8,2:2:0:0:
348,115,9396,1,10,2:2:0:0:
238,75,9558,1,10,2:2:0:0:
193,193,9720,1,8,2:2:0:0:
231,37,9882,1,2,1:2:0:0:
289,264,11342,6,0,P|237:278|198:297,1,80,6|0,1:2|0:0,0:0:0:0:
143,132,11666,2,0,P|181:170|217:194,1,80,10|2,2:2|0:1,0:0:0:0:
81,330,11991,2,0,P|94:277|97:234,1,80,2|2,1:2|0:1,0:0:0:0:
143,132,12315,1,10,2:2:0:0:
271,250,12477,6,0,P|330:261|422:222,1,160,2|2,2:2|2:2,0:0:0:0:
506,151,12963,1,10,2:2:0:0:
366,95,13126,1,2,2:2:0:0:
450,11,13288,2,0,P|450:58|438:98,1,80,2|2,1:2|0:1,0:0:0:0:
441,89,13531,1,2,2:2:0:0:
441,89,13612,1,8,2:2:0:0:
355,21,13774,1,2,2:2:0:0:
282,149,13936,6,0,B|234:135|234:135|190:147|190:147|122:130,1,160,2|8,1:2|2:2,0:0:0:0:
127,131,14423,1,2,0:1:0:0:
23,211,14585,2,0,P|6:167|5:132,1,80,0|2,1:1|0:1,0:0:0:0:
144,234,14909,2,0,B|150:297|111:341|111:341|124:390,1,160,8|0,2:2|1:1,0:0:0:0:
304,301,15396,6,0,B|261:301|261:301|219:285,1,80,2|8,2:2|2:2,0:0:0:0:
142,185,15720,1,2,2:2:0:0:
142,185,15801,1,2,2:2:0:0:
142,185,15882,2,0,L|147:224,3,40,2|2|2|2,1:2|2:2|2:2|2:2,0:0:0:0:
226,133,16207,1,8,2:2:0:0:
232,100,16288,1,8,2:2:0:0:
238,68,16369,1,8,2:2:0:0:
244,36,16450,1,8,2:2:0:0:
251,4,16531,6,0,P|295:15|336:18,1,80,6|0,1:2|0:0,0:0:0:0:
465,9,16855,2,0,P|433:41|410:75,1,80,10|2,2:2|0:1,0:0:0:0:
358,194,17180,2,0,P|345:150|327:113,1,80,2|2,1:2|0:1,0:0:0:0:
329,17,17504,1,10,2:2:0:0:
499,97,17666,6,0,P|511:144|451:247,1,160,2|2,2:2|2:2,0:0:0:0:
379,313,18153,1,10,2:2:0:0:
331,204,18315,1,2,2:2:0:0:
379,313,18477,1,2,1:2:0:0:
263,381,18639,1,2,2:2:0:0:
189,263,18801,2,0,P|244:273|281:277,1,80,10|2,2:2|0:1,0:0:0:0:
368,113,19126,6,0,B|293:96|298:145|208:122,1,160,2|8,1:2|2:2,0:0:0:0:
211,122,19612,1,2,0:1:0:0:
117,30,19774,2,0,P|128:72|128:119,1,80,0|2,1:1|0:1,0:0:0:0:
8,217,20099,2,0,P|9:177|20:138,1,80,8|2,2:2|2:2,0:0:0:0:
166,199,20423,5,2,1:2:0:0:
59,302,20585,1,8,2:2:0:0:
218,373,20747,1,10,2:2:0:0:
245,373,20828,1,8,2:2:0:0:
272,366,20909,1,0,1:1:0:0:
297,353,20991,1,0,1:1:0:0:
318,336,21072,2,0,P|304:271|309:203,1,120,10|0,2:2|0:0,0:0:0:0:
306,217,21396,1,8,3:3:0:0:
247,30,21720,5,4,1:2:0:0:
375,118,32099,6,0,P|315:122|229:93,1,143.999995605469,6|10,1:2|2:2,0:0:0:0:
235,97,32585,1,2,2:2:0:0:
134,155,32747,2,0,P|131:205|145:233,1,71.9999978027344,2|2,1:2|0:1,0:0:0:0:
139,224,32991,1,2,2:2:0:0:
139,224,33072,1,8,2:2:0:0:
89,354,33234,6,0,B|162:333|160:371|241:342,1,143.999995605469,2|2,2:2|2:2,0:0:0:0:
344,364,33720,1,10,2:2:0:0:
314,272,33882,1,2,2:2:0:0:
432,237,34045,2,0,P|442:201|438:168,1,71.9999978027344,2|2,1:2|0:1,0:0:0:0:
440,158,34288,1,2,2:2:0:0:
445,150,34369,6,0,B|398:136|398:136|355:158|286:145,1,143.999995605469,8|0,2:2|1:1,0:0:0:0:
174,58,34855,1,2,2:2:0:0:
271,0,35018,2,0,P|264:43|261:81,1,71.9999978027344,10|2,2:2|2:2,0:0:0:0:
186,148,35342,1,2,1:2:0:0:
93,99,35504,2,0,P|56:98|16:87,1,71.9999978027344,2|8,2:2|2:2,0:0:0:0:
112,186,35828,1,2,2:2:0:0:
53,307,35991,6,0,P|107:287|197:284,1,132.00000402832,6|0,1:2|0:0,0:0:0:0:
231,220,36315,2,0,P|212:283|229:358,1,132.00000402832,10|0,2:2|0:0,0:0:0:0:
297,384,36639,1,2,1:2:0:0:
408,289,36801,1,8,2:2:0:0:
408,289,36882,1,8,2:2:0:0:
408,289,36963,2,0,P|359:285|319:276,1,71.9999978027344,10|8,2:2|3:3,0:0:0:0:
186,148,37288,6,0,B|227:134|227:134|269:140|269:140|328:123,1,143.999995605469,4|10,1:2|2:2,0:0:0:0:
475,90,37774,1,2,2:2:0:0:
409,10,37936,2,0,P|379:8|326:-4,1,71.9999978027344,2|2,1:2|2:2,0:0:0:0:
405,147,38261,1,10,2:2:0:0:
405,147,38423,1,2,2:2:0:0:
244,86,38585,6,0,P|265:147|262:228,1,143.999995605469,2|10,1:2|2:2,0:0:0:0:
240,337,39072,2,0,P|201:332|154:327,1,71.9999978027344,2|0,2:2|1:1,0:0:0:0:
50,268,39396,2,0,P|97:259|136:243,1,71.9999978027344,2|8,2:2|2:2,0:0:0:0:
187,188,39720,1,2,2:2:0:0:
69,58,39882,6,0,B|31:104|31:104|58:193,1,143.999995605469,4|10,1:2|2:2,0:0:0:0:
55,184,40369,1,2,2:2:0:0:
157,81,40531,1,2,1:2:0:0:
277,127,40693,1,10,2:2:0:0:
148,70,40855,1,2,1:2:0:0:
193,266,41018,6,0,P|263:269|335:223,1,132.00000402832,14|0,2:2|0:0,0:0:0:0:
329,226,41342,2,0,L|387:240,1,44.0000013427735,10|0,2:2|0:0,0:0:0:0:
476,331,41504,2,0,L|418:345,1,44.0000013427735,10|0,3:3|0:0,0:0:0:0:
295,384,41666,1,2,1:2:0:0:
295,384,41747,1,0,1:1:0:0:
295,384,41828,1,10,2:2:0:0:
422,109,42477,6,0,P|362:107|295:86,1,120,6|0,1:2|0:0,0:0:0:0:
250,36,42801,2,0,P|264:105|268:176,1,120,6|0,1:2|0:0,0:0:0:0:
260,232,43126,5,2,1:2:0:0:
131,160,43288,1,10,2:2:0:0:
131,160,43369,1,8,2:2:0:0:
131,160,43450,2,0,P|89:173|49:172,1,80,10|0,2:2|1:1,0:0:0:0:
12,233,43693,1,8,2:2:0:0:
6,243,43774,6,0,P|2:298|-4:334,1,88.000002685547,6|0,1:2|0:0,0:0:0:0:
159,382,44099,2,0,P|163:327|169:291,1,88.000002685547,10|2,2:2|0:1,0:0:0:0:
131,160,44423,2,0,P|195:176|300:129,1,176.000005371094,2|10,1:2|2:2,0:0:0:0:
345,29,44909,6,0,P|306:23|258:13,1,88.000002685547,2|0,2:2|1:1,0:0:0:0:
408,178,45234,2,0,P|459:175|495:158,1,88.000002685547,2|8,2:2|2:2,0:0:0:0:
430,71,45558,1,2,2:2:0:0:
288,139,45720,2,0,P|299:184|305:230,1,88.000002685547,2|2,1:2|0:1,0:0:0:0:
406,275,46045,1,10,2:2:0:0:
311,377,46207,5,2,0:1:0:0:
311,377,46288,1,2,0:1:0:0:
311,377,46369,2,0,P|268:369|219:366,1,88.000002685547,2|2,1:2|0:1,0:0:0:0:
138,276,46693,2,0,P|183:257|227:255,1,88.000002685547,10|2,2:2|0:1,0:0:0:0:
40,384,47018,2,0,B|55:331|23:285|23:285|28:246|28:246|9:218,1,176.000005371094,2|10,1:2|2:2,0:0:0:0:
104,94,47504,6,0,P|91:143|87:188,1,88.000002685547,2|0,2:2|1:1,0:0:0:0:
235,261,47828,2,0,P|248:212|252:167,1,88.000002685547,2|8,2:2|2:2,0:0:0:0:
292,36,48153,1,2,2:2:0:0:
185,109,48315,1,2,1:2:0:0:
292,36,48477,1,2,2:2:0:0:
345,180,48639,2,0,B|391:162|391:162|441:168,1,88.000002685547,10|2,2:2|0:1,0:0:0:0:
507,333,48963,6,0,P|471:326|421:318,1,88.000002685547,6|2,1:2|0:1,0:0:0:0:
294,263,49288,2,0,P|308:319|312:352,1,88.000002685547,10|2,2:2|0:1,0:0:0:0:
313,358,49531,1,2,2:2:0:0:
308,367,49612,2,0,B|220:349|235:393|134:369,1,176.000005371094,2|10,1:2|2:2,0:0:0:0:
0,282,50099,6,0,P|59:284|102:266,1,88.000002685547,2|0,2:2|1:1,0:0:0:0:
180,152,50423,2,0,P|201:206|197:282,1,132.00000402832,2|0,2:2|0:0,0:0:0:0:
197,279,50747,1,2,2:2:0:0:
75,195,50909,2,0,P|83:154|88:102,1,88.000002685547,2|2,1:2|0:1,0:0:0:0:
287,69,51234,2,0,P|279:110|274:162,1,88.000002685547,10|2,2:2|0:1,0:0:0:0:
274,155,51477,1,2,0:1:0:0:
274,155,51558,6,0,P|318:148|367:141,1,88.000002685547,2|2,1:2|0:1,0:0:0:0:
414,261,51882,2,0,P|363:259|323:241,1,88.000002685547,10|2,2:2|0:1,0:0:0:0:
496,130,52207,2,0,B|480:183|480:183|521:235|496:312,1,176.000005371094,2|10,1:2|2:2,0:0:0:0:
327,373,52693,6,0,B|279:365|244:351|244:351|189:368,1,132.00000402832,2|0,2:2|0:0,0:0:0:0:
200,364,53018,2,0,P|194:312|184:267,1,88.000002685547,2|12,2:2|2:2,0:0:0:0:
6,245,53342,1,2,1:2:0:0:
6,245,53423,1,8,2:2:0:0:
6,245,53504,2,0,P|12:297|22:342,1,88.000002685547,10|0,2:2|1:1,0:0:0:0:
106,209,53828,1,8,2:2:0:0:
112,183,53909,1,8,2:2:0:0:
118,161,53991,1,8,2:2:0:0:
125,135,54072,1,8,2:2:0:0:
134,109,54153,6,0,P|87:117|45:125,1,88.000002685547,6|0,1:2|0:0,0:0:0:0:
212,0,54477,2,0,P|165:8|123:16,1,88.000002685547,10|2,2:2|0:1,0:0:0:0:
269,176,54801,2,0,P|222:184|180:192,1,88.000002685547,2|2,1:2|0:1,0:0:0:0:
228,92,55126,1,10,2:2:0:0:
380,11,55288,6,0,B|407:51|407:51|405:87|405:87|437:124|424:194,1,176.000005371094,2|2,2:2|2:2,0:0:0:0:
292,267,55774,1,10,2:2:0:0:
345,149,55936,1,2,2:2:0:0:
475,263,56099,2,0,P|420:260|379:248,1,88.000002685547,2|2,1:2|0:1,0:0:0:0:
388,251,56342,1,2,2:2:0:0:
388,251,56423,1,8,2:2:0:0:
350,362,56585,1,2,2:2:0:0:
189,340,56747,6,0,P|163:274|174:169,1,176.000005371094,2|8,1:2|2:2,0:0:0:0:
173,171,57234,1,2,0:1:0:0:
258,75,57396,2,0,P|274:128|279:176,1,88.000002685547,0|2,1:1|0:1,0:0:0:0:
84,86,57720,2,0,P|82:41|105:-6,1,88.000002685547,8|2,2:2|0:1,0:0:0:0:
172,88,58045,5,0,1:1:0:0:
18,164,58207,2,0,P|24:207|38:249,1,88.000002685547,2|8,2:2|2:2,0:0:0:0:
119,349,58531,1,2,2:2:0:0:
119,349,58612,1,2,2:2:0:0:
119,349,58693,2,0,L|127:293,1,44.0000013427735,2|2,1:2|2:2,0:0:0:0:
182,211,58855,2,0,L|126:219,1,44.0000013427735,2|2,2:2|2:2,0:0:0:0:
226,320,59018,2,0,P|287:317|364:351,1,132.00000402832,8|0,2:2|0:0,0:0:0:0:
352,342,59342,6,0,P|402:332|452:326,1,88.000002685547,6|0,1:2|0:0,0:0:0:0:
512,214,59666,2,0,P|468:222|425:228,1,88.000002685547,10|2,2:2|0:1,0:0:0:0:
306,145,59991,2,0,P|356:135|405:128,1,88.000002685547,2|2,1:2|0:1,0:0:0:0:
286,256,60315,1,10,2:2:0:0:
168,157,60477,6,0,B|185:103|185:103|169:59|169:59|192:-19,1,176.000005371094,2|2,2:2|2:2,0:0:0:0:
260,59,60963,1,14,2:2:0:0:
94,105,61126,1,2,1:2:0:0:
94,105,61207,1,8,2:2:0:0:
94,105,61288,2,0,P|45:105|-2:93,1,88.000002685547,10|2,2:2|1:2,0:0:0:0:
0,109,61531,1,0,1:1:0:0:
0,109,61612,2,0,L|9:162,1,44.0000013427735,10|8,2:2|3:3,0:0:0:0:
95,203,61774,2,0,L|86:256,1,44.0000013427735,4|4,3:3|3:3,0:0:0:0:
11,337,61936,6,0,B|49:327|49:327|100:344|163:334,1,143.999995605469,6|0,1:2|0:0,0:0:0:0:
246,376,62423,1,8,2:2:0:0:
246,376,62504,1,8,2:2:0:0:
246,376,62585,2,0,P|270:323|247:233,1,143.999995605469,0|8,1:1|2:2,0:0:0:0:
172,139,63072,1,10,3:3:0:0:
172,139,63153,1,8,3:3:0:0:
172,139,63234,5,10,1:2:0:0:
342,185,63396,1,8,1:2:0:0:
149,150,63558,1,10,1:2:0:0:
275,0,63720,1,8,1:2:0:0:
367,268,64531,6,0,P|430:270|494:239,2,111.999996582031,6|8|0,1:2|2:2|1:1,0:0:0:0:
272,228,65342,1,2,2:2:0:0:
272,228,65504,2,0,P|264:266|261:292,1,55.9999982910157,10|2,2:2|2:2,0:0:0:0:
146,379,65828,6,0,P|126:337|122:260,1,111.999996582031,2|10,1:2|2:2,0:0:0:0:
54,214,66315,2,0,P|17:222|-14:225,1,55.9999982910157,2|0,2:2|1:1,0:0:0:0:
97,125,66639,1,2,2:2:0:0:
176,156,66801,2,0,P|212:147|244:145,1,55.9999982910157,10|2,2:2|2:2,0:0:0:0:
312,38,67126,6,0,P|348:89|344:154,1,111.999996582031,2|10,1:2|2:2,0:0:0:0:
411,204,67612,2,0,P|447:208|472:215,1,55.9999982910157,2|0,2:2|1:1,0:0:0:0:
382,309,67936,1,2,2:2:0:0:
308,271,68099,2,0,P|272:275|247:282,1,55.9999982910157,10|10,2:2|2:2,0:0:0:0:
186,324,68342,1,8,2:2:0:0:
175,330,68423,6,0,P|155:289|158:201,1,120,10|8,2:2|3:3,0:0:0:0:
217,154,68747,1,10,3:3:0:0:
225,157,68828,1,8,3:3:0:0:
233,160,68909,2,0,L|242:213,1,40,4|4,3:3|3:3,0:0:0:0:
97,78,69072,6,0,B|161:59|156:97|237:66,1,132.00000402832,6|0,1:2|0:0,0:0:0:0:
322,8,69396,2,0,B|351:45|351:45|327:81|326:144,1,132.00000402832,6|0,1:2|0:0,0:0:0:0:
377,210,69720,6,0,B|427:221|427:221|461:213|461:213|516:228,1,128,4|2,1:2|1:2,0:0:0:0:
501,224,70207,1,2,1:2:0:0:
395,347,70369,2,0,P|330:346|272:314,1,128,10|2,2:2|1:2,0:0:0:0:
245,245,70855,1,2,0:1:0:0:
245,245,70936,1,0,1:1:0:0:
245,245,71018,1,2,1:2:0:0:
130,364,71180,6,0,B|111:297|137:300|118:232,1,128,8|2,2:2|1:2,0:0:0:0:
62,172,71666,2,0,P|23:183|-4:184,1,64,8|2,2:2|2:2,0:0:0:0:
76,71,71991,1,2,1:2:0:0:
220,102,72153,5,2,2:2:0:0:
220,102,72234,1,0,1:1:0:0:
220,102,72315,2,0,P|267:108|355:85,1,128,2|2,1:2|2:2,0:0:0:0:
344,90,72801,1,2,1:2:0:0:
461,14,72963,2,0,B|443:53|443:53|463:97|442:156,1,128,10|2,2:2|1:2,0:0:0:0:
361,247,73450,5,2,2:2:0:0:
361,247,73531,1,0,1:1:0:0:
361,247,73612,1,0,1:1:0:0:
392,359,73774,2,0,P|439:366|516:328,1,128,8|8,2:2|2:2,0:0:0:0:
510,333,74180,1,8,2:2:0:0:
510,333,74261,1,8,2:2:0:0:
369,234,74423,5,10,3:3:0:0:
289,314,74585,2,0,P|300:352|302:400,1,64,6|6,3:3|3:3,0:0:0:0:
116,290,74909,5,10,1:2:0:0:
369,234,76207,1,10,1:2:0:0:
123,102,77504,1,10,1:2:0:0:
375,23,78639,6,0,P|379:79|331:178,1,160,4|8,1:2|3:3,0:0:0:0:
337,171,79045,1,8,3:3:0:0:
337,171,79126,1,8,3:3:0:0:
219,134,79288,1,4,3:3:0:0:
157,285,79450,6,0,P|204:273|244:268,1,80,8|0,2:2|1:1,0:0:0:0:
235,268,79693,1,8,2:2:0:0:
235,268,79774,1,8,2:2:0:0:
150,193,79936,1,0,1:1:0:0:
50,358,80099,6,0,P|43:287|31:232,1,111.999996582031,6|2,1:2|1:2,0:0:0:0:
34,247,80585,1,2,2:2:0:0:
0,160,80747,2,0,P|37:155|64:148,1,55.9999982910157,2|0,1:2|0:0,0:0:0:0:
154,123,81072,2,0,P|149:160|142:187,1,55.9999982910157,0|2,1:1|2:2,0:0:0:0:
146,187,81315,1,2,0:1:0:0:
150,193,81396,6,0,B|209:180|204:215|285:189,1,111.999996582031,0|2,1:1|1:2,0:0:0:0:
260,195,81882,1,2,2:2:0:0:
333,98,82045,2,0,P|327:61|325:11,2,83.9999974365235,2|2|2,1:2|2:2|2:2,0:0:0:0:
452,154,82693,6,0,P|459:209|430:281,1,111.999996582031,2|2,1:2|1:2,0:0:0:0:
442,262,83180,1,2,2:2:0:0:
387,373,83342,2,0,P|420:382|458:382,1,55.9999982910157,2|0,1:2|0:0,0:0:0:0:
344,280,83666,2,0,L|274:294,1,55.9999982910157,0|2,1:1|2:2,0:0:0:0:
162,361,83991,5,0,1:1:0:0:
209,223,84153,2,0,P|193:173|206:93,1,128,10|10,2:2|3:3,0:0:0:0:
203,99,84558,1,8,3:3:0:0:
203,99,84639,1,10,3:3:0:0:
290,45,84801,2,0,P|295:28|297:12,2,32,4|6|4,3:3|3:3|3:3,0:0:0:0:
347,128,85126,1,2,1:2:0:0:
167,176,85288,6,0,B|98:161|99:189|17:170,1,143.999995605469,6|2,1:2|1:2,0:0:0:0:
24,171,85774,1,2,2:2:0:0:
106,300,85936,2,0,B|142:282|142:282|189:283,1,71.9999978027344,2|0,1:2|1:1,0:0:0:0:
282,183,86261,2,0,P|269:229|265:270,1,71.9999978027344,0|2,1:1|1:2,0:0:0:0:
393,354,86585,5,0,1:1:0:0:
393,354,86747,1,2,1:2:0:0:
464,283,86909,1,2,1:2:0:0:
464,283,87072,1,2,1:2:0:0:
372,205,87234,5,2,1:2:0:0:
296,291,87396,1,0,1:1:0:0:
390,196,87558,1,0,1:1:0:0:
245,117,87720,1,2,1:2:0:0:
461,154,87882,6,0,B|475:121|475:121|471:86|471:86|496:49|494:-3,1,160,6|8,1:2|2:2,0:0:0:0:
322,15,88369,1,8,2:2:0:0:
322,15,88450,1,8,2:2:0:0:
322,15,88531,2,0,L|332:62,1,40,8|8,1:2|2:2,0:0:0:0:
374,159,88693,2,0,P|353:153|327:149,1,40,8|8,2:2|2:2,0:0:0:0:
210,89,88855,5,8,1:2:0:0:
186,84,88936,1,8,2:2:0:0:
161,85,89018,1,8,2:2:0:0:
138,94,89099,1,8,2:2:0:0:
117,107,89180,1,8,2:2:0:0:
242,369,90477,6,0,P|258:305|244:231,1,120,4|0,1:2|0:0,0:0:0:0:
251,252,90801,1,0,1:1:0:0:
144,174,90963,1,2,1:2:0:0:
144,174,91045,1,0,1:1:0:0:
144,174,91126,2,0,P|84:189|49:191,1,80,10|8,2:2|2:2,0:0:0:0:
197,60,91450,1,10,2:2:0:0:
223,67,91531,1,8,2:2:0:0:
251,74,91612,1,8,2:2:0:0:
278,78,91693,1,8,2:2:0:0:
306,80,91774,6,0,B|298:126|298:126|321:177,1,88.000002685547,6|0,1:2|0:0,0:0:0:0:
484,104,92099,2,0,P|444:115|392:120,1,88.000002685547,10|2,2:2|0:1,0:0:0:0:
262,246,92423,2,0,B|310:243|310:243|339:258|339:258|387:250|430:288,1,176.000005371094,2|10,1:2|2:2,0:0:0:0:
308,380,92909,6,0,P|253:373|224:357,1,88.000002685547,2|0,2:2|1:1,0:0:0:0:
76,305,93234,2,0,P|128:292|165:282,1,88.000002685547,2|8,2:2|2:2,0:0:0:0:
252,211,93558,1,2,2:2:0:0:
159,72,93720,2,0,P|151:127|148:164,1,88.000002685547,2|2,1:2|0:1,0:0:0:0:
144,168,93963,1,2,2:2:0:0:
140,178,94045,2,0,B|96:161|96:161|50:167,1,88.000002685547,10|2,2:2|0:1,0:0:0:0:
250,118,94369,6,0,P|301:115|345:100,1,88.000002685547,2|2,1:2|0:1,0:0:0:0:
409,252,94693,2,0,P|366:239|322:238,1,88.000002685547,10|2,2:2|0:1,0:0:0:0:
435,45,95018,2,0,B|431:120|485:149|485:149|501:215,1,176.000005371094,2|10,1:2|2:2,0:0:0:0:
387,352,95504,6,0,P|395:308|408:259,1,88.000002685547,2|0,2:2|1:1,0:0:0:0:
252,133,95828,2,0,P|244:177|231:226,1,88.000002685547,2|8,2:2|2:2,0:0:0:0:
257,362,96153,1,2,2:2:0:0:
324,244,96315,1,2,1:2:0:0:
257,362,96477,1,2,2:2:0:0:
129,283,96639,2,0,P|78:284|34:264,1,88.000002685547,10|2,2:2|0:1,0:0:0:0:
0,84,96963,6,0,P|46:76|98:65,1,88.000002685547,6|2,1:2|0:1,0:0:0:0:
228,6,97288,2,0,P|216:62|215:100,1,88.000002685547,10|2,2:2|0:1,0:0:0:0:
219,103,97531,1,2,2:2:0:0:
222,113,97612,2,0,B|272:130|272:130|322:94|405:105,1,176.000005371094,2|10,1:2|2:2,0:0:0:0:
489,226,98099,6,0,P|508:182|502:137,1,88.000002685547,2|0,2:2|1:1,0:0:0:0:
324,194,98423,2,0,B|346:285|346:285|325:344,1,132.00000402832,2|0,2:2|0:0,0:0:0:0:
333,321,98747,1,2,2:2:0:0:
454,384,98909,2,0,P|452:345|427:292,1,88.000002685547,2|2,1:2|0:1,0:0:0:0:
245,228,99234,2,0,P|236:269|236:324,1,88.000002685547,10|2,2:2|0:1,0:0:0:0:
235,314,99477,1,2,0:1:0:0:
235,314,99558,6,0,P|192:320|148:332,1,88.000002685547,2|2,1:2|0:1,0:0:0:0:
39,234,99882,2,0,P|81:227|125:215,1,88.000002685547,10|2,2:2|0:1,0:0:0:0:
259,118,100207,2,0,B|206:107|206:107|165:62|78:73,1,176.000005371094,2|10,1:2|2:2,0:0:0:0:
93,71,100693,1,2,2:2:0:0:
213,217,100855,6,0,L|331:191,1,88.000002685547,0|2,1:1|2:2,0:0:0:0:
298,198,101099,1,8,2:2:0:0:
298,198,101180,1,8,2:2:0:0:
392,99,101342,1,10,2:2:0:0:
392,99,101423,1,8,2:2:0:0:
392,99,101504,2,0,P|396:127|404:146,1,44.0000013427735,2|8,1:2|2:2,0:0:0:0:
486,221,101666,2,0,P|464:225|439:233,1,44.0000013427735,8|8,2:2|2:2,0:0:0:0:
349,291,101828,1,8,2:2:0:0:
361,308,101909,1,8,3:3:0:0:
367,329,101991,1,4,3:3:0:0:
370,350,102072,1,4,3:3:0:0:
367,371,102153,6,0,P|320:363|278:360,1,88.000002685547,6|0,1:2|0:0,0:0:0:0:
174,217,102477,2,0,P|220:224|263:228,1,88.000002685547,10|2,2:2|0:1,0:0:0:0:
125,384,102801,2,0,P|78:376|36:373,1,88.000002685547,2|2,1:2|0:1,0:0:0:0:
198,310,103126,1,10,2:2:0:0:
54,222,103288,6,0,B|20:177|30:127|30:127|14:94|14:94|15:55,1,176.000005371094,2|2,2:2|2:2,0:0:0:0:
170,10,103774,1,10,2:2:0:0:
113,139,103936,1,2,2:2:0:0:
280,99,104099,2,0,P|230:93|167:81,1,88.000002685547,2|2,1:2|0:1,0:0:0:0:
192,86,104342,1,2,2:2:0:0:
192,86,104423,1,8,2:2:0:0:
220,212,104585,1,2,2:2:0:0:
378,133,104747,6,0,B|423:122|423:122|488:134|513:208,1,176.000005371094,2|8,1:2|2:2,0:0:0:0:
512,206,105234,1,2,0:1:0:0:
415,381,105396,2,0,P|407:340|400:271,1,88.000002685547,0|2,1:1|0:1,0:0:0:0:
502,301,105720,1,8,2:2:0:0:
322,213,105882,6,0,P|263:235|144:229,1,176.000005371094,2|2,2:2|2:2,0:0:0:0:
151,231,106288,1,2,2:2:0:0:
151,231,106369,1,10,2:2:0:0:
197,127,106531,1,2,2:2:0:0:
89,59,106693,1,2,1:2:0:0:
72,73,106774,1,2,2:2:0:0:
58,90,106855,1,2,2:2:0:0:
51,110,106936,1,2,2:2:0:0:
49,132,107018,2,0,P|56:164|58:179,3,44.0000013427735,10|2|2|2,2:2|2:2|2:2|2:2,0:0:0:0:
4,242,107342,6,0,P|11:292|23:331,1,88.000002685547,6|0,1:2|0:0,0:0:0:0:
160,384,107666,2,0,P|154:340|142:298,1,88.000002685547,10|2,2:2|0:1,0:0:0:0:
230,166,107991,2,0,P|237:216|249:255,1,88.000002685547,2|2,1:2|0:1,0:0:0:0:
114,194,108315,1,10,2:2:0:0:
249,339,108477,6,0,B|289:333|289:333|316:314|316:314|375:321|424:276,1,176.000005371094,2|2,2:2|2:2,0:0:0:0:
512,220,108963,1,14,2:2:0:0:
389,168,109126,1,2,1:2:0:0:
470,24,109288,1,8,3:3:0:0:
487,43,109369,1,8,0:0:0:0:
494,68,109450,1,8,2:2:0:0:
495,94,109531,1,8,2:2:0:0:
488,115,109612,2,0,P|441:130|393:131,1,88.000002685547,2|0,1:2|1:1,0:0:0:0:
256,16,109936,6,0,P|242:75|255:165,1,132.00000402832,6|0,1:2|0:0,0:0:0:0:
248,145,110261,2,0,P|200:140|157:134,1,88.000002685547,0|8,1:1|2:2,0:0:0:0:
51,226,110585,2,0,P|93:251|194:232,1,132.00000402832,0|0,1:1|0:0,0:0:0:0:
173,245,110909,2,0,P|187:309|188:347,1,88.000002685547,8|2,2:2|2:2,0:0:0:0:
402,233,111234,5,10,1:2:0:0:
249,156,111396,1,8,1:2:0:0:
408,223,111558,1,10,1:2:0:0:
273,352,111720,1,8,1:2:0:0:
345,160,111882,2,0,B|321:103|321:103|343:22,1,117.333336914063,0|8,1:1|3:3,0:0:0:0:
397,2,112207,2,0,P|430:6|459:8,2,58.6666684570313,10|4|4,3:3|3:3|3:3,0:0:0:0:
254,27,112531,5,4,1:2:0:0:
341,114,117720,6,0,P|281:96|206:108,1,106.666666666667,4|8,1:2|2:2,0:0:0:0:
159,61,118044,2,0,P|150:28|150:3,2,53.3333333333333,8|4|4,3:3|3:3|3:3,0:0:0:0:
114,142,118368,6,0,P|123:212|107:269,1,106.666666666667,8|8,1:2|2:2,0:0:0:0:
70,310,118692,1,8,3:3:0:0:
56,305,118801,2,0,P|16:301|-18:294,1,53.3333333333333,4|4,3:3|3:3,0:0:0:0:
156,372,119017,6,0,B|192:358|192:358|227:366|278:355,1,106.666666666667,8|8,1:2|2:2,0:0:0:0:
342,332,119341,2,0,P|348:357|352:385,2,53.3333333333333,8|4|4,3:3|3:3|3:3,0:0:0:0:
252,261,119665,6,0,P|243:202|262:136,1,106.666666666667,8|8,1:2|2:2,0:0:0:0:
291,89,119990,1,8,3:3:0:0:
286,73,120098,2,0,P|280:38|276:8,1,53.3333333333333,4|4,3:3|3:3,0:0:0:0:
388,110,120314,6,0,P|450:108|508:132,1,106.666666666667,8|8,1:2|2:2,0:0:0:0:
504,204,120638,2,0,L|514:263,2,53.3333333333333,8|4|4,3:3|3:3|3:3,0:0:0:0:
472,328,120963,6,0,P|410:330|352:306,1,106.666666666667,8|8,1:2|2:2,0:0:0:0:
320,249,121287,1,8,3:3:0:0:
324,235,121395,2,0,L|314:176,1,53.3333333333333,4|4,3:3|3:3,0:0:0:0:
200,88,121611,6,0,P|161:84|108:78,1,80,8|8,2:2|2:2,0:0:0:0:
42,146,121936,1,10,2:2:0:0:
200,88,122098,1,8,2:2:0:0:
170,235,122260,1,2,1:2:0:0:
24,144,122422,1,8,2:2:0:0:
24,144,122503,1,8,2:2:0:0:
24,144,122584,2,0,P|23:192|19:225,1,80,2|8,1:2|2:2,0:0:0:0:
5,300,122828,1,8,2:2:0:0:
12,311,122909,6,0,B|63:319|63:319|102:286|186:293,2,160,6|8|0,1:2|2:2|1:1,0:0:0:0:
104,216,123720,1,2,2:2:0:0:
155,367,123882,1,10,2:2:0:0:
285,300,124044,6,0,B|267:243|267:243|278:204|278:204|256:139,1,160,2|2,2:2|2:2,0:0:0:0:
200,9,124530,1,10,2:2:0:0:
99,75,124692,2,0,P|130:90|181:92,1,80,2|0,2:2|1:1,0:0:0:0:
296,18,125017,1,2,2:2:0:0:
411,138,125179,5,10,2:2:0:0:
411,138,125260,1,2,0:0:0:0:
411,138,125341,2,0,B|356:167|306:135|306:135|256:148,1,160,2|2,2:2|0:1,0:0:0:0:
363,246,125828,2,0,B|405:242|405:242|450:267,1,80,10|2,2:2|0:1,0:0:0:0:
353,364,126152,5,2,1:2:0:0:
263,249,126314,1,2,2:2:0:0:
372,364,126476,1,10,2:2:0:0:
168,329,126638,2,0,B|88:308|97:349|1:326,1,160,2|2,2:2|2:2,0:0:0:0:
109,186,127125,5,10,2:2:0:0:
109,186,127287,1,2,2:2:0:0:
52,111,127449,1,2,1:2:0:0:
176,141,127611,1,2,2:2:0:0:
50,256,127774,1,10,2:2:0:0:
193,131,127936,5,2,2:2:0:0:
193,131,128017,1,2,0:0:0:0:
193,131,128098,2,0,B|232:124|232:124|256:100|256:100|306:100|347:65,1,160,4|10,1:2|2:2,0:0:0:0:
443,2,128584,1,2,2:2:0:0:
507,145,128747,2,0,P|462:143|424:125,1,80,2|2,1:2|0:1,0:0:0:0:
336,73,129071,1,10,2:2:0:0:
283,218,129233,5,2,2:2:0:0:
283,218,129314,1,2,0:0:0:0:
283,218,129395,2,0,P|292:264|297:303,1,80,0|2,1:1|2:2,0:0:0:0:
467,224,129719,1,10,2:2:0:0:
375,280,129882,1,2,2:2:0:0:
440,384,130044,2,0,P|449:338|454:299,1,80,2|2,1:2|0:1,0:0:0:0:
283,218,130368,2,0,P|226:236|149:231,1,120,10|0,2:2|0:0,0:0:0:0:
166,234,130692,6,0,B|151:183|151:183|165:140|165:140|144:65,2,160,2|8|2,1:2|2:2|1:2,0:0:0:0:
192,384,131503,1,2,2:2:0:0:
265,263,131665,1,10,2:2:0:0:
100,313,131828,2,0,P|57:316|7:329,1,80,2|0,2:2|1:1,0:0:0:0:
119,138,132152,5,10,2:2:0:0:
119,138,132233,1,8,2:2:0:0:
119,138,132314,2,0,P|158:146|197:149,1,80,10|2,2:2|1:2,0:0:0:0:
207,146,132557,1,0,1:1:0:0:
214,140,132638,2,0,L|205:97,1,40,8|8,3:3|3:3,0:0:0:0:
318,49,132801,2,0,L|309:92,1,40,6|4,3:3|3:3,0:0:0:0:
284,197,132963,1,2,1:2:0:0:
287,212,133044,1,0,1:1:0:0:
289,227,133125,1,0,1:1:0:0:
290,242,133206,1,0,1:1:0:0:
289,260,133287,6,0,P|349:248|459:238,1,143.999995605469,6|2,1:2|0:1,0:0:0:0:
431,239,133774,1,0,1:1:0:0:
351,380,133936,2,0,P|274:383|212:355,1,143.999995605469,8|0,2:2|1:1,0:0:0:0:
134,237,134422,1,2,2:2:0:0:
134,237,134503,1,2,2:2:0:0:
134,237,134584,1,0,1:1:0:0:
49,321,134747,6,0,P|87:317|142:307,1,71.9999978027344,10|2,2:2|2:2,0:0:0:0:
215,240,135071,1,2,1:2:0:0:
157,154,135233,2,0,P|144:113|148:80,1,71.9999978027344,8|2,2:2|2:2,0:0:0:0:
257,11,135557,2,0,L|249:96,1,71.9999978027344,2|2,1:2|2:2,0:0:0:0:
249,91,135801,1,2,0:0:0:0:
245,101,135882,6,0,B|314:83|314:120|407:92,1,143.999995605469,4|2,1:2|2:2,0:0:0:0:
491,68,136368,1,2,1:2:0:0:
461,196,136530,2,0,P|428:188|377:183,1,71.9999978027344,10|10,2:2|2:2,0:0:0:0:
390,183,136774,1,8,2:2:0:0:
390,183,136855,1,8,2:2:0:0:
298,343,137017,6,0,P|387:335|435:302,1,120,10|0,2:2|0:0,0:0:0:0:
411,321,137341,1,14,2:2:0:0:
305,234,137503,2,0,P|305:196|312:142,1,80,2|10,1:2|2:2,0:0:0:0:
205,77,137828,1,0,1:1:0:0:
193,97,137909,1,0,1:1:0:0:
187,120,137990,1,2,1:2:0:0:
183,143,138071,1,8,2:2:0:0:
186,166,138152,1,10,2:2:0:0:
224,255,138314,1,10,3:3:0:0:
126,323,138476,6,0,B|49:307|63:338|-21:317,1,128,6|10,1:2|2:2,0:0:0:0:
0,321,138963,1,2,2:2:0:0:
59,219,139125,2,0,P|93:226|136:231,1,64,10|2,2:2|2:2,0:0:0:0:
217,318,139449,2,0,P|220:273|226:247,1,64,10|2,2:2|2:2,0:0:0:0:
316,140,139774,6,0,P|321:171|322:203,1,64,10|2,2:2|2:2,0:0:0:0:
360,355,140098,2,0,L|404:348,3,35.9999989013672,10|8|10|8,2:2|2:2|2:2|2:2,0:0:0:0:
464,259,140422,2,0,L|420:252,3,35.9999989013672,10|8|10|8,2:2|2:2|2:2|2:2,0:0:0:0:
322,203,140747,1,10,2:2:0:0:
309,177,140828,1,8,2:2:0:0:
304,148,140909,1,10,2:2:0:0:
305,119,140990,1,8,2:2:0:0:
314,95,141071,6,0,B|262:58|262:58|201:88|132:70,1,192,6|0,1:2|0:0,0:0:0:0:
12,185,141719,2,0,P|21:274|91:232,1,192,6|0,1:2|0:0,0:0:0:0:
225,181,142368,1,6,1:2:0:0:
256,192,142449,12,2,143665,2:2:0:0:
395,340,144963,6,0,P|420:271|409:171,1,160,4|8,1:2|2:2,0:0:0:0:
273,124,145449,1,0,1:1:0:0:
273,124,145530,1,0,1:1:0:0:
273,124,145611,1,8,2:2:0:0:
397,78,145774,1,0,1:1:0:0:
328,224,145936,1,8,2:2:0:0:
178,165,146098,6,0,B|117:148|117:148|70:158|70:158|11:141,1,160,4|8,1:2|3:3,0:0:0:0:
94,262,146584,2,0,B|136:257|136:257|180:278,1,80,4|0,3:3|1:1,0:0:0:0:
170,273,146828,1,8,2:2:0:0:
170,273,146909,1,8,2:2:0:0:
288,349,147071,1,8,3:3:0:0:
357,208,147233,1,8,2:2:0:0:
350,185,147314,1,8,3:3:0:0:
343,161,147395,1,4,3:3:0:0:
339,137,147476,1,4,3:3:0:0:
334,113,147557,5,14,1:2:0:0:
178,165,147719,1,8,1:2:0:0:
178,165,148044,5,8,1:2:0:0:
282,0,148206,1,8,1:2:0:0:
282,0,148530,6,0,P|349:23|439:15,1,160,12|6,1:2|1:2,0:0:0:0:
302,259,154044,6,0,B|220:239|234:283|137:255,1,160,6|10,1:2|1:2,0:0:0:0:
154,153,154530,1,8,2:2:0:0:
50,110,154692,2,0,P|59:159|67:192,1,80,10|8,1:2|2:2,0:0:0:0:
246,81,155017,2,0,P|237:32|229:-1,1,80,10|10,1:2|2:2,0:0:0:0:
319,176,155341,5,8,1:2:0:0:
154,153,155503,1,10,2:2:0:0:
246,81,155665,1,8,1:2:0:0:
211,247,155828,1,10,2:2:0:0:
351,172,155990,6,0,P|405:182|455:176,1,80,10|8,1:2|2:2,0:0:0:0:
448,177,156233,1,8,2:2:0:0:
463,170,156314,2,0,L|472:122,3,40,10|8|8|8,2:2|2:2|2:2|2:2,0:0:0:0:
411,302,156638,5,10,2:2:0:0:
185,364,157936,6,0,P|126:360|74:344,2,107.999996704102,2|2|2,1:2|1:2|1:2,0:0:0:0:
316,306,158584,2,0,P|375:302|427:286,2,107.999996704102,10|10|6,2:2|3:3|3:3,0:0:0:0:
254,184,159233,5,0,1:1:0:0:
59,247,159557,1,10,2:2:0:0:
120,50,159882,2,0,P|136:102|136:135,1,80,2|0,1:2|1:1,0:0:0:0:
136,127,160125,1,8,2:2:0:0:
136,127,160206,1,10,2:2:0:0:
229,268,160368,1,0,1:1:0:0:
229,268,160449,1,8,2:2:0:0:
229,268,160530,6,0,P|186:260|121:252,1,88.000002685547,4|0,1:2|0:0,0:0:0:0:
234,97,160855,2,0,P|276:104|342:113,1,88.000002685547,10|2,2:2|0:1,0:0:0:0:
447,221,161179,2,0,B|450:180|450:180|432:147|432:147|444:94|406:46,1,176.000005371094,2|10,1:2|2:2,0:0:0:0:
324,198,161665,6,0,B|327:241|327:241|307:296,1,88.000002685547,2|0,2:2|1:1,0:0:0:0:
490,317,161990,2,0,P|433:305|388:294,1,88.000002685547,2|8,2:2|2:2,0:0:0:0:
343,372,162314,1,2,2:2:0:0:
207,254,162476,2,0,B|204:297|204:297|231:342,1,88.000002685547,2|2,1:2|0:1,0:0:0:0:
324,198,162801,1,10,2:2:0:0:
192,104,162963,5,2,0:1:0:0:
192,104,163044,1,2,0:1:0:0:
192,104,163125,2,0,P|146:100|89:92,1,88.000002685547,2|2,1:2|0:1,0:0:0:0:
0,166,163449,2,0,P|-3:210|18:259,1,88.000002685547,10|2,2:2|0:1,0:0:0:0:
109,365,163774,2,0,B|108:296|140:247|140:247|107:192,1,176.000005371094,2|10,1:2|2:2,0:0:0:0:
87,9,164260,6,0,P|37:22|-9:23,1,88.000002685547,2|0,2:2|1:1,0:0:0:0:
172,125,164584,2,0,P|222:112|268:111,1,88.000002685547,2|8,2:2|2:2,0:0:0:0:
396,36,164909,1,2,2:2:0:0:
264,1,165071,1,2,1:2:0:0:
396,36,165233,1,2,2:2:0:0:
341,149,165395,2,0,P|350:190|355:247,1,88.000002685547,10|2,2:2|0:1,0:0:0:0:
480,375,165719,6,0,P|493:333|488:283,1,88.000002685547,6|2,1:2|0:1,0:0:0:0:
363,363,166044,1,10,2:2:0:0:
258,283,166206,1,2,0:1:0:0:
258,283,166287,1,2,2:2:0:0:
258,283,166368,2,0,B|169:256|179:311|82:280,1,176.000005371094,2|10,1:2|2:2,0:0:0:0:
0,171,166855,6,0,P|49:162|93:155,1,88.000002685547,2|0,2:2|1:1,0:0:0:0:
195,65,167179,2,0,P|220:150|207:207,1,132.00000402832,2|0,2:2|0:0,0:0:0:0:
213,191,167503,1,2,2:2:0:0:
112,82,167665,2,0,P|120:40|128:-14,1,88.000002685547,2|2,1:2|0:1,0:0:0:0:
318,34,167990,2,0,P|310:76|302:130,1,88.000002685547,10|2,2:2|0:1,0:0:0:0:
303,120,168233,1,2,0:1:0:0:
303,120,168314,6,0,P|355:106|404:104,1,88.000002685547,2|2,1:2|0:1,0:0:0:0:
482,212,168638,2,0,L|391:198,1,88.000002685547,10|2,2:2|0:1,0:0:0:0:
306,369,168963,2,0,B|348:346|348:346|388:347|388:347|425:311|493:324,1,176.000005371094,2|10,1:2|2:2,0:0:0:0:
333,252,169449,1,2,2:2:0:0:
209,378,169611,6,0,P|202:317|192:275,1,88.000002685547,4|10,1:2|2:2,0:0:0:0:
196,291,169855,1,8,2:2:0:0:
196,291,169936,1,0,1:1:0:0:
22,249,170098,2,0,P|28:309|39:352,1,88.000002685547,10|2,2:2|1:2,0:0:0:0:
34,335,170342,1,8,2:2:0:0:
34,335,170423,1,8,2:2:0:0:
123,221,170584,5,8,2:2:0:0:
129,191,170665,1,8,2:2:0:0:
136,160,170747,1,8,2:2:0:0:
139,128,170828,1,8,2:2:0:0:
141,95,170909,2,0,P|137:72|136:45,3,44.0000013427735,10|8|10|8,2:2|2:2|3:3|3:3,0:0:0:0:
46,127,171233,6,0,B|152:150|136:99|255:133,1,191.999994140625,10|2,2:2|1:2,0:0:0:0:
394,45,171719,1,8,2:2:0:0:
259,13,171882,1,2,1:2:0:0:
312,185,172044,2,0,B|331:134|331:134|321:80,1,95.9999970703126,10|0,2:2|1:1,0:0:0:0:
235,127,172368,5,10,2:2:0:0:
399,189,172530,1,8,2:2:0:0:
272,300,172692,1,10,2:2:0:0:
272,300,172774,1,8,2:2:0:0:
272,300,172855,2,0,P|217:307|168:321,1,95.9999970703126,2|8,1:2|2:2,0:0:0:0:
164,318,173098,1,8,2:2:0:0:
148,318,173179,2,0,L|136:264,1,47.9999985351563,2|8,1:2|2:2,0:0:0:0:
21,232,173341,2,0,L|31:185,1,47.9999985351563,8|8,2:2|2:2,0:0:0:0:
109,109,173503,6,0,P|163:132|234:127,1,132.00000402832,6|2,1:2|0:0,0:0:0:0:
234,126,173828,1,10,2:2:0:0:
328,16,173990,1,2,0:1:0:0:
328,16,174071,1,2,2:2:0:0:
328,16,174152,2,0,P|276:10|227:2,1,88.000002685547,2|2,1:2|0:1,0:0:0:0:
336,120,174476,1,10,2:2:0:0:
457,64,174638,6,0,P|477:112|465:203,1,132.00000402832,2|0,2:2|0:0,0:0:0:0:
470,190,174963,2,0,P|483:255|478:289,1,88.000002685547,2|8,2:2|2:2,0:0:0:0:
404,354,175287,1,2,2:2:0:0:
286,243,175449,2,0,P|338:233|378:223,1,88.000002685547,2|2,1:2|0:1,0:0:0:0:
264,371,175774,2,0,B|218:352|218:352|183:370|132:362,1,132.00000402832,10|0,2:2|0:0,0:0:0:0:
137,362,176098,6,0,P|129:312|116:268,1,88.000002685547,2|2,1:2|0:1,0:0:0:0:
221,151,176422,2,0,P|212:201|199:245,1,88.000002685547,10|2,2:2|0:1,0:0:0:0:
0,167,176747,2,0,B|62:147|62:147|92:98|157:97,1,176.000005371094,2|10,1:2|2:2,0:0:0:0:
290,26,177233,6,0,P|248:19|195:7,1,88.000002685547,2|0,2:2|1:1,0:0:0:0:
329,143,177557,2,0,P|349:205|329:287,1,132.00000402832,2|0,2:2|0:0,0:0:0:0:
337,269,177882,1,2,2:2:0:0:
173,205,178044,2,0,P|234:193|277:186,1,88.000002685547,2|2,1:2|0:1,0:0:0:0:
372,377,178368,2,0,P|316:377|268:358,1,88.000002685547,10|2,2:2|0:1,0:0:0:0:
276,364,178611,1,2,0:1:0:0:
266,361,178692,6,0,P|259:312|241:263,1,88.000002685547,6|2,1:2|0:1,0:0:0:0:
387,202,179017,2,0,P|429:213|473:211,1,88.000002685547,10|2,2:2|0:1,0:0:0:0:
348,67,179341,2,0,B|302:65|302:65|273:85|273:85|218:80|172:122,1,176.000005371094,2|10,1:2|2:2,0:0:0:0:
160,206,179828,1,2,2:2:0:0:
25,151,179990,5,8,2:2:0:0:
25,151,180071,1,8,2:2:0:0:
25,151,180152,2,0,L|33:198,2,44.0000013427735,10|8|8,2:2|2:2|2:2,0:0:0:0:
94,334,180476,1,10,2:2:0:0:
94,334,180557,1,8,2:2:0:0:
94,334,180638,2,0,L|102:287,2,44.0000013427735,10|8|8,2:2|2:2|2:2,0:0:0:0:
225,273,180963,1,8,2:2:0:0:
254,280,181044,1,8,2:2:0:0:
280,283,181125,1,8,2:2:0:0:
310,285,181206,1,8,2:2:0:0:
340,283,181287,6,0,P|349:233|348:181,1,88.000002685547,6|0,1:2|0:0,0:0:0:0:
508,259,181611,2,0,P|499:302|498:346,1,88.000002685547,10|0,2:2|0:0,0:0:0:0:
345,173,181936,2,0,B|392:193|392:193|463:191|506:134,1,176.000005371094,2|10,1:2|2:2,0:0:0:0:
444,39,182422,2,0,B|395:42|395:42|354:14,1,88.000002685547,2|0,2:2|1:1,0:0:0:0:
236,95,182747,5,2,2:2:0:0:
345,173,182909,1,10,2:2:0:0:
236,95,183071,1,2,2:2:0:0:
144,194,183233,2,0,P|162:237|169:294,1,88.000002685547,2|0,1:2|0:0,0:0:0:0:
169,277,183476,1,2,2:2:0:0:
169,277,183557,1,8,2:2:0:0:
266,220,183719,1,2,2:2:0:0:
364,354,183882,6,0,P|416:363|525:305,2,176.000005371094,2|10|2,1:2|2:2|1:2,0:0:0:0:
271,235,184692,1,2,2:2:0:0:
271,235,184855,1,8,2:2:0:0:
344,131,185017,6,0,P|356:197|363:233,1,88.000002685547,2|0,2:2|1:1,0:0:0:0:
222,384,185341,2,0,P|209:317|203:282,1,88.000002685547,2|8,2:2|2:2,0:0:0:0:
143,188,185665,1,2,2:2:0:0:
143,188,185747,1,0,0:0:0:0:
143,188,185828,2,0,P|88:196|9:166,1,132.00000402832,2|0,1:2|0:0,0:0:0:0:
16,171,186152,2,0,P|3:104|-3:69,1,88.000002685547,10|0,2:2|0:0,0:0:0:0:
140,21,186476,6,0,P|190:12|247:0,1,88.000002685547,6|0,1:2|0:0,0:0:0:0:
295,141,186801,2,0,P|244:141|188:120,1,88.000002685547,10|0,2:2|0:0,0:0:0:0:
341,0,187125,2,0,B|361:84|361:84|399:120|387:179,1,176.000005371094,2|10,1:2|2:2,0:0:0:0:
412,270,187611,2,0,P|474:256|521:250,1,88.000002685547,2|0,2:2|1:1,0:0:0:0:
324,372,187936,2,0,P|305:314|310:269,1,88.000002685547,2|8,2:2|2:2,0:0:0:0:
140,193,188260,5,2,2:2:0:0:
97,348,188422,2,0,P|168:332|194:328,1,88.000002685547,2|0,1:2|0:0,0:0:0:0:
182,329,188665,1,2,2:2:0:0:
182,329,188747,1,8,2:2:0:0:
251,230,188909,1,2,2:2:0:0:
100,166,189071,6,0,B|103:126|103:126|83:90|83:90|93:41|61:-7,2,176.000005371094,2|10|2,1:2|2:2|1:2,0:0:0:0:
94,297,189882,1,2,2:2:0:0:
94,297,190044,1,8,2:2:0:0:
251,230,190206,6,0,P|303:241|340:242,1,88.000002685547,2|0,2:2|1:1,0:0:0:0:
250,148,190530,1,2,1:2:0:0:
250,148,190611,1,8,2:2:0:0:
250,148,190692,1,8,2:2:0:0:
174,265,190855,1,10,2:2:0:0:
301,334,191017,2,0,P|307:350|312:378,2,44.0000013427735,10|8|8,2:2|2:2|2:2,0:0:0:0:
240,137,191341,1,10,2:2:0:0:
244,110,191422,1,8,0:0:0:0:
247,83,191503,1,0,1:1:0:0:
250,56,191584,1,0,1:0:0:0:
251,29,191665,6,0,P|300:23|346:15,1,88.000002685547,6|0,1:2|0:0,0:0:0:0:
508,107,191990,2,0,P|459:113|413:121,1,88.000002685547,10|0,2:2|1:1,0:0:0:0:
269,219,192314,1,10,2:2:0:0:
336,101,192476,1,0,1:1:0:0:
393,256,192638,1,10,2:2:0:0:
250,222,192801,5,2,1:2:0:0:
250,222,192882,1,0,1:1:0:0:
250,222,192963,2,0,P|243:284|240:327,1,88.000002685547,8|2,2:2|1:2,0:0:0:0:
140,165,193287,1,10,2:2:0:0:
15,232,193449,1,2,1:2:0:0:
15,232,193530,1,0,1:1:0:0:
15,232,193611,2,0,P|22:170|25:127,1,88.000002685547,10|0,2:2|1:1,0:0:0:0:
137,40,193936,2,0,P|196:36|235:27,1,88.000002685547,8|2,2:2|1:2,0:0:0:0:
236,26,194179,1,0,1:1:0:0:
249,21,194260,6,0,P|243:76|237:114,1,88.000002685547,10|0,2:2|1:1,0:0:0:0:
341,195,194584,1,10,2:2:0:0:
434,94,194747,1,0,1:1:0:0:
434,94,194828,1,0,1:1:0:0:
434,94,194909,2,0,P|375:98|336:107,1,88.000002685547,10|2,2:2|1:2,0:0:0:0:
245,222,195233,1,8,2:2:0:0:
342,357,195395,5,2,1:2:0:0:
342,357,195476,1,0,1:1:0:0:
342,357,195557,2,0,P|349:296|360:260,1,88.000002685547,8|2,2:2|1:2,0:0:0:0:
130,199,195882,2,0,P|140:241|144:285,1,88.000002685547,12|10,2:2|2:2,0:0:0:0:
142,296,196125,1,8,2:2:0:0:
139,307,196206,2,0,L|207:316,1,44.0000013427735,10|8,2:2|2:2,0:0:0:0:
294,210,196368,2,0,L|226:219,1,44.0000013427735,10|8,2:2|3:3,0:0:0:0:
191,111,196530,5,10,3:3:0:0:
193,98,196611,1,4,3:3:0:0:
195,85,196692,1,4,3:3:0:0:
197,71,196774,1,8,3:3:0:0:
199,58,196855,2,0,P|139:41|39:94,1,176.000005371094,6|2,1:2|1:2,0:0:0:0:
0,238,197341,5,0,1:1:0:0:
131,202,197503,1,2,1:2:0:0:
131,202,197665,1,0,1:1:0:0:
96,366,197828,2,0,B|75:319|75:319|79:269,1,88.000002685547,2|2,1:2|1:2,0:0:0:0:
231,160,198152,5,8,2:2:0:0:
196,272,198314,1,10,2:2:0:0:
331,203,198476,1,10,2:2:0:0:
218,149,198638,1,10,2:2:0:0:
297,298,198801,1,10,2:2:0:0:
427,236,198963,1,10,2:2:0:0:
339,384,199125,2,0,P|327:329|324:295,1,88.000002685547,10|0,2:2|1:1,0:0:0:0:
441,79,199449,6,0,B|409:54|409:54|369:54|369:54|335:24|270:23,1,176.000005371094,6|0,1:2|1:1,0:0:0:0:
99,101,199936,1,8,2:2:0:0:
99,101,200017,1,8,2:2:0:0:
99,101,200098,2,0,L|151:89,1,44.0000013427735,8|8,2:2|2:2,0:0:0:0:
285,158,200260,2,0,L|242:167,1,44.0000013427735,8|8,2:2|2:2,0:0:0:0:
145,242,200422,1,8,2:2:0:0:
127,272,200503,1,8,2:2:0:0:
124,307,200584,1,8,2:2:0:0:
135,340,200665,1,8,2:2:0:0:
156,364,200747,1,14,2:2:0:0:
352,322,202044,6,0,P|280:320|228:302,1,111.999996582031,6|10,1:2|2:2,0:0:0:0:
111,229,202530,2,0,P|183:227|235:209,1,111.999996582031,2|2,1:2|1:2,0:0:0:0:
304,161,203017,1,10,2:2:0:0:
304,161,203179,1,2,2:2:0:0:
227,103,203341,6,0,P|221:71|219:48,1,55.9999982910157,2|0,1:2|1:1,0:0:0:0:
313,78,203665,1,10,2:2:0:0:
389,20,203828,2,0,P|406:65|402:137,1,111.999996582031,2|2,1:2|1:2,0:0:0:0:
445,214,204314,1,10,2:2:0:0:
445,214,204476,1,2,2:2:0:0:
376,318,204638,6,0,B|325:292|325:292|267:300,1,111.999996582031,2|10,1:2|2:2,0:0:0:0:
175,369,205125,2,0,P|167:313|158:253,1,111.999996582031,2|2,1:2|1:2,0:0:0:0:
214,189,205611,1,10,2:2:0:0:
214,189,205774,1,2,2:2:0:0:
115,92,205936,6,0,P|59:113|-3:109,2,111.999996582031,2|10|2,1:2|2:2|2:2,0:0:0:0:
211,36,206747,1,8,3:3:0:0:
291,77,206909,1,10,3:3:0:0:
336,5,207071,1,4,3:3:0:0:
302,180,207233,5,6,1:2:0:0:
256,192,207314,12,0,212098,0:0:0:0:
