osu file format v14

[General]
AudioFilename: audio.mp3
AudioLeadIn: 0
PreviewTime: 58762
Countdown: 0
SampleSet: Soft
StackLeniency: 0.7
Mode: 0
LetterboxInBreaks: 0
WidescreenStoryboard: 1

[Editor]
Bookmarks: 219360,219694,220027,220360,220694,221360,222027,222694,223027,223360
DistanceSpacing: 1
BeatDivisor: 4
GridSize: 32
TimelineZoom: 2.200005

[Metadata]
Title:Tsuki ni Murakumo Hana ni Kaze ShinRa-Bansho Ver
TitleUnicode:月に叢雲華に風 森羅万象Ver
Artist:ShinRa-Bansho
ArtistUnicode:森羅万象
Creator:UberFazz
Version:Lunatic
Source:東方地霊殿 ~ Subterranean Animism.
Tags:clouds over the moon and wind over the flowers touhou chireiden 2hu project 東方project 11 th11 sa extra stage theme あやぽんず* ayaponzu* あよ ayo 幽閉サテライト yuuhei satellite koishi komeiji last remote ラストリモート zun japanese video game rock pop ~the memories of phantasm~ 東方歌ってみた i tried singing touhou 歌ってみた uttatemita comiket 96 c96 kaztora waoru orbitark kwaimsuckasfuk entry pyrolized
BeatmapID:2576783
BeatmapSetID:1069380

[Difficulty]
HPDrainRate:5
CircleSize:4
OverallDifficulty:8.5
ApproachRate:9
SliderMultiplier:1.8
SliderTickRate:1

[Events]
//Background and Video events
0,0,"shinra bansho bg.jpg",0,0
//Break Periods
2,81620,84820
2,124286,128819
2,178953,183486
2,236953,241153
//Storyboard Layer 0 (Background)
//Storyboard Layer 1 (Fail)
//Storyboard Layer 2 (Pass)
//Storyboard Layer 3 (Foreground)
//Storyboard Layer 4 (Overlay)
//Storyboard Sound Samples

[TimingPoints]
754,333.333333333333,4,2,1,100,1,0
4087,-166.666666666667,4,2,1,40,0,0
4753,-166.666666666667,4,2,1,50,0,0
5336,-166.666666666667,4,2,1,5,0,0
5420,-166.666666666667,4,2,1,50,0,0
8003,-166.666666666667,4,2,1,5,0,0
8087,-166.666666666667,4,2,1,50,0,0
9587,-125,4,2,1,60,0,0
10003,-125,4,2,1,5,0,0
10087,-125,4,2,1,60,0,0
12752,-125,4,2,1,65,0,0
14086,-125,4,2,1,70,0,0
14753,-125,4,2,1,75,0,0
15920,-76.9230769230769,4,2,1,50,0,0
16087,333.333333333333,4,2,1,70,1,0
16087,-76.9230769230769,4,2,1,70,0,0
16337,-76.9230769230769,4,2,1,5,0,0
16420,-76.9230769230769,4,2,1,70,0,0
19003,-76.9230769230769,4,2,1,5,0,0
19086,-76.9230769230769,4,2,1,70,0,0
21003,-76.9230769230769,4,2,1,5,0,0
21086,-76.9230769230769,4,2,1,70,0,0
21669,-76.9230769230769,4,2,1,5,0,0
21753,-76.9230769230769,4,2,1,70,0,0
24335,-76.9230769230769,4,2,1,5,0,0
24420,-76.9230769230769,4,2,1,70,0,0
26753,-125,4,2,1,50,0,0
29669,-125,4,2,1,5,0,0
29752,-125,4,2,1,60,0,0
31586,-100,4,2,1,70,0,0
36253,-100,4,2,1,5,0,0
36336,-100,4,2,1,70,0,0
36503,-100,4,2,1,5,0,0
36586,-100,4,2,1,70,0,0
36836,-100,4,2,1,5,0,0
36920,-100,4,2,1,70,0,0
37670,-100,4,2,1,5,0,0
37753,-100,4,2,1,70,0,0
38336,-100,4,2,1,5,0,0
38420,-100,4,2,1,70,0,0
39003,-100,4,2,1,5,0,0
39086,-100,4,2,1,70,0,0
42919,-100,4,2,1,5,0,0
43003,-100,4,2,1,70,0,0
43169,-100,4,2,1,5,0,0
43253,-100,4,2,1,70,0,0
44003,-100,4,2,1,5,0,0
44086,-100,4,2,1,70,0,0
44253,-100,4,2,1,5,0,0
44337,-100,4,2,1,70,0,0
44503,-100,4,2,1,5,0,0
44586,-100,4,2,1,70,0,0
45586,-100,4,2,1,5,0,0
45670,-100,4,2,1,60,0,0
45836,-100,4,2,1,5,0,0
45920,-100,4,2,1,70,0,0
46336,-100,4,2,1,5,0,0
46420,-100,4,2,1,70,0,0
46836,-100,4,2,1,5,0,0
46920,-100,4,2,1,70,0,0
48003,-100,4,2,1,5,0,0
48086,-100,4,2,1,70,0,0
49253,-142.857142857143,4,2,1,70,0,0
49336,-142.857142857143,4,2,1,5,0,0
50753,-142.857142857143,4,2,1,70,0,0
51920,-125,4,2,1,70,0,0
53003,-125,4,2,1,5,0,0
53086,-100,4,2,1,70,0,0
53337,-100,4,2,1,5,0,0
53420,-125,4,2,1,70,0,0
56086,-100,4,2,1,70,0,0
56336,-100,4,2,1,5,0,0
56419,-100,4,2,1,65,0,0
57753,-100,4,2,1,70,0,0
58753,-142.857142857143,4,2,1,70,0,0
59336,-142.857142857143,4,2,1,5,0,0
59420,-142.857142857143,4,2,1,70,0,0
60086,-83.3333333333333,4,2,1,75,0,1
60337,-83.3333333333333,4,2,1,5,0,1
60420,-83.3333333333333,4,2,1,75,0,1
61836,-83.3333333333333,4,2,1,5,0,1
61920,-83.3333333333333,4,2,1,75,0,1
63003,-83.3333333333333,4,2,1,5,0,1
63086,-83.3333333333333,4,2,1,75,0,1
64503,-83.3333333333333,4,2,1,5,0,1
64586,-83.3333333333333,4,2,1,75,0,1
66170,-83.3333333333333,4,2,1,5,0,1
66253,-83.3333333333333,4,2,1,75,0,1
69503,-83.3333333333333,4,2,1,5,0,1
69586,-83.3333333333333,4,2,1,75,0,1
71003,-83.3333333333333,4,2,1,5,0,1
71086,-83.3333333333333,4,2,1,75,0,1
72503,-83.3333333333333,4,2,1,5,0,1
72586,-83.3333333333333,4,2,1,75,0,1
72670,-83.3333333333333,4,2,1,5,0,1
72753,-83.3333333333333,4,2,1,75,0,1
74670,-83.3333333333333,4,2,1,5,0,1
74753,-83.3333333333333,4,2,1,75,0,1
75170,-83.3333333333333,4,2,1,5,0,1
75253,-83.3333333333333,4,2,1,75,0,1
76836,-83.3333333333333,4,2,1,5,0,1
76920,-83.3333333333333,4,2,1,75,0,1
77420,-71.4285714285714,4,2,1,75,0,1
78753,-71.4285714285714,4,2,1,80,0,1
80086,-62.5,4,2,1,80,0,1
81420,-125,4,2,1,60,0,0
81753,-125,4,2,1,50,0,0
85586,-100,4,2,1,45,0,0
86253,-100,4,2,1,60,0,0
86586,-100,4,2,1,5,0,0
86753,-100,4,2,1,70,0,0
88170,-100,4,2,1,5,0,0
88238,333.333333333333,4,2,1,60,1,0
88593,300,4,2,1,60,1,0
88743,-128.205128205128,4,2,1,60,0,0
88935,324.324324324324,4,2,1,60,1,0
89420,333.333333333333,4,2,1,60,1,0
89420,-200,4,2,1,60,0,0
91753,-200,4,2,1,5,0,0
91920,-100,4,2,1,70,0,0
94920,-100,4,2,1,5,0,0
95003,-100,4,2,1,70,0,0
97419,-76.9230769230769,4,2,1,70,0,0
97669,-76.9230769230769,4,2,1,5,0,0
97753,-76.9230769230769,4,2,1,70,0,0
102753,-125,4,2,1,60,0,0
103836,-125,4,2,1,5,0,0
103919,-125,4,2,1,60,0,0
106836,-125,4,2,1,5,0,0
106919,-125,4,2,1,60,0,0
107253,-100,4,2,1,70,0,0
108336,-100,4,2,1,5,0,0
108419,-100,4,2,1,70,0,0
121836,-100,4,2,1,5,0,0
121919,-100,4,2,1,70,0,0
124086,-166.666666666667,4,2,1,50,0,0
129419,-100,4,2,1,60,0,0
132086,-83.3333333333333,4,2,1,70,0,0
132253,-71.4285714285714,4,2,1,5,0,0
132337,-71.4285714285714,4,2,1,70,0,0
132503,-71.4285714285714,4,2,1,5,0,0
132586,-71.4285714285714,4,2,1,70,0,0
132669,-71.4285714285714,4,2,1,5,0,0
132753,-83.3333333333333,4,2,1,70,0,0
132919,-71.4285714285714,4,2,1,5,0,0
133003,-71.4285714285714,4,2,1,70,0,0
133169,-71.4285714285714,4,2,1,5,0,0
133253,-71.4285714285714,4,2,1,70,0,0
133336,-71.4285714285714,4,2,1,5,0,0
133419,-100,4,2,1,70,0,0
133669,-100,4,2,1,5,0,0
133753,-100,4,2,1,70,0,0
136086,-83.3333333333333,4,2,1,75,0,1
137837,-83.3333333333333,4,2,1,5,0,1
137919,-83.3333333333333,4,2,1,75,0,1
139003,-83.3333333333333,4,2,1,5,0,1
139086,-83.3333333333333,4,2,1,75,0,1
140503,-83.3333333333333,4,2,1,5,0,1
140586,-83.3333333333333,4,2,1,75,0,1
145503,-83.3333333333333,4,2,1,5,0,1
145586,-83.3333333333333,4,2,1,75,0,1
147003,-83.3333333333333,4,2,1,5,0,1
147086,-83.3333333333333,4,2,1,75,0,1
148503,-83.3333333333333,4,2,1,5,0,1
148586,-83.3333333333333,4,2,1,75,0,1
148669,-83.3333333333333,4,2,1,5,0,1
148753,-83.3333333333333,4,2,1,75,0,1
150669,-83.3333333333333,4,2,1,5,0,1
150753,-83.3333333333333,4,2,1,75,0,1
151169,-83.3333333333333,4,2,1,5,0,1
151253,-83.3333333333333,4,2,1,75,0,1
152836,-83.3333333333333,4,2,1,5,0,1
152919,-83.3333333333333,4,2,1,75,0,1
153419,-71.4285714285714,4,2,1,75,0,1
154753,-66.6666666666667,4,2,1,80,0,1
156086,-62.5,4,2,1,80,0,1
156336,-45.4545454545455,4,2,1,5,0,1
156419,-100,4,2,1,75,0,1
157419,-83.3333333333333,4,2,1,70,0,0
169419,-83.3333333333333,4,2,1,5,0,0
170753,-83.3333333333333,4,2,1,70,0,0
170836,-71.4285714285714,4,2,1,5,0,0
170919,-71.4285714285714,4,2,1,70,0,0
171003,-71.4285714285714,4,2,1,5,0,0
171253,-83.3333333333333,4,2,1,70,0,0
171503,-71.4285714285714,4,2,1,5,0,0
171586,-71.4285714285714,4,2,1,70,0,0
171836,-71.4285714285714,4,2,1,5,0,0
171919,-71.4285714285714,4,2,1,70,0,0
172169,-71.4285714285714,4,2,1,5,0,0
172253,-71.4285714285714,4,2,1,70,0,0
172753,324.324324324324,4,2,1,70,1,0
172753,-71.4285714285714,4,2,1,70,0,0
173419,333.333333333333,4,2,1,60,1,0
173419,-166.666666666667,4,2,1,60,0,0
173503,-166.666666666667,4,2,1,5,0,0
173919,-166.666666666667,4,2,1,50,0,0
174086,-166.666666666667,4,2,1,5,0,0
174419,-166.666666666667,4,2,1,50,0,0
176086,-166.666666666667,4,2,1,60,0,0
176253,-166.666666666667,4,2,1,5,0,0
178419,-166.666666666667,4,2,1,50,0,0
178753,-100,4,2,1,60,0,0
184086,-166.666666666667,4,2,1,60,0,0
186753,-100,4,2,1,60,0,0
186919,-166.666666666667,4,2,1,5,0,0
187003,-100,4,2,1,70,0,0
187169,-100,4,2,1,5,0,0
187253,-100,4,2,1,70,0,0
187336,-100,4,2,1,5,0,0
187419,-100,4,2,1,60,0,0
187586,-166.666666666667,4,2,1,5,0,0
187669,-100,4,2,1,70,0,0
187836,-100,4,2,1,5,0,0
187919,-100,4,2,1,70,0,0
188003,-100,4,2,1,5,0,0
188086,-166.666666666667,4,2,1,60,0,0
191753,-166.666666666667,4,2,1,60,0,0
191919,-166.666666666667,4,2,1,5,0,0
192086,-100,4,2,1,50,0,0
194087,333.333333333333,4,2,1,75,1,1
194087,-83.3333333333333,4,2,1,75,0,1
195837,-83.3333333333333,4,2,1,5,0,1
195920,-83.3333333333333,4,2,1,75,0,1
198503,-83.3333333333333,4,2,1,5,0,1
198587,-83.3333333333333,4,2,1,75,0,1
203503,-83.3333333333333,4,2,1,5,0,1
203587,-83.3333333333333,4,2,1,75,0,1
206503,-83.3333333333333,4,2,1,5,0,1
206587,-83.3333333333333,4,2,1,75,0,1
206670,-83.3333333333333,4,2,1,5,0,1
206753,-83.3333333333333,4,2,1,75,0,1
207670,-83.3333333333333,4,2,1,5,0,1
207753,-83.3333333333333,4,2,1,75,0,1
208670,-83.3333333333333,4,2,1,5,0,1
208753,-83.3333333333333,4,2,1,75,0,1
209170,-83.3333333333333,4,2,1,5,0,1
209253,-83.3333333333333,4,2,1,75,0,1
211420,-71.4285714285714,4,2,1,75,0,1
214586,-71.4285714285714,4,2,1,70,0,1
215253,-83.3333333333333,4,2,1,70,0,0
215753,-76.9230769230769,4,2,1,80,0,1
224836,-76.9230769230769,4,2,1,5,0,1
224920,-76.9230769230769,4,2,1,80,0,1
226253,-76.9230769230769,4,2,1,5,0,1
226336,-76.9230769230769,4,2,1,80,0,1
226920,-76.9230769230769,4,2,1,5,0,1
227003,-76.9230769230769,4,2,1,80,0,1
227586,-76.9230769230769,4,2,1,5,0,1
227670,-76.9230769230769,4,2,1,80,0,1
228253,-76.9230769230769,4,2,1,5,0,1
228336,-76.9230769230769,4,2,1,80,0,1
228920,-76.9230769230769,4,2,1,5,0,1
229003,-76.9230769230769,4,2,1,80,0,1
229586,-76.9230769230769,4,2,1,5,0,1
229670,-76.9230769230769,4,2,1,80,0,1
230253,-76.9230769230769,4,2,1,5,0,1
230336,-76.9230769230769,4,2,1,80,0,1
231670,-76.9230769230769,4,2,1,5,0,1
231753,-76.9230769230769,4,2,1,80,0,1
235420,-62.5,4,2,1,80,0,1
235670,-62.5,4,2,1,5,0,1
235753,-62.5,4,2,1,80,0,1
236420,-62.5,4,2,1,75,0,1
236753,-76.9230769230769,4,2,1,80,0,0
236836,-125,4,2,1,60,0,0
241753,-100,4,2,1,60,0,0
242003,-100,4,2,1,5,0,0
242086,-100,4,2,1,70,0,0
243503,-100,4,2,1,5,0,0
243586,-100,4,2,1,60,0,0

[Colours]
Combo1 : 121,1,254
Combo2 : 230,230,0
Combo3 : 34,153,13
Combo4 : 255,128,64

[HitObjects]
121,102,4087,5,2,0:0:0:0:
121,102,4420,1,2,0:0:0:0:
121,102,4753,2,0,P|101:177|183:148,1,188.999994232178,2|0,0:0|0:0,0:0:0:0:
180,161,5420,1,2,0:0:0:0:
180,161,5753,1,2,0:0:0:0:
294,74,6087,5,2,0:0:0:0:
360,38,6337,1,2,0:0:0:0:
284,83,6587,2,0,B|296:159|296:159|282:247,1,161.999995056153,2|0,0:0|0:0,0:0:0:0:
109,318,7420,6,0,L|309:325,1,188.999994232178,2|0,0:0|0:0,0:0:0:0:
297,324,8087,1,2,0:0:0:0:
363,267,8337,1,2,0:0:0:0:
286,233,8587,1,2,0:0:0:0:
286,233,8753,2,0,L|292:133,2,80.9999975280763,2|2|2,0:0|0:0|0:0,0:0:0:0:
302,27,9587,1,2,0:0:0:0:
364,86,9753,6,0,P|368:146|346:209,1,108,2|0,3:0|0:0,0:0:0:0:
331,232,10087,2,0,P|290:160|221:134,1,144,4|8,1:0|1:0,0:0:0:0:
97,148,10587,2,0,L|100:235,1,72,0|8,1:0|1:0,0:0:0:0:
112,357,10920,1,0,1:0:0:0:
159,281,11087,2,0,L|240:286,1,72,8|4,1:0|1:2,0:0:0:0:
331,289,11420,2,0,P|341:253|336:213,1,72,8|0,1:0|1:0,0:0:0:0:
440,293,11753,2,0,P|445:221|430:151,1,144,8|8,1:0|1:0,0:0:0:0:
378,27,12253,6,0,L|372:102,1,72,2|8,1:0|1:0,0:0:0:0:
372,98,12587,1,2,1:0:0:0:
230,129,12753,5,10,1:0:0:0:
301,201,12920,1,0,1:0:0:0:
303,65,13087,1,8,1:0:0:0:
220,129,13253,1,0,1:0:0:0:
228,265,13420,5,10,1:0:0:0:
299,337,13587,1,0,1:0:0:0:
301,201,13753,1,8,1:0:0:0:
218,265,13920,1,0,1:0:0:0:
387,301,14087,5,10,1:0:0:0:
357,145,14253,1,8,1:0:0:0:
291,290,14420,1,10,1:0:0:0:
272,115,14587,1,8,1:0:0:0:
117,310,14753,5,10,1:0:0:0:
151,137,14920,1,10,1:0:0:0:
223,297,15087,1,10,1:0:0:0:
243,105,15253,1,10,1:0:0:0:
241,78,15920,5,2,0:0:0:0:
241,78,16003,1,2,0:0:0:0:
241,78,16087,2,0,P|334:101|347:185,1,175.499991966248,14|8,1:0|3:0,0:0:0:0:
338,196,16420,1,8,3:0:0:0:
208,314,16587,1,2,1:0:0:0:
138,153,16753,2,0,P|201:168|246:209,1,116.999994644165,8|0,3:0|1:0,0:0:0:0:
403,327,17087,1,8,3:0:0:0:
493,182,17253,1,0,1:0:0:0:
493,182,17337,1,0,1:0:0:0:
493,182,17420,1,8,3:0:0:0:
315,116,17587,6,0,P|292:174|299:236,1,116.999994644165,2|8,1:0|3:0,0:0:0:0:
202,336,17920,2,0,P|269:352|322:337,1,116.999994644165,2|8,1:0|3:0,0:0:0:0:
405,197,18253,2,0,L|402:259,2,58.4999973220826,2|0|10,1:0|1:0|3:0,0:0:0:0:
320,96,18586,2,0,L|255:99,1,58.4999973220826,2|0,1:0|1:0,0:0:0:0:
151,95,18753,6,0,B|167:137|154:179|154:179|141:221|170:265,1,175.499991966248,14|0,3:0|0:0,0:0:0:0:
184,265,19086,1,8,3:0:0:0:
91,362,19253,1,2,1:0:0:0:
38,232,19420,2,0,P|29:174|47:115,1,116.999994644165,8|0,3:0|1:0,0:0:0:0:
157,260,19753,1,10,3:0:0:0:
150,94,19920,5,0,1:0:0:0:
150,94,20003,1,0,1:0:0:0:
150,94,20086,2,0,P|208:89|264:120,1,116.999994644165,10|2,3:0|1:0,0:0:0:0:
232,259,20420,1,10,3:0:0:0:
71,247,20586,1,2,1:0:0:0:
172,351,20753,2,0,P|234:377|300:358,1,116.999994644165,10|0,3:0|1:0,0:0:0:0:
473,351,21086,1,8,1:0:0:0:
471,321,21170,1,8,1:0:0:0:
470,292,21253,1,8,1:0:0:0:
468,263,21336,1,8,1:0:0:0:
467,234,21420,6,0,P|396:271|300:240,1,175.499991966248,14|0,1:0|0:0,0:0:0:0:
278,248,21753,1,8,3:0:0:0:
427,168,21920,1,0,1:0:0:0:
277,281,22086,1,10,3:0:0:0:
335,99,22253,1,0,1:0:0:0:
277,311,22420,2,0,P|219:338|156:329,1,116.999994644165,10|0,3:0|1:0,0:0:0:0:
167,332,22670,1,0,1:0:0:0:
167,332,22753,5,8,3:0:0:0:
96,173,22920,1,0,1:0:0:0:
98,289,23086,1,8,3:0:0:0:
169,130,23253,1,0,1:0:0:0:
260,303,23420,6,0,B|271:241|271:241|260:175,3,116.999994644165,10|2|10|2,3:0|1:0|3:0|1:0,0:0:0:0:
242,38,24086,6,0,P|311:44|349:88,2,116.999994644165,14|2|10,3:0|0:0|3:0,0:0:0:0:
96,143,24586,2,0,P|89:227|181:178,1,233.999989288331,2|0,1:0|1:0,0:0:0:0:
22,268,25086,2,0,P|75:311|151:316,1,116.999994644165,8|0,3:0|1:0,0:0:0:0:
285,361,25420,6,0,L|287:290,1,58.4999973220826,8|0,1:0|1:0,0:0:0:0:
366,236,25586,2,0,L|367:294,1,58.4999973220826,0|0,1:0|1:0,0:0:0:0:
447,361,25753,1,0,1:0:0:0:
499,194,25920,5,8,1:0:0:0:
499,194,26003,1,0,1:0:0:0:
499,194,26086,2,0,L|501:127,1,58.4999973220826,0|0,1:0|1:0,0:0:0:0:
500,55,26253,1,0,1:0:0:0:
336,91,26420,1,8,1:0:0:0:
309,79,26503,1,8,1:0:0:0:
280,75,26586,1,8,1:0:0:0:
251,77,26670,1,8,1:0:0:0:
223,86,26753,6,0,P|200:146|223:240,1,144,6|0,1:0|1:0,0:0:0:0:
330,164,27420,2,0,P|354:230|340:300,1,144,2|0,1:0|1:0,0:0:0:0:
163,200,28086,2,0,P|149:130|173:63,2,144,2|0|0,1:0|1:0|1:0,0:0:0:0:
384,86,29086,6,0,L|380:168,1,72,2|2,1:0|0:0,0:0:0:0:
376,277,29420,2,0,B|314:292|314:292|229:272,1,144,2|0,1:0|1:0,0:0:0:0:
108,251,29920,1,2,0:0:0:0:
108,251,30086,2,0,L|116:101,1,144,0|2,1:0|1:0,0:0:0:0:
317,52,30753,6,0,P|306:93|320:152,1,72,2|0,1:0|0:0,0:0:0:0:
405,185,31086,2,0,P|416:226|402:285,1,72,0|2,1:0|0:0,0:0:0:0:
167,325,31586,6,0,P|160:268|176:214,1,90,10|0,1:0|0:0,0:0:0:0:
228,102,31920,1,8,1:0:0:0:
228,102,32003,1,8,1:0:0:0:
228,102,32086,6,0,L|324:107,1,90,4|0,1:0|1:0,0:0:0:0:
440,172,32420,1,8,3:0:0:0:
428,304,32586,2,0,L|377:307,1,45,0|8,1:0|1:0,0:0:0:0:
351,309,32753,2,0,L|241:315,1,90,0|0,3:0|1:0,0:0:0:0:
156,183,33086,2,0,L|265:176,1,90,8|0,3:0|1:0,0:0:0:0:
414,163,33420,5,0,3:0:0:0:
414,163,33586,1,0,1:0:0:0:
263,262,33753,2,0,P|242:208|247:170,1,90,8|0,3:0|1:0,0:0:0:0:
318,116,34003,1,8,1:0:0:0:
318,116,34086,2,0,P|339:170|334:208,1,90,0|0,3:0|1:0,0:0:0:0:
190,319,34420,2,0,L|73:316,1,90,8|0,3:0|1:0,0:0:0:0:
51,124,34753,5,0,3:0:0:0:
166,95,34920,1,0,1:0:0:0:
103,213,35086,1,8,3:0:0:0:
221,214,35253,1,0,1:0:0:0:
130,312,35420,2,0,P|188:325|241:313,1,90,8|0,1:0|1:0,0:0:0:0:
232,319,35670,1,0,1:0:0:0:
249,317,35753,2,0,L|253:374,1,45,8|0,1:0|1:0,0:0:0:0:
346,355,35920,1,0,1:0:0:0:
364,354,36003,1,0,1:0:0:0:
382,353,36086,6,0,L|377:210,2,135,6|2|2,1:0|1:0|1:0,0:0:0:0:
459,226,36920,1,0,1:0:0:0:
481,77,37086,1,8,1:0:0:0:
481,77,37170,1,8,1:0:0:0:
481,77,37253,2,0,L|425:76,1,45,0|0,1:0|1:0,0:0:0:0:
334,105,37420,6,0,P|274:59|196:51,1,135,6|0,1:0|0:0,0:0:0:0:
191,63,37753,2,0,P|219:111|252:129,1,90,8|0,1:0|1:0,0:0:0:0:
111,131,38086,2,0,P|101:205|133:277,1,135,2|0,1:0|0:0,0:0:0:0:
146,275,38420,2,0,P|173:226|172:189,1,90,0|8,1:0|1:0,0:0:0:0:
245,310,38753,6,0,P|314:281|360:217,1,135,2|0,1:0|0:0,0:0:0:0:
352,207,39086,2,0,P|296:207|264:226,1,90,8|0,1:0|1:0,0:0:0:0:
267,223,39336,1,8,1:0:0:0:
267,223,39420,1,0,1:0:0:0:
425,135,39586,2,0,P|390:108|332:103,1,90,0|8,1:0|1:0,0:0:0:0:
200,117,39920,1,0,1:0:0:0:
81,166,40086,5,14,1:0:0:0:
76,255,40253,1,2,1:0:0:0:
72,345,40420,1,2,1:0:0:0:
191,296,40586,5,14,1:0:0:0:
195,206,40753,1,2,1:0:0:0:
200,117,40920,1,2,1:0:0:0:
308,30,41086,6,0,P|304:80|266:132,1,90,2|8,3:0|1:0,0:0:0:0:
386,166,41420,2,0,P|357:207|298:233,1,90,2|0,3:0|0:0,0:0:0:0:
384,322,41753,2,0,P|344:341|300:343,1,90,2|0,3:0|0:0,0:0:0:0:
154,327,42086,2,0,L|148:217,1,90,2|8,3:0|1:0,0:0:0:0:
93,63,42420,1,8,1:0:0:0:
93,63,42503,1,0,1:0:0:0:
93,63,42586,2,0,L|137:66,1,45,0|0,1:0|1:0,0:0:0:0:
228,119,42753,6,0,L|236:258,2,135,2|2|2,1:0|1:0|1:0,0:0:0:0:
386,123,43586,6,0,L|382:185,1,45,2|0,1:0|0:0,0:0:0:0:
371,116,43753,2,0,L|363:255,1,135,12|0,1:0|0:0,0:0:0:0:
363,279,44086,6,0,B|289:282|289:282|213:241,2,135,6|6|6,1:2|1:2|1:2,0:0:0:0:
477,345,44753,1,8,1:0:0:0:
471,214,44920,2,0,L|462:138,2,45,0|0|8,1:0|1:0|1:0,0:0:0:0:
423,25,45253,1,0,1:0:0:0:
292,74,45420,6,0,P|233:71|164:116,2,135,4|0|0,1:0|1:0|1:0,0:0:0:0:
257,182,46086,2,0,P|269:238|232:322,1,135,10|0,1:0|0:0,0:0:0:0:
243,309,46420,1,0,1:0:0:0:
88,291,46586,6,0,B|90:216|90:216|128:161,1,135,6|0,1:0|0:0,0:0:0:0:
124,166,46920,1,2,1:0:0:0:
246,86,47086,1,2,1:0:0:0:
210,205,47253,1,2,1:0:0:0:
178,29,47420,2,0,P|223:2|272:6,1,90,10|2,1:0|1:0,0:0:0:0:
376,86,47753,2,0,L|368:230,1,135,2|0,1:0|0:0,0:0:0:0:
369,251,48086,5,8,1:0:0:0:
369,251,48253,1,8,1:0:0:0:
145,164,49253,6,0,B|330:254|348:375|195:437|144:346|151:270|265:156,1,535.499983657837,12|0,1:0|0:0,0:0:0:0:
279,137,50753,5,8,1:0:0:0:
279,137,50920,1,8,1:0:0:0:
407,159,51920,6,0,L|398:313,1,144,12|0,1:0|1:0,0:0:0:0:
398,302,52336,1,0,1:0:0:0:
398,302,52420,1,0,1:0:0:0:
251,321,52586,2,0,L|194:319,1,36,0|0,1:0|1:0,0:0:0:0:
184,320,52753,2,0,B|177:255|177:255|188:203,1,108,0|0,1:0|0:0,0:0:0:0:
195,182,53086,6,0,L|297:192,1,90,12|0,1:2|0:0,0:0:0:0:
80,210,53420,6,0,P|78:153|98:120,1,72,6|0,1:0|1:0,0:0:0:0:
156,47,53753,1,0,1:0:0:0:
156,47,53920,2,0,P|213:45|246:65,1,72,2|0,1:0|1:0,0:0:0:0:
335,125,54253,1,0,1:0:0:0:
335,125,54420,2,0,L|339:213,2,72,2|6|0,1:0|1:2|1:0,0:0:0:0:
373,290,54920,2,0,P|338:299|303:293,1,72,0|0,1:0|1:0,0:0:0:0:
173,212,55253,5,8,1:0:0:0:
173,212,55336,1,8,1:0:0:0:
173,212,55420,2,0,L|175:310,1,72,0|0,1:0|1:0,0:0:0:0:
337,283,55753,2,0,L|339:212,1,72,4|0,3:2|1:0,0:0:0:0:
331,82,56086,6,0,P|288:58|198:75,1,135,4|0,1:0|0:0,0:0:0:0:
194,78,56420,1,8,3:0:0:0:
261,202,56586,1,0,1:0:0:0:
270,22,56753,1,8,3:0:0:0:
164,154,56920,1,0,1:0:0:0:
332,156,57086,1,8,3:0:0:0:
191,44,57253,1,0,1:0:0:0:
167,232,57420,1,12,1:0:0:0:
275,105,57586,6,0,L|231:108,2,45,2|2|10,0:0|0:0|1:0,0:0:0:0:
275,251,57920,2,0,L|320:254,2,45,10|2|10,1:0|0:0|1:0,0:0:0:0:
402,165,58253,6,0,L|447:168,2,45,10|2|10,1:0|0:0|1:0,0:0:0:0:
384,340,58586,2,0,L|340:343,1,45,10|2,1:0|0:0,0:0:0:0:
180,351,58753,6,0,B|161:303|183:253|183:253|208:204|182:136,1,220.499993270874,6|0,1:0|2:0,0:0:0:0:
176,126,59420,1,2,0:0:0:0:
166,110,59753,1,2,1:0:0:0:
309,22,60086,6,0,B|341:69|341:69|340:184,1,161.999995056153,6|0,1:0|0:0,0:0:0:0:
340,188,60420,1,8,1:0:0:0:
255,93,60586,1,0,3:0:0:0:
441,136,60753,2,0,P|452:194|432:253,1,107.999996704102,0|0,1:0|3:0,0:0:0:0:
363,296,61003,1,8,1:0:0:0:
363,296,61086,2,0,P|305:307|246:287,1,107.999996704102,0|8,1:0|3:0,0:0:0:0:
98,145,61420,6,0,P|144:103|195:102,1,107.999996704102,2|0,1:0|3:0,0:0:0:0:
214,112,61670,2,0,P|227:172|202:217,1,107.999996704102,2|0,1:0|1:0,0:0:0:0:
184,228,61920,2,0,P|124:209|98:165,1,107.999996704102,2|0,3:0|1:0,0:0:0:0:
288,45,62253,1,0,3:0:0:0:
288,45,62336,1,8,1:0:0:0:
288,45,62420,2,0,P|312:95|301:155,1,107.999996704102,0|8,1:0|3:0,0:0:0:0:
170,260,62753,6,0,P|244:302|332:278,1,161.999995056153,0|0,1:0|0:0,0:0:0:0:
346,294,63086,2,0,L|350:176,1,107.999996704102,8|0,1:0|3:0,0:0:0:0:
420,56,63420,1,0,1:0:0:0:
481,204,63586,1,0,3:0:0:0:
481,204,63670,1,8,1:0:0:0:
481,204,63753,2,0,P|479:270|447:318,1,107.999996704102,0|8,1:0|3:0,0:0:0:0:
256,334,64086,6,0,L|266:209,1,107.999996704102,2|0,1:0|3:0,0:0:0:0:
181,248,64336,2,0,L|191:123,1,107.999996704102,2|0,1:0|1:0,0:0:0:0:
106,162,64586,2,0,L|116:37,1,107.999996704102,2|0,3:0|1:0,0:0:0:0:
256,12,64920,1,0,1:0:0:0:
256,12,65003,1,8,1:0:0:0:
256,12,65086,2,0,P|298:81|292:119,1,107.999996704102,0|8,1:0|1:0,0:0:0:0:
175,216,65420,5,4,1:0:0:0:
175,216,65586,1,0,1:0:0:0:
291,256,65753,1,8,3:0:0:0:
68,263,65920,2,0,P|59:183|132:106,1,161.999995056153,0|0,1:0|0:0,0:0:0:0:
132,111,66253,2,0,L|197:113,1,53.9999983520508,0|0,1:0|1:0,0:0:0:0:
297,120,66420,2,0,L|293:231,1,107.999996704102,8|0,3:0|1:0,0:0:0:0:
354,358,66753,5,0,3:0:0:0:
420,236,66920,1,0,1:0:0:0:
420,236,67003,1,0,1:0:0:0:
420,236,67086,2,0,L|416:128,1,107.999996704102,8|0,3:0|1:0,0:0:0:0:
381,57,67336,2,0,L|384:143,1,53.9999983520508,8|0,1:0|3:0,0:0:0:0:
229,75,67586,2,0,P|172:81|128:115,1,107.999996704102,0|8,1:0|3:0,0:0:0:0:
73,274,67920,1,0,1:0:0:0:
216,204,68086,5,8,3:0:0:0:
200,296,68253,1,0,1:0:0:0:
292,156,68420,1,8,3:0:0:0:
316,292,68586,1,0,1:0:0:0:
258,51,68753,5,8,1:0:0:0:
186,246,68920,1,8,1:0:0:0:
382,122,69086,1,8,1:0:0:0:
136,164,69253,6,0,P|87:236|179:343,1,215.999993408203,12|0,1:0|1:0,0:0:0:0:
331,344,69753,1,8,3:0:0:0:
404,202,69920,1,8,1:0:0:0:
404,202,70003,1,8,1:0:0:0:
404,202,70086,1,0,1:0:0:0:
199,92,70253,2,0,L|265:107,1,53.9999983520508,8|8,1:0|1:0,0:0:0:0:
330,168,70420,2,0,L|264:183,1,53.9999983520508,8|8,1:0|1:0,0:0:0:0:
159,203,70586,1,8,1:0:0:0:
132,207,70670,1,8,1:0:0:0:
105,212,70753,6,0,B|65:180|65:180|70:63,1,161.999995056153,4|0,1:0|0:0,0:0:0:0:
90,44,71086,1,8,1:0:0:0:
171,181,71253,1,0,3:0:0:0:
181,17,71420,2,0,P|238:27|289:87,1,107.999996704102,0|0,1:0|3:0,0:0:0:0:
338,149,71670,1,8,1:0:0:0:
338,149,71753,2,0,L|336:275,1,107.999996704102,0|8,1:0|3:0,0:0:0:0:
468,74,72086,6,0,P|481:135|461:190,1,107.999996704102,2|0,1:0|3:0,0:0:0:0:
456,204,72336,2,0,P|409:245|352:255,1,107.999996704102,2|0,1:0|1:0,0:0:0:0:
337,257,72586,2,0,P|277:237|240:192,1,107.999996704102,2|0,3:0|1:0,0:0:0:0:
321,339,72920,1,0,3:0:0:0:
321,339,73003,1,8,1:0:0:0:
321,339,73086,2,0,L|182:338,1,107.999996704102,0|8,1:0|3:0,0:0:0:0:
71,341,73420,6,0,B|71:260|71:260|97:202|97:202|98:130,1,215.999993408203,4|8,1:0|1:0,0:0:0:0:
190,29,73920,1,0,3:0:0:0:
244,149,74086,2,0,P|252:210|226:259,1,107.999996704102,0|0,1:0|3:0,0:0:0:0:
233,250,74336,1,8,1:0:0:0:
233,250,74420,1,0,1:0:0:0:
267,130,74586,1,8,3:0:0:0:
426,163,74753,6,0,L|502:253,1,107.999996704102,2|0,1:0|3:0,0:0:0:0:
495,245,75003,2,0,L|379:265,1,107.999996704102,2|0,1:0|1:0,0:0:0:0:
388,264,75253,2,0,L|427:153,1,107.999996704102,2|0,3:0|1:0,0:0:0:0:
298,53,75586,1,0,3:0:0:0:
153,142,75753,1,8,1:0:0:0:
137,163,75836,1,8,1:0:0:0:
129,189,75920,1,8,1:0:0:0:
130,216,76003,1,8,1:0:0:0:
145,244,76086,6,0,P|201:265|252:258,1,107.999996704102,12|0,1:0|1:0,0:0:0:0:
413,193,76420,1,8,3:0:0:0:
249,122,76586,2,0,P|160:134|149:250,1,215.999993408203,0|0,1:0|1:0,0:0:0:0:
262,363,77086,1,8,3:0:0:0:
421,318,77253,1,0,1:0:0:0:
421,318,77336,1,8,1:0:0:0:
421,318,77420,6,0,L|412:189,1,125.999996154785,2|2,1:0|1:0,0:0:0:0:
323,48,77753,2,0,L|314:176,1,125.999996154785,10|2,3:0|1:0,0:0:0:0:
127,233,78086,2,0,P|191:272|266:255,1,125.999996154785,10|2,3:0|1:0,0:0:0:0:
239,97,78420,2,0,P|175:58|100:75,1,125.999996154785,10|2,3:0|1:0,0:0:0:0:
329,201,78753,5,6,1:0:0:0:
413,67,78920,1,0,1:0:0:0:
322,219,79086,2,0,B|302:272|302:272|313:362,1,125.999996154785,10|0,3:0|1:0,0:0:0:0:
484,182,79420,1,0,3:0:0:0:
471,342,79586,1,0,1:0:0:0:
508,161,79753,2,0,B|455:141|455:141|365:152,1,125.999996154785,10|0,3:0|1:0,0:0:0:0:
131,117,80086,6,0,B|108:148|72:159|72:159|80:199|60:231,1,144,14|0,1:0|1:0,0:0:0:0:
389,224,80420,2,0,B|371:195|379:155|379:155|343:144|320:113,1,144,8|0,1:0|1:0,0:0:0:0:
223,325,80753,1,8,1:0:0:0:
223,325,80836,1,8,1:0:0:0:
223,325,80920,2,0,L|228:245,1,72,8|8,1:0|1:0,0:0:0:0:
303,205,81086,1,0,1:0:0:0:
303,205,81170,1,0,1:0:0:0:
303,205,81253,2,0,L|308:285,1,72,0|0,1:0|1:0,0:0:0:0:
386,337,81420,5,6,1:0:0:0:
256,192,85420,12,2,86586,0:0:0:0:
126,45,86753,5,8,1:0:0:0:
83,170,86920,2,0,L|87:285,1,90,8|0,1:0|1:0,0:0:0:0:
212,330,87253,1,0,1:0:0:0:
212,330,87336,1,0,1:0:0:0:
212,330,87420,2,0,L|216:215,1,90,0|0,1:0|1:0,0:0:0:0:
219,79,87753,1,8,1:0:0:0:
365,192,87920,6,0,P|381:242|301:239,1,135,4|0,1:0|0:0,0:0:0:0:
295,236,88238,1,8,1:0:0:0:
455,87,88593,5,0,1:0:0:0:
455,87,88668,1,0,1:0:0:0:
455,87,88743,2,0,L|447:187,1,90,0|0,1:0|1:0,0:0:0:0:
367,266,89097,2,0,L|375:366,1,90,0|4,1:0|1:2,0:0:0:0:
256,192,89420,5,4,1:0:0:0:
256,192,89503,12,0,91753,0:0:0:0:
61,64,91920,5,2,0:0:0:0:
61,64,92003,1,2,0:0:0:0:
61,64,92086,2,0,B|105:36|153:60|153:60|195:80|241:66,1,180,6|0,1:0|0:0,0:0:0:0:
399,31,92586,1,0,1:0:0:0:
440,173,92753,2,0,P|450:237|349:306,1,180,10|0,1:0|0:0,0:0:0:0:
162,308,93253,6,0,B|153:256|153:256|169:202,1,90,4|0,1:0|0:0,0:0:0:0:
304,149,93586,2,0,B|313:201|313:201|297:255,1,90,2|0,1:0|0:0,0:0:0:0:
192,114,93920,1,2,1:0:0:0:
192,114,94003,1,0,1:0:0:0:
192,114,94086,2,0,P|215:69|248:47,1,90,8|2,1:0|1:0,0:0:0:0:
408,59,94420,2,0,P|435:101|438:140,1,90,10|2,1:0|0:0,0:0:0:0:
414,305,94753,6,0,L|261:313,2,135,6|0|2,1:0|1:0|1:0,0:0:0:0:
414,305,95336,1,0,1:0:0:0:
414,305,95420,1,8,1:0:0:0:
189,226,95753,5,2,0:0:0:0:
79,170,95920,2,0,P|64:231|130:337,1,180,4|8,1:0|1:0,0:0:0:0:
308,317,96420,2,0,L|315:218,1,90,0|0,0:0|1:0,0:0:0:0:
314,227,96669,1,8,1:0:0:0:
314,227,96753,1,0,1:0:0:0:
449,143,96919,1,0,1:0:0:0:
449,143,97003,1,0,1:0:0:0:
449,143,97086,2,0,L|446:89,1,45,0|0,1:0|1:0,0:0:0:0:
389,2,97253,2,0,L|386:46,1,45,0|0,1:0|1:0,0:0:0:0:
309,99,97419,6,0,B|255:79|255:79|130:107,1,175.499991966248,4|0,1:0|0:0,0:0:0:0:
112,114,97753,1,8,3:0:0:0:
44,259,97919,1,0,1:0:0:0:
193,238,98086,2,0,P|254:249|316:233,1,116.999994644165,8|0,3:0|1:0,0:0:0:0:
463,149,98419,1,8,3:0:0:0:
299,50,98586,2,0,L|221:54,1,58.4999973220826,0|0,1:0|1:0,0:0:0:0:
315,40,98753,2,0,L|179:46,1,116.999994644165,8|0,3:0|1:0,0:0:0:0:
81,131,99086,2,0,P|63:196|76:248,1,116.999994644165,8|0,3:0|1:0,0:0:0:0:
73,243,99336,1,0,1:0:0:0:
73,243,99419,5,10,1:0:0:0:
271,347,99586,1,10,1:0:0:0:
101,337,99753,1,10,1:0:0:0:
298,233,99919,1,10,1:0:0:0:
211,170,100086,6,0,P|274:133|378:167,2,175.499991966248,4|0|0,1:0|1:0|1:0,0:0:0:0:
298,233,100753,2,0,P|246:283|361:303,1,233.999989288331,8|0,1:0|1:0,0:0:0:0:
351,324,101169,1,0,1:0:0:0:
351,324,101253,1,0,1:0:0:0:
160,248,101419,5,12,1:0:0:0:
256,115,101586,1,0,1:0:0:0:
352,248,101753,1,0,1:0:0:0:
160,136,101919,5,12,1:0:0:0:
256,269,102086,1,0,1:0:0:0:
352,136,102253,1,0,1:0:0:0:
352,136,102336,1,0,1:0:0:0:
352,136,102419,2,0,L|430:141,1,58.4999973220826,8|8,1:0|1:0,0:0:0:0:
483,237,102586,2,0,L|405:242,1,58.4999973220826,8|8,1:0|1:0,0:0:0:0:
278,250,102753,5,2,1:0:0:0:
278,250,102919,1,2,1:0:0:0:
157,320,103419,2,0,P|134:252|166:170,1,144,8|0,1:0|0:0,0:0:0:0:
252,106,103919,5,2,1:0:0:0:
469,56,104253,1,2,1:0:0:0:
469,56,104419,1,2,1:0:0:0:
466,286,104753,1,8,1:0:0:0:
266,353,105086,2,0,L|168:349,1,72,2|2,0:0|0:0,0:0:0:0:
52,344,105419,5,2,1:0:0:0:
52,344,105586,1,2,1:0:0:0:
52,139,106086,1,8,1:0:0:0:
240,55,106586,5,2,1:0:0:0:
225,218,106919,1,2,1:0:0:0:
225,218,107086,1,2,1:0:0:0:
285,346,107253,1,0,1:0:0:0:
285,346,107336,1,0,1:0:0:0:
285,346,107419,6,0,P|351:352|390:329,1,90,8|0,1:0|1:0,0:0:0:0:
448,220,107753,1,0,1:0:0:0:
447,197,107836,1,0,1:0:0:0:
446,175,107919,1,0,1:0:0:0:
445,152,108003,1,0,1:0:0:0:
444,130,108086,6,0,B|399:102|356:118|356:118|310:137|262:118,1,180,4|8,1:0|3:0,0:0:0:0:
99,96,108586,2,0,P|61:146|79:262,1,180,0|0,1:0|1:0,0:0:0:0:
216,300,109086,1,8,3:0:0:0:
344,224,109253,2,0,B|279:190|279:190|158:190,1,180,0|0,1:0|1:0,0:0:0:0:
164,62,109753,6,0,P|224:56|268:77,1,90,8|0,3:0|1:0,0:0:0:0:
345,113,110003,1,8,1:0:0:0:
345,113,110086,2,0,P|380:161|384:210,1,90,0|0,3:0|1:0,0:0:0:0:
391,295,110419,2,0,P|366:349|326:377,1,90,8|0,3:0|1:0,0:0:0:0:
123,349,110753,5,8,1:0:0:0:
123,349,110919,1,8,1:0:0:0:
43,143,111253,1,0,1:0:0:0:
43,143,111336,1,0,1:0:0:0:
43,143,111419,2,0,P|93:130|136:142,1,90,0|0,1:0|1:0,0:0:0:0:
185,253,111753,2,0,P|135:266|92:254,1,90,0|0,1:0|1:0,0:0:0:0:
44,60,112086,5,8,1:0:0:0:
44,60,112253,1,8,1:0:0:0:
203,27,112586,2,0,B|267:21|267:21|383:56,1,180,4|0,1:0|1:0,0:0:0:0:
432,130,113003,1,0,1:0:0:0:
432,130,113086,2,0,L|437:194,1,45,0|0,1:0|1:0,0:0:0:0:
413,249,113253,2,0,L|409:293,1,45,0|0,1:0|1:0,0:0:0:0:
326,298,113419,6,0,P|293:259|281:217,1,90,6|0,3:0|0:0,0:0:0:0:
234,122,113753,2,0,P|284:112|326:123,1,90,0|0,3:0|0:0,0:0:0:0:
432,130,114086,2,0,P|414:178|384:209,1,90,10|0,3:0|0:0,0:0:0:0:
388,206,114336,1,8,1:0:0:0:
388,206,114419,1,0,3:0:0:0:
363,59,114586,1,8,1:0:0:0:
201,63,114753,6,0,L|136:140,1,90,2|0,3:0|0:0,0:0:0:0:
171,217,115086,2,0,L|270:234,1,90,0|0,3:0|0:0,0:0:0:0:
319,165,115419,2,0,L|284:70,1,90,8|0,3:0|0:0,0:0:0:0:
288,80,115669,1,8,1:0:0:0:
288,80,115753,1,0,3:0:0:0:
337,238,115919,1,8,1:0:0:0:
429,127,116086,5,12,3:1:0:0:
434,216,116253,1,2,1:0:0:0:
438,306,116419,1,2,3:0:0:0:
347,348,116586,5,12,1:3:0:0:
257,352,116753,1,2,3:0:0:0:
168,357,116919,2,0,L|167:306,1,45,2|8,1:0|1:0,0:0:0:0:
167,237,117086,6,0,L|176:128,1,90,0|8,3:0|1:0,0:0:0:0:
337,147,117419,2,0,L|345:237,1,90,0|0,3:0|0:0,0:0:0:0:
248,181,117753,2,0,L|257:72,1,90,0|0,3:0|0:0,0:0:0:0:
418,91,118086,2,0,L|425:180,1,90,0|8,3:0|1:0,0:0:0:0:
451,334,118419,1,0,1:0:0:0:
451,334,118503,1,0,1:0:0:0:
451,334,118586,1,0,1:0:0:0:
451,334,118669,1,0,1:0:0:0:
451,334,118753,6,0,L|341:329,1,90,6|0,1:0|1:0,0:0:0:0:
192,322,119086,1,10,1:0:0:0:
192,322,119253,1,2,1:0:0:0:
91,375,119419,2,0,P|78:323|143:215,1,180,2|10,0:0|1:0,0:0:0:0:
311,251,119919,6,0,P|348:219|365:177,1,90,6|0,1:0|0:0,0:0:0:0:
247,148,120253,2,0,P|264:102|256:56,1,90,6|0,1:0|0:0,0:0:0:0:
140,90,120586,2,0,P|131:41|102:6,1,90,6|0,1:0|0:0,0:0:0:0:
21,103,120919,1,0,1:0:0:0:
21,103,121003,1,0,1:0:0:0:
21,103,121086,2,0,L|16:198,1,90,8|0,1:0|1:0,0:0:0:0:
18,323,121419,6,0,B|71:356|128:325|128:325|179:364|245:328,1,225,4|0,1:0|0:0,0:0:0:0:
258,322,121919,5,0,1:0:0:0:
400,358,122086,1,8,1:0:0:0:
360,217,122253,2,0,B|317:207|317:207|268:210,1,90,4|0,1:0|0:0,0:0:0:0:
196,102,122586,2,0,B|239:92|239:92|288:95,1,90,4|0,1:0|0:0,0:0:0:0:
440,102,122919,5,0,1:0:0:0:
440,102,123003,1,0,1:0:0:0:
440,102,123086,2,0,P|460:147|446:196,1,90,0|0,1:0|1:0,0:0:0:0:
394,297,123419,2,0,L|344:295,1,45,0|0,1:0|1:0,0:0:0:0:
275,290,123586,2,0,P|258:229|270:188,1,90,0|0,1:0|1:0,0:0:0:0:
323,95,123919,1,0,1:0:0:0:
190,25,124086,5,6,1:0:0:0:
96,64,129419,6,0,L|195:73,1,90,6|0,1:0|0:0,0:0:0:0:
322,82,129753,1,0,1:0:0:0:
322,82,129919,2,0,P|338:128|326:185,1,90,2|0,0:0|1:0,0:0:0:0:
253,241,130253,1,0,0:0:0:0:
253,241,130419,1,2,1:0:0:0:
169,305,130586,2,0,P|250:350|338:309,1,180,2|0,3:0|0:0,0:0:0:0:
394,228,131086,5,0,1:0:0:0:
427,122,131253,2,0,P|362:79|271:113,1,180,2|2,0:0|0:0,0:0:0:0:
188,194,131753,2,0,P|136:200|92:188,1,90,2|2,1:0|0:0,0:0:0:0:
149,63,132086,6,0,L|333:73,2,161.999995056153,14|10|10,1:2|1:2|1:2,0:0:0:0:
99,191,132753,2,0,B|84:276|84:276|129:353,2,161.999995056153,14|10|10,1:2|1:2|1:2,0:0:0:0:
208,182,133419,6,0,P|260:163|266:264,1,180,14|8,1:0|1:0,0:0:0:0:
173,289,133919,1,8,1:0:0:0:
193,157,134086,1,8,1:0:0:0:
269,270,134253,1,8,1:0:0:0:
125,213,134419,1,8,1:0:0:0:
299,176,134586,1,8,1:0:0:0:
233,347,134753,6,0,P|290:356|338:325,1,90,6|0,1:2|1:0,0:0:0:0:
318,343,135003,1,8,1:0:0:0:
318,343,135086,1,8,1:0:0:0:
420,263,135253,2,0,P|429:206|398:158,1,90,8|10,1:0|1:0,0:0:0:0:
416,177,135503,1,8,1:0:0:0:
416,177,135586,1,8,1:0:0:0:
335,75,135753,1,10,1:0:0:0:
176,38,135919,1,8,1:0:0:0:
176,38,136003,1,8,1:0:0:0:
176,38,136086,6,0,P|147:89|149:140,1,107.999996704102,6|0,1:0|3:0,0:0:0:0:
238,258,136419,1,8,1:0:0:0:
269,111,136586,1,0,3:0:0:0:
127,172,136753,2,0,P|98:223|100:274,1,107.999996704102,0|0,1:0|3:0,0:0:0:0:
163,344,137003,1,8,1:0:0:0:
163,344,137086,2,0,L|272:343,1,107.999996704102,0|8,1:0|3:0,0:0:0:0:
426,347,137419,6,0,L|422:232,1,107.999996704102,2|0,1:0|3:0,0:0:0:0:
346,277,137669,2,0,L|342:162,1,107.999996704102,2|0,1:0|1:0,0:0:0:0:
266,207,137919,2,0,L|262:92,1,107.999996704102,2|0,3:0|1:0,0:0:0:0:
134,136,138253,1,0,3:0:0:0:
134,136,138336,1,8,1:0:0:0:
134,136,138419,2,0,P|102:196|116:249,1,107.999996704102,0|8,1:0|3:0,0:0:0:0:
245,335,138753,6,0,B|268:260|268:260|265:167,1,161.999995056153,0|0,1:0|0:0,0:0:0:0:
263,145,139086,1,8,1:0:0:0:
352,43,139253,1,0,3:0:0:0:
395,177,139419,2,0,P|417:234|398:301,1,107.999996704102,0|0,1:0|3:0,0:0:0:0:
409,279,139669,1,8,1:0:0:0:
409,279,139753,1,0,1:0:0:0:
276,335,139919,1,8,3:0:0:0:
131,289,140086,6,0,P|93:242|96:171,1,107.999996704102,2|0,1:0|3:0,0:0:0:0:
97,169,140336,2,0,P|156:159|216:197,1,107.999996704102,2|0,1:0|1:0,0:0:0:0:
217,199,140586,2,0,P|195:255|132:288,1,107.999996704102,2|0,3:0|1:0,0:0:0:0:
24,311,140919,1,0,3:0:0:0:
17,165,141086,1,8,1:0:0:0:
28,126,141169,1,8,1:0:0:0:
57,98,141253,1,8,1:0:0:0:
95,88,141336,1,8,1:0:0:0:
134,99,141419,6,0,P|197:91|247:118,1,107.999996704102,4|0,1:0|1:0,0:0:0:0:
163,225,141753,1,8,3:0:0:0:
236,108,141919,2,0,P|274:158|276:215,1,107.999996704102,0|0,1:0|3:0,0:0:0:0:
363,314,142253,1,0,1:0:0:0:
363,314,142336,1,0,1:0:0:0:
363,314,142419,2,0,P|401:263|403:206,1,107.999996704102,8|0,3:0|1:0,0:0:0:0:
464,102,142753,6,0,P|413:82|351:95,1,107.999996704102,0|0,3:0|1:0,0:0:0:0:
260,137,143003,1,0,1:0:0:0:
260,137,143086,2,0,L|256:255,1,107.999996704102,8|0,3:0|1:0,0:0:0:0:
256,244,143336,1,8,1:0:0:0:
256,244,143419,1,0,3:0:0:0:
130,326,143586,2,0,L|135:217,1,107.999996704102,0|8,1:0|3:0,0:0:0:0:
142,89,143919,1,0,1:0:0:0:
256,32,144086,6,0,P|269:84|258:140,1,107.999996704102,8|0,3:0|1:0,0:0:0:0:
146,277,144419,1,8,3:0:0:0:
307,200,144586,1,0,1:0:0:0:
307,200,144669,1,0,1:0:0:0:
307,200,144753,1,8,1:0:0:0:
246,349,144919,1,8,1:0:0:0:
183,161,145086,1,8,1:0:0:0:
368,290,145253,6,0,P|406:238|399:131,1,161.999995056153,12|0,1:0|0:0,0:0:0:0:
396,113,145586,1,0,1:0:0:0:
269,47,145753,2,0,B|254:90|254:90|256:169,1,107.999996704102,8|0,3:0|1:0,0:0:0:0:
257,255,146003,1,0,1:0:0:0:
257,255,146086,2,0,L|262:326,2,53.9999983520508,0|0|0,1:0|1:0|1:0,0:0:0:0:
135,339,146419,1,0,1:0:0:0:
0,286,146586,1,0,1:0:0:0:
0,286,146669,1,0,1:0:0:0:
0,286,146753,6,0,P|77:193|187:194,1,215.999993408203,4|8,1:0|1:0,0:0:0:0:
286,249,147253,1,0,3:0:0:0:
388,306,147419,2,0,L|382:194,1,107.999996704102,0|0,1:0|3:0,0:0:0:0:
375,109,147669,1,8,1:0:0:0:
375,109,147753,2,0,P|319:88|266:100,1,107.999996704102,0|8,1:0|3:0,0:0:0:0:
126,173,148086,6,0,L|59:273,1,107.999996704102,2|0,1:0|3:0,0:0:0:0:
65,262,148336,2,0,L|185:270,1,107.999996704102,2|0,1:0|1:0,0:0:0:0:
176,272,148586,2,0,L|122:163,1,107.999996704102,2|0,3:0|1:0,0:0:0:0:
59,55,148919,1,0,3:0:0:0:
59,55,149003,1,8,1:0:0:0:
59,55,149086,2,0,P|125:39|181:67,1,107.999996704102,0|8,1:0|3:0,0:0:0:0:
262,137,149419,6,0,B|296:187|282:246|282:246|263:302|278:352,1,215.999993408203,4|8,1:0|1:0,0:0:0:0:
413,356,149919,1,0,3:0:0:0:
445,232,150086,2,0,P|454:167|433:117,1,107.999996704102,0|0,1:0|3:0,0:0:0:0:
377,63,150336,1,8,1:0:0:0:
377,63,150419,2,0,L|255:65,1,107.999996704102,0|8,1:0|3:0,0:0:0:0:
107,138,150753,6,0,B|71:180|71:180|101:230,1,107.999996704102,2|0,1:0|3:0,0:0:0:0:
98,225,151003,2,0,B|152:235|152:235|180:184,1,107.999996704102,2|0,1:0|1:0,0:0:0:0:
178,184,151253,2,0,B|159:131|159:131|101:132,1,107.999996704102,2|0,3:0|1:0,0:0:0:0:
39,291,151586,1,8,3:0:0:0:
39,291,151669,1,8,1:0:0:0:
39,291,151753,2,0,P|100:318|151:298,1,107.999996704102,0|8,1:0|1:0,0:0:0:0:
227,267,152003,1,8,1:0:0:0:
227,267,152086,6,0,B|267:216|267:216|264:61,1,215.999993408203,4|8,1:0|3:0,0:0:0:0:
413,45,152586,2,0,P|449:118|410:210,1,161.999995056153,0|0,1:0|0:0,0:0:0:0:
413,218,152919,1,0,1:0:0:0:
333,128,153086,1,8,3:0:0:0:
319,276,153253,1,0,1:0:0:0:
222,139,153419,6,0,B|163:113|163:113|97:119,1,125.999996154785,2|2,1:0|1:0,0:0:0:0:
25,249,153753,2,0,B|84:275|84:275|150:269,1,125.999996154785,10|2,3:0|1:0,0:0:0:0:
327,247,154086,2,0,L|336:388,1,125.999996154785,10|2,3:0|1:0,0:0:0:0:
361,145,154419,2,0,L|370:4,1,125.999996154785,10|2,3:0|1:0,0:0:0:0:
165,35,154753,5,4,1:0:0:0:
48,175,154919,1,0,1:0:0:0:
152,9,155086,2,0,P|136:72|162:139,1,135.000005149842,8|0,3:0|1:0,0:0:0:0:
257,149,155336,1,8,1:0:0:0:
257,149,155419,2,0,B|333:150|333:150|390:197,1,135.000005149842,0|0,3:0|1:0,0:0:0:0:
170,214,155753,2,0,B|94:213|94:213|37:166,1,135.000005149842,8|0,3:0|1:0,0:0:0:0:
221,355,156086,6,0,B|221:277|221:277|255:222|255:222|257:136,1,216,14|0,1:0|0:0,0:0:0:0:
262,30,156419,2,0,L|344:33,2,60,2|0|8,1:0|1:0|1:0,0:0:0:0:
396,120,156753,2,0,L|314:123,2,60,2|0|8,1:0|1:0|1:0,0:0:0:0:
338,230,157086,2,0,L|335:312,2,60,2|0|0,1:0|1:0|1:0,0:0:0:0:
219,336,157419,6,0,P|145:345|133:219,1,215.999993408203,6|2,1:0|0:0,0:0:0:0:
212,134,157919,1,0,1:0:0:0:
337,97,158086,2,0,P|357:152|348:207,1,107.999996704102,10|2,1:0|0:0,0:0:0:0:
286,322,158419,1,2,1:0:0:0:
210,225,158586,2,0,P|183:161|238:16,2,215.999993408203,2|10|2,1:0|1:0|1:0,0:0:0:0:
210,225,159336,1,0,1:0:0:0:
210,225,159419,1,10,1:0:0:0:
102,263,159586,1,2,1:0:0:0:
188,337,159753,2,0,P|268:341|341:225,1,215.999993408203,10|6,1:0|1:0,0:0:0:0:
346,109,160253,6,0,P|309:67|149:85,1,215.999993408203,0|0,1:0|1:0,0:0:0:0:
96,185,160753,1,10,1:0:0:0:
194,204,160919,1,2,0:0:0:0:
128,279,161086,1,2,1:0:0:0:
226,298,161253,2,0,B|298:329|298:329|440:323,2,215.999993408203,6|2|2,1:0|1:0|1:0,0:0:0:0:
226,298,162003,1,0,1:0:0:0:
226,298,162086,1,10,1:0:0:0:
322,229,162253,1,2,1:0:0:0:
214,180,162419,2,0,P|251:127|307:110,1,107.999996704102,2|2,1:0|1:0,0:0:0:0:
432,103,162753,6,0,B|466:155|446:213|446:213|429:264|454:326,1,215.999993408203,6|2,1:0|0:0,0:0:0:0:
320,354,163253,1,0,1:0:0:0:
217,283,163419,2,0,P|203:216|222:165,2,107.999996704102,10|2|2,1:0|0:0|1:0,0:0:0:0:
105,344,163919,2,0,L|110:234,1,107.999996704102,6|0,1:0|0:0,0:0:0:0:
210,147,164253,2,0,L|215:257,1,107.999996704102,10|0,1:0|0:0,0:0:0:0:
295,353,164586,1,2,1:0:0:0:
295,353,164669,1,0,1:0:0:0:
295,353,164753,2,0,P|328:298|332:248,1,107.999996704102,10|2,1:0|1:0,0:0:0:0:
330,119,165086,2,0,P|298:62|257:34,1,107.999996704102,10|0,1:0|0:0,0:0:0:0:
118,41,165419,5,2,1:0:0:0:
70,149,165586,2,0,P|60:228|128:346,1,215.999993408203,8|0,1:0|1:0,0:0:0:0:
260,348,166086,1,10,1:0:0:0:
261,268,166253,1,2,0:0:0:0:
262,188,166419,1,2,0:0:0:0:
352,117,166586,6,0,P|373:177|361:243,1,107.999996704102,6|0,1:0|0:0,0:0:0:0:
279,291,166919,2,0,P|258:231|270:165,1,107.999996704102,2|0,1:0|0:0,0:0:0:0:
294,40,167253,1,2,1:0:0:0:
294,40,167336,1,0,1:0:0:0:
294,40,167419,2,0,L|179:48,1,107.999996704102,10|2,1:0|1:0,0:0:0:0:
75,126,167753,2,0,L|190:134,1,107.999996704102,2|2,1:0|1:0,0:0:0:0:
341,137,168086,5,4,1:0:0:0:
320,261,168253,1,0,1:0:0:0:
261,157,168419,1,8,3:0:0:0:
406,254,168586,1,0,1:0:0:0:
422,121,168753,2,0,L|425:10,2,107.999996704102,0|0|0,1:0|1:0|1:0,0:0:0:0:
403,285,169253,1,4,1:2:0:0:
114,314,170753,5,6,1:2:0:0:
206,173,170919,1,6,1:2:0:0:
122,98,171253,2,0,L|113:329,2,215.999993408203,6|6|6,1:2|1:2|1:2,0:0:0:0:
358,85,172253,5,0,1:0:0:0:
394,184,172419,1,0,1:0:0:0:
291,166,172586,1,0,1:0:0:0:
461,103,172753,2,0,P|489:169|480:231,1,125.999996154785,8|8,1:0|1:0,0:0:0:0:
357,327,173077,1,8,1:0:0:0:
290,187,173239,1,8,1:0:0:0:
201,345,173419,6,0,P|137:305|157:227,2,161.999995056153,6|2|2,0:1|0:0|0:0,0:0:0:0:
363,319,174753,2,0,B|318:229|365:157|365:157|415:79|356:-8,1,323.999990112305,2|2,0:0|0:0,0:0:0:0:
248,84,176086,6,0,P|146:55|252:320,1,647.99998022461,6|0,1:2|0:0,0:0:0:0:
160,209,178419,5,2,0:0:0:0:
160,209,178503,1,0,0:0:0:0:
160,209,178586,1,2,0:0:0:0:
160,209,178669,1,0,0:0:0:0:
160,209,178753,1,6,3:1:0:0:
143,93,184086,6,0,L|139:213,3,107.999996704102,0|0|0|0,1:0|1:0|1:0|1:0,0:0:0:0:
369,93,185419,2,0,L|373:213,3,107.999996704102,0|0|0|0,1:0|1:0|1:0|1:0,0:0:0:0:
199,181,186753,6,0,P|180:250|196:335,2,135,2|2|2,1:0|0:0|0:0,0:0:0:0:
313,203,187419,2,0,P|332:134|316:49,2,135,2|2|2,1:0|0:0|0:0,0:0:0:0:
433,185,188086,6,0,P|423:247|379:301,1,107.999996704102,4|0,1:0|0:0,0:0:0:0:
260,318,188586,1,0,1:0:0:0:
183,216,188753,2,0,L|187:102,1,107.999996704102,8|0,1:0|0:0,0:0:0:0:
319,38,189253,2,0,L|315:152,1,107.999996704102,6|2,1:0|1:0,0:0:0:0:
317,312,189919,5,0,1:0:0:0:
317,312,190003,1,0,1:0:0:0:
317,312,190086,2,0,L|253:305,1,53.9999983520508,8|0,1:0|1:0,0:0:0:0:
211,227,190419,2,0,L|147:234,1,53.9999983520508,2|2,1:0|1:0,0:0:0:0:
28,260,190753,5,6,1:0:0:0:
256,192,190836,12,0,191753,0:0:0:0:
256,192,192086,5,2,0:0:0:0:
256,192,192753,1,2,0:0:0:0:
75,93,193753,1,2,0:0:0:0:
74,115,193836,1,0,0:0:0:0:
73,137,193919,1,2,0:0:0:0:
73,160,194003,1,0,0:0:0:0:
72,182,194087,6,0,P|135:201|187:194,1,107.999996704102,6|0,1:0|3:0,0:0:0:0:
300,113,194420,2,0,L|302:231,1,107.999996704102,8|0,1:0|3:0,0:0:0:0:
304,350,194753,1,0,1:0:0:0:
433,288,194920,1,0,3:0:0:0:
433,288,195003,1,8,1:0:0:0:
433,288,195087,2,0,P|445:227|436:178,1,107.999996704102,0|8,1:0|3:0,0:0:0:0:
413,38,195420,6,0,B|361:31|361:31|302:41,1,107.999996704102,2|0,1:0|3:0,0:0:0:0:
300,113,195670,2,0,B|248:106|248:106|189:116,1,107.999996704102,2|0,1:0|1:0,0:0:0:0:
187,188,195920,2,0,B|135:181|135:181|76:191,1,107.999996704102,2|0,3:0|1:0,0:0:0:0:
48,344,196253,1,0,3:0:0:0:
48,344,196337,1,8,1:0:0:0:
48,344,196420,2,0,L|172:348,1,107.999996704102,0|8,1:0|3:0,0:0:0:0:
330,348,196753,6,0,P|393:328|416:190,1,215.999993408203,0|8,1:0|1:0,0:0:0:0:
317,78,197253,1,0,3:0:0:0:
192,134,197420,2,0,P|174:192|189:249,1,107.999996704102,0|0,1:0|3:0,0:0:0:0:
281,195,197670,1,8,1:0:0:0:
281,195,197753,2,0,P|299:137|284:80,1,107.999996704102,0|8,1:0|3:0,0:0:0:0:
96,49,198087,6,0,P|53:79|71:145,1,107.999996704102,2|0,1:0|3:0,0:0:0:0:
56,129,198337,2,0,P|103:151|151:102,1,107.999996704102,2|0,1:0|1:0,0:0:0:0:
145,122,198587,2,0,P|140:69|74:52,1,107.999996704102,2|0,3:0|1:0,0:0:0:0:
32,153,198920,1,0,3:0:0:0:
55,302,199087,1,8,1:0:0:0:
81,303,199170,1,8,1:0:0:0:
108,304,199253,1,8,1:0:0:0:
135,305,199337,1,8,1:0:0:0:
165,309,199420,6,0,L|279:314,1,107.999996704102,4|0,1:0|1:0,0:0:0:0:
410,348,199753,1,8,3:0:0:0:
397,228,199920,2,0,B|377:169|391:122|391:122|412:64|389:6,1,215.999993408203,0|0,1:0|1:0,0:0:0:0:
304,22,200337,1,0,1:0:0:0:
304,22,200420,2,0,P|314:81|286:134,1,107.999996704102,8|0,3:0|1:0,0:0:0:0:
145,110,200753,6,0,P|129:177|145:227,1,107.999996704102,0|0,3:0|1:0,0:0:0:0:
189,291,201003,1,0,1:0:0:0:
189,291,201087,2,0,L|301:292,1,107.999996704102,8|0,3:0|1:0,0:0:0:0:
296,291,201337,1,8,1:0:0:0:
296,291,201420,1,0,3:0:0:0:
439,241,201587,2,0,L|431:123,1,107.999996704102,0|8,1:0|3:0,0:0:0:0:
422,14,201920,1,0,1:0:0:0:
243,37,202087,6,0,P|226:96|235:150,1,107.999996704102,8|0,3:0|1:0,0:0:0:0:
317,300,202420,1,8,3:0:0:0:
339,152,202587,1,0,1:0:0:0:
221,243,202753,1,8,1:0:0:0:
402,244,202920,1,8,1:0:0:0:
231,141,203087,1,8,1:0:0:0:
249,336,203253,6,0,P|167:349|79:302,1,161.999995056153,12|0,1:0|0:0,0:0:0:0:
79,293,203587,1,8,1:0:0:0:
41,164,203753,2,0,L|61:51,1,107.999996704102,8|0,3:0|1:0,0:0:0:0:
232,36,204087,1,8,1:0:0:0:
232,36,204170,1,8,1:0:0:0:
232,36,204253,1,8,1:0:0:0:
408,45,204420,1,8,1:0:0:0:
408,45,204503,1,8,1:0:0:0:
408,45,204587,1,8,1:0:0:0:
408,45,204670,1,8,1:0:0:0:
408,45,204753,6,0,B|452:97|452:97|447:244,1,215.999993408203,4|8,1:0|1:0,0:0:0:0:
358,354,205253,1,0,3:0:0:0:
221,289,205420,2,0,P|202:232|211:183,1,107.999996704102,0|0,1:0|3:0,0:0:0:0:
239,93,205670,1,8,1:0:0:0:
239,93,205753,2,0,P|182:74|133:83,1,107.999996704102,0|8,1:0|3:0,0:0:0:0:
55,206,206087,6,0,L|61:318,1,107.999996704102,2|0,1:0|3:0,0:0:0:0:
101,309,206337,2,0,L|107:197,1,107.999996704102,2|0,1:0|1:0,0:0:0:0:
147,206,206587,2,0,L|153:318,1,107.999996704102,2|0,3:0|1:0,0:0:0:0:
294,324,206920,1,0,3:0:0:0:
294,324,207003,1,8,1:0:0:0:
294,324,207087,2,0,P|311:263|292:200,1,107.999996704102,0|8,1:0|3:0,0:0:0:0:
260,90,207420,6,0,P|321:73|430:173,1,215.999993408203,4|8,1:0|1:0,0:0:0:0:
421,306,207920,1,0,3:0:0:0:
294,324,208087,2,0,P|233:328|186:288,1,107.999996704102,0|0,1:0|3:0,0:0:0:0:
151,222,208337,1,8,1:0:0:0:
151,222,208420,2,0,L|154:109,1,107.999996704102,0|8,1:0|3:0,0:0:0:0:
305,45,208753,6,0,P|366:55|391:100,1,107.999996704102,2|0,1:0|3:0,0:0:0:0:
389,90,209003,2,0,P|349:137|298:136,1,107.999996704102,2|2,1:0|1:0,0:0:0:0:
307,140,209253,2,0,P|285:82|311:38,1,107.999996704102,2|0,3:0|1:0,0:0:0:0:
437,9,209586,1,0,3:0:0:0:
444,140,209753,1,8,1:0:0:0:
449,166,209836,1,8,1:0:0:0:
442,192,209920,1,8,1:0:0:0:
424,212,210003,1,8,1:0:0:0:
400,223,210086,6,0,L|292:226,1,107.999996704102,12|0,1:0|1:0,0:0:0:0:
138,218,210420,1,8,3:0:0:0:
216,91,210586,2,0,P|279:109|312:151,1,107.999996704102,0|0,1:0|3:0,0:0:0:0:
322,312,210920,1,0,1:0:0:0:
322,312,211003,1,0,1:0:0:0:
322,312,211086,2,0,L|214:315,1,107.999996704102,8|0,3:0|1:0,0:0:0:0:
101,262,211420,6,0,P|96:182|125:132,1,125.999996154785,8|0,3:0|1:0,0:0:0:0:
272,95,211753,2,0,P|277:175|248:225,1,125.999996154785,8|0,3:0|1:0,0:0:0:0:
192,309,212003,1,8,1:0:0:0:
192,309,212086,2,0,B|257:333|257:333|324:312,1,125.999996154785,0|0,3:0|1:0,0:0:0:0:
410,197,212420,2,0,B|434:132|434:132|413:65,1,125.999996154785,8|0,3:0|1:0,0:0:0:0:
203,34,212753,5,14,3:0:0:0:
272,193,212920,1,0,1:0:0:0:
308,34,213086,1,10,3:0:0:0:
172,163,213253,1,0,1:0:0:0:
356,192,213420,5,10,3:0:0:0:
284,15,213586,1,0,1:0:0:0:
280,220,213753,1,10,3:0:0:0:
369,44,213920,1,0,1:0:0:0:
203,149,214086,5,12,1:2:0:0:
436,183,214253,1,12,1:2:0:0:
201,275,214420,1,12,1:2:0:0:
434,309,214586,1,12,1:2:0:0:
201,275,214920,6,0,L|55:265,1,125.999996154785,0|10,1:0|1:0,0:0:0:0:
75,266,215170,1,8,1:0:0:0:
75,266,215253,1,8,1:0:0:0:
88,62,215586,5,0,1:0:0:0:
88,62,215670,1,0,1:0:0:0:
88,62,215753,6,0,P|166:51|216:73,1,116.999994644165,12|0,3:0|1:0,0:0:0:0:
348,12,216086,2,0,P|359:90|337:140,1,116.999994644165,8|0,3:0|1:0,0:0:0:0:
232,241,216420,1,8,3:0:0:0:
90,182,216586,1,0,1:0:0:0:
90,182,216670,1,0,1:0:0:0:
90,182,216753,6,0,P|79:260|101:310,1,116.999994644165,8|0,3:0|1:0,0:0:0:0:
244,352,217086,1,8,3:0:0:0:
344,235,217253,1,0,1:0:0:0:
344,235,217336,1,0,1:0:0:0:
344,235,217420,2,0,L|343:115,1,116.999994644165,8|0,3:0|1:0,0:0:0:0:
343,118,217670,1,0,1:0:0:0:
343,118,217753,1,8,3:0:0:0:
189,75,217920,2,0,L|190:142,1,58.4999973220826,0|0,1:0|1:0,0:0:0:0:
176,69,218086,6,0,L|178:205,1,116.999994644165,8|0,3:0|1:0,0:0:0:0:
166,337,218420,1,8,3:0:0:0:
314,339,218586,1,0,1:0:0:0:
314,339,218670,1,0,1:0:0:0:
314,339,218753,2,0,P|349:281|340:226,1,116.999994644165,8|0,3:0|1:0,0:0:0:0:
266,107,219086,1,8,3:0:0:0:
445,68,219253,6,0,L|429:136,1,58.4999973220826,0|0,1:0|1:0,0:0:0:0:
407,239,219420,1,8,3:0:0:0:
342,86,219586,2,0,L|338:156,1,58.4999973220826,0|0,1:0|1:0,0:0:0:0:
334,260,219753,1,8,3:0:0:0:
243,121,219920,2,0,L|251:190,1,58.4999973220826,0|0,1:0|1:0,0:0:0:0:
266,294,220086,1,8,3:0:0:0:
152,173,220253,2,0,L|172:240,1,58.4999973220826,0|0,1:0|1:0,0:0:0:0:
204,339,220420,1,8,3:0:0:0:
67,244,220586,1,0,1:0:0:0:
67,244,220670,1,0,1:0:0:0:
67,244,220753,6,0,B|54:176|54:176|68:103,1,116.999994644165,12|0,3:0|1:0,0:0:0:0:
166,26,221086,1,8,3:0:0:0:
225,153,221253,1,0,1:0:0:0:
225,153,221336,1,0,1:0:0:0:
225,153,221420,2,0,L|230:283,1,116.999994644165,8|0,3:0|1:0,0:0:0:0:
357,356,221753,1,8,3:0:0:0:
364,199,221920,1,0,1:0:0:0:
364,199,222003,1,0,1:0:0:0:
364,199,222086,6,0,P|371:134|358:79,1,116.999994644165,8|0,3:0|1:0,0:0:0:0:
219,37,222420,2,0,P|212:102|225:157,1,116.999994644165,8|0,3:0|1:0,0:0:0:0:
224,152,222670,1,0,1:0:0:0:
224,152,222753,1,8,3:0:0:0:
323,300,222920,2,0,L|257:297,1,58.4999973220826,0|0,1:0|1:0,0:0:0:0:
337,309,223086,2,0,L|207:304,1,116.999994644165,8|0,3:0|1:0,0:0:0:0:
120,297,223336,1,0,1:0:0:0:
120,297,223420,6,0,P|111:227|129:178,1,116.999994644165,8|0,3:0|1:0,0:0:0:0:
264,114,223753,2,0,P|273:184|255:233,1,116.999994644165,8|0,3:0|1:0,0:0:0:0:
165,68,224086,1,8,3:0:0:0:
345,114,224253,1,8,1:0:0:0:
150,159,224420,1,8,3:0:0:0:
341,25,224586,6,0,P|412:48|425:148,1,175.499991966248,14|0,3:0|0:0,0:0:0:0:
419,165,224920,1,10,1:0:0:0:
345,318,225086,1,10,1:0:0:0:
293,175,225253,1,10,1:0:0:0:
465,309,225420,5,14,1:0:0:0:
231,381,225586,2,0,L|229:323,1,58.4999973220826,10|8,1:0|1:0,1:0:0:0:
128,261,225753,1,8,1:0:0:0:
115,225,225836,1,8,1:0:0:0:
123,187,225920,1,8,1:0:0:0:
150,159,226003,1,8,1:0:0:0:
187,150,226086,6,0,P|238:144|296:179,1,116.999994644165,4|8,1:0|1:0,0:0:0:0:
327,275,226336,1,8,1:0:0:0:
327,275,226420,2,0,P|276:281|218:246,1,116.999994644165,0|8,1:0|1:0,0:0:0:0:
308,128,226753,2,0,P|328:80|387:48,1,116.999994644165,4|0,1:2|0:0,0:0:0:0:
486,69,227003,1,8,1:0:0:0:
486,69,227086,2,0,P|465:116|406:148,1,116.999994644165,0|8,1:0|1:0,0:0:0:0:
205,150,227420,6,0,L|210:277,1,116.999994644165,4|0,1:2|0:0,0:0:0:0:
302,266,227670,1,8,1:0:0:0:
302,266,227753,2,0,L|307:150,1,116.999994644165,0|8,1:0|1:0,0:0:0:0:
202,50,228086,2,0,L|207:177,1,116.999994644165,4|0,1:2|0:0,0:0:0:0:
299,166,228336,1,8,1:0:0:0:
299,166,228420,2,0,L|303:49,1,116.999994644165,0|8,1:0|1:0,0:0:0:0:
451,60,228753,6,0,B|467:123|467:123|447:193,1,116.999994644165,4|0,1:0|0:0,0:0:0:0:
398,252,229003,1,8,1:0:0:0:
398,252,229086,2,0,B|335:268|335:268|265:248,1,116.999994644165,0|8,1:0|1:0,0:0:0:0:
137,242,229420,2,0,B|121:179|121:179|141:109,1,116.999994644165,4|0,1:2|0:0,0:0:0:0:
190,50,229670,1,8,1:0:0:0:
190,50,229753,2,0,B|253:33|253:33|323:53,1,116.999994644165,0|8,1:0|1:0,0:0:0:0:
437,106,230086,6,0,P|443:157|408:215,1,116.999994644165,4|0,1:2|0:0,0:0:0:0:
321,257,230336,1,8,1:0:0:0:
321,257,230420,2,0,L|314:136,1,116.999994644165,0|8,1:0|1:0,0:0:0:0:
111,123,230753,2,0,B|97:173|97:173|113:236,1,116.999994644165,4|0,1:2|1:0,0:0:0:0:
146,247,231003,1,0,1:0:0:0:
181,249,231086,1,0,1:0:0:0:
216,251,231170,1,0,1:0:0:0:
251,253,231253,1,0,1:0:0:0:
286,255,231336,1,0,1:0:0:0:
321,257,231420,6,0,P|396:222|365:80,1,233.999989288331,6|0,1:0|1:0,0:0:0:0:
214,33,231920,2,0,L|207:166,1,116.999994644165,2|0,1:0|1:0,0:0:0:0:
198,308,232253,1,2,1:0:0:0:
340,281,232420,2,0,P|401:253|419:198,1,116.999994644165,2|2,1:0|1:0,0:0:0:0:
283,62,232753,5,14,1:2:0:0:
244,216,232920,1,10,1:0:0:0:
391,107,233086,1,10,1:2:0:0:
196,48,233253,1,10,1:0:0:0:
328,193,233420,1,10,1:2:0:0:
339,0,233586,1,10,1:0:0:0:
150,141,233753,1,8,1:0:0:0:
150,141,233836,1,0,1:0:0:0:
150,141,233920,2,0,L|212:145,1,58.4999973220826,0|0,1:0|1:0,0:0:0:0:
341,147,234086,5,12,1:0:0:0:
265,327,234253,1,0,1:0:0:0:
148,171,234420,1,0,1:0:0:0:
357,255,234586,5,12,1:0:0:0:
164,279,234753,1,0,1:0:0:0:
240,99,234920,1,0,1:0:0:0:
273,343,235086,5,12,1:0:0:0:
115,135,235253,1,0,1:0:0:0:
361,130,235420,6,0,P|311:55|237:128,1,216,12|0,1:0|0:0,0:0:0:0:
260,222,235753,1,8,1:0:0:0:
260,222,235836,1,8,1:0:0:0:
260,222,235920,2,0,P|238:253|179:263,1,72,8|8,1:0|1:0,0:0:0:0:
88,123,236086,1,0,1:0:0:0:
88,123,236170,1,0,1:0:0:0:
88,123,236253,2,0,P|110:92|169:82,1,72,0|0,1:0|1:0,0:0:0:0:
162,186,236420,5,0,1:0:0:0:
155,167,236503,1,0,1:0:0:0:
170,156,236586,1,0,1:0:0:0:
186,167,236670,1,0,1:0:0:0:
178,185,236753,5,4,1:0:0:0:
374,207,241753,6,0,P|408:147|379:88,1,135,14|0,1:0|0:0,0:0:0:0:
353,83,242086,5,8,1:0:0:0:
206,104,242253,2,0,L|103:107,1,90,8|0,1:0|1:0,0:0:0:0:
35,219,242586,1,0,1:0:0:0:
35,219,242670,1,0,1:0:0:0:
35,219,242753,2,0,L|138:222,1,90,0|0,1:0|1:0,0:0:0:0:
287,223,243086,1,8,1:0:0:0:
323,341,243253,6,0,P|385:320|411:246,1,135,4|0,1:0|0:0,0:0:0:0:
415,229,243586,1,8,1:0:0:0:
405,73,243920,5,0,1:0:0:0:
405,73,244003,1,0,1:0:0:0:
405,73,244086,2,0,L|315:82,1,90,0|0,1:0|1:0,0:0:0:0:
276,181,244420,2,0,L|178:171,1,90,0|4,1:0|1:2,0:0:0:0:
51,159,244753,5,4,1:0:0:0:
256,192,244836,12,0,250336,0:0:0:0:
