osu file format v14

[General]
AudioFilename: audio.mp3
AudioLeadIn: 0
PreviewTime: 58762
Countdown: 0
SampleSet: Soft
StackLeniency: 0.7
Mode: 0
LetterboxInBreaks: 0
WidescreenStoryboard: 1

[Editor]
DistanceSpacing: 1
BeatDivisor: 4
GridSize: 32
TimelineZoom: 2.700005

[Metadata]
Title:Tsuki ni Murakumo Hana ni Kaze ShinRa-Bansho Ver
TitleUnicode:月に叢雲華に風 森羅万象Ver
Artist:ShinRa-Bansho
ArtistUnicode:森羅万象
Creator:UberFazz
Version:Entry's Hard
Source:東方地霊殿 ~ Subterranean Animism.
Tags:clouds over the moon and wind over the flowers touhou chireiden 2hu project 東方project 11 th11 sa extra stage theme あやぽんず* ayaponzu* あよ ayo 幽閉サテライト yuuhei satellite koishi komeiji last remote ラストリモート zun japanese video game rock pop ~the memories of phantasm~ 東方歌ってみた i tried singing touhou 歌ってみた uttatemita comiket 96 c96 kaztora waoru orbitark kwaimsuckasfuk entry pyrolized
BeatmapID:2358951
BeatmapSetID:1069380

[Difficulty]
HPDrainRate:5
CircleSize:4
OverallDifficulty:7
ApproachRate:8
SliderMultiplier:1.4
SliderTickRate:1

[Events]
//Background and Video events
0,0,"shinra bansho bg.jpg",0,0
//Break Periods
2,81619,86003
2,124286,128669
2,178953,183336
2,236953,240003
//Storyboard Layer 0 (Background)
//Storyboard Layer 1 (Fail)
//Storyboard Layer 2 (Pass)
//Storyboard Layer 3 (Foreground)
//Storyboard Layer 4 (Overlay)
//Storyboard Sound Samples

[TimingPoints]
754,333.333333333333,4,2,1,100,1,0
4087,-125,4,2,1,50,0,0
10003,-125,4,2,1,5,0,0
10087,-111.111111111111,4,2,1,60,0,0
14087,-100,4,2,1,70,0,0
16087,333.333333333333,4,2,1,70,1,0
26753,-111.111111111111,4,2,1,60,0,0
31586,-100,4,2,1,70,0,0
37420,-111.111111111111,4,2,1,70,0,0
42753,-100,4,2,1,70,0,0
45420,-111.111111111111,4,2,1,70,0,0
48586,-125,4,2,1,70,0,0
53420,-111.111111111111,4,2,1,70,0,0
60086,-90.9090909090908,4,2,1,75,0,1
65420,-100,4,2,1,75,0,1
70753,-90.9090909090909,4,2,1,75,0,1
81420,-90.9090909090909,4,2,1,50,0,0
87420,-125,4,2,1,60,0,0
87920,-113.636363636364,4,2,1,60,0,0
88238,333.333333333333,4,2,1,60,1,0
88593,300,4,2,1,60,1,0
88935,324.324324324324,4,2,1,60,1,0
89420,333.333333333333,4,2,1,60,1,0
91753,-125,4,2,1,5,0,0
92086,-100,4,2,1,70,0,0
102753,-100,4,2,1,60,0,0
103419,-125,4,2,1,60,0,0
107419,-100,4,2,1,70,0,0
111253,-111.111111111111,4,2,1,70,0,0
112586,-100,4,2,1,70,0,0
113419,-111.111111111111,4,2,1,70,0,0
132086,-100,4,2,1,70,0,0
136086,-90.9090909090909,4,2,1,75,0,1
141419,-100,4,2,1,75,0,1
146753,-90.9090909090909,4,2,1,75,0,1
157336,-90.9090909090909,4,2,1,5,0,1
157419,-111.111111111111,4,2,1,70,0,0
168086,-100,4,2,1,70,0,0
169586,-125,4,2,1,60,0,0
170753,-125,4,2,1,70,0,0
172419,-111.111111111111,4,2,1,70,0,0
172753,324.324324324324,4,2,1,70,1,0
173419,333.333333333333,4,2,1,60,1,0
173419,-125,4,2,1,60,0,0
184086,-111.111111111111,4,2,1,60,0,0
188086,-125,4,2,1,60,0,0
194087,333.333333333333,4,2,1,100,1,0
194087,-90.9090909090909,4,2,1,75,0,1
199420,-100,4,2,1,75,0,1
204753,-90.9090909090909,4,2,1,75,0,1
215253,-90.9090909090909,4,2,1,70,0,0
215753,-90.9090909090909,4,2,1,80,0,1
231420,-100,4,2,1,80,0,1
234086,-90.9090909090909,4,2,1,80,0,1
236753,-90.9090909090909,4,2,1,80,0,0
240753,-125,4,2,1,60,0,0

[Colours]
Combo1 : 121,1,254
Combo2 : 230,230,0
Combo3 : 34,153,13
Combo4 : 255,128,64

[HitObjects]
397,272,4087,6,0,P|434:306|389:303,1,112,2|2,0:0|0:0,0:0:0:0:
340,117,4753,6,0,B|365:137|381:166|380:199|380:199|336:213|319:263,1,168,2|0,0:0|0:0,0:0:0:0:
348,372,5420,2,0,B|326:354|321:324|321:324|291:315|248:315,1,112,2|2,0:0|0:0,0:0:0:0:
209,375,5920,1,0,0:0:0:0:
157,311,6087,2,0,P|148:264|161:210,2,84,2|2|2,0:0|0:0|0:0,0:0:0:0:
38,13,7420,6,0,B|24:113|24:113|31:131|31:131|23:181,1,168,2|0,0:0|0:0,0:0:0:0:
83,237,8087,2,0,L|68:331,2,84,2|2|2,0:0|0:0|0:0,0:0:0:0:
110,160,8753,2,0,B|148:178|148:178|188:166,2,84,2|2|2,0:0|0:0|0:0,0:0:0:0:
325,7,9753,6,0,P|318:34|339:107,1,84,2|0,3:0|0:0,0:0:0:0:
353,107,10087,6,0,P|306:143|327:218,1,125.999996154785,4|8,1:0|1:0,0:0:0:0:
386,239,10587,2,0,B|457:230|457:230|469:297,1,125.999996154785,0|0,1:0|1:0,0:0:0:0:
458,367,11087,1,8,1:0:0:0:
494,291,11253,1,4,1:2:0:0:
386,325,11420,6,0,L|308:343,1,62.9999980773926,8|0,1:0|1:0,0:0:0:0:
246,277,11753,2,0,L|307:262,1,62.9999980773926,8|0,1:0|1:0,0:0:0:0:
258,383,12087,1,8,1:0:0:0:
258,383,12253,2,0,B|219:352|219:352|134:372,1,125.999996154785,2|2,1:0|1:0,0:0:0:0:
56,377,12753,6,0,B|17:340|6:294|6:294|7:238|28:200|28:200|48:227|76:244|76:244|95:268|103:301|103:301|180:282,1,377.999988464356,10|8,1:0|1:0,0:0:0:0:
154,110,14087,6,0,P|158:63|168:30,1,70,10|8,1:0|1:0,0:0:0:0:
252,155,14420,2,0,P|239:109|237:75,1,70,10|8,1:0|1:0,0:0:0:0:
273,11,14753,1,10,1:0:0:0:
351,52,14920,1,10,1:0:0:0:
337,138,15087,1,10,1:0:0:0:
252,155,15253,1,10,1:0:0:0:
252,155,16087,6,0,B|270:260|270:260|238:293,1,140,14|8,1:0|3:0,0:0:0:0:
173,243,16587,1,2,1:0:0:0:
122,308,16753,2,0,L|35:300,1,70,8|0,3:0|1:0,0:0:0:0:
5,227,17087,2,0,L|74:220,1,70,8|0,3:0|1:0,0:0:0:0:
160,162,17420,6,0,L|172:78,2,70,8|2|8,3:0|1:0|3:0,0:0:0:0:
80,140,17920,2,0,B|45:128|13:125|13:125|14:84|24:43,1,140,2|2,1:0|1:0,0:0:0:0:
84,6,18420,2,0,L|160:17,1,70,10|2,3:0|1:0,0:0:0:0:
278,17,18753,6,0,B|253:55|252:109|252:109|275:117|299:138,1,140,14|8,3:0|3:0,0:0:0:0:
353,184,19253,1,2,1:0:0:0:
393,110,19420,2,0,L|388:27,1,70,8|0,3:0|1:0,0:0:0:0:
485,4,19753,2,0,L|474:73,1,70,10|0,3:0|1:0,0:0:0:0:
512,162,20086,6,0,P|474:177|432:182,1,70,10|2,3:0|1:0,0:0:0:0:
388,242,20420,2,0,P|407:279|416:321,1,70,10|2,3:0|1:0,0:0:0:0:
368,377,20753,2,0,P|330:362|288:357,1,70,10|0,3:0|1:0,0:0:0:0:
272,280,21086,1,8,1:0:0:0:
272,280,21170,1,8,1:0:0:0:
272,280,21253,2,0,L|323:274,1,35,8|8,1:0|1:0,0:0:0:0:
318,195,21420,6,0,B|285:181|247:183|247:183|218:213|183:223,1,140,14|8,1:0|3:0,0:0:0:0:
108,204,21920,1,0,1:0:0:0:
130,285,22086,2,0,P|141:322|163:362,1,70,10|0,3:0|1:0,0:0:0:0:
233,380,22420,2,0,P|268:350|299:333,1,70,10|0,3:0|1:0,0:0:0:0:
403,280,22753,6,0,P|366:249|340:213,1,70,8|0,3:0|1:0,0:0:0:0:
262,235,23086,2,0,P|282:193|285:153,1,70,8|0,3:0|1:0,0:0:0:0:
249,95,23420,1,10,3:0:0:0:
315,44,23586,1,2,1:0:0:0:
353,123,23753,1,10,3:0:0:0:
353,123,23920,1,2,1:0:0:0:
297,26,24086,6,0,B|250:10|250:10|158:29,1,140,12|8,3:0|3:0,0:0:0:0:
83,0,24586,2,0,B|64:34|64:34|71:98|71:98|54:134,1,140,2|0,1:0|1:0,0:0:0:0:
3,197,25086,2,0,P|15:231|21:268,1,70,8|0,3:0|1:0,0:0:0:0:
78,326,25420,6,0,L|71:368,4,35,8|0|0|0|0,1:0|1:0|1:0|1:0|1:0,0:0:0:0:
107,248,25920,1,8,1:0:0:0:
107,248,26086,2,0,P|148:264|181:269,1,70,0|0,1:0|1:0,0:0:0:0:
244,223,26420,2,0,L|249:188,3,35,8|8|8|8,1:0|1:0|1:0|1:0,0:0:0:0:
253,156,26753,6,0,B|301:146|319:114|319:114|325:67,1,125.999996154785,6|0,1:0|1:0,0:0:0:0:
452,167,27420,2,0,P|497:212|463:274,1,125.999996154785,2|0,1:0|1:0,0:0:0:0:
356,372,28086,2,0,L|338:245,2,125.999996154785,2|0|0,1:0|1:0|1:0,0:0:0:0:
497,296,29086,2,0,L|420:308,1,62.9999980773926,2|2,1:0|0:0,0:0:0:0:
338,247,29420,6,0,P|300:286|218:308,1,125.999996154785,2|0,1:0|1:0,0:0:0:0:
157,264,29920,2,0,P|91:271|29:306,1,125.999996154785,2|0,0:0|0:0,0:0:0:0:
8,381,30420,1,2,1:0:0:0:
0,219,30753,2,0,P|5:160|22:87,1,125.999996154785,2|0,1:0|1:0,0:0:0:0:
51,12,31253,1,2,0:0:0:0:
51,12,31586,6,0,B|103:23|103:23|106:70|132:117,1,140,10|8,1:0|1:0,0:0:0:0:
198,194,32086,6,0,B|139:188|139:188|106:214|118:278,1,140,4|8,1:0|3:0,0:0:0:0:
173,335,32586,1,0,1:0:0:0:
173,335,32670,1,8,1:0:0:0:
173,335,32753,2,0,L|257:303,1,70,0|0,3:0|1:0,0:0:0:0:
275,234,33086,2,0,L|296:151,1,70,8|0,3:0|1:0,0:0:0:0:
256,61,33420,6,0,P|268:25|341:71,1,140,0|8,3:0|3:0,0:0:0:0:
390,137,33920,1,0,1:0:0:0:
390,137,34003,1,8,1:0:0:0:
390,137,34086,2,0,P|425:149|482:149,1,70,0|0,3:0|1:0,0:0:0:0:
508,84,34420,2,0,P|501:53|481:17,1,70,8|0,3:0|1:0,0:0:0:0:
375,2,34753,6,0,P|395:48|383:152,1,140,0|8,3:0|3:0,0:0:0:0:
325,188,35253,1,0,1:0:0:0:
242,124,35420,2,0,P|278:112|320:109,1,70,8|0,1:0|1:0,0:0:0:0:
168,79,35753,2,0,P|197:55|236:38,1,70,8|0,1:0|1:0,0:0:0:0:
164,163,36086,6,0,B|113:177|113:177|63:159,2,105,6|2|2,1:0|1:0|1:0,0:0:0:0:
295,264,36920,1,0,1:0:0:0:
295,264,37086,2,0,L|247:253,3,35,8|8|0|0,1:0|1:0|1:0|1:0,0:0:0:0:
229,249,37420,6,0,B|153:268|153:268|152:294|162:317,1,125.999996154785,6|8,1:0|1:0,0:0:0:0:
228,380,37920,1,0,1:0:0:0:
228,380,38086,2,0,B|240:365|249:342|249:342|332:362,1,125.999996154785,2|0,1:0|1:0,0:0:0:0:
419,384,38586,1,8,1:0:0:0:
419,384,38753,6,0,P|441:356|460:254,1,125.999996154785,2|8,1:0|1:0,0:0:0:0:
447,183,39253,1,0,1:0:0:0:
447,183,39336,1,8,1:0:0:0:
447,183,39420,1,0,1:0:0:0:
373,234,39586,2,0,B|339:229|339:229|286:210|286:210|249:207,1,125.999996154785,0|0,1:0|1:0,0:0:0:0:
169,241,40086,6,0,L|97:232,2,62.9999980773926,14|2|2,1:0|1:0|1:0,0:0:0:0:
239,295,40586,2,0,L|277:345,2,62.9999980773926,14|2|2,1:0|1:0|1:0,0:0:0:0:
250,207,41086,2,0,L|278:140,1,62.9999980773926,2|8,3:0|1:0,0:0:0:0:
320,73,41420,6,0,P|380:90|452:75,2,125.999996154785,2|2|2,3:0|3:0|3:0,0:0:0:0:
320,73,42420,1,8,1:0:0:0:
254,23,42586,1,0,1:0:0:0:
148,81,42753,6,0,B|204:119|204:119|244:109,2,105,2|2|2,1:0|1:0|1:0,0:0:0:0:
104,5,43420,2,0,L|58:59,1,70,0|2,0:0|1:0,0:0:0:0:
5,124,43753,1,12,1:0:0:0:
5,124,44086,6,0,P|10:186|34:235,2,105,6|6|6,1:2|1:2|1:2,0:0:0:0:
90,121,44753,2,0,P|104:158|107:198,1,70,8|0,1:0|1:0,0:0:0:0:
62,260,45086,2,0,P|48:297|45:337,1,70,8|0,1:0|1:0,0:0:0:0:
135,319,45420,6,0,P|166:356|216:379,2,94.499997116089,4|0|0,1:0|1:0|1:0,0:0:0:0:
180,246,46086,1,10,1:0:0:0:
180,246,46253,2,0,L|249:225,1,62.9999980773926,0|0,0:0|1:0,0:0:0:0:
335,145,46586,6,0,B|321:207|321:207|341:233|346:263,1,125.999996154785,6|2,1:0|1:0,0:0:0:0:
343,354,47086,2,0,L|412:333,1,62.9999980773926,2|2,1:0|1:0,0:0:0:0:
504,350,47420,1,10,1:0:0:0:
424,312,47586,1,2,1:0:0:0:
483,248,47753,1,2,1:0:0:0:
395,116,48086,5,8,1:0:0:0:
395,116,48253,1,8,1:0:0:0:
256,110,48586,2,0,P|332:153|394:116,1,168,2|2,0:0|0:0,0:0:0:0:
439,38,49253,6,0,P|477:89|444:191,1,168,12|0,1:0|0:0,0:0:0:0:
384,230,49920,2,0,P|332:241|268:228,1,112,2|2,0:0|0:0,0:0:0:0:
206,186,50420,2,0,L|135:199,1,56,2|2,0:0|0:0,0:0:0:0:
71,221,50753,5,8,1:0:0:0:
71,221,50920,1,8,1:0:0:0:
125,360,51253,2,0,P|81:326|73:216,1,168,2|2,0:0|0:0,0:0:0:0:
112,141,51920,6,0,B|130:108|138:79|138:79|120:53|112:24,1,112,12|0,1:0|1:0,0:0:0:0:
117,39,52586,1,0,1:0:0:0:
125,47,52753,2,0,L|57:32,1,56,0|0,1:0|0:0,0:0:0:0:
8,108,53086,2,0,L|62:120,1,56,12|0,1:2|0:0,0:0:0:0:
130,201,53420,6,0,P|182:169|255:168,1,125.999996154785,6|0,1:0|1:0,0:0:0:0:
295,239,53920,2,0,B|288:308|323:379,1,125.999996154785,2|0,1:0|1:0,0:0:0:0:
401,384,54420,2,0,P|410:353|412:319,1,62.9999980773926,2|6,1:0|1:2,0:0:0:0:
448,242,54753,6,0,P|479:243|519:255,2,62.9999980773926,0|0|0,1:0|1:0|1:0,0:0:0:0:
374,193,55253,1,8,1:0:0:0:
374,193,55336,1,8,1:0:0:0:
374,193,55420,2,0,P|371:155|377:118,1,62.9999980773926,0|0,1:0|1:0,0:0:0:0:
404,31,55753,1,4,3:2:0:0:
412,119,55920,1,0,1:0:0:0:
295,105,56086,6,0,P|255:111|217:125,1,62.9999980773926,4|0,1:0|1:0,0:0:0:0:
117,171,56420,2,0,P|157:177|195:191,1,62.9999980773926,8|0,3:0|1:0,0:0:0:0:
271,284,56753,2,0,P|269:325|259:360,1,62.9999980773926,8|0,3:0|1:0,0:0:0:0:
341,231,57086,2,0,P|353:270|355:306,1,62.9999980773926,8|0,3:0|1:0,0:0:0:0:
259,203,57420,5,12,1:0:0:0:
263,207,57753,2,0,L|178:220,1,62.9999980773926,8|8,1:0|1:0,0:0:0:0:
303,308,58086,2,0,L|218:291,1,62.9999980773926,8|8,1:0|1:0,0:0:0:0:
118,235,58420,1,8,1:0:0:0:
163,329,58586,1,8,1:0:0:0:
56,375,58753,5,4,1:0:0:0:
143,132,59420,5,2,0:0:0:0:
143,132,59753,1,2,1:0:0:0:
143,132,60086,6,0,P|202:191|231:277,1,154.000004699707,6|8,1:0|1:0,0:0:0:0:
197,339,60586,1,0,3:0:0:0:
278,375,60753,2,0,L|398:355,1,115.50000352478,0|8,1:0|1:0,0:0:0:0:
429,344,61086,2,0,P|418:300|381:271,1,77.0000023498536,0|8,1:0|3:0,0:0:0:0:
384,182,61420,6,0,L|504:162,2,115.50000352478,2|2|2,1:0|1:0|3:0,0:0:0:0:
312,234,62086,2,0,B|283:168|283:168|297:116,1,115.50000352478,0|8,1:0|1:0,0:0:0:0:
307,89,62420,1,0,1:0:0:0:
376,144,62586,1,8,3:0:0:0:
320,50,62753,6,0,B|308:20|275:3|275:3|235:24|172:16,1,154.000004699707,0|8,1:0|1:0,0:0:0:0:
102,6,63253,1,0,3:0:0:0:
30,58,63420,2,0,L|49:180,1,115.50000352478,0|8,1:0|1:0,0:0:0:0:
55,209,63753,2,0,P|84:247|86:294,1,77.0000023498536,0|8,1:0|3:0,0:0:0:0:
134,360,64086,6,0,B|108:365|78:375|78:375|47:357|21:348,2,115.50000352478,2|2|2,1:0|1:0|3:0,0:0:0:0:
212,318,64753,2,0,B|190:280|190:280|198:195,1,115.50000352478,0|8,1:0|1:0,0:0:0:0:
203,170,65086,2,0,P|249:184|297:182,1,77.0000023498536,0|8,1:0|1:0,0:0:0:0:
358,111,65420,6,0,P|418:99|495:128,1,140,4|8,1:0|3:0,0:0:0:0:
501,209,65920,2,0,B|464:251|464:251|492:342,1,140,0|0,1:0|1:0,0:0:0:0:
416,376,66420,2,0,L|390:293,1,70,8|0,3:0|1:0,0:0:0:0:
316,251,66753,5,0,3:0:0:0:
353,174,66920,1,0,1:0:0:0:
306,103,67086,2,0,P|260:80|199:76,1,105,8|8,3:0|1:0,0:0:0:0:
172,81,67420,1,0,3:0:0:0:
208,162,67586,2,0,B|217:208|217:208|181:311,1,140,0|0,1:0|1:0,0:0:0:0:
134,375,68086,6,0,P|99:355|55:349,1,70,8|0,3:0|1:0,0:0:0:0:
0,289,68420,2,0,P|33:267|50:226,1,70,8|0,3:0|1:0,0:0:0:0:
133,209,68753,2,0,P|135:256|153:294,2,70,8|8|8,1:0|1:0|1:0,0:0:0:0:
31,153,69253,6,0,P|46:116|134:76,1,140,12|0,1:0|1:0,0:0:0:0:
221,86,69753,2,0,P|221:47|209:-1,1,70,8|8,3:0|1:0,0:0:0:0:
127,57,70086,1,0,1:0:0:0:
146,141,70253,2,0,P|150:159|161:188,5,35,8|8|8|8|8|8,1:0|1:0|1:0|1:0|1:0|1:0,0:0:0:0:
170,210,70753,6,0,P|249:205|327:165,1,154.000004699707,4|8,1:0|1:0,0:0:0:0:
354,93,71253,1,0,3:0:0:0:
411,161,71420,2,0,P|475:147|516:112,1,115.50000352478,0|8,1:0|1:0,0:0:0:0:
509,77,71753,2,0,P|491:36|465:14,1,77.0000023498536,0|8,1:0|3:0,0:0:0:0:
371,16,72086,6,0,B|336:21|295:34|295:34|273:25|252:0,2,115.50000352478,2|2|2,1:0|1:0|3:0,0:0:0:0:
428,85,72753,2,0,P|374:97|308:117,1,115.50000352478,0|8,1:0|1:0,0:0:0:0:
283,134,73086,2,0,P|306:168|345:184,1,77.0000023498536,0|8,1:0|3:0,0:0:0:0:
438,192,73420,6,0,B|486:236|486:236|495:282|473:324,1,154.000004699707,4|8,1:0|1:0,0:0:0:0:
402,375,73920,1,0,3:0:0:0:
370,293,74086,2,0,L|254:323,1,115.50000352478,0|8,1:0|1:0,0:0:0:0:
233,351,74420,2,0,P|197:368|145:367,1,77.0000023498536,0|8,1:0|3:0,0:0:0:0:
117,284,74753,6,0,P|181:252|250:269,2,115.50000352478,2|2|2,1:0|1:0|3:0,0:0:0:0:
66,357,75420,2,0,P|26:338|-4:301,1,77.0000023498536,0|0,1:0|3:0,0:0:0:0:
2,226,75753,2,0,L|12:173,3,38.5000011749268,8|8|8|8,1:0|1:0|1:0|1:0,0:0:0:0:
16,150,76086,6,0,B|79:160|79:160|170:117,1,154.000004699707,12|8,1:0|3:0,0:0:0:0:
193,39,76586,2,0,P|250:8|265:85,1,154.000004699707,0|0,1:0|1:0,0:0:0:0:
243,158,77086,2,0,P|246:203|257:242,1,77.0000023498536,8|0,3:0|1:0,0:0:0:0:
272,273,77336,1,8,1:0:0:0:
272,273,77420,6,0,P|306:266|352:249,1,77.0000023498536,2|2,1:0|1:0,0:0:0:0:
431,277,77753,2,0,P|444:312|446:351,2,77.0000023498536,10|2|10,3:0|1:0|3:0,0:0:0:0:
374,209,78253,1,2,1:0:0:0:
436,145,78420,2,0,P|473:136|513:110,1,77.0000023498536,10|2,3:0|1:0,0:0:0:0:
503,20,78753,6,0,B|449:20|407:52|407:52|386:31|348:22,1,154.000004699707,6|8,1:0|3:0,0:0:0:0:
277,8,79253,1,0,1:0:0:0:
277,8,79420,2,0,P|266:40|270:89,1,77.0000023498536,0|0,3:0|1:0,0:0:0:0:
339,191,79753,2,0,P|350:159|346:110,1,77.0000023498536,8|0,3:0|1:0,0:0:0:0:
235,163,80086,6,0,B|172:174|111:160|62:127|62:127|28:194|28:194|79:205|159:226|173:278|158:333|130:363|97:369|97:369|93:344|83:322|66:304|45:291,1,616.000018798829,14|6,1:0|1:0,0:0:0:0:
470,208,86753,5,8,1:0:0:0:
470,208,86920,1,8,1:0:0:0:
410,325,87253,5,0,1:0:0:0:
410,325,87336,1,0,1:0:0:0:
410,325,87420,2,0,L|402:255,1,56,0|0,1:0|1:0,0:0:0:0:
470,208,87753,1,8,1:0:0:0:
367,188,87920,6,0,P|331:153|300:81,1,117.599996411133,4|8,1:0|1:0,0:0:0:0:
217,89,88404,1,0,1:0:0:0:
217,89,88593,2,0,P|226:53|245:20,1,70,0|0,1:0|1:0,0:0:0:0:
319,11,88935,2,0,P|378:12|461:30,1,140,0|4,1:0|1:2,0:0:0:0:
507,100,89420,5,4,1:0:0:0:
256,192,89503,12,0,91753,0:0:0:0:
199,208,92086,6,0,L|181:356,1,140,6|0,1:0|0:0,0:0:0:0:
106,378,92586,1,0,1:0:0:0:
106,378,92753,2,0,P|70:363|14:275,1,140,10|0,1:0|0:0,0:0:0:0:
8,198,93253,2,0,P|44:183|100:95,1,140,4|2,1:0|1:0,0:0:0:0:
230,19,93920,5,2,1:0:0:0:
230,19,94003,1,0,1:0:0:0:
230,19,94086,2,0,P|222:54|221:98,1,70,8|2,1:0|1:0,0:0:0:0:
268,159,94420,2,0,P|276:194|277:238,1,70,10|2,1:0|0:0,0:0:0:0:
370,199,94753,6,0,B|371:168|361:139|361:139|359:106|375:71,2,105,6|0|2,1:0|1:0|1:0,0:0:0:0:
350,289,95420,2,0,L|493:270,1,140,8|2,1:0|0:0,0:0:0:0:
503,355,95920,2,0,L|364:373,1,140,4|8,1:0|1:0,0:0:0:0:
205,307,96586,5,0,1:0:0:0:
205,307,96669,1,8,1:0:0:0:
205,307,96753,2,0,P|166:277|151:252,1,70,0|0,1:0|1:0,0:0:0:0:
69,270,97086,2,0,P|68:252|70:235,3,35,0|0|0|0,1:0|1:0|1:0|1:0,0:0:0:0:
78,200,97419,6,0,B|29:137|29:137|55:116|74:87,1,140,4|8,1:0|3:0,0:0:0:0:
110,19,97919,1,0,1:0:0:0:
156,90,98086,2,0,P|172:137|176:167,1,70,8|0,3:0|1:0,0:0:0:0:
259,137,98419,2,0,P|253:186|244:215,1,70,8|0,3:0|1:0,0:0:0:0:
201,298,98753,6,0,L|280:288,1,70,8|0,3:0|1:0,0:0:0:0:
337,341,99086,2,0,L|416:331,1,70,8|0,3:0|1:0,0:0:0:0:
487,306,99419,1,10,1:0:0:0:
423,252,99586,1,10,1:0:0:0:
489,199,99753,1,10,1:0:0:0:
489,199,99919,1,10,1:0:0:0:
398,257,100086,6,0,B|377:208|377:208|366:193|366:193|362:176|362:176|337:123,1,140,6|2,1:0|0:0,0:0:0:0:
340,45,100586,2,0,B|386:42|386:42|406:34|426:20|426:20|455:28|488:45,1,140,2|0,1:0|1:0,0:0:0:0:
508,113,101086,2,0,L|457:124,3,35,0|0|0|0,1:0|1:0|1:0|1:0,0:0:0:0:
439,128,101419,6,0,L|361:144,1,70,12|0,1:0|1:0,0:0:0:0:
305,195,101753,1,0,1:0:0:0:
281,112,101919,1,12,1:0:0:0:
281,112,102086,2,0,P|259:68|235:43,1,70,0|0,1:0|1:0,0:0:0:0:
164,13,102419,2,0,L|153:82,1,70,8|8,1:0|1:0,0:0:0:0:
143,169,102753,5,2,1:0:0:0:
143,169,102919,1,2,1:0:0:0:
205,366,103419,2,0,L|164:237,1,112,8|0,1:0|0:0,0:0:0:0:
64,220,103919,6,0,L|-11:235,1,56,2|0,1:0|0:0,0:0:0:0:
17,144,104253,1,2,1:0:0:0:
100,125,104419,2,0,L|224:100,1,112,2|8,1:0|1:0,0:0:0:0:
209,103,105086,2,0,P|198:69|205:30,1,56,2|2,0:0|0:0,0:0:0:0:
294,5,105419,6,0,P|349:24|379:89,1,112,2|2,1:0|0:0,0:0:0:0:
338,144,105919,2,0,L|282:152,1,56,2|8,0:0|1:0,0:0:0:0:
233,221,106253,2,0,L|177:229,1,56,2|0,0:0|0:0,0:0:0:0:
252,308,106586,6,0,P|310:308|370:343,1,112,2|2,1:0|1:0,0:0:0:0:
425,384,107086,1,2,1:0:0:0:
509,228,107419,2,0,P|435:228|360:183,1,140,8|0,1:0|1:0,0:0:0:0:
326,130,107919,1,0,1:0:0:0:
393,32,108086,6,0,B|413:96|413:96|487:85,1,140,4|8,1:0|3:0,0:0:0:0:
498,170,108586,2,0,B|425:180|425:180|425:247,1,140,0|0,1:0|1:0,0:0:0:0:
471,318,109086,1,8,3:0:0:0:
378,381,109253,6,0,P|363:319|302:257,1,140,0|0,1:0|1:0,0:0:0:0:
232,235,109753,2,0,P|221:270|167:325,1,105,8|8,3:0|1:0,0:0:0:0:
144,335,110086,2,0,P|99:346|72:368,1,70,0|0,3:0|1:0,0:0:0:0:
42,285,110419,2,0,P|8:317|-3:349,1,70,8|0,3:0|1:0,0:0:0:0:
123,249,110753,5,8,1:0:0:0:
123,249,110919,1,8,1:0:0:0:
181,90,111253,6,0,L|141:23,1,62.9999980773926,0|0,1:0|1:0,0:0:0:0:
66,6,111586,2,0,B|28:30|28:30|11:69|40:114,1,125.999996154785,0|0,1:0|1:0,0:0:0:0:
146,170,112086,5,8,1:0:0:0:
146,170,112253,1,8,1:0:0:0:
280,183,112586,6,0,B|243:169|243:169|225:179|203:180|203:180|173:168|139:170,1,140,4|0,1:0|1:0,0:0:0:0:
73,215,113086,1,0,1:0:0:0:
11,155,113253,1,0,1:0:0:0:
11,155,113336,1,0,1:0:0:0:
11,155,113419,6,0,B|0:100|0:100|24:32,1,125.999996154785,6|0,3:0|3:0,0:0:0:0:
180,101,114086,2,0,L|209:19,1,62.9999980773926,10|0,3:0|1:0,0:0:0:0:
217,16,114336,1,8,1:0:0:0:
217,16,114419,2,0,P|261:23|293:40,1,62.9999980773926,0|8,3:0|1:0,0:0:0:0:
275,141,114753,6,0,B|247:221|247:221|261:237|271:262,1,125.999996154785,2|0,3:0|3:0,0:0:0:0:
419,178,115419,1,8,3:0:0:0:
360,119,115586,1,0,1:0:0:0:
360,119,115669,1,8,1:0:0:0:
360,119,115753,2,0,P|363:82|375:48,1,62.9999980773926,0|8,3:0|1:0,0:0:0:0:
450,18,116086,6,0,L|517:13,2,62.9999980773926,12|2|2,3:1|1:0|3:0,0:0:0:0:
365,42,116586,1,12,1:3:0:0:
438,101,116753,2,0,P|471:122|492:152,1,62.9999980773926,2|2,3:0|1:0,0:0:0:0:
498,174,117003,1,8,1:0:0:0:
498,174,117086,2,0,P|482:207|481:246,1,62.9999980773926,0|8,3:0|1:0,0:0:0:0:
410,288,117419,6,0,P|426:339|488:380,2,125.999996154785,0|0|0,3:0|3:0|3:0,0:0:0:0:
410,288,118419,2,0,P|410:264|416:240,3,31.4999990386963,0|0|0|0,1:0|1:0|1:0|1:0,0:0:0:0:
417,225,118753,6,0,L|344:213,1,62.9999980773926,6|0,1:0|1:0,0:0:0:0:
268,196,119086,1,10,1:0:0:0:
241,280,119253,2,0,P|212:302|172:315,1,62.9999980773926,2|0,1:0|0:0,0:0:0:0:
94,310,119586,1,2,1:0:0:0:
176,351,119753,1,10,1:0:0:0:
143,238,119919,6,0,B|127:190|127:190|90:188|37:200,1,125.999996154785,6|6,1:0|1:0,0:0:0:0:
4,123,120419,1,0,0:0:0:0:
69,64,120586,2,0,P|93:90|128:109,1,62.9999980773926,6|0,1:0|0:0,0:0:0:0:
207,142,120919,1,0,1:0:0:0:
207,142,121003,1,0,1:0:0:0:
207,142,121086,2,0,P|230:173|241:210,1,62.9999980773926,8|0,1:0|1:0,0:0:0:0:
366,221,121419,6,0,P|349:143|329:199,1,188.999994232178,4|0,1:0|1:0,0:0:0:0:
293,268,122086,1,8,1:0:0:0:
293,268,122253,2,0,P|281:304|253:331,1,62.9999980773926,4|0,1:0|0:0,0:0:0:0:
177,330,122586,6,0,P|109:326|62:390,1,125.999996154785,4|0,1:0|1:0,0:0:0:0:
193,235,123253,1,0,1:0:0:0:
193,235,123419,2,0,P|194:197|184:163,1,62.9999980773926,0|0,1:0|1:0,0:0:0:0:
148,94,123753,1,0,1:0:0:0:
318,13,124086,5,6,1:0:0:0:
101,73,129419,6,0,P|148:104|219:134,1,125.999996154785,6|0,1:0|1:0,0:0:0:0:
285,181,129919,2,0,P|268:232|298:362,1,188.999994232178,2|2,0:0|1:0,0:0:0:0:
387,384,130586,1,2,3:0:0:0:
387,384,130753,6,0,P|405:329|477:273,1,125.999996154785,0|0,1:0|1:0,0:0:0:0:
497,206,131253,2,0,P|498:175|408:163,1,125.999996154785,2|2,0:0|0:0,0:0:0:0:
372,222,131753,2,0,P|340:241|301:246,1,62.9999980773926,2|2,1:0|0:0,0:0:0:0:
225,194,132086,6,0,B|215:142|215:142|231:92,2,105,14|10|10,1:2|1:2|1:2,0:0:0:0:
178,268,132753,2,0,B|194:317|194:317|184:369,2,105,14|10|10,1:2|1:2|1:2,0:0:0:0:
116,206,133419,5,14,1:0:0:0:
116,206,133753,2,0,L|123:131,1,70,8|8,1:0|1:0,0:0:0:0:
223,250,134086,2,0,L|203:177,1,70,8|8,1:0|1:0,0:0:0:0:
134,55,134419,1,8,1:0:0:0:
237,8,134586,1,8,1:0:0:0:
270,117,134753,6,0,L|355:128,1,70,6|0,1:2|1:0,0:0:0:0:
375,114,135003,1,8,1:0:0:0:
375,114,135086,2,0,L|460:125,1,70,8|8,1:0|1:0,0:0:0:0:
476,204,135419,2,0,L|518:209,2,35,10|8|8,1:0|1:0|1:0,0:0:0:0:
391,210,135753,2,0,P|361:233|341:269,1,70,10|8,1:0|1:0,0:0:0:0:
341,379,136086,6,0,B|316:343|316:343|203:337,1,154.000004699707,6|8,1:0|1:0,0:0:0:0:
127,377,136586,1,0,3:0:0:0:
60,319,136753,2,0,P|42:280|44:205,1,115.50000352478,0|8,1:0|1:0,0:0:0:0:
56,172,137086,2,0,P|29:132|24:91,1,77.0000023498536,0|8,1:0|3:0,0:0:0:0:
75,22,137419,6,0,B|140:34|140:34|185:16,2,115.50000352478,2|2|2,1:0|1:0|3:0,0:0:0:0:
42,104,138086,2,0,L|168:128,1,115.50000352478,0|8,1:0|1:0,0:0:0:0:
193,133,138419,1,0,1:0:0:0:
255,70,138586,1,8,3:0:0:0:
201,166,138753,6,0,B|180:216|189:268|189:268|222:320,1,154.000004699707,0|8,1:0|1:0,0:0:0:0:
285,366,139253,1,0,3:0:0:0:
339,296,139419,2,0,B|412:309|412:309|439:342,1,115.50000352478,0|8,1:0|1:0,0:0:0:0:
458,373,139753,2,0,P|490:344|505:308,1,77.0000023498536,0|8,1:0|3:0,0:0:0:0:
441,240,140086,6,0,L|320:218,2,115.50000352478,2|2|2,1:0|1:0|3:0,0:0:0:0:
511,185,140753,2,0,P|487:148|482:110,1,77.0000023498536,0|0,1:0|3:0,0:0:0:0:
509,36,141086,1,8,1:0:0:0:
509,36,141169,1,8,1:0:0:0:
509,36,141253,1,8,1:0:0:0:
449,108,141419,6,0,B|414:106|380:115|380:115|313:89,1,140,4|8,1:0|3:0,0:0:0:0:
277,13,141919,2,0,P|233:42|145:54,1,140,0|0,1:0|1:0,0:0:0:0:
97,122,142419,2,0,P|134:133|173:156,1,70,8|0,3:0|1:0,0:0:0:0:
212,232,142753,5,0,3:0:0:0:
252,158,142919,1,0,1:0:0:0:
331,128,143086,2,0,P|387:141|435:170,1,105,8|8,3:0|1:0,0:0:0:0:
452,190,143419,1,0,3:0:0:0:
431,275,143586,2,0,B|405:273|377:287|377:287|350:322|346:379,1,140,0|0,1:0|1:0,0:0:0:0:
263,376,144086,6,0,L|184:366,1,70,8|0,3:0|1:0,0:0:0:0:
164,277,144419,2,0,L|233:285,1,70,8|0,3:0|1:0,0:0:0:0:
283,205,144753,2,0,L|204:195,2,70,8|8|8,1:0|1:0|1:0,0:0:0:0:
344,106,145253,6,0,P|333:69|233:11,1,140,12|0,1:0|1:0,0:0:0:0:
166,16,145753,2,0,L|86:27,1,70,8|0,3:0|1:0,0:0:0:0:
28,77,146086,1,0,1:0:0:0:
28,77,146169,1,0,1:0:0:0:
28,77,146253,1,0,1:0:0:0:
107,117,146419,2,0,L|176:107,1,70,0|0,1:0|1:0,0:0:0:0:
261,175,146753,6,0,B|285:213|279:248|279:248|189:288,1,154.000004699707,4|8,1:0|1:0,0:0:0:0:
154,349,147253,1,0,3:0:0:0:
91,286,147419,2,0,P|28:255|1:210,1,115.50000352478,0|8,1:0|1:0,0:0:0:0:
0,179,147753,2,0,P|41:174|85:184,1,77.0000023498536,0|8,1:0|3:0,0:0:0:0:
165,217,148086,6,0,P|219:228|296:210,2,115.50000352478,2|2|2,1:0|1:0|3:0,0:0:0:0:
106,283,148753,2,0,B|75:275|48:282|48:282|30:305|26:333,1,115.50000352478,0|8,1:0|1:0,0:0:0:0:
25,372,149086,2,0,P|66:381|110:379,1,77.0000023498536,0|8,1:0|3:0,0:0:0:0:
189,340,149419,6,0,B|248:342|248:342|279:361|279:361|338:364,1,154.000004699707,4|8,1:0|1:0,0:0:0:0:
426,370,149919,1,0,3:0:0:0:
474,296,150086,2,0,P|492:258|425:228,1,115.50000352478,0|8,1:0|1:0,0:0:0:0:
402,230,150419,2,0,P|357:229|321:213,1,77.0000023498536,0|8,1:0|3:0,0:0:0:0:
268,142,150753,6,0,B|277:73|277:73|260:48|251:12,2,115.50000352478,2|2|2,1:0|1:0|3:0,0:0:0:0:
240,227,151419,1,0,1:0:0:0:
293,310,151586,1,8,3:0:0:0:
293,310,151669,1,8,1:0:0:0:
293,310,151753,2,0,P|327:336|367:347,1,77.0000023498536,0|8,1:0|1:0,0:0:0:0:
465,369,152086,6,0,B|499:334|503:286|503:286|485:209,1,154.000004699707,4|8,1:0|3:0,0:0:0:0:
439,154,152586,2,0,B|409:133|394:109|394:109|413:7,1,154.000004699707,0|0,1:0|1:0,0:0:0:0:
497,0,153086,2,0,L|481:86,1,77.0000023498536,8|0,3:0|1:0,0:0:0:0:
461,170,153419,6,0,P|436:208|406:229,1,77.0000023498536,2|2,1:0|1:0,0:0:0:0:
338,277,153753,2,0,P|342:327|357:360,2,77.0000023498536,10|2|10,3:0|1:0|3:0,0:0:0:0:
285,206,154253,1,2,1:0:0:0:
338,135,154419,2,0,P|350:98|351:60,1,77.0000023498536,10|2,3:0|1:0,0:0:0:0:
270,9,154753,6,0,B|162:15|162:15|199:48,1,154.000004699707,6|8,1:0|3:0,0:0:0:0:
249,129,155253,1,0,1:0:0:0:
249,129,155336,1,8,1:0:0:0:
249,129,155419,2,0,L|164:139,1,77.0000023498536,0|0,3:0|1:0,0:0:0:0:
90,106,155753,2,0,P|46:109|5:124,1,77.0000023498536,8|0,3:0|1:0,0:0:0:0:
4,222,156086,6,0,B|34:262|87:278|143:274|143:274|172:314|181:373|181:373|190:295|217:246|259:221|286:217|286:217|296:261|317:287|357:299,1,577.500017623902,14|0,1:0|0:0,0:0:0:0:
389,303,157419,6,0,L|380:379,1,62.9999980773926,6|0,1:0|0:0,0:0:0:0:
469,377,157753,2,0,L|476:314,1,62.9999980773926,2|0,0:0|1:0,0:0:0:0:
445,232,158086,2,0,L|452:169,2,62.9999980773926,10|2|2,1:0|0:0|1:0,0:0:0:0:
357,221,158586,6,0,P|295:205|242:144,1,125.999996154785,2|10,1:0|1:0,0:0:0:0:
231,77,159086,2,0,P|240:37|235:8,1,62.9999980773926,0|2,0:0|1:0,0:0:0:0:
142,99,159419,2,0,P|141:58|152:30,1,62.9999980773926,10|2,1:0|1:0,0:0:0:0:
205,158,159753,1,10,1:0:0:0:
209,162,160086,6,0,L|201:229,1,62.9999980773926,6|0,1:0|1:0,0:0:0:0:
131,279,160419,2,0,L|76:238,1,62.9999980773926,2|0,0:0|1:0,0:0:0:0:
70,154,160753,2,0,L|127:129,2,62.9999980773926,10|2|2,1:0|0:0|1:0,0:0:0:0:
5,94,161253,6,0,P|39:48|121:58,1,125.999996154785,6|2,1:0|1:0,0:0:0:0:
188,71,161753,2,0,P|203:30|203:-4,1,62.9999980773926,0|2,0:0|1:0,0:0:0:0:
234,145,162086,2,0,P|262:111|273:79,1,62.9999980773926,10|2,1:0|1:0,0:0:0:0:
296,12,162419,1,2,1:0:0:0:
296,12,162586,1,2,1:0:0:0:
356,108,162753,6,0,P|390:133|427:145,1,62.9999980773926,6|0,1:0|0:0,0:0:0:0:
374,221,163086,2,0,P|415:225|453:217,1,62.9999980773926,2|0,0:0|1:0,0:0:0:0:
449,311,163419,2,0,P|487:294|516:268,2,62.9999980773926,10|2|2,1:0|0:0|1:0,0:0:0:0:
391,378,163919,6,0,B|379:347|354:323|354:323|321:317|293:297,1,125.999996154785,6|10,1:0|1:0,0:0:0:0:
255,225,164419,2,0,P|229:248|211:288,1,62.9999980773926,0|2,0:0|1:0,0:0:0:0:
290,384,164753,2,0,P|289:352|279:323,1,62.9999980773926,10|2,1:0|1:0,0:0:0:0:
136,282,165086,1,10,1:0:0:0:
136,282,165419,5,2,1:0:0:0:
99,362,165586,1,8,1:0:0:0:
32,304,165753,2,0,P|12:273|9:236,1,62.9999980773926,2|0,0:0|1:0,0:0:0:0:
83,201,166086,2,0,P|123:193|153:175,2,62.9999980773926,10|2|2,1:0|0:0|0:0,0:0:0:0:
2,166,166586,6,0,P|23:122|101:91,1,125.999996154785,6|2,1:0|1:0,0:0:0:0:
164,42,167086,1,0,0:0:0:0:
214,127,167253,1,2,1:0:0:0:
214,127,167336,1,0,1:0:0:0:
214,127,167419,2,0,P|234:157|259:179,1,62.9999980773926,10|2,1:0|1:0,0:0:0:0:
332,216,167753,2,0,P|366:189|399:178,1,62.9999980773926,2|2,1:0|1:0,0:0:0:0:
506,196,168086,6,0,L|495:111,1,70,4|0,1:0|1:0,0:0:0:0:
488,40,168419,2,0,L|411:74,1,70,8|0,3:0|1:0,0:0:0:0:
338,76,168753,2,0,L|327:-9,2,70,0|0|0,1:0|1:0|1:0,0:0:0:0:
388,146,169253,1,4,1:2:0:0:
247,54,169586,5,2,0:0:0:0:
247,54,169753,2,0,L|255:123,1,56,2|2,0:0|0:0,0:0:0:0:
306,185,170086,2,0,L|314:254,1,56,2|2,0:0|0:0,0:0:0:0:
365,316,170419,1,2,0:0:0:0:
194,379,170753,5,6,1:2:0:0:
194,379,170919,1,6,1:2:0:0:
85,302,171253,5,6,1:2:0:0:
205,230,171586,1,6,1:2:0:0:
314,318,171919,1,6,1:2:0:0:
331,179,172253,5,0,1:0:0:0:
331,179,172419,2,0,P|315:139|314:104,1,62.9999980773926,0|0,1:0|1:0,0:0:0:0:
330,33,172753,1,8,1:0:0:0:
246,6,172915,1,8,1:0:0:0:
172,53,173077,1,8,1:0:0:0:
161,141,173239,1,8,1:0:0:0:
226,204,173419,6,0,L|195:378,2,168,6|2|2,0:1|0:0|0:0,0:0:0:0:
313,119,174753,6,0,P|366:156|362:215,1,112,2|0,0:0|0:0,0:0:0:0:
344,277,175253,2,0,P|338:330|377:368,1,112
459,377,175753,1,2,0:0:0:0:
499,242,176086,5,6,1:2:0:0:
256,192,176169,12,2,178419,0:0:0:0:
256,192,178753,5,6,3:1:0:0:
404,94,184086,6,0,P|332:94|270:134,3,125.999996154785,0|0|0|0,1:0|1:0|1:0|1:0,0:0:0:0:
226,286,185419,2,0,P|169:313|107:310,3,125.999996154785,0|0|0|0,1:0|1:0|1:0|1:0,0:0:0:0:
15,161,186753,6,0,L|4:53,2,94.499997116089,2|2|2,1:0|0:0|0:0,0:0:0:0:
93,203,187419,2,0,L|201:192,2,94.499997116089,2|2|2,1:0|0:0|0:0,0:0:0:0:
152,98,188086,6,0,L|275:114,1,112,4|0,1:0|0:0,0:0:0:0:
332,164,188586,1,0,1:0:0:0:
270,222,188753,2,0,B|265:271|265:271|290:296|314:337,1,112,8|0,1:0|0:0,0:0:0:0:
392,382,189253,6,0,P|420:351|436:270,1,112,6|2,1:0|1:0,0:0:0:0:
499,142,189919,1,0,1:0:0:0:
499,142,190003,1,0,1:0:0:0:
499,142,190086,2,0,P|484:168|454:193,1,56,8|0,1:0|1:0,0:0:0:0:
385,214,190419,2,0,P|371:183|372:140,1,56,2|2,1:0|1:0,0:0:0:0:
379,66,190753,5,6,1:0:0:0:
256,192,190836,12,2,192086,0:0:0:0:
464,353,194087,6,0,L|300:333,1,154.000004699707,6|8,1:0|1:0,0:0:0:0:
229,368,194587,1,0,3:0:0:0:
162,311,194753,2,0,L|38:295,1,115.50000352478,0|8,1:0|1:0,0:0:0:0:
8,293,195087,2,0,P|8:249|26:213,1,77.0000023498536,0|8,1:0|3:0,0:0:0:0:
84,146,195420,6,0,P|85:102|41:18,2,115.50000352478,2|2|2,1:0|1:0|3:0,0:0:0:0:
124,225,196087,2,0,B|174:234|174:234|257:211,1,115.50000352478,0|8,1:0|1:0,0:0:0:0:
273,204,196420,1,0,1:0:0:0:
241,121,196587,1,8,3:0:0:0:
304,211,196753,6,0,P|322:249|324:363,1,154.000004699707,0|8,1:0|1:0,0:0:0:0:
410,384,197253,1,0,3:0:0:0:
488,342,197420,2,0,B|488:320|503:293|503:293|474:262|430:257,1,115.50000352478,0|8,1:0|1:0,0:0:0:0:
410,253,197753,2,0,P|420:205|439:178,1,77.0000023498536,0|8,1:0|3:0,0:0:0:0:
504,114,198087,6,0,B|509:86|503:60|503:60|466:3,2,115.50000352478,2|2|2,1:0|1:0|3:0,0:0:0:0:
420,140,198753,2,0,P|377:133|333:112,1,77.0000023498536,0|0,1:0|3:0,0:0:0:0:
323,33,199087,2,0,L|275:22,3,38.5000011749268,8|8|8|8,1:0|1:0|1:0|1:0,0:0:0:0:
251,16,199420,6,0,L|95:45,1,140,4|8,1:0|3:0,0:0:0:0:
55,105,199920,2,0,B|77:138|125:142|125:142|198:128,1,140,0|0,1:0|1:0,0:0:0:0:
263,106,200420,2,0,P|277:144|283:191,1,70,8|0,3:0|1:0,0:0:0:0:
280,271,200753,5,0,3:0:0:0:
210,223,200920,1,0,1:0:0:0:
125,216,201087,2,0,P|75:229|19:271,1,105,8|8,3:0|1:0,0:0:0:0:
13,288,201420,1,0,3:0:0:0:
50,369,201587,2,0,B|139:351|139:351|168:351|199:366,1,140,0|0,1:0|1:0,0:0:0:0:
270,384,202087,6,0,P|272:343|262:297,1,70,8|0,3:0|1:0,0:0:0:0:
244,234,202420,2,0,P|225:197|193:162,1,70,8|0,3:0|1:0,0:0:0:0:
152,111,202753,2,0,P|117:88|72:74,2,70,8|8|8,1:0|1:0|1:0,0:0:0:0:
239,34,203253,6,0,P|267:73|366:101,1,140,12|8,1:0|1:0,0:0:0:0:
417,49,203753,2,0,P|460:59|496:85,1,70,8|0,3:0|1:0,0:0:0:0:
512,162,204087,1,8,1:0:0:0:
512,162,204170,1,8,1:0:0:0:
512,162,204253,1,8,1:0:0:0:
428,194,204420,2,0,L|446:244,3,35,8|8|8|8,1:0|1:0|1:0|1:0,0:0:0:0:
454,262,204753,6,0,P|496:301|459:377,1,154.000004699707,4|8,1:0|1:0,0:0:0:0:
388,323,205253,1,0,3:0:0:0:
302,302,205420,2,0,P|260:316|186:377,1,115.50000352478,0|8,1:0|1:0,0:0:0:0:
174,383,205753,2,0,P|135:359|93:343,1,77.0000023498536,0|8,1:0|3:0,0:0:0:0:
65,259,206087,6,0,P|112:240|199:238,2,115.50000352478,2|2|2,1:0|1:0|3:0,0:0:0:0:
6,193,206753,2,0,P|54:166|98:119,1,115.50000352478,0|8,1:0|1:0,0:0:0:0:
117,90,207087,2,0,P|104:54|108:11,1,77.0000023498536,0|8,1:0|3:0,0:0:0:0:
203,9,207420,6,0,B|230:43|227:82|227:82|206:117|221:168,1,154.000004699707,4|8,1:0|1:0,0:0:0:0:
255,235,207920,1,0,3:0:0:0:
316,171,208087,2,0,P|364:173|434:205,1,115.50000352478,0|8,1:0|1:0,0:0:0:0:
454,224,208420,2,0,P|455:266|477:307,1,77.0000023498536,0|8,1:0|3:0,0:0:0:0:
412,375,208753,6,0,B|359:353|359:353|299:360,2,115.50000352478,2|2|2,1:0|1:0|3:0,0:0:0:0:
426,287,209420,2,0,L|348:254,1,77.0000023498536,0|0,1:0|3:0,0:0:0:0:
269,277,209753,2,0,L|230:260,3,38.5000011749268,8|8|8|8,1:0|1:0|1:0|1:0,0:0:0:0:
198,246,210086,6,0,P|161:279|117:380,1,154.000004699707,12|8,1:0|3:0,0:0:0:0:
30,381,210586,2,0,P|39:325|89:226,1,154.000004699707,0|0,1:0|1:0,0:0:0:0:
130,164,211086,2,0,P|86:141|34:131,1,77.0000023498536,8|0,3:0|1:0,0:0:0:0:
4,55,211420,6,0,P|52:47|97:24,1,77.0000023498536,8|0,3:0|1:0,0:0:0:0:
157,76,211753,2,0,P|204:103|242:107,2,77.0000023498536,8|0|0,3:0|1:0|3:0,0:0:0:0:
226,20,212253,1,0,1:0:0:0:
303,64,212420,2,0,P|332:105|335:141,1,77.0000023498536,8|0,3:0|1:0,0:0:0:0:
383,215,212753,6,0,L|477:202,1,77.0000023498536,14|0,3:0|1:0,0:0:0:0:
472,292,213086,2,0,L|395:302,1,77.0000023498536,10|0,3:0|1:0,0:0:0:0:
312,271,213420,2,0,L|235:281,1,77.0000023498536,10|0,3:0|1:0,0:0:0:0:
218,195,213753,2,0,L|294:184,1,77.0000023498536,10|0,3:0|1:0,0:0:0:0:
371,140,214086,5,12,1:2:0:0:
337,58,214253,1,12,1:2:0:0:
256,22,214420,1,12,1:2:0:0:
168,28,214586,1,12,1:2:0:0:
168,28,214753,6,0,P|172:77|183:112,1,77.0000023498536,2|0,0:0|1:0,0:0:0:0:
132,181,215086,1,10,1:0:0:0:
132,181,215170,1,8,1:0:0:0:
132,181,215253,1,8,1:0:0:0:
196,243,215420,2,0,P|205:280|207:318,1,77.0000023498536,2|0,0:0|1:0,0:0:0:0:
204,357,215670,1,0,1:0:0:0:
204,357,215753,6,0,P|165:369|109:368,1,77.0000023498536,12|0,3:0|1:0,0:0:0:0:
40,373,216086,2,0,P|48:326|40:286,1,77.0000023498536,8|0,3:0|1:0,0:0:0:0:
11,214,216420,2,0,P|47:202|85:200,1,77.0000023498536,8|0,3:0|1:0,0:0:0:0:
172,157,216753,6,0,P|167:98|188:24,2,115.50000352478,10|2|2,3:0|1:0|1:0,0:0:0:0:
190,196,217336,1,0,1:0:0:0:
190,196,217420,2,0,P|213:235|219:277,1,77.0000023498536,8|0,3:0|1:0,0:0:0:0:
294,313,217753,2,0,P|308:274|337:242,1,77.0000023498536,8|0,3:0|1:0,0:0:0:0:
425,268,218086,6,0,P|453:232|471:126,1,154.000004699707,8|8,3:0|3:0,0:0:0:0:
401,76,218586,1,0,1:0:0:0:
401,76,218670,1,0,1:0:0:0:
401,76,218753,2,0,L|407:-9,1,77.0000023498536,8|0,3:0|1:0,0:0:0:0:
318,0,219086,2,0,L|312:76,1,77.0000023498536,8|0,3:0|1:0,0:0:0:0:
359,162,219420,6,0,L|348:293,2,115.50000352478,10|2|2,3:0|1:0|1:0,0:0:0:0:
292,104,220086,2,0,P|252:102|208:115,1,77.0000023498536,8|0,3:0|1:0,0:0:0:0:
153,174,220420,2,0,P|115:183|77:181,1,77.0000023498536,8|0,3:0|1:0,0:0:0:0:
12,252,220753,6,0,B|61:291|61:291|108:271|165:280,1,154.000004699707,12|8,3:0|3:0,0:0:0:0:
243,311,221253,1,0,1:0:0:0:
243,311,221336,1,0,1:0:0:0:
243,311,221420,2,0,P|271:355|304:373,1,77.0000023498536,8|0,3:0|1:0,0:0:0:0:
379,378,221753,2,0,P|391:335|386:284,1,77.0000023498536,8|0,3:0|1:0,0:0:0:0:
343,219,222086,5,8,3:0:0:0:
414,166,222253,1,0,1:0:0:0:
490,212,222420,2,0,P|484:253|497:300,2,77.0000023498536,8|0|8,3:0|1:0|3:0,0:0:0:0:
511,126,222920,2,0,P|512:85|433:4,1,154.000004699707,0|0,1:0|1:0,0:0:0:0:
345,22,223420,6,0,P|365:66|410:96,1,77.0000023498536,8|0,3:0|1:0,0:0:0:0:
431,161,223753,2,0,P|388:176|362:207,1,77.0000023498536,8|0,3:0|1:0,0:0:0:0:
292,246,224086,2,0,P|318:273|332:308,2,77.0000023498536,8|8|8,3:0|1:0|3:0,0:0:0:0:
212,192,224586,6,0,L|228:34,1,154.000004699707,14|10,3:0|1:0,0:0:0:0:
146,3,225086,2,0,P|103:23|79:53,1,77.0000023498536,10|10,1:0|1:0,0:0:0:0:
44,125,225420,1,14,1:0:0:0:
59,38,225586,1,10,1:0:0:0:
68,132,225753,2,0,L|73:171,3,38.5000011749268,8|8|8|8,1:0|1:0|1:0|1:0,0:0:0:0:
77,208,226086,6,0,B|40:234|40:234|52:322,1,115.50000352478,4|8,1:0|1:0,0:0:0:0:
56,342,226420,2,0,P|105:354|132:379,1,77.0000023498536,0|8,1:0|1:0,0:0:0:0:
213,379,226753,2,0,P|228:337|270:273,1,115.50000352478,4|8,1:2|1:0,0:0:0:0:
291,248,227086,2,0,P|242:228|205:200,1,77.0000023498536,0|8,1:0|1:0,0:0:0:0:
182,126,227420,6,0,P|230:108|321:122,1,115.50000352478,6|10,1:2|1:0,0:0:0:0:
330,122,227753,2,0,L|355:42,1,77.0000023498536,0|10,1:0|1:0,0:0:0:0:
433,11,228086,1,4,1:2:0:0:
505,79,228253,1,0,1:0:0:0:
505,79,228336,1,8,1:0:0:0:
505,79,228420,2,0,L|482:152,1,77.0000023498536,0|8,1:0|1:0,0:0:0:0:
398,200,228753,6,0,P|420:241|488:292,1,115.50000352478,4|8,1:0|1:0,0:0:0:0:
506,301,229086,2,0,P|493:346|457:377,1,77.0000023498536,0|8,1:0|1:0,0:0:0:0:
384,377,229420,2,0,P|366:335|302:277,1,115.50000352478,4|8,1:2|1:0,0:0:0:0:
283,268,229753,2,0,P|305:231|305:180,1,77.0000023498536,0|8,1:0|1:0,0:0:0:0:
258,116,230086,6,0,L|126:138,1,115.50000352478,6|10,1:2|1:0,0:0:0:0:
105,141,230420,2,0,P|52:134|25:112,1,77.0000023498536,0|10,1:0|1:0,0:0:0:0:
15,34,230753,2,0,B|62:19|62:19|131:38,1,115.50000352478,4|0,1:2|1:0,0:0:0:0:
162,46,231086,2,0,P|206:40|252:19,1,77.0000023498536,0|0,1:0|1:0,0:0:0:0:
332,3,231420,6,0,L|375:144,1,140,6|0,1:0|1:0,0:0:0:0:
417,211,231920,2,0,B|451:218|475:245|475:245|460:281|425:298,1,140,2|2,1:0|1:0,0:0:0:0:
344,315,232420,2,0,P|315:331|282:366,1,70,2|2,1:0|1:0,0:0:0:0:
191,369,232753,5,14,1:2:0:0:
154,292,232920,1,10,1:0:0:0:
186,214,233086,2,0,L|259:218,2,70,10|10|10,1:2|1:0|1:2,0:0:0:0:
115,168,233586,1,10,1:0:0:0:
54,227,233753,2,0,P|28:266|25:314,1,70,8|0,1:0|1:0,0:0:0:0:
69,375,234086,5,12,1:0:0:0:
149,338,234253,1,0,1:0:0:0:
235,361,234420,1,0,1:0:0:0:
299,300,234586,2,0,P|312:266|305:218,1,77.0000023498536,12|0,1:0|1:0,0:0:0:0:
244,164,234920,1,0,1:0:0:0:
308,103,235086,1,12,1:0:0:0:
396,92,235253,1,0,1:0:0:0:
493,147,235420,6,0,B|439:162|392:197|381:267|395:324|459:359|459:359|461:324|478:292|504:273|504:273|479:233|424:234|394:273|394:273|369:304|331:308|293:298,1,616.000018798829,12|4,1:0|1:0,0:0:0:0:
31,359,240753,5,0,1:0:0:0:
31,359,240920,2,0,L|38:240,1,112,8|0,1:0|1:0,0:0:0:0:
43,165,241420,1,0,1:0:0:0:
195,218,241753,1,14,1:0:0:0:
274,79,242086,5,8,1:0:0:0:
274,79,242253,1,8,1:0:0:0:
392,148,242586,5,0,1:0:0:0:
392,148,242670,1,0,1:0:0:0:
392,148,242753,2,0,L|312:144,1,56,0|0,1:0|1:0,0:0:0:0:
274,79,243086,1,8,1:0:0:0:
254,182,243253,6,0,P|265:231|316:291,1,112,4|8,1:0|1:0,0:0:0:0:
369,326,243753,1,0,0:0:0:0:
306,379,243920,1,0,1:0:0:0:
306,379,244003,1,0,1:0:0:0:
306,379,244086,1,0,1:0:0:0:
224,340,244253,2,0,B|197:344|172:357|172:357|146:350|114:349,1,112,0|4,1:0|1:2,0:0:0:0:
20,371,244753,6,0,B|-2:241|-2:241|35:159|46:49|46:49|95:82|132:133|132:133|108:180|107:233|107:233|169:255|242:244|292:191|305:123|278:62|231:26,1,896,4|2,1:0|0:0,0:0:0:0:
256,192,247503,12,0,250336,0:0:0:0:
