osu file format v14

[General]
AudioFilename: audio.mp3
AudioLeadIn: 0
PreviewTime: 59336
Countdown: 0
SampleSet: Normal
StackLeniency: 0.7
Mode: 2
LetterboxInBreaks: 0
WidescreenStoryboard: 1

[Editor]
Bookmarks: 26743,32086,60076,81410,91910,102743,108086,124076,136076,157409,178742,184075,194075,215743,236743,250326
DistanceSpacing: 1.1
BeatDivisor: 4
GridSize: 32
TimelineZoom: 1.8

[Metadata]
Title:Tsuki ni Murakumo Hana ni Kaze ShinRa-Bansho Ver
TitleUnicode:月に叢雲華に風 森羅万象Ver
Artist:ShinRa-Bansho
ArtistUnicode:森羅万象
Creator:Spectator
Version:Rain
Source:東方地霊殿 ~ Subterranean Animism.
Tags:Greaper Benita Benny- BennyBananas ZUN あやぽんず* あよ ayaponzu* ayaponzu ayo ラストリモート 東方歌ってみた clouds over the moon and wind over the flowers touhou chireiden 2hu project 東方project japanese pop jpop j-pop video game
BeatmapID:2635613
BeatmapSetID:1267528

[Difficulty]
HPDrainRate:4.5
CircleSize:3.5
OverallDifficulty:9
ApproachRate:9
SliderMultiplier:1.88
SliderTickRate:2

[Events]
//Background and Video events
0,0,"bg.jpg",0,0
//Break Periods
2,81610,84810
2,178942,183475
2,236943,240310
//Storyboard Layer 0 (Background)
//Storyboard Layer 1 (Fail)
//Storyboard Layer 2 (Pass)
//Storyboard Layer 3 (Foreground)
//Storyboard Layer 4 (Overlay)
//Storyboard Sound Samples

[TimingPoints]
744,333.333333333333,4,2,1,15,1,0
827,-100,4,2,1,16,0,0
910,-100,4,2,1,17,0,0
993,-100,4,2,1,18,0,0
1077,-100,4,2,1,19,0,0
1160,-100,4,2,1,20,0,0
1243,-100,4,2,1,21,0,0
1327,-100,4,2,1,22,0,0
1410,-100,4,2,1,23,0,0
1493,-100,4,2,1,24,0,0
1577,-100,4,2,1,25,0,0
1660,-100,4,2,1,26,0,0
1743,-100,4,2,1,27,0,0
1827,-100,4,2,1,28,0,0
1910,-100,4,2,1,29,0,0
1993,-100,4,2,1,30,0,0
2077,-100,4,2,1,31,0,0
2160,-100,4,2,1,32,0,0
2243,-100,4,2,1,33,0,0
2327,-100,4,2,1,34,0,0
2410,-100,4,2,1,35,0,0
2493,-100,4,2,1,36,0,0
2577,-100,4,2,1,37,0,0
2660,-100,4,2,1,38,0,0
2743,-100,4,2,1,39,0,0
2827,-100,4,2,1,40,0,0
2910,-100,4,2,1,41,0,0
2993,-100,4,2,1,42,0,0
3077,-100,4,2,1,43,0,0
3160,-100,4,2,1,44,0,0
3243,-100,4,2,1,45,0,0
3327,-100,4,2,1,46,0,0
3410,-100,4,2,1,47,0,0
3493,-100,4,2,1,48,0,0
3577,-100,4,2,1,49,0,0
4077,-100,4,2,1,50,0,0
6743,-100,4,2,1,40,0,0
7410,-100,4,2,1,55,0,0
9577,-100,4,2,1,45,0,0
9743,-100,4,2,1,55,0,0
10077,-100,4,1,1,50,0,0
11410,-100,4,1,1,53,0,0
12743,-100,4,1,1,56,0,0
14077,-100,4,1,1,60,0,0
15910,-100,4,1,1,45,0,0
16077,333.333333333333,4,1,1,65,1,0
16410,-100,4,1,2,65,0,0
16577,-100,4,1,1,65,0,0
16743,-100,4,1,2,65,0,0
16910,-100,4,1,1,65,0,0
17077,-100,4,1,2,65,0,0
17243,-100,4,1,1,65,0,0
17410,-100,4,1,2,65,0,0
17577,-100,4,1,1,65,0,0
17743,-100,4,1,2,65,0,0
17910,-100,4,1,1,65,0,0
18076,-100,4,1,2,65,0,0
18243,-100,4,1,1,65,0,0
18410,-100,4,1,2,65,0,0
18576,-100,4,1,1,65,0,0
19076,-100,4,1,2,65,0,0
19243,-100,4,1,1,65,0,0
19410,-100,4,1,2,65,0,0
19576,-100,4,1,1,65,0,0
19743,-100,4,1,2,65,0,0
19910,-100,4,1,1,65,0,0
20076,-100,4,1,2,65,0,0
20243,-100,4,1,1,65,0,0
20410,-100,4,1,2,65,0,0
20576,-100,4,1,1,65,0,0
20743,-100,4,1,2,65,0,0
20910,-100,4,1,1,65,0,0
21743,-100,4,1,2,65,0,0
21910,-100,4,1,1,65,0,0
22076,-100,4,1,2,65,0,0
22243,-100,4,1,1,65,0,0
22410,-100,4,1,2,65,0,0
22576,-100,4,1,1,65,0,0
22743,-100,4,1,2,65,0,0
22910,-100,4,1,1,65,0,0
23076,-100,4,1,2,65,0,0
23243,-100,4,1,1,65,0,0
23410,-100,4,1,2,65,0,0
23576,-100,4,1,1,65,0,0
23743,-100,4,1,2,65,0,0
23910,-100,4,1,1,65,0,0
24410,-100,4,1,2,65,0,0
24576,-100,4,1,1,65,0,0
24743,-100,4,1,2,65,0,0
24910,-100,4,1,1,65,0,0
25076,-100,4,1,2,65,0,0
25243,-100,4,1,1,65,0,0
26410,-90.9090909090909,4,1,1,65,0,0
26743,-100,4,3,1,45,0,0
31576,-100,4,1,1,65,0,0
32410,-100,4,1,2,65,0,0
32576,-100,4,1,1,65,0,0
32743,-100,4,1,2,65,0,0
32910,-100,4,1,1,65,0,0
33076,-100,4,1,2,65,0,0
33243,-100,4,1,1,65,0,0
33410,-100,4,1,2,65,0,0
33576,-100,4,1,1,65,0,0
33743,-100,4,1,2,65,0,0
33910,-100,4,1,1,65,0,0
34076,-100,4,1,2,65,0,0
34243,-100,4,1,1,65,0,0
34410,-100,4,1,2,65,0,0
34576,-100,4,1,1,65,0,0
34743,-100,4,1,2,65,0,0
34910,-100,4,1,1,65,0,0
35076,-100,4,1,2,65,0,0
35243,-100,4,1,1,65,0,0
37160,-86.9565217391304,4,1,1,50,0,0
37410,-90.9090909090909,4,1,1,65,0,0
37743,-100,4,1,2,65,0,0
37910,-100,4,1,1,65,0,0
38076,-100,4,1,2,65,0,0
38243,-100,4,1,1,65,0,0
38410,-100,4,1,2,65,0,0
38576,-100,4,1,1,65,0,0
38743,-100,4,1,2,65,0,0
38910,-100,4,1,1,65,0,0
39076,-100,4,1,2,65,0,0
39243,-100,4,1,1,65,0,0
39410,-100,4,1,2,65,0,0
39576,-100,4,1,1,65,0,0
39743,-100,4,1,2,65,0,0
39910,-100,4,1,1,65,0,0
42410,-90.9090909090909,4,1,1,65,0,0
42743,-100,4,1,1,65,0,0
48076,-100,4,1,1,50,0,0
49243,-142.857142857143,4,1,1,50,0,0
50743,-100,4,1,1,50,0,0
53410,-100,4,1,1,50,0,0
54076,-100,4,1,1,55,0,0
54576,-100,4,1,2,58,0,0
54743,-100,4,1,1,58,0,0
55410,-100,4,1,1,60,0,0
56076,-100,4,1,1,62,0,0
56410,-100,4,1,2,65,0,0
56576,-100,4,1,1,65,0,0
56743,-83.3333333333333,4,1,2,65,0,0
56826,-83.3333333333333,4,1,1,65,0,0
57076,-83.3333333333333,4,1,2,65,0,0
57243,-83.3333333333333,4,1,1,65,0,0
57410,-90.9090909090909,4,1,1,65,0,0
58076,-90.9090909090909,4,1,1,65,0,0
58243,-90.9090909090909,4,1,1,40,0,0
58410,-90.9090909090909,4,1,1,47,0,0
58576,-90.9090909090909,4,1,1,53,0,0
58743,-90.9090909090909,4,1,1,60,0,0
60076,-86.9565217391304,4,1,1,65,0,1
60243,-86.9565217391304,4,1,2,65,0,1
60410,-86.9565217391304,4,1,1,65,0,1
60576,-86.9565217391304,4,1,2,65,0,1
60743,-86.9565217391304,4,1,1,65,0,1
61243,-86.9565217391304,4,1,2,65,0,1
61410,-86.9565217391304,4,1,1,65,0,1
61576,-86.9565217391304,4,1,2,65,0,1
61743,-86.9565217391304,4,1,1,65,0,1
61910,-86.9565217391304,4,1,2,65,0,1
62076,-86.9565217391304,4,1,1,65,0,1
62243,-86.9565217391304,4,1,2,65,0,1
62326,-86.9565217391304,4,1,1,65,0,1
62576,-86.9565217391304,4,1,2,65,0,1
62743,-86.9565217391304,4,1,1,65,0,1
62910,-86.9565217391304,4,1,2,65,0,1
63076,-86.9565217391304,4,1,1,65,0,1
63243,-86.9565217391304,4,1,2,65,0,1
63410,-86.9565217391304,4,1,1,65,0,1
63910,-86.9565217391304,4,1,2,65,0,1
64076,-86.9565217391304,4,1,1,65,0,1
64243,-86.9565217391304,4,1,2,65,0,1
64410,-86.9565217391304,4,1,1,65,0,1
64576,-86.9565217391304,4,1,2,65,0,1
64743,-86.9565217391304,4,1,1,65,0,1
64910,-86.9565217391304,4,1,2,65,0,1
64993,-86.9565217391304,4,1,1,65,0,1
65243,-86.9565217391304,4,1,2,65,0,1
65410,-86.9565217391304,4,1,1,65,0,1
65743,-86.9565217391304,4,1,2,65,0,1
65910,-86.9565217391304,4,1,1,65,0,1
66410,-86.9565217391304,4,1,2,65,0,1
66576,-86.9565217391304,4,1,1,65,0,1
66743,-86.9565217391304,4,1,2,65,0,1
66910,-86.9565217391304,4,1,1,65,0,1
67076,-86.9565217391304,4,1,2,65,0,1
67243,-86.9565217391304,4,1,1,65,0,1
67410,-86.9565217391304,4,1,2,65,0,1
67576,-86.9565217391304,4,1,1,65,0,1
67743,-86.9565217391304,4,1,2,65,0,1
67910,-86.9565217391304,4,1,1,65,0,1
68743,-76.9230769230769,4,1,1,65,0,1
69076,-86.9565217391304,4,1,1,65,0,1
69743,-86.9565217391304,4,1,2,65,0,1
69910,-86.9565217391304,4,1,1,65,0,1
71243,-86.9565217391304,4,1,2,65,0,1
71410,-86.9565217391304,4,1,1,65,0,1
71910,-86.9565217391304,4,1,2,65,0,1
72076,-86.9565217391304,4,1,1,65,0,1
72243,-86.9565217391304,4,1,2,65,0,1
72410,-86.9565217391304,4,1,1,65,0,1
72576,-86.9565217391304,4,1,2,65,0,1
72743,-86.9565217391304,4,1,1,65,0,1
72910,-86.9565217391304,4,1,2,65,0,1
72993,-86.9565217391304,4,1,1,65,0,1
73243,-86.9565217391304,4,1,2,65,0,1
73410,-86.9565217391304,4,1,1,65,0,1
73576,-86.9565217391304,4,1,2,65,0,1
73743,-86.9565217391304,4,1,1,65,0,1
73910,-86.9565217391304,4,1,2,65,0,1
74076,-86.9565217391304,4,1,1,65,0,1
74576,-86.9565217391304,4,1,2,65,0,1
74743,-86.9565217391304,4,1,1,65,0,1
74910,-86.9565217391304,4,1,2,65,0,1
75076,-86.9565217391304,4,1,1,65,0,1
75243,-86.9565217391304,4,1,2,65,0,1
75410,-86.9565217391304,4,1,1,65,0,1
75576,-86.9565217391304,4,1,2,65,0,1
75743,-86.9565217391304,4,1,1,65,0,1
77076,-86.9565217391304,4,1,2,65,0,1
77243,-86.9565217391304,4,1,1,65,0,1
77410,-86.9565217391304,4,1,2,65,0,1
77576,-86.9565217391304,4,1,1,65,0,1
77743,-86.9565217391304,4,1,2,65,0,1
77910,-86.9565217391304,4,1,1,65,0,1
78076,-86.9565217391304,4,1,2,65,0,1
78243,-86.9565217391304,4,1,1,65,0,1
78410,-86.9565217391304,4,1,2,65,0,1
78576,-86.9565217391304,4,1,1,65,0,1
79076,-86.9565217391304,4,1,2,65,0,1
79243,-86.9565217391304,4,1,1,65,0,1
79743,-86.9565217391304,4,1,2,65,0,1
79910,-86.9565217391304,4,1,1,65,0,1
81410,-86.9565217391304,4,1,1,65,0,0
85410,-100,4,1,1,65,0,0
86410,-90.9090909090909,4,1,2,65,0,0
86493,-90.9090909090909,4,1,1,65,0,0
86743,-100,4,1,1,65,0,0
88243,342.857142857143,4,1,1,65,1,0
88928,337.078651685393,4,1,1,65,1,0
89424,333.333333333333,4,1,1,65,1,0
92757,-100,4,1,2,65,0,0
93090,-100,4,1,1,65,0,0
93257,-90.9090909090909,4,1,1,65,0,0
93340,-100,4,1,1,65,0,0
94090,-100,4,1,2,65,0,0
94257,-100,4,1,1,65,0,0
94424,-100,4,1,2,65,0,0
94590,-100,4,1,1,65,0,0
95424,-100,4,1,2,65,0,0
95757,-100,4,1,1,65,0,0
97757,-100,4,1,2,65,0,0
97923,-100,4,1,1,65,0,0
98090,-100,4,1,2,65,0,0
98257,-100,4,1,1,65,0,0
98423,-100,4,1,2,65,0,0
98590,-100,4,1,1,65,0,0
98757,-100,4,1,2,65,0,0
98923,-100,4,1,1,65,0,0
99090,-100,4,1,2,65,0,0
99257,-100,4,1,1,65,0,0
100090,-100,4,1,1,65,0,0
100173,-100,4,1,1,65,0,0
100423,-100,4,1,2,65,0,0
100590,-100,4,1,1,65,0,0
100923,-100,4,1,2,65,0,0
101090,-100,4,1,1,65,0,0
102757,-100,4,1,1,50,0,0
103423,-100,4,1,1,50,0,0
107090,-100,4,1,1,65,0,0
107757,-86.9565217391304,4,1,1,65,0,0
108090,-90.9090909090909,4,1,1,65,0,1
108173,-90.9090909090909,4,1,1,65,0,0
108257,-100,4,1,1,65,0,0
109757,-100,4,1,2,65,0,0
109923,-100,4,1,1,65,0,0
110090,-100,4,1,2,65,0,0
110257,-100,4,1,1,65,0,0
110423,-100,4,1,2,65,0,0
110590,-100,4,1,1,65,0,0
113757,-100,4,1,2,65,0,0
113923,-100,4,1,1,65,0,0
114423,-100,4,1,2,65,0,0
114590,-100,4,1,1,65,0,0
114757,-100,4,1,2,65,0,0
114923,-100,4,1,1,65,0,0
115090,-100,4,1,2,65,0,0
115257,-100,4,1,1,65,0,0
115423,-100,4,1,2,65,0,0
115590,-100,4,1,1,65,0,0
115757,-100,4,1,2,65,0,0
115923,-100,4,1,1,65,0,0
116090,-100,4,1,2,65,0,0
116257,-100,4,1,1,65,0,0
116423,-100,4,1,2,65,0,0
116590,-100,4,1,1,65,0,0
116757,-100,4,1,2,65,0,0
116923,-90.9090909090909,4,1,1,65,0,0
117423,-90.9090909090909,4,1,2,65,0,0
117590,-90.9090909090909,4,1,1,65,0,0
117757,-90.9090909090909,4,1,2,65,0,0
117923,-90.9090909090909,4,1,1,65,0,0
118090,-90.9090909090909,4,1,2,65,0,0
118257,-90.9090909090909,4,1,1,65,0,0
119257,-90.9090909090909,4,1,2,65,0,0
119423,-90.9090909090909,4,1,1,65,0,0
120257,-90.9090909090909,4,1,2,65,0,0
120423,-90.9090909090909,4,1,1,65,0,0
120590,-90.9090909090909,4,1,2,65,0,0
120757,-90.9090909090909,4,1,1,65,0,0
122257,-90.9090909090909,4,1,2,65,0,0
122423,-90.9090909090909,4,1,1,65,0,0
123590,-100,4,1,1,65,0,0
123757,-125,4,1,1,65,0,0
123923,-166.666666666667,4,1,1,65,0,0
124090,-111.111111111111,4,1,1,65,0,0
124257,-111.111111111111,4,2,1,60,0,0
126757,-111.111111111111,4,2,1,65,0,0
129090,-111.111111111111,4,1,2,65,0,0
129257,-111.111111111111,4,2,1,65,0,0
129423,-100,4,1,1,65,0,0
130757,-100,4,1,1,68,0,0
132090,-100,4,1,1,70,0,0
133757,-100,4,1,1,40,0,0
134090,-100,4,1,1,50,0,0
134423,-100,4,1,1,60,0,0
134757,-90.9090909090909,4,1,1,65,0,0
136090,-86.9565217391304,4,1,1,65,0,1
136590,-86.9565217391304,4,1,2,65,0,1
136757,-86.9565217391304,4,1,1,65,0,1
137257,-86.9565217391304,4,1,2,65,0,1
137423,-86.9565217391304,4,1,1,65,0,1
137590,-86.9565217391304,4,1,2,65,0,1
137757,-86.9565217391304,4,1,1,65,0,1
137923,-86.9565217391304,4,1,2,65,0,1
138090,-86.9565217391304,4,1,1,65,0,1
138257,-86.9565217391304,4,1,2,65,0,1
138340,-86.9565217391304,4,1,1,65,0,1
138590,-86.9565217391304,4,1,2,65,0,1
138757,-86.9565217391304,4,1,1,65,0,1
138923,-86.9565217391304,4,1,2,65,0,1
139090,-86.9565217391304,4,1,1,65,0,1
139257,-86.9565217391304,4,1,2,65,0,1
139423,-86.9565217391304,4,1,1,65,0,1
139923,-86.9565217391304,4,1,2,65,0,1
140090,-86.9565217391304,4,1,1,65,0,1
140257,-86.9565217391304,4,1,2,65,0,1
140423,-86.9565217391304,4,1,1,65,0,1
140590,-86.9565217391304,4,1,2,65,0,1
140757,-86.9565217391304,4,1,1,65,0,1
140923,-86.9565217391304,4,1,2,65,0,1
141090,-86.9565217391304,4,1,1,65,0,1
142423,-86.9565217391304,4,1,2,65,0,1
142590,-86.9565217391304,4,1,1,65,0,1
143090,-86.9565217391304,4,1,2,65,0,1
143257,-86.9565217391304,4,1,1,65,0,1
143423,-86.9565217391304,4,1,2,65,0,1
143590,-86.9565217391304,4,1,1,65,0,1
143757,-86.9565217391304,4,1,2,65,0,1
143923,-86.9565217391304,4,1,1,65,0,1
144423,-86.9565217391304,4,1,2,65,0,1
144590,-86.9565217391304,4,1,1,65,0,1
145757,-86.9565217391304,4,1,2,65,0,1
145923,-86.9565217391304,4,1,1,65,0,1
147257,-86.9565217391304,4,1,2,65,0,1
147423,-86.9565217391304,4,1,1,65,0,1
147923,-86.9565217391304,4,1,2,65,0,1
148090,-86.9565217391304,4,1,1,65,0,1
148257,-86.9565217391304,4,1,2,65,0,1
148423,-86.9565217391304,4,1,1,65,0,1
148590,-86.9565217391304,4,1,2,65,0,1
148757,-86.9565217391304,4,1,1,65,0,1
148923,-86.9565217391304,4,1,2,65,0,1
149007,-86.9565217391304,4,1,1,65,0,1
149257,-86.9565217391304,4,1,2,65,0,1
149423,-86.9565217391304,4,1,1,65,0,1
149590,-86.9565217391304,4,1,2,65,0,1
149757,-86.9565217391304,4,1,1,65,0,1
149923,-86.9565217391304,4,1,2,65,0,1
150090,-86.9565217391304,4,1,1,65,0,1
150590,-86.9565217391304,4,1,2,65,0,1
150757,-86.9565217391304,4,1,1,65,0,1
150923,-86.9565217391304,4,1,2,65,0,1
151090,-86.9565217391304,4,1,1,65,0,1
151257,-86.9565217391304,4,1,2,65,0,1
151423,-86.9565217391304,4,1,1,65,0,1
152423,-86.9565217391304,4,1,2,65,0,1
152590,-86.9565217391304,4,1,1,65,0,1
153090,-86.9565217391304,4,1,2,65,0,1
153257,-86.9565217391304,4,1,1,65,0,1
153423,-86.9565217391304,4,1,2,65,0,1
153590,-86.9565217391304,4,1,1,65,0,1
153757,-86.9565217391304,4,1,2,65,0,1
153923,-86.9565217391304,4,1,1,65,0,1
154090,-86.9565217391304,4,1,2,65,0,1
154257,-86.9565217391304,4,1,1,65,0,1
154423,-86.9565217391304,4,1,2,65,0,1
154590,-86.9565217391304,4,1,1,65,0,1
154757,-86.9565217391304,4,1,2,65,0,1
154923,-86.9565217391304,4,1,1,65,0,1
155090,-86.9565217391304,4,1,2,65,0,1
155257,-86.9565217391304,4,1,1,65,0,1
155423,-86.9565217391304,4,1,2,65,0,1
155590,-86.9565217391304,4,1,1,65,0,1
155757,-86.9565217391304,4,1,2,65,0,1
155923,-86.9565217391304,4,1,1,65,0,1
156090,-90.9090909090909,4,1,1,70,0,1
157423,-100,4,1,1,65,0,0
169590,-100,4,1,1,50,0,0
170757,-100,4,1,1,65,0,0
171590,-100,4,1,2,65,0,0
171757,-100,4,1,1,65,0,0
171923,-100,4,1,2,65,0,0
172257,-100,4,1,1,65,0,0
172590,-100,4,1,1,68,0,0
172743,324.324324324324,4,1,1,70,1,0
173067,-100,4,1,1,74,0,0
173409,333.333333333333,4,1,1,75,1,1
173492,-100,4,1,1,75,0,0
173575,-100,4,1,1,45,0,0
175909,-100,4,1,2,45,0,0
177409,-100,4,1,2,50,0,0
177742,-100,4,1,2,53,0,0
178075,-100,4,1,2,56,0,0
178409,-100,4,1,2,60,0,0
178742,-100,4,2,1,50,0,0
184075,-100,4,1,1,50,0,0
185409,-100,4,1,1,55,0,0
186742,-100,4,1,1,60,0,0
187409,-83.3333333333333,4,1,1,65,0,0
188075,-100,4,1,1,65,0,0
190908,-100,4,1,1,75,0,0
191908,-100,4,2,1,25,0,0
192075,-100,4,2,1,55,0,0
192742,-100,4,2,1,60,0,0
193742,-83.3333333333333,4,1,1,65,0,0
194077,333.333333333333,4,1,1,65,1,1
194077,-86.9565217391304,4,1,1,65,0,1
194577,-86.9565217391304,4,1,2,65,0,1
194743,-86.9565217391304,4,1,1,65,0,1
195243,-86.9565217391304,4,1,2,65,0,1
195410,-86.9565217391304,4,1,1,65,0,1
195577,-86.9565217391304,4,1,2,65,0,1
195743,-86.9565217391304,4,1,1,65,0,1
195910,-86.9565217391304,4,1,2,65,0,1
196077,-86.9565217391304,4,1,1,65,0,1
196243,-86.9565217391304,4,1,2,65,0,1
196327,-86.9565217391304,4,1,1,65,0,1
196577,-86.9565217391304,4,1,2,65,0,1
196743,-86.9565217391304,4,1,1,65,0,1
196910,-86.9565217391304,4,1,2,65,0,1
197077,-86.9565217391304,4,1,1,65,0,1
197243,-86.9565217391304,4,1,2,65,0,1
197410,-86.9565217391304,4,1,1,65,0,1
197910,-86.9565217391304,4,1,2,65,0,1
198077,-86.9565217391304,4,1,1,65,0,1
198243,-86.9565217391304,4,1,2,65,0,1
198410,-86.9565217391304,4,1,1,65,0,1
198577,-86.9565217391304,4,1,2,65,0,1
198743,-86.9565217391304,4,1,1,65,0,1
198910,-86.9565217391304,4,1,2,65,0,1
199077,-86.9565217391304,4,1,1,65,0,1
200410,-86.9565217391304,4,1,2,65,0,1
200577,-86.9565217391304,4,1,1,65,0,1
201077,-86.9565217391304,4,1,2,65,0,1
201243,-86.9565217391304,4,1,1,65,0,1
201410,-86.9565217391304,4,1,2,65,0,1
201577,-86.9565217391304,4,1,1,65,0,1
201743,-86.9565217391304,4,1,2,65,0,1
201910,-86.9565217391304,4,1,1,65,0,1
202410,-86.9565217391304,4,1,2,65,0,1
202577,-86.9565217391304,4,1,1,65,0,1
205243,-86.9565217391304,4,1,2,65,0,1
205410,-86.9565217391304,4,1,1,65,0,1
205910,-86.9565217391304,4,1,2,65,0,1
206077,-86.9565217391304,4,1,1,65,0,1
206243,-86.9565217391304,4,1,2,65,0,1
206410,-86.9565217391304,4,1,1,65,0,1
206577,-86.9565217391304,4,1,2,65,0,1
206743,-86.9565217391304,4,1,1,65,0,1
206910,-86.9565217391304,4,1,2,65,0,1
206993,-86.9565217391304,4,1,1,65,0,1
207243,-86.9565217391304,4,1,2,65,0,1
207410,-86.9565217391304,4,1,1,65,0,1
207577,-86.9565217391304,4,1,2,65,0,1
207743,-86.9565217391304,4,1,1,65,0,1
207910,-86.9565217391304,4,1,2,65,0,1
208077,-86.9565217391304,4,1,1,65,0,1
208910,-86.9565217391304,4,1,2,65,0,1
209076,-86.9565217391304,4,1,1,65,0,1
209243,-86.9565217391304,4,1,2,65,0,1
209410,-86.9565217391304,4,1,1,65,0,1
209576,-86.9565217391304,4,1,2,65,0,1
209743,-86.9565217391304,4,1,1,65,0,1
210410,-86.9565217391304,4,1,2,65,0,1
210576,-86.9565217391304,4,1,1,65,0,1
210743,-86.9565217391304,4,1,2,65,0,1
210910,-86.9565217391304,4,1,1,65,0,1
211076,-86.9565217391304,4,1,2,65,0,1
211243,-86.9565217391304,4,1,1,65,0,1
211410,-86.9565217391304,4,1,2,65,0,1
211576,-86.9565217391304,4,1,1,65,0,1
211743,-86.9565217391304,4,1,2,65,0,1
211910,-86.9565217391304,4,1,1,65,0,1
212076,-86.9565217391304,4,1,2,65,0,1
212243,-86.9565217391304,4,1,1,65,0,1
212410,-86.9565217391304,4,1,2,65,0,1
212576,-86.9565217391304,4,1,1,65,0,1
212743,-86.9565217391304,4,1,2,65,0,1
212910,-86.9565217391304,4,1,1,65,0,1
213076,-86.9565217391304,4,1,2,65,0,1
213243,-86.9565217391304,4,1,1,65,0,1
213410,-86.9565217391304,4,1,2,65,0,1
213576,-86.9565217391304,4,1,1,65,0,1
213743,-86.9565217391304,4,1,2,65,0,1
213910,-86.9565217391304,4,1,1,65,0,1
215326,-86.9565217391304,4,1,1,65,0,0
215743,-83.3333333333333,4,1,1,65,0,1
216076,-83.3333333333333,4,1,3,65,0,1
216243,-83.3333333333333,4,1,1,65,0,1
216410,-83.3333333333333,4,1,3,65,0,1
216576,-83.3333333333333,4,1,1,65,0,1
216743,-83.3333333333333,4,1,3,65,0,1
216910,-83.3333333333333,4,1,1,65,0,1
217076,-83.3333333333333,4,1,3,65,0,1
217243,-83.3333333333333,4,1,1,65,0,1
217410,-83.3333333333333,4,1,3,65,0,1
217576,-83.3333333333333,4,1,1,65,0,1
217743,-83.3333333333333,4,1,3,65,0,1
217910,-83.3333333333333,4,1,1,65,0,1
218076,-83.3333333333333,4,1,3,65,0,1
218243,-83.3333333333333,4,1,1,65,0,1
218410,-83.3333333333333,4,1,3,65,0,1
218576,-83.3333333333333,4,1,1,65,0,1
218743,-83.3333333333333,4,1,3,65,0,1
218910,-83.3333333333333,4,1,1,65,0,1
219076,-83.3333333333333,4,1,3,65,0,1
219243,-83.3333333333333,4,1,1,65,0,1
219410,-83.3333333333333,4,1,3,65,0,1
219576,-83.3333333333333,4,1,1,65,0,1
219743,-83.3333333333333,4,1,3,65,0,1
219910,-83.3333333333333,4,1,1,65,0,1
220076,-83.3333333333333,4,1,3,65,0,1
220243,-83.3333333333333,4,1,1,65,0,1
220743,-83.3333333333333,4,1,3,65,0,1
220910,-83.3333333333333,4,1,1,65,0,1
221076,-83.3333333333333,4,1,3,65,0,1
221243,-83.3333333333333,4,1,1,65,0,1
221410,-83.3333333333333,4,1,3,65,0,1
221576,-83.3333333333333,4,1,1,65,0,1
221743,-83.3333333333333,4,1,3,65,0,1
221910,-83.3333333333333,4,1,1,65,0,1
222076,-83.3333333333333,4,1,3,65,0,1
222243,-83.3333333333333,4,1,1,65,0,1
222410,-83.3333333333333,4,1,3,65,0,1
222576,-83.3333333333333,4,1,1,65,0,1
222743,-83.3333333333333,4,1,3,65,0,1
222910,-83.3333333333333,4,1,1,65,0,1
223076,-83.3333333333333,4,1,3,65,0,1
223243,-83.3333333333333,4,1,1,65,0,1
223410,-83.3333333333333,4,1,3,65,0,1
223576,-83.3333333333333,4,1,1,65,0,1
223743,-83.3333333333333,4,1,3,65,0,1
223910,-83.3333333333333,4,1,1,65,0,1
225743,-83.3333333333333,4,1,1,65,0,1
226410,-83.3333333333333,4,1,3,65,0,1
226576,-83.3333333333333,4,1,1,65,0,1
226743,-83.3333333333333,4,1,3,65,0,1
226910,-83.3333333333333,4,1,1,65,0,1
227076,-83.3333333333333,4,1,3,65,0,1
227243,-83.3333333333333,4,1,1,65,0,1
227410,-83.3333333333333,4,1,3,65,0,1
227576,-83.3333333333333,4,1,1,65,0,1
227743,-83.3333333333333,4,1,3,65,0,1
227910,-83.3333333333333,4,1,1,65,0,1
228076,-83.3333333333333,4,1,3,65,0,1
228243,-83.3333333333333,4,1,1,65,0,1
228410,-83.3333333333333,4,1,3,65,0,1
228493,-83.3333333333333,4,1,1,65,0,1
229076,-83.3333333333333,4,1,3,65,0,1
229243,-83.3333333333333,4,1,1,65,0,1
229410,-83.3333333333333,4,1,3,65,0,1
229576,-83.3333333333333,4,1,1,65,0,1
229743,-83.3333333333333,4,1,3,65,0,1
229910,-83.3333333333333,4,1,1,65,0,1
230076,-83.3333333333333,4,1,3,65,0,1
230160,-83.3333333333333,4,1,1,65,0,1
230410,-83.3333333333333,4,1,3,65,0,1
230576,-83.3333333333333,4,1,1,65,0,1
230743,-83.3333333333333,4,1,3,65,0,1
230910,-83.3333333333333,4,1,1,65,0,1
232743,-83.3333333333333,4,1,1,70,0,1
236743,-83.3333333333333,4,1,1,65,0,0
240910,-90.9090909090909,4,1,1,60,0,0
242076,-90.9090909090909,4,1,1,65,0,0
243243,-90.9090909090909,4,1,1,60,0,0
244743,-90.9090909090909,4,1,1,65,0,1
244826,-90.9090909090909,4,1,1,65,0,0
244910,-90.9090909090909,4,1,1,65,0,0
245076,-90.9090909090909,4,1,1,63,0,0
245243,-90.9090909090909,4,1,1,61,0,0
245410,-90.9090909090909,4,1,1,59,0,0
245576,-90.9090909090909,4,1,1,57,0,0
245743,-90.9090909090909,4,1,1,55,0,0
245910,-90.9090909090909,4,1,1,53,0,0
246076,-90.9090909090909,4,1,1,51,0,0
246243,-90.9090909090909,4,1,1,49,0,0
246410,-90.9090909090909,4,1,1,47,0,0
246576,-90.9090909090909,4,1,1,45,0,0
246743,-90.9090909090909,4,1,1,43,0,0
246910,-90.9090909090909,4,1,1,41,0,0
247076,-90.9090909090909,4,1,1,39,0,0
247243,-90.9090909090909,4,1,1,37,0,0
247410,-90.9090909090909,4,1,1,35,0,0
247576,-90.9090909090909,4,1,1,33,0,0
247743,-90.9090909090909,4,1,1,31,0,0
247910,-90.9090909090909,4,1,1,29,0,0
248076,-90.9090909090909,4,1,1,27,0,0
248243,-90.9090909090909,4,1,1,26,0,0
248410,-90.9090909090909,4,1,1,25,0,0
248576,-90.9090909090909,4,1,1,24,0,0
248743,-90.9090909090909,4,1,1,23,0,0
248910,-90.9090909090909,4,1,1,22,0,0
249076,-90.9090909090909,4,1,1,21,0,0
249243,-90.9090909090909,4,1,1,20,0,0
249410,-90.9090909090909,4,1,1,19,0,0
249576,-90.9090909090909,4,1,1,18,0,0
249743,-90.9090909090909,4,1,1,17,0,0
249910,-90.9090909090909,4,1,1,16,0,0
250076,-90.9090909090909,4,1,1,15,0,0
250326,-90.9090909090909,4,1,1,20,0,0

[Colours]
Combo1 : 133,201,231
Combo2 : 173,226,92
Combo3 : 243,233,107
Combo4 : 218,166,101
Combo5 : 228,137,179

[HitObjects]
256,192,744,12,0,3743,0:0:0:0:
127,191,4077,5,2,0:0:0:0:
385,191,4410,1,2,0:0:0:0:
125,311,4743,2,0,P|49:267|144:131,1,282,2|0,0:0|0:0,0:0:0:0:
259,227,5410,2,0,P|321:218|380:97,1,188,2|0,0:0|0:0,0:0:0:0:
121,126,6077,1,2,0:0:0:0:
301,126,6327,1,2,0:0:0:0:
121,126,6577,2,0,L|120:407,1,282,2|2,0:0|0:0,0:0:0:0:
387,311,7410,6,0,P|463:267|368:131,1,282,2|0,0:0|0:0,0:0:0:0:
253,124,8077,2,0,L|73:125,2,141,2|2|2,0:0|0:0|0:0,0:0:0:0:
416,124,8743,1,2,0:0:0:0:
416,124,8993,1,2,0:0:0:0:
222,124,9243,1,2,0:0:0:0:
374,205,9410,2,0,L|472:204,1,94,2|0,0:0|0:0,0:0:0:0:
336,182,9743,2,0,L|466:179,1,94,2|0,0:0|0:0,0:0:0:0:
174,302,10077,6,0,P|115:271|191:203,1,188,4|8,0:2|0:0,0:0:0:0:
315,200,10577,2,0,L|440:201,1,94,0|8,0:0|0:0,0:0:0:0:
282,114,10910,2,0,L|154:112,1,94,0|8,0:0|0:0,0:0:0:0:
316,28,11243,1,0,0:0:0:0:
67,326,11410,2,0,L|54:214,1,94,8|0,0:0|0:0,0:0:0:0:
201,224,11743,2,0,P|258:190|187:114,1,188,8|0,0:0|0:0,0:0:0:0:
55,95,12243,2,0,L|251:83,1,188
486,205,12743,6,0,L|494:326,1,94,4|0,0:2|0:0,0:0:0:0:
340,268,13077,2,0,L|243:272,1,94,8|0,0:0|0:0,0:0:0:0:
395,348,13410,1,8,0:0:0:0:
470,291,13577,1,0,0:0:0:0:
480,197,13743,1,8,0:0:0:0:
441,110,13910,1,0,0:0:0:0:
213,57,14077,6,0,L|109:50,1,94,8|8,0:0|0:0,0:0:0:0:
381,218,14410,2,0,L|485:211,1,94,8|8,0:0|0:0,0:0:0:0:
194,160,14743,1,8,0:0:0:0:
62,161,14910,1,8,0:0:0:0:
194,160,15077,1,8,0:0:0:0:
468,160,15243,1,8,0:0:0:0:
213,282,15910,6,0,L|213:218,1,47,0|0,3:0|3:0,0:0:0:0:
408,263,16077,2,0,P|458:227|400:133,1,188,4|8,0:2|0:0,0:0:0:0:
268,175,16577,2,0,L|379:177,1,94,0|8,0:0|0:0,0:0:0:0:
208,164,16910,2,0,L|207:279,1,94,0|8,0:0|0:0,0:0:0:0:
363,175,17243,1,0,0:0:0:0:
102,329,17410,5,8,1:0:0:0:
69,240,17577,1,0,0:0:0:0:
102,152,17743,1,8,0:0:0:0:
186,110,17910,1,0,0:0:0:0:
332,98,18076,2,0,L|339:208,1,94,8|0,0:0|0:0,0:0:0:0:
197,204,18410,2,0,L|94:204,1,94,8|0,0:0|3:0,0:0:0:0:
367,114,18743,6,0,L|376:327,1,188,4|8,0:2|0:0,0:0:0:0:
220,314,19243,2,0,L|117:314,2,94,0|8|0,0:0|0:0|0:0,0:0:0:0:
367,241,19743,2,0,L|493:244,1,94,8|0,0:0|0:0,0:0:0:0:
196,242,20076,5,8,0:0:0:0:
164,153,20243,1,0,0:0:0:0:
206,69,20410,1,8,0:0:0:0:
293,36,20576,1,0,0:0:0:0:
151,27,20743,2,0,L|140:158,1,94,8|0,0:0|0:0,0:0:0:0:
281,186,21076,2,0,L|289:102,3,47,0|0|0|0,3:0|3:0|3:0|3:0,0:0:0:0:
110,224,21410,6,0,P|57:187|125:97,1,188,4|8,0:2|0:0,0:0:0:0:
246,132,21910,2,0,L|361:124,1,94,0|8,0:0|0:0,0:0:0:0:
220,321,22243,2,0,L|210:227,1,94,0|8,0:0|0:0,0:0:0:0:
366,210,22576,1,0,0:0:0:0:
105,278,22743,5,8,0:0:0:0:
33,216,22910,1,0,0:0:0:0:
14,124,23076,1,8,0:0:0:0:
54,39,23243,1,0,0:0:0:0:
188,66,23410,2,0,L|91:57,1,94,8|0,0:0|0:0,0:0:0:0:
235,112,23743,2,0,L|332:103,1,94,8|0,0:0|3:0,0:0:0:0:
52,262,24076,6,0,L|259:241,1,188,4|8,0:2|0:0,0:0:0:0:
389,186,24576,2,0,L|282:173,1,94,0|8,0:0|0:0,0:0:0:0:
144,208,24910,2,0,L|137:115,1,94,0|8,0:0|0:0,0:0:0:0:
280,112,25243,1,0,0:0:0:0:
52,314,25410,6,0,L|42:208,1,94,0|0,3:0|3:0,0:0:0:0:
199,197,25743,2,0,L|70:191,1,94,8|0,0:0|3:0,0:0:0:0:
341,247,26076,2,0,L|470:241,1,94,8|0,1:0|3:0,0:0:0:0:
307,212,26410,2,0,L|290:140,3,51.7000015777588,8|0|0|0,0:0|3:0|3:0|3:0,0:0:0:0:
117,203,26743,6,0,P|89:152|187:69,1,188,4|0,0:2|0:0,0:0:0:0:
395,203,27410,2,0,P|423:152|325:69,1,188,0|0,0:2|0:0,0:0:0:0:
163,166,28076,2,0,L|369:166,3,188
359,83,29243,1,0,0:0:0:0:
218,82,29410,6,0,P|167:135|240:224,1,188
383,213,29910,2,0,P|371:135|190:43,1,282
368,121,30743,5,0,0:0:0:0:
472,119,30910,1,0,0:0:0:0:
368,121,31076,1,0,0:0:0:0:
88,123,31243,1,0,0:0:0:0:
213,222,31576,2,0,L|329:220,1,94,8|0,0:0|0:0,0:0:0:0:
150,151,31910,2,0,L|149:82,1,47,8|0,0:0|0:0,0:0:0:0:
316,310,32076,6,0,P|375:299|400:177,1,188,0|8,0:0|0:0,0:0:0:0:
259,141,32576,2,0,L|247:258,1,94
143,234,32910,1,0,0:0:0:0:
311,238,33076,2,0,L|323:355,1,94,8|0,0:0|0:0,0:0:0:0:
57,342,33410,6,0,L|46:232,1,94
306,163,33743,2,0,L|416:165,1,94,8|0,0:0|3:0,0:0:0:0:
165,71,34076,2,0,L|55:73,1,94
354,135,34410,2,0,L|365:25,1,94,8|0,0:0|0:0,0:0:0:0:
132,310,34743,5,0,0:0:0:0:
58,250,34910,1,0,0:0:0:0:
40,157,35076,1,8,0:0:0:0:
86,75,35243,1,0,0:0:0:0:
236,46,35410,2,0,L|361:47,1,94,8|0,3:1|3:0,0:0:0:0:
211,132,35743,2,0,L|155:132,2,47,8|0|0,3:1|3:0|3:0,0:0:0:0:
468,133,36076,5,4,0:2:0:0:
257,130,36326,1,0,0:0:0:0:
468,133,36576,2,0,L|468:348,1,188,4|0,0:2|0:0,0:0:0:0:
322,349,37076,2,0,L|312:284,3,47,8|0|8|0,0:0|0:0|0:0|0:0,0:0:0:0:
134,330,37410,6,0,P|81:301|161:197,1,206.800006311035,0|8,0:0|0:0,0:0:0:0:
282,200,37910,2,0,L|395:209,1,94
241,111,38243,1,0,0:0:0:0:
112,139,38410,2,0,L|105:277,1,94,8|0,0:0|0:0,0:0:0:0:
375,351,38743,6,0,P|428:322|352:236,1,188,0|8,0:0|0:0,0:0:0:0:
230,199,39243,2,0,L|432:193,1,188
126,221,39743,2,0,L|119:114,1,94,8|0,0:0|0:0,0:0:0:0:
374,131,40076,5,0,0:0:0:0:
478,131,40243,1,0,0:0:0:0:
374,131,40410,1,8,0:0:0:0:
141,262,40576,1,0,0:0:0:0:
264,262,40743,1,0,0:0:0:0:
390,260,40910,1,0,0:0:0:0:
144,157,41076,1,8,0:0:0:0:
15,154,41243,1,0,0:0:0:0:
306,252,41410,6,0,L|521:265,2,188,8|8|8,0:0|0:0|0:0,0:0:0:0:
129,278,42243,1,0,3:0:0:0:
116,227,42326,1,0,3:0:0:0:
128,174,42410,1,0,3:0:0:0:
175,146,42493,1,0,3:0:0:0:
240,135,42576,1,0,3:0:0:0:
483,83,42743,6,0,L|309:82,2,141,8|8|8,0:0|0:0|0:0,0:0:0:0:
190,176,43576,1,0,3:0:0:0:
431,175,43743,1,4,0:2:0:0:
188,289,44076,6,0,L|362:288,2,141,4|0|0,0:2|0:0|0:0,0:0:0:0:
329,77,44743,2,0,L|338:191,1,94,8|0,3:0|0:0,0:0:0:0:
175,219,45076,2,0,L|71:218,1,94,0|8,3:0|3:0,0:0:0:0:
332,306,45410,6,0,L|506:305,2,141,4|0|0,0:2|0:0|0:0,0:0:0:0:
190,332,46076,2,0,L|200:217,1,94,8|0,0:0|0:0,0:0:0:0:
339,240,46410,1,0,0:0:0:0:
197,205,46576,6,0,P|141:165|219:88,1,188
343,139,47076,2,0,L|353:24,1,94
206,74,47410,2,0,L|71:74,1,94,8|0,0:0|0:0,0:0:0:0:
377,79,47743,1,0,0:0:0:0:
389,187,48076,5,8,0:0:0:0:
122,187,48243,1,8,0:0:0:0:
458,353,49243,6,0,B|458:193|266:193|266:193|74:193|74:1,1,592.199981927491,4|8,0:2|0:0,0:0:0:0:
402,29,50910,1,8,0:0:0:0:
161,184,51910,6,0,L|381:184,2,188,4|8|8,0:2|0:0|3:0,0:0:0:0:
304,134,52743,2,0,L|303:260,1,94,4|0,3:0|3:0,0:0:0:0:
43,231,53076,1,4,1:2:0:0:
280,352,53410,5,8,0:0:0:0:
368,320,53576,1,0,0:0:0:0:
395,229,53743,1,8,0:0:0:0:
359,141,53910,1,0,0:0:0:0:
217,94,54076,2,0,L|204:209,1,94,8|0,0:0|0:0,0:0:0:0:
352,210,54410,2,0,L|461:209,1,94,8|0,0:0|0:0,0:0:0:0:
173,220,54743,6,0,L|64:219,2,94,8|0|8,0:0|0:0|0:0,0:0:0:0:
334,281,55243,1,8,3:0:0:0:
385,282,55326,1,8,3:0:0:0:
438,284,55410,1,8,0:0:0:0:
329,198,55576,1,0,0:0:0:0:
64,187,55743,1,8,0:0:0:0:
322,94,56076,6,0,L|479:93,2,141,4|0|0,0:2|3:0|3:0,0:0:0:0:
52,122,56743,1,4,0:2:0:0:
196,106,56993,1,0,3:0:0:0:
352,98,57243,1,0,3:0:0:0:
111,326,57410,5,0,3:0:0:0:
64,309,57493,1,0,3:0:0:0:
28,274,57576,1,0,3:0:0:0:
8,228,57660,1,0,3:0:0:0:
8,179,57743,1,0,3:0:0:0:
29,133,57826,1,0,3:0:0:0:
66,99,57910,1,0,3:0:0:0:
112,83,57993,1,0,3:0:0:0:
282,53,58076,6,0,L|287:119,3,51.7000015777588,8|0|8|0,3:1|3:0|3:1|3:0,0:0:0:0:
133,188,58410,2,0,L|62:187,1,51.7000015777588,8|0,3:1|3:0,0:0:0:0:
276,189,58576,2,0,L|347:188,1,51.7000015777588,8|0,3:1|3:0,0:0:0:0:
65,275,58743,5,4,3:2:0:0:
256,192,58910,12,0,59743,0:0:0:0:
294,267,60076,6,0,L|418:256,1,108.100002061844,4|0,0:2|0:0,0:0:0:0:
253,186,60410,2,0,L|129:175,1,108.100002061844,8|0,0:0|0:0,0:0:0:0:
457,222,60743,2,0,P|442:145|353:100,1,162.150003092766,0|8,0:0|0:0,0:0:0:0:
300,67,61076,2,0,L|424:56,1,108.100002061844,8|8,0:0|0:0,0:0:0:0:
168,223,61410,6,0,L|176:110,1,108.100002061844
325,162,61743,2,0,L|449:151,1,108.100002061844,8|0,0:0|0:0,0:0:0:0:
283,294,62076,2,0,P|210:272|196:173,1,162.150003092766,0|8,0:0|0:0,0:0:0:0:
233,119,62410,2,0,L|94:114,1,108.100002061844,8|8,0:0|0:0,0:0:0:0:
426,149,62743,6,0,L|437:260,1,108.100002061844
292,330,63076,2,0,L|424:339,1,108.100002061844,8|0,0:0|0:0,0:0:0:0:
131,326,63410,2,0,P|74:293|106:186,1,162.150003092766,0|8,0:0|0:0,0:0:0:0:
250,233,63743,2,0,L|384:232,1,108.100002061844,8|8,0:0|0:0,0:0:0:0:
194,140,64076,6,0,L|23:143,2,162.150003092766
461,157,64743,1,0,0:0:0:0:
346,156,64910,1,0,0:0:0:0:
346,156,64993,1,8,0:0:0:0:
346,156,65076,1,8,0:0:0:0:
461,157,65243,1,8,0:0:0:0:
193,75,65410,6,0,L|73:58,2,108.100002061844,4|0|8,0:2|0:0|0:0,0:0:0:0:
463,317,65910,2,0,P|447:245|317:181,1,216.200004123688
204,270,66410,2,0,L|324:253,1,108.100002061844,8|0,0:0|0:0,0:0:0:0:
52,232,66743,6,0,L|41:108,1,108.100002061844
177,122,67076,1,8,0:0:0:0:
333,191,67243,2,0,P|327:127|202:62,1,216.200004123688
37,229,67743,2,0,L|26:105,1,108.100002061844,8|0,0:0|0:0,0:0:0:0:
271,254,68076,6,0,L|399:246,1,108.100002061844
241,254,68410,2,0,L|113:246,1,108.100002061844,8|0,0:0|0:0,0:0:0:0:
382,161,68743,2,0,P|445:137|378:17,1,244.399988812256,0|8,3:0|0:0,0:0:0:0:
121,73,69243,1,4,0:2:0:0:
277,129,69576,6,0,L|288:252,1,108.100002061844,0|8,0:0|0:0,0:0:0:0:
129,206,69910,1,8,1:0:0:0:
129,206,69993,1,0,1:0:0:0:
129,206,70076,1,0,1:0:0:0:
294,281,70243,1,0,3:0:0:0:
343,260,70326,1,0,3:0:0:0:
360,208,70410,1,8,3:1:0:0:
344,156,70493,1,0,3:1:0:0:
293,136,70576,1,8,3:1:0:0:
41,144,70743,6,0,L|32:275,1,108.100002061844,4|0,0:2|0:0,0:0:0:0:
185,201,71076,2,0,L|326:195,1,108.100002061844,8|0,0:0|0:0,0:0:0:0:
151,302,71410,2,0,P|91:267|123:152,1,162.150003092766,0|8,0:0|0:0,0:0:0:0:
166,130,71743,2,0,L|29:131,1,108.100002061844,8|8,0:0|0:0,0:0:0:0:
316,47,72076,6,0,L|323:170,1,108.100002061844
168,223,72410,2,0,L|161:362,1,108.100002061844,8|0,0:0|0:0,0:0:0:0:
481,314,72743,2,0,P|465:242|348:195,1,162.150003092766,0|8,0:0|0:0,0:0:0:0:
316,161,73076,2,0,L|455:161,1,108.100002061844,8|8,0:0|0:0,0:0:0:0:
182,100,73410,6,0,L|66:95,1,108.100002061844
228,189,73743,2,0,L|357:193,1,108.100002061844,8|0,0:0|0:0,0:0:0:0:
87,321,74076,2,0,P|37:289|109:229,1,162.150003092766,0|8,0:0|0:0,0:0:0:0:
274,270,74410,2,0,L|403:274,1,108.100002061844,8|8,0:0|0:0,0:0:0:0:
74,301,74743,6,0,L|219:292,1,108.100002061844
334,234,75076,2,0,L|345:375,1,108.100002061844,8|0,0:0|0:0,0:0:0:0:
178,234,75410,2,0,L|167:375,1,108.100002061844
336,231,75743,2,0,L|344:153,3,54.050001030922,8|8|8|8,3:0|3:0|3:0|3:0,0:0:0:0:
169,85,76076,6,0,L|49:74,2,108.100002061844,4|0|8,0:2|0:0|0:0,0:0:0:0:
413,169,76576,2,0,L|189:194,1,216.200004123688
350,218,77076,2,0,L|360:332,1,108.100002061844,8|0,0:0|3:0,0:0:0:0:
61,75,77410,6,0,L|51:189,1,108.100002061844,4|0,0:2|0:0,0:0:0:0:
199,120,77743,2,0,L|337:111,1,108.100002061844,8|0,0:0|0:0,0:0:0:0:
163,331,78076,1,8,0:0:0:0:
72,271,78243,1,0,0:0:0:0:
47,165,78410,1,8,0:0:0:0:
88,65,78576,1,0,3:0:0:0:
338,70,78743,6,0,L|465:77,1,108.100002061844,4|0,0:2|0:0,0:0:0:0:
298,156,79076,2,0,P|318:245|463:290,1,216.200004123688,8|0,0:0|0:0,0:0:0:0:
290,325,79576,1,0,0:0:0:0:
158,356,79743,2,0,L|147:245,1,108.100002061844,8|0,0:0|0:0,0:0:0:0:
383,153,80076,6,0,L|493:161,1,108.100002061844,8|8,0:0|0:0,0:0:0:0:
185,79,80410,2,0,L|75:87,2,108.100002061844,8|8|8,0:0|0:0|0:0,0:0:0:0:
416,308,80910,1,8,3:0:0:0:
464,282,80993,1,8,3:0:0:0:
478,231,81076,1,8,3:0:0:0:
447,186,81159,1,8,3:0:0:0:
286,148,81243,2,0,L|209:148,1,54.050001030922,4|12,3:0|3:0,0:0:0:0:
434,90,81410,5,4,0:2:0:0:
212,99,85410,6,0,L|45:88,2,141,0|0|0,3:0|3:0|3:0,0:0:0:0:
368,61,86076,1,0,3:0:0:0:
409,81,86159,1,0,3:0:0:0:
441,115,86242,1,0,3:0:0:0:
458,159,86325,1,0,3:0:0:0:
457,206,86409,1,0,0:0:0:0:
440,249,86492,1,0,3:0:0:0:
408,283,86575,1,0,3:0:0:0:
365,303,86659,1,0,3:0:0:0:
197,206,86743,5,8,0:0:0:0:
55,204,86910,1,8,0:0:0:0:
332,126,87243,1,8,3:0:0:0:
332,126,87327,1,8,3:0:0:0:
332,126,87410,1,8,0:0:0:0:
172,124,87576,2,0,L|156:251,1,94,8|8,0:0|3:0,0:0:0:0:
448,206,87910,5,4,0:2:0:0:
249,261,88243,2,0,L|239:154,1,94
102,183,88585,2,0,L|112:76,1,94,8|8,3:0|3:0,0:0:0:0:
258,142,88928,1,8,3:0:0:0:
379,143,89096,1,0,3:0:0:0:
258,142,89265,1,0,3:0:0:0:
24,142,89424,5,4,0:2:0:0:
256,192,89590,12,0,91757,0:0:0:0:
310,268,92090,6,0,P|363:232|282:149,1,188,4|0,1:2|0:0,0:0:0:0:
169,145,92590,1,0,3:0:0:0:
402,50,92757,2,0,L|507:55,2,94,8|0|0,1:0|0:0|0:0,0:0:0:0:
156,218,93257,6,0,P|103:182|174:75,1,206.800006311035,4|0,0:2|3:0,0:0:0:0:
348,159,93924,2,0,L|414:160,2,47,0|0|8,3:0|3:0|0:0,0:0:0:0:
204,211,94257,2,0,L|198:104,1,94,0|8,0:0|0:0,0:0:0:0:
356,121,94590,1,8,0:0:0:0:
119,271,94757,6,0,P|48:235|64:115,1,188,4|0,1:2|0:0,0:0:0:0:
165,136,95257,1,0,3:0:0:0:
322,137,95424,2,0,L|326:258,1,94,8|0,0:0|0:0,0:0:0:0:
165,235,95757,1,0,0:0:0:0:
419,283,95924,6,0,L|219:280,1,188,4|8,0:2|3:3,0:0:0:0:
68,260,96424,2,0,L|56:366,1,94,4|0,3:0|3:0,0:0:0:0:
214,347,96757,1,8,0:0:0:0:
43,313,96923,1,0,3:0:0:0:
39,266,97006,1,0,0:0:0:0:
54,222,97089,1,0,3:0:0:0:
85,187,97172,1,0,3:0:0:0:
132,167,97256,1,0,3:0:0:0:
184,167,97339,1,0,3:0:0:0:
352,75,97423,6,0,L|456:86,1,94,4|0,0:2|3:0,0:0:0:0:
300,156,97757,2,0,L|306:276,1,94,8|0,0:0|0:0,0:0:0:0:
167,308,98090,1,8,0:0:0:0:
85,260,98257,1,0,0:0:0:0:
60,169,98423,1,8,0:0:0:0:
99,83,98590,1,0,0:0:0:0:
382,78,98757,6,0,L|272:74,1,94,8|0,0:0|0:0,0:0:0:0:
145,120,99090,2,0,L|142:248,1,94,8|0,0:0|3:0,0:0:0:0:
429,239,99423,2,0,L|315:231,1,94,8|8,0:0|0:0,0:0:0:0:
83,239,99757,2,0,L|197:231,1,94,8|8,0:0|0:0,0:0:0:0:
468,342,100090,6,0,P|449:256|331:216,1,188,4|0,0:2|3:0,0:0:0:0:
235,173,100590,1,0,1:0:0:0:
378,130,100757,2,0,L|481:132,1,94,8|0,0:0|0:0,0:0:0:0:
320,201,101090,2,0,L|311:316,1,94,8|8,3:0|3:0,0:0:0:0:
61,290,101423,6,0,L|173:275,1,94,4|8,0:2|0:0,0:0:0:0:
288,307,101757,1,0,0:0:0:0:
36,205,101923,2,0,L|29:94,1,94,8|0,0:0|0:0,0:0:0:0:
171,144,102257,1,8,0:0:0:0:
217,138,102340,1,0,0:0:0:0:
263,133,102423,1,8,0:0:0:0:
393,256,102590,2,0,L|262:241,1,94,4|0,3:0|0:0,0:0:0:0:
32,303,102923,1,0,0:0:0:0:
355,309,103423,6,0,L|144:311,1,188,4|0,0:2|3:0,0:0:0:0:
311,219,103923,2,0,P|371:160|288:103,1,188,0|0,1:0|3:0,0:0:0:0:
45,139,104423,1,0,3:0:0:0:
256,139,104757,1,8,1:0:0:0:
222,140,105423,5,0,1:0:0:0:
467,139,105590,1,0,1:0:0:0:
157,309,106090,6,0,L|368:311,1,188,4|0,0:2|3:0,0:0:0:0:
201,219,106590,2,0,P|141:160|224:103,1,188,0|0,1:0|1:0,0:0:0:0:
467,139,107090,1,0,1:0:0:0:
247,228,107423,6,0,P|260:174|392:135,1,188,8|8,0:0|0:0,0:0:0:0:
222,66,107840,2,0,L|153:66,2,54.050001030922,0|0|0,3:0|3:0|3:0,0:0:0:0:
401,248,108090,6,0,P|465:220|384:147,1,206.800006311035,4|8,0:2|0:0,0:0:0:0:
158,183,108590,2,0,L|137:297,1,94
294,278,108923,2,0,L|405:276,1,94,0|8,0:0|0:0,0:0:0:0:
97,249,109257,6,0,P|36:212|114:148,1,188,0|0,3:0|3:0,0:0:0:0:
351,57,109757,2,0,L|359:176,1,94,8|0,0:0|0:0,0:0:0:0:
215,212,110090,2,0,L|323:224,1,94
458,275,110423,2,0,L|350:287,1,94,8|0,0:0|0:0,0:0:0:0:
216,243,110757,5,4,0:2:0:0:
461,182,110923,1,0,0:0:0:0:
294,179,111257,1,0,0:0:0:0:
144,137,111423,2,0,L|130:256,1,94,8|0,0:0|0:0,0:0:0:0:
306,271,111757,2,0,L|407:271,1,94,8|0,0:0|0:0,0:0:0:0:
274,233,112090,5,4,0:2:0:0:
31,233,112257,1,0,0:0:0:0:
199,325,112590,2,0,L|309:320,1,94,8|0,0:0|0:0,0:0:0:0:
456,340,112923,1,0,3:0:0:0:
281,277,113090,2,0,L|264:192,3,47,8|0|0|0,0:0|3:0|3:0|3:0,0:0:0:0:
110,224,113423,6,0,P|63:192|130:101,1,188,4|8,0:2|0:0,0:0:0:0:
245,108,113923,1,0,0:0:0:0:
100,124,114090,2,0,L|83:244,1,94
253,244,114423,2,0,L|135:246,1,94,8|0,0:0|0:0,0:0:0:0:
462,331,114757,6,0,P|447:269|329:212,1,188,0|8,0:0|0:0,0:0:0:0:
202,207,115257,1,0,0:0:0:0:
355,140,115423,2,0,L|355:312,1,141
276,318,115757,2,0,L|167:317,1,94,8|0,0:0|0:0,0:0:0:0:
469,217,116090,5,8,0:0:0:0:
346,214,116257,1,0,0:0:0:0:
224,212,116423,1,8,0:0:0:0:
353,212,116590,1,0,0:0:0:0:
214,209,116757,1,8,0:0:0:0:
205,109,116923,1,0,0:0:0:0:
451,136,117090,1,8,0:0:0:0:
325,135,117256,1,0,0:0:0:0:
48,180,117423,6,0,L|274:183,2,206.800006311035,8|8|8,0:0|0:0|0:0,0:0:0:0:
309,300,118257,1,8,0:0:0:0:
358,289,118340,1,0,3:0:0:0:
390,250,118423,1,0,3:0:0:0:
389,199,118506,1,0,3:0:0:0:
357,161,118590,1,0,3:0:0:0:
307,151,118673,1,0,3:0:0:0:
122,217,118757,6,0,L|110:81,1,103.400003155518,4|0,0:2|3:0,0:0:0:0:
248,110,119090,1,8,0:0:0:0:
403,114,119257,2,0,P|458:149|380:245,1,206.800006311035,0|8,0:0|0:0,0:0:0:0:
280,250,119757,1,0,0:0:0:0:
35,290,119923,6,0,L|24:67,1,206.800006311035,4|0,0:2|0:0,0:0:0:0:
171,56,120423,2,0,L|177:173,1,103.400003155518,8|0,0:0|0:0,0:0:0:0:
31,227,120757,2,0,L|163:228,1,103.400003155518
422,232,121090,1,8,0:0:0:0:
205,326,121423,6,0,P|125:291|192:110,1,310.200009466553,4|0,0:2|0:0,0:0:0:0:
322,113,122090,2,0,L|331:223,1,103.400003155518
177,217,122423,1,8,0:0:0:0:
444,338,122590,6,0,L|451:207,1,103.400003155518,4|0,0:2|0:0,0:0:0:0:
185,326,122923,2,0,P|124:273|215:192,1,206.800006311035,8|0,3:0|3:0,0:0:0:0:
318,129,123423,2,0,L|328:241,1,103.400003155518,0|0,3:0|3:0,0:0:0:0:
187,271,123757,2,0,L|76:265,1,75.2,0|0,3:0|3:0,0:0:0:0:
420,283,124090,6,0,P|476:251|403:106,2,253.799992254639,4|2|2,0:2|0:0|0:0,0:0:0:0:
288,284,125257,1,2,0:0:0:0:
458,354,125923,2,0,L|459:167,1,169.199994836426,2|0,0:0|0:0,0:0:0:0:
329,227,126423,2,0,L|223:226,1,84.599997418213,2|0,0:0|0:0,0:0:0:0:
92,283,126757,6,0,P|36:251|109:106,2,253.799992254639,2|2|2,0:0|0:0|0:0,0:0:0:0:
224,284,127924,1,2,0:0:0:0:
467,286,128257,1,0,0:0:0:0:
224,284,128590,2,0,P|155:253|183:158,1,169.199994836426,2|2,0:0|0:0,0:0:0:0:
306,132,129090,2,0,L|413:125,1,84.599997418213
163,290,129423,5,0,0:0:0:0:
350,306,129756,1,0,0:0:0:0:
163,290,130090,1,0,0:0:0:0:
350,306,130423,1,0,0:0:0:0:
125,311,130757,1,0,0:0:0:0:
387,311,131090,1,0,0:0:0:0:
103,330,131423,1,0,0:0:0:0:
408,330,131757,1,0,0:0:0:0:
103,330,132090,5,4,0:2:0:0:
259,326,132340,1,8,0:0:0:0:
103,330,132590,1,8,0:0:0:0:
409,330,132757,1,4,0:2:0:0:
253,326,133007,1,8,0:0:0:0:
409,330,133257,1,8,0:0:0:0:
176,307,133423,6,0,P|97:278|129:173,1,188,4|8,0:2|0:0,0:0:0:0:
219,158,133923,1,8,0:0:0:0:
359,201,134090,2,0,L|365:321,1,94,8|8,0:0|0:0,0:0:0:0:
190,261,134423,2,0,L|184:381,1,94,8|8,0:0|0:0,0:0:0:0:
477,206,134757,5,4,0:2:0:0:
328,205,134923,1,0,3:0:0:0:
328,205,135007,1,0,3:0:0:0:
328,205,135090,1,8,0:0:0:0:
477,206,135257,1,0,3:0:0:0:
173,203,135423,1,0,3:0:0:0:
173,203,135507,1,0,3:0:0:0:
173,203,135590,1,8,0:0:0:0:
454,205,135757,2,0,L|453:81,1,103.400003155518,8|4,1:0|3:0,0:0:0:0:
387,102,136007,1,0,3:0:0:0:
218,267,136090,6,0,L|94:256,1,108.100002061844,4|0,0:2|0:0,0:0:0:0:
259,186,136424,2,0,L|383:175,1,108.100002061844,8|0,0:0|0:0,0:0:0:0:
55,222,136757,2,0,P|70:145|159:100,1,162.150003092766,0|8,0:0|0:0,0:0:0:0:
212,67,137090,2,0,L|88:56,1,108.100002061844,8|8,0:0|0:0,0:0:0:0:
343,222,137424,6,0,L|499:210,1,108.100002061844
308,144,137757,2,0,L|184:133,1,108.100002061844,8|0,0:0|0:0,0:0:0:0:
330,336,138090,2,0,P|403:314|417:215,1,162.150003092766,0|8,0:0|0:0,0:0:0:0:
357,180,138424,2,0,L|496:175,1,108.100002061844,8|8,0:0|0:0,0:0:0:0:
227,71,138757,6,0,L|92:81,1,108.100002061844
271,155,139090,2,0,L|289:27,1,108.100002061844,8|0,0:0|0:0,0:0:0:0:
131,326,139424,2,0,P|74:293|106:186,1,162.150003092766,0|8,0:0|0:0,0:0:0:0:
263,255,139757,2,0,L|372:256,1,108.100002061844,8|8,0:0|0:0,0:0:0:0:
77,122,140090,6,0,L|248:125,2,162.150003092766
212,73,140757,1,0,0:0:0:0:
360,22,140924,1,0,0:0:0:0:
360,22,141007,1,0,0:0:0:0:
360,22,141090,1,8,0:0:0:0:
207,16,141257,1,0,0:0:0:0:
470,245,141424,6,0,L|487:120,1,108.100002061844,4|0,0:2|0:0,0:0:0:0:
360,109,141757,1,8,0:0:0:0:
49,317,141924,2,0,P|65:245|195:181,1,216.200004123688
308,270,142424,2,0,L|188:253,1,108.100002061844,8|0,0:0|0:0,0:0:0:0:
460,232,142757,6,0,L|471:108,1,108.100002061844
319,123,143090,1,8,0:0:0:0:
476,74,143257,2,0,L|251:54,1,216.200004123688
404,123,143757,2,0,L|415:-1,1,108.100002061844,8|0,0:0|0:0,0:0:0:0:
169,294,144090,6,0,L|41:286,1,108.100002061844
197,203,144424,2,0,L|325:195,1,108.100002061844,8|0,0:0|0:0,0:0:0:0:
126,184,144757,2,0,P|63:160|140:74,1,216.200004123688,8|8,0:0|0:0,0:0:0:0:
412,39,145257,1,4,0:2:0:0:
235,129,145590,6,0,L|364:127,1,108.100002061844,0|8,3:0|0:0,0:0:0:0:
222,241,145923,1,0,0:0:0:0:
171,208,146007,1,0,0:0:0:0:
147,153,146090,1,0,3:0:0:0:
169,98,146173,1,0,3:0:0:0:
224,76,146257,1,8,1:0:0:0:
384,145,146423,2,0,L|388:215,3,54.050001030922,8|0|0|0,0:0|0:0|3:0|3:0,0:0:0:0:
212,300,146757,6,0,L|96:291,1,108.100002061844,4|0,0:2|0:0,0:0:0:0:
255,220,147090,2,0,L|363:224,1,108.100002061844,8|0,0:0|0:0,0:0:0:0:
117,308,147424,2,0,P|57:273|89:158,1,162.150003092766,0|8,0:0|0:0,0:0:0:0:
132,136,147757,2,0,L|-5:137,1,108.100002061844,8|8,0:0|0:0,0:0:0:0:
304,74,148090,6,0,L|297:197,1,108.100002061844
442,207,148424,2,0,L|449:346,1,108.100002061844,8|0,0:0|0:0,0:0:0:0:
114,348,148757,2,0,P|130:276|247:229,1,162.150003092766,0|8,0:0|0:0,0:0:0:0:
279,195,149090,2,0,L|140:195,1,108.100002061844,8|8,0:0|0:0,0:0:0:0:
475,270,149424,6,0,L|493:147,1,108.100002061844
324,98,149757,2,0,L|433:95,1,108.100002061844,8|0,0:0|0:0,0:0:0:0:
152,263,150090,2,0,P|102:231|174:171,1,162.150003092766,0|8,0:0|0:0,0:0:0:0:
327,204,150424,2,0,L|436:201,1,108.100002061844,8|8,0:0|0:0,0:0:0:0:
135,351,150757,6,0,L|-10:342,1,108.100002061844
177,340,151090,2,0,L|186:233,1,108.100002061844,8|0,0:0|0:0,0:0:0:0:
27,248,151424,2,0,L|19:141,1,108.100002061844,0|8,0:0|0:0,0:0:0:0:
76,125,151673,1,0,0:0:0:0:
241,56,151757,2,0,L|244:138,1,54.050001030922
94,206,151923,2,0,L|28:203,1,54.050001030922,8|0,3:1|3:0,0:0:0:0:
236,249,152090,6,0,L|356:238,2,108.100002061844,4|0|8,0:2|0:0|0:0,0:0:0:0:
86,170,152590,2,0,L|310:195,1,216.200004123688
150,219,153090,2,0,L|140:333,1,108.100002061844,8|0,0:0|0:0,0:0:0:0:
451,75,153424,6,0,L|461:189,1,108.100002061844
313,120,153757,2,0,L|175:111,1,108.100002061844,8|0,0:0|0:0,0:0:0:0:
349,331,154090,1,0,0:0:0:0:
440,271,154257,1,0,0:0:0:0:
465,165,154424,1,8,0:0:0:0:
424,65,154590,1,0,0:0:0:0:
174,70,154757,6,0,L|47:77,1,108.100002061844,8|0,0:0|0:0,0:0:0:0:
214,156,155090,2,0,P|194:245|49:290,1,216.200004123688,8|8,0:0|0:0,0:0:0:0:
222,325,155590,1,0,0:0:0:0:
354,356,155757,2,0,L|365:245,1,108.100002061844,8|0,0:0|0:0,0:0:0:0:
85,182,156090,5,8,0:0:0:0:
212,180,156257,1,8,0:0:0:0:
492,118,156423,1,8,0:0:0:0:
365,116,156590,1,0,0:0:0:0:
103,98,156757,1,4,3:0:0:0:
34,102,156868,1,0,3:0:0:0:
103,98,156979,1,0,3:0:0:0:
321,218,157090,1,4,3:0:0:0:
390,222,157201,1,0,3:0:0:0:
321,218,157312,1,0,3:0:0:0:
132,222,157423,6,0,L|116:324,1,94,4|0,0:2|3:0,0:0:0:0:
258,292,157757,2,0,L|355:290,1,94,0|0,3:0|3:0,0:0:0:0:
213,214,158090,2,0,L|98:215,2,94,8|0|0,0:0|3:0|3:0,0:0:0:0:
461,216,158590,6,0,P|446:148|340:100,1,188,0|0,3:0|3:0,0:0:0:0:
211,124,159090,2,0,L|206:232,1,94,0|0,3:0|3:0,0:0:0:0:
349,215,159423,2,0,L|354:326,1,94,8|0,0:0|3:0,0:0:0:0:
108,214,159757,1,8,3:1:0:0:
353,328,160090,6,0,L|462:330,1,94,4|0,0:2|3:0,0:0:0:0:
326,249,160423,2,0,L|321:150,1,94,0|0,3:0|3:0,0:0:0:0:
460,114,160757,1,8,0:0:0:0:
357,113,160923,1,0,3:0:0:0:
253,112,161090,1,0,3:0:0:0:
20,266,161257,6,0,L|231:268,1,188,4|8,3:2|3:3,0:0:0:0:
348,324,161757,2,0,L|224:320,1,94,8|0,3:3|3:0,0:0:0:0:
129,215,162090,2,0,L|237:211,1,94,8|0,0:0|3:0,0:0:0:0:
373,242,162423,2,0,L|481:238,1,94,2|0,3:3|3:0,0:0:0:0:
134,309,162757,6,0,L|129:193,1,94,4|0,0:2|3:0,0:0:0:0:
263,241,163090,2,0,L|383:239,1,94,0|0,3:0|3:0,0:0:0:0:
209,149,163423,2,0,L|89:147,2,94,8|0|0,0:0|3:0|3:0,0:0:0:0:
472,235,163923,6,0,L|480:29,1,188,0|0,3:0|3:0,0:0:0:0:
340,106,164423,2,0,L|220:104,1,94,0|0,3:0|3:0,0:0:0:0:
377,186,164757,2,0,L|383:285,1,94,8|0,0:0|3:0,0:0:0:0:
115,280,165090,1,8,3:1:0:0:
353,349,165423,6,0,L|459:346,1,94,4|0,0:2|3:0,0:0:0:0:
319,298,165757,2,0,L|315:177,1,94,0|0,3:0|3:0,0:0:0:0:
159,349,166090,2,0,L|53:346,2,94,8|0|0,0:0|3:0|3:0,0:0:0:0:
414,226,166590,6,0,P|470:181|403:102,1,188,4|8,3:2|3:3,0:0:0:0:
280,154,167090,2,0,L|276:278,1,94,0|0,3:3|3:0,0:0:0:0:
410,304,167423,2,0,L|306:304,1,94,8|8,0:0|3:3,0:0:0:0:
181,367,167757,2,0,L|285:367,1,94,4|4,3:3|3:3,0:0:0:0:
33,261,168090,5,8,0:0:0:0:
154,262,168257,1,0,3:0:0:0:
33,261,168423,1,8,0:0:0:0:
154,262,168590,1,0,3:0:0:0:
410,179,168757,1,8,0:0:0:0:
289,178,168923,1,0,3:0:0:0:
410,179,169090,1,8,0:0:0:0:
36,111,169257,1,8,0:0:0:0:
244,348,169590,5,2,0:2:0:0:
338,305,169757,1,2,0:2:0:0:
365,205,169923,1,0,3:0:0:0:
338,104,170090,1,2,0:2:0:0:
249,50,170257,1,0,3:0:0:0:
108,105,170423,2,0,L|101:205,1,94,2|0,0:2|3:0,0:0:0:0:
234,195,170757,5,8,0:0:0:0:
483,192,170923,1,8,0:0:0:0:
256,193,171257,1,8,0:0:0:0:
51,213,171590,2,0,L|171:213,1,94,8|8,0:0|0:0,0:0:0:0:
402,210,171923,1,8,0:0:0:0:
196,115,172257,5,0,3:0:0:0:
90,118,172423,1,0,3:0:0:0:
202,113,172590,1,0,3:0:0:0:
469,194,172743,1,0,3:0:0:0:
357,189,172905,1,0,3:0:0:0:
66,275,173067,1,0,3:0:0:0:
178,270,173229,1,0,3:0:0:0:
443,298,173409,5,4,1:2:0:0:
256,192,173575,12,4,178742,0:2:0:0:
170,111,184075,5,0,3:0:0:0:
383,113,184409,1,0,3:0:0:0:
157,111,184742,1,0,3:0:0:0:
396,113,185076,1,0,3:0:0:0:
144,111,185409,1,0,3:0:0:0:
410,113,185743,1,0,3:0:0:0:
128,111,186075,1,0,3:0:0:0:
426,114,186409,2,0,L|307:112,1,94,0|0,3:0|3:0,0:0:0:0:
96,214,186742,6,0,L|266:214,2,141,4|0|0,3:0|3:0|3:0,0:0:0:0:
428,260,187409,2,0,L|256:262,2,169.199994836426,4|0|4,3:0|3:0|3:0,0:0:0:0:
150,274,188075,6,0,P|88:234|168:187,1,188,4|0,0:2|3:0,0:0:0:0:
297,179,188575,1,0,3:0:0:0:
155,202,188742,2,0,L|155:74,1,94,8|0,1:0|3:0,0:0:0:0:
302,100,189075,1,0,3:0:0:0:
35,101,189242,1,4,1:2:0:0:
199,292,189575,6,0,L|299:291,1,94,0|0,3:0|3:0,0:0:0:0:
428,214,189908,1,0,3:0:0:0:
200,195,190075,2,0,P|148:146|225:54,1,188,8|8,0:0|0:0,0:0:0:0:
333,53,190575,1,8,0:3:0:0:
26,278,190742,5,4,0:2:0:0:
256,192,190908,12,0,191908,0:0:0:0:
256,191,192075,5,2,0:0:0:0:
256,191,192742,1,2,0:0:0:0:
406,86,193742,2,0,L|418:164,3,56.3999982788086,2|0|2|0,3:2|3:0|3:2|3:0,0:0:0:0:
231,117,194077,6,0,L|114:106,1,108.100002061844
286,206,194410,2,0,L|409:196,1,108.100002061844,8|0,0:0|0:0,0:0:0:0:
100,349,194743,2,0,P|111:280|233:239,1,162.150003092766,0|8,0:0|0:0,0:0:0:0:
265,224,195077,2,0,L|116:209,1,108.100002061844,8|8,0:0|0:0,0:0:0:0:
438,69,195410,6,0,L|453:191,1,108.100002061844
301,164,195743,2,0,L|286:286,1,108.100002061844,8|0,0:0|0:0,0:0:0:0:
153,169,196077,2,0,P|175:109|272:70,1,162.150003092766,0|8,0:0|0:0,0:0:0:0:
345,51,196410,2,0,L|357:180,1,108.100002061844,8|8,0:0|0:0,0:0:0:0:
65,311,196743,6,0,L|174:296,1,108.100002061844
306,212,197077,2,0,L|197:197,1,108.100002061844,8|0,0:0|0:0,0:0:0:0:
469,239,197410,2,0,P|449:168|342:124,1,162.150003092766,0|8,0:0|0:0,0:0:0:0:
172,223,197743,2,0,L|305:212,1,108.100002061844,8|8,0:0|0:0,0:0:0:0:
36,176,198077,6,0,L|207:179,2,162.150003092766
171,127,198744,1,0,0:0:0:0:
319,76,198911,1,0,0:0:0:0:
319,76,198994,1,0,0:0:0:0:
319,76,199077,1,8,0:0:0:0:
166,70,199244,1,0,3:0:0:0:
445,134,199410,6,0,L|452:244,1,108.100002061844,4|0,0:2|0:0,0:0:0:0:
327,250,199743,1,8,0:0:0:0:
92,185,199910,2,0,L|319:211,1,216.200004123688
169,258,200410,2,0,L|51:265,1,108.100002061844,8|0,0:0|0:0,0:0:0:0:
318,90,200743,6,0,L|436:97,2,108.100002061844,0|0|8,0:0|3:0|0:0,0:0:0:0:
167,198,201243,2,0,P|116:144|225:61,1,216.200004123688
335,103,201743,2,0,L|349:226,1,108.100002061844,8|0,0:0|0:0,0:0:0:0:
49,279,202077,5,0,0:0:0:0:
178,280,202243,1,0,0:0:0:0:
49,279,202410,1,8,0:0:0:0:
178,280,202577,1,0,0:0:0:0:
333,284,202743,2,0,P|389:246|311:136,1,216.200004123688,8|8,3:0|1:0,0:0:0:0:
68,142,203243,6,0,L|58:264,1,108.100002061844,4|0,0:2|0:0,0:0:0:0:
190,226,203577,1,0,0:0:0:0:
59,249,203743,1,8,0:0:0:0:
190,226,203910,1,0,0:0:0:0:
460,270,204077,2,0,L|468:200,2,54.050001030922,0|0|8,3:0|3:0|0:0,0:0:0:0:
323,233,204410,2,0,L|253:233,1,54.050001030922,0|0,3:1|3:0,0:0:0:0:
424,354,204577,2,0,L|494:354,1,54.050001030922,8|8,3:1|3:1,0:0:0:0:
275,328,204743,6,0,L|136:328,1,108.100002061844,4|0,0:2|0:0,0:0:0:0:
42,230,205077,2,0,L|181:230,1,108.100002061844,8|0,0:0|0:0,0:0:0:0:
298,204,205410,2,0,P|276:135|154:90,1,162.150003092766,0|8,0:0|0:0,0:0:0:0:
128,122,205743,2,0,L|271:119,1,108.100002061844,8|8,0:0|0:0,0:0:0:0:
486,87,206077,6,0,L|491:212,1,108.100002061844
348,197,206410,2,0,L|343:322,1,108.100002061844,8|0,0:0|0:0,0:0:0:0:
39,247,206743,2,0,L|208:230,1,162.150003092766,0|8,0:0|0:0,0:0:0:0:
293,190,207077,2,0,L|164:174,1,108.100002061844,8|8,0:0|0:0,0:0:0:0:
465,50,207410,6,0,L|473:196,1,108.100002061844
311,209,207743,2,0,L|452:216,1,108.100002061844,8|0,0:0|0:0,0:0:0:0:
51,202,208077,2,0,P|67:128|184:101,1,162.150003092766,0|8,0:0|0:0,0:0:0:0:
322,135,208410,2,0,L|446:135,1,108.100002061844,8|8,0:0|0:0,0:0:0:0:
59,307,208743,6,0,L|53:184,1,108.100002061844
200,251,209076,2,0,L|324:243,1,108.100002061844,8|0,0:0|0:0,0:0:0:0:
457,306,209410,2,0,L|463:183,1,108.100002061844
325,128,209743,1,8,0:0:0:0:
383,135,209826,1,0,3:0:0:0:
442,142,209910,1,8,3:0:0:0:
153,234,210076,6,0,L|148:111,1,108.100002061844,4|0,0:2|0:0,0:0:0:0:
280,133,210410,2,0,L|285:10,1,108.100002061844,8|0,0:0|0:0,0:0:0:0:
142,272,210743,2,0,L|256:264,1,108.100002061844,8|0,0:0|0:0,0:0:0:0:
396,200,211076,2,0,L|282:192,1,108.100002061844,8|0,0:0|0:0,0:0:0:0:
50,343,211410,6,0,L|192:336,1,108.100002061844,4|0,0:2|0:0,0:0:0:0:
29,253,211743,2,0,L|171:246,1,108.100002061844,8|0,0:0|0:0,0:0:0:0:
294,171,212076,2,0,L|303:297,1,108.100002061844,8|0,0:0|0:0,0:0:0:0:
127,268,212410,2,0,L|19:273,1,108.100002061844,8|0,0:0|0:0,0:0:0:0:
262,121,212743,6,0,L|397:139,1,108.100002061844,4|0,0:2|0:0,0:0:0:0:
218,197,213076,2,0,L|63:206,1,108.100002061844,8|0,0:0|0:0,0:0:0:0:
245,313,213410,2,0,L|251:186,1,108.100002061844,8|0,0:0|0:0,0:0:0:0:
119,187,213743,1,8,0:0:0:0:
248,156,213910,1,0,0:0:0:0:
482,223,214076,6,0,L|359:210,1,108.100002061844,8|8,0:0|0:0,0:0:0:0:
126,296,214410,1,8,0:0:0:0:
377,212,214576,1,8,0:0:0:0:
178,273,214910,1,0,1:0:0:0:
411,265,215076,2,0,L|473:262,2,54.050001030922,8|8|8,0:0|0:0|0:0,0:0:0:0:
183,177,215576,2,0,L|288:166,1,54.050001030922,0|0,3:0|3:0,0:0:0:0:
448,94,215743,6,0,L|460:221,1,112.799996557617,4|0,0:2|0:0,0:0:0:0:
301,192,216076,2,0,L|139:181,1,112.799996557617,8|0,0:0|0:0,0:0:0:0:
339,313,216410,2,0,L|501:302,1,112.799996557617,8|0,0:0|0:0,0:0:0:0:
140,352,216743,6,0,L|131:214,1,112.799996557617,8|0,0:0|0:0,0:0:0:0:
431,205,217076,2,0,L|276:186,1,112.799996557617,8|0,0:0|0:0,0:0:0:0:
178,243,217410,2,0,L|170:112,1,112.799996557617,8|0,0:0|0:0,0:0:0:0:
232,115,217660,1,0,0:0:0:0:
319,116,217743,2,0,L|430:129,1,112.799996557617,8|0,0:0|0:0,0:0:0:0:
125,181,218076,6,0,L|115:320,1,112.799996557617,8|0,0:0|0:0,0:0:0:0:
280,230,218410,2,0,L|141:243,1,112.799996557617,8|0,0:0|0:0,0:0:0:0:
484,136,218743,2,0,L|350:121,1,112.799996557617,8|0,0:0|0:0,0:0:0:0:
134,273,219076,2,0,L|0:258,1,112.799996557617,8|0,0:0|0:0,0:0:0:0:
279,64,219410,6,0,L|288:223,1,112.799996557617,8|0,0:0|0:0,0:0:0:0:
139,174,219743,2,0,L|130:333,1,112.799996557617,8|0,0:0|0:0,0:0:0:0:
297,267,220076,2,0,L|179:266,1,112.799996557617,8|0,0:0|0:0,0:0:0:0:
335,349,220410,1,8,0:0:0:0:
396,343,220493,1,0,3:0:0:0:
457,337,220576,1,0,3:0:0:0:
214,287,220743,6,0,P|155:252|255:146,1,225.599993115235,4|8,0:2|0:0,0:0:0:0:
441,55,221243,2,0,L|452:172,1,112.799996557617,0|8,0:0|0:0,0:0:0:0:
325,172,221576,1,0,0:0:0:0:
88,248,221743,2,0,L|221:261,1,112.799996557617,8|0,0:0|0:0,0:0:0:0:
470,211,222076,6,0,L|477:343,1,112.799996557617,8|0,0:0|0:0,0:0:0:0:
348,300,222410,1,8,0:0:0:0:
206,311,222576,2,0,L|118:321,2,56.3999982788086,0|0|8,0:0|0:0|0:0,0:0:0:0:
342,214,222910,1,0,0:0:0:0:
403,223,222993,1,0,0:0:0:0:
463,233,223076,1,8,0:0:0:0:
326,304,223243,1,0,0:0:0:0:
42,256,223410,6,0,L|31:114,1,112.799996557617,8|0,0:0|0:0,0:0:0:0:
183,177,223743,2,0,L|194:35,1,112.799996557617,8|0,0:0|0:0,0:0:0:0:
363,109,224076,2,0,L|227:100,2,112.799996557617,8|0|0,0:0|3:0|3:0,0:0:0:0:
75,310,224576,6,0,L|64:168,1,112.799996557617,4|0,0:2|0:0,0:0:0:0:
235,171,224910,2,0,L|105:160,1,112.799996557617,0|8,3:0|0:0,0:0:0:0:
257,275,225243,2,0,L|338:264,1,56.3999982788086,0|0,3:0|3:0,0:0:0:0:
116,247,225410,2,0,L|113:116,1,112.799996557617,2|2,0:0|0:0,0:0:0:0:
173,118,225660,1,0,0:0:0:0:
332,177,225743,2,0,L|411:174,1,56.3999982788086,8|0,0:0|3:0,0:0:0:0:
207,46,225910,2,0,L|128:43,1,56.3999982788086,0|0,3:0|3:0,0:0:0:0:
339,316,226076,6,0,P|411:283|380:167,1,169.199994836426,4|8,1:2|1:0,0:0:0:0:
348,159,226410,2,0,L|473:154,1,112.799996557617,8|8,0:0|0:0,0:0:0:0:
170,200,226743,2,0,P|183:127|272:72,1,169.199994836426,0|8,0:0|0:0,0:0:0:0:
339,100,227076,2,0,L|464:95,1,112.799996557617,8|8,0:0|0:0,0:0:0:0:
81,342,227410,6,0,P|53:233|94:177,1,169.199994836426,0|8,0:0|0:0,0:0:0:0:
155,132,227743,2,0,L|5:128,1,112.799996557617,8|8,0:0|0:0,0:0:0:0:
317,83,228076,2,0,L|323:221,1,112.799996557617
251,219,228326,1,8,0:0:0:0:
173,184,228410,2,0,L|23:180,1,112.799996557617,8|8,0:0|0:0,0:0:0:0:
351,363,228743,6,0,P|404:330|343:263,1,169.199994836426,4|0,0:2|0:0,0:0:0:0:
124,279,229076,2,0,L|264:282,1,112.799996557617,8|0,0:0|0:0,0:0:0:0:
476,203,229410,2,0,P|465:136|352:83,1,169.199994836426,0|8,0:0|0:0,0:0:0:0:
194,129,229743,2,0,L|72:119,1,112.799996557617,8|8,0:0|0:0,0:0:0:0:
396,48,230076,6,0,P|460:87|481:184,1,169.199994836426,4|8,0:2|0:0,0:0:0:0:
399,193,230410,2,0,L|276:211,1,112.799996557617,8|8,0:0|0:0,0:0:0:0:
154,163,230743,1,8,3:0:0:0:
316,238,230910,2,0,L|323:307,2,56.3999982788086,0|0|8,0:0|0:0|3:1,0:0:0:0:
169,174,231243,1,0,3:0:0:0:
465,114,231410,6,0,L|346:94,1,112.799996557617,4|0,0:2|3:0,0:0:0:0:
198,193,231743,2,0,L|317:173,1,112.799996557617,0|0,3:0|3:0,0:0:0:0:
485,205,232076,2,0,L|366:185,1,112.799996557617,0|0,3:0|3:0,0:0:0:0:
218,284,232409,2,0,L|337:264,1,112.799996557617,0|0,3:0|3:0,0:0:0:0:
42,103,232743,6,0,L|44:255,1,112.799996557617,4|8,0:2|0:0,0:0:0:0:
191,162,233076,2,0,L|193:314,1,112.799996557617,8|8,0:0|0:0,0:0:0:0:
21,152,233410,2,0,L|23:304,1,112.799996557617,8|8,0:0|0:0,0:0:0:0:
314,85,233743,2,0,L|407:85,2,56.3999982788086,8|0|8,0:0|0:0|0:0,0:0:0:0:
42,361,234076,6,0,L|40:217,1,112.799996557617,4|4,0:2|3:0,0:0:0:0:
188,217,234410,1,8,3:0:0:0:
452,154,234576,2,0,L|309:129,2,112.799996557617,4|4|8,1:2|3:0|3:0,0:0:0:0:
202,65,235076,2,0,L|55:78,1,112.799996557617,4|0,1:2|3:0,0:0:0:0:
392,257,235410,6,0,L|121:281,1,225.599993115235,4|8,1:2|0:0,0:0:0:0:
309,315,235910,1,8,0:0:0:0:
63,237,236076,2,0,L|-5:244,2,56.3999982788086,8|0|8,0:0|0:0|0:0,0:0:0:0:
310,214,236410,2,0,L|390:221,1,56.3999982788086,8|8,0:0|0:0,0:0:0:0:
162,104,236576,2,0,L|79:113,1,56.3999982788086,8|8,0:0|0:0,0:0:0:0:
319,58,236743,1,4,0:2:0:0:
445,264,240910,6,0,P|426:195|294:121,1,206.800006311035,4|0,3:0|3:0,0:0:0:0:
260,121,241326,1,0,3:0:0:0:
318,122,241410,1,8,0:0:0:0:
447,125,241576,1,0,3:0:0:0:
172,197,241743,2,0,L|157:324,1,103.400003155518,8|0,0:0|3:0,0:0:0:0:
305,303,242076,5,4,1:2:0:0:
25,298,242243,1,4,1:2:0:0:
178,212,242576,1,0,3:0:0:0:
234,204,242660,1,0,3:0:0:0:
290,196,242743,1,8,1:1:0:0:
417,244,242910,1,4,3:0:0:0:
279,192,243076,1,8,1:0:0:0:
48,245,243243,6,0,P|59:166|192:115,1,206.800006311035,4|8,0:2|3:0,0:0:0:0:
313,152,243743,2,0,L|320:280,1,103.400003155518,0|0,1:0|3:0,0:0:0:0:
261,254,243993,1,0,3:0:0:0:
204,253,244076,1,8,3:0:0:0:
354,334,244243,2,0,P|413:294|336:201,1,206.800006311035,8|0,1:0|3:2,0:0:0:0:
55,177,244743,5,4,1:2:0:0:
256,192,244910,12,0,250326,0:0:0:0:
