osu file format v14

[General]
AudioFilename: audio.mp3
AudioLeadIn: 0
PreviewTime: 59336
Countdown: 0
SampleSet: Normal
StackLeniency: 0.7
Mode: 2
LetterboxInBreaks: 0
WidescreenStoryboard: 0

[Editor]
Bookmarks: 26743,32086,60076,81410,91910,102743,108086,124076,136076,157409,178742,194075,215743,236743,250326
DistanceSpacing: 1
BeatDivisor: 4
GridSize: 32
TimelineZoom: 1.8

[Metadata]
Title:Tsuki ni Murakumo Hana ni Kaze ShinRa-Bansho Ver
TitleUnicode:月に叢雲華に風 森羅万象Ver
Artist:ShinRa-Bansho
ArtistUnicode:森羅万象
Creator:Spectator
Version:Clouds Over the Moon, Wind Over the Flowers
Source:東方地霊殿 ~ Subterranean Animism.
Tags:Greaper Benita Benny- BennyBananas ZUN あやぽんず* あよ ayaponzu* ayaponzu ayo ラストリモート 東方歌ってみた clouds over the moon and wind over the flowers touhou chireiden 2hu project 東方project japanese pop jpop j-pop video game
BeatmapID:2634162
BeatmapSetID:1267528

[Difficulty]
HPDrainRate:5
CircleSize:4
OverallDifficulty:9.5
ApproachRate:9.5
SliderMultiplier:1.98
SliderTickRate:2

[Events]
//Background and Video events
0,0,"bg.jpg",0,0
//Break Periods
2,81610,84885
2,178942,183550
2,236943,240385
//Storyboard Layer 0 (Background)
//Storyboard Layer 1 (Fail)
//Storyboard Layer 2 (Pass)
//Storyboard Layer 3 (Foreground)
//Storyboard Layer 4 (Overlay)
//Storyboard Sound Samples

[TimingPoints]
744,333.333333333333,4,2,1,15,1,0
827,-100,4,2,1,16,0,0
910,-100,4,2,1,17,0,0
993,-100,4,2,1,18,0,0
1077,-100,4,2,1,19,0,0
1160,-100,4,2,1,20,0,0
1243,-100,4,2,1,21,0,0
1327,-100,4,2,1,22,0,0
1410,-100,4,2,1,23,0,0
1493,-100,4,2,1,24,0,0
1577,-100,4,2,1,25,0,0
1660,-100,4,2,1,26,0,0
1743,-100,4,2,1,27,0,0
1827,-100,4,2,1,28,0,0
1910,-100,4,2,1,29,0,0
1993,-100,4,2,1,30,0,0
2077,-100,4,2,1,31,0,0
2160,-100,4,2,1,32,0,0
2243,-100,4,2,1,33,0,0
2327,-100,4,2,1,34,0,0
2410,-100,4,2,1,35,0,0
2493,-100,4,2,1,36,0,0
2577,-100,4,2,1,37,0,0
2660,-100,4,2,1,38,0,0
2743,-100,4,2,1,39,0,0
2827,-100,4,2,1,40,0,0
2910,-100,4,2,1,41,0,0
2993,-100,4,2,1,42,0,0
3077,-100,4,2,1,43,0,0
3160,-100,4,2,1,44,0,0
3243,-100,4,2,1,45,0,0
3327,-100,4,2,1,46,0,0
3410,-100,4,2,1,47,0,0
3493,-100,4,2,1,48,0,0
3577,-100,4,2,1,49,0,0
4077,-100,4,2,1,50,0,0
6743,-100,4,2,1,40,0,0
7410,-100,4,2,1,55,0,0
9577,-100,4,2,1,45,0,0
9743,-100,4,2,1,55,0,0
10077,-100,4,1,1,50,0,0
11410,-100,4,1,1,53,0,0
12743,-100,4,1,1,56,0,0
14077,-100,4,1,1,60,0,0
15910,-100,4,1,1,45,0,0
16077,333.333333333333,4,1,1,65,1,0
16410,-100,4,1,2,65,0,0
16577,-100,4,1,1,65,0,0
16743,-100,4,1,2,65,0,0
16910,-100,4,1,1,65,0,0
17077,-100,4,1,2,65,0,0
17243,-100,4,1,1,65,0,0
17410,-100,4,1,2,65,0,0
17577,-100,4,1,1,65,0,0
17743,-100,4,1,2,65,0,0
17910,-100,4,1,1,65,0,0
18076,-100,4,1,2,65,0,0
18243,-100,4,1,1,65,0,0
18410,-100,4,1,2,65,0,0
18576,-100,4,1,1,65,0,0
19076,-100,4,1,2,65,0,0
19243,-100,4,1,1,65,0,0
19410,-100,4,1,2,65,0,0
19576,-100,4,1,1,65,0,0
19743,-100,4,1,2,65,0,0
19910,-100,4,1,1,65,0,0
20076,-100,4,1,2,65,0,0
20243,-100,4,1,1,65,0,0
20410,-100,4,1,2,65,0,0
20576,-100,4,1,1,65,0,0
20743,-100,4,1,2,65,0,0
20910,-100,4,1,1,65,0,0
21743,-100,4,1,2,65,0,0
21910,-100,4,1,1,65,0,0
22076,-100,4,1,2,65,0,0
22243,-100,4,1,1,65,0,0
22410,-100,4,1,2,65,0,0
22576,-100,4,1,1,65,0,0
22743,-100,4,1,2,65,0,0
22910,-100,4,1,1,65,0,0
23076,-100,4,1,2,65,0,0
23243,-100,4,1,1,65,0,0
23410,-100,4,1,2,65,0,0
23576,-100,4,1,1,65,0,0
23743,-100,4,1,2,65,0,0
23910,-100,4,1,1,65,0,0
24410,-100,4,1,2,65,0,0
24576,-100,4,1,1,65,0,0
24743,-100,4,1,2,65,0,0
24910,-100,4,1,1,65,0,0
25076,-100,4,1,2,65,0,0
25243,-100,4,1,1,65,0,0
26410,-90.9090909090909,4,1,1,65,0,0
26743,-100,4,3,1,45,0,0
31576,-100,4,1,1,65,0,0
32410,-100,4,1,2,65,0,0
32576,-100,4,1,1,65,0,0
32743,-100,4,1,2,65,0,0
32910,-100,4,1,1,65,0,0
33076,-100,4,1,2,65,0,0
33243,-100,4,1,1,65,0,0
33410,-100,4,1,2,65,0,0
33576,-100,4,1,1,65,0,0
33743,-100,4,1,2,65,0,0
33910,-100,4,1,1,65,0,0
34076,-100,4,1,2,65,0,0
34243,-100,4,1,1,65,0,0
34410,-100,4,1,2,65,0,0
34576,-100,4,1,1,65,0,0
34743,-100,4,1,2,65,0,0
34910,-100,4,1,1,65,0,0
35076,-100,4,1,2,65,0,0
35243,-100,4,1,1,65,0,0
37160,-86.9565217391304,4,1,1,50,0,0
37410,-90.9090909090909,4,1,1,65,0,0
37743,-100,4,1,2,65,0,0
37910,-100,4,1,1,65,0,0
38076,-100,4,1,2,65,0,0
38243,-100,4,1,1,65,0,0
38410,-100,4,1,2,65,0,0
38576,-100,4,1,1,65,0,0
38743,-100,4,1,2,65,0,0
38910,-100,4,1,1,65,0,0
39076,-100,4,1,2,65,0,0
39243,-100,4,1,1,65,0,0
39410,-100,4,1,2,65,0,0
39576,-100,4,1,1,65,0,0
39743,-100,4,1,2,65,0,0
39910,-100,4,1,1,65,0,0
42410,-90.9090909090909,4,1,1,65,0,0
42743,-100,4,1,1,65,0,0
48076,-100,4,1,1,50,0,0
49243,-142.857142857143,4,1,1,50,0,0
50743,-100,4,1,1,50,0,0
53410,-100,4,1,1,50,0,0
54076,-100,4,1,1,55,0,0
54576,-100,4,1,2,58,0,0
54743,-100,4,1,1,58,0,0
55410,-100,4,1,1,60,0,0
56076,-100,4,1,1,62,0,0
56410,-100,4,1,2,65,0,0
56576,-100,4,1,1,65,0,0
56743,-83.3333333333333,4,1,2,65,0,0
56826,-83.3333333333333,4,1,1,65,0,0
57076,-83.3333333333333,4,1,2,65,0,0
57243,-83.3333333333333,4,1,1,65,0,0
57410,-90.9090909090909,4,1,1,65,0,0
58076,-90.9090909090909,4,1,1,65,0,0
58243,-90.9090909090909,4,1,1,40,0,0
58410,-90.9090909090909,4,1,1,47,0,0
58576,-90.9090909090909,4,1,1,53,0,0
58743,-90.9090909090909,4,1,1,60,0,0
60076,-86.9565217391304,4,1,1,65,0,1
60243,-86.9565217391304,4,1,2,65,0,1
60410,-86.9565217391304,4,1,1,65,0,1
60576,-86.9565217391304,4,1,2,65,0,1
60743,-86.9565217391304,4,1,1,65,0,1
61243,-86.9565217391304,4,1,2,65,0,1
61410,-86.9565217391304,4,1,1,65,0,1
61576,-86.9565217391304,4,1,2,65,0,1
61743,-86.9565217391304,4,1,1,65,0,1
61910,-86.9565217391304,4,1,2,65,0,1
62076,-86.9565217391304,4,1,1,65,0,1
62243,-86.9565217391304,4,1,2,65,0,1
62326,-86.9565217391304,4,1,1,65,0,1
62576,-86.9565217391304,4,1,2,65,0,1
62743,-86.9565217391304,4,1,1,65,0,1
62910,-86.9565217391304,4,1,2,65,0,1
63076,-86.9565217391304,4,1,1,65,0,1
63243,-86.9565217391304,4,1,2,65,0,1
63410,-86.9565217391304,4,1,1,65,0,1
63910,-86.9565217391304,4,1,2,65,0,1
64076,-86.9565217391304,4,1,1,65,0,1
64243,-86.9565217391304,4,1,2,65,0,1
64410,-86.9565217391304,4,1,1,65,0,1
64576,-86.9565217391304,4,1,2,65,0,1
64743,-86.9565217391304,4,1,1,65,0,1
64910,-86.9565217391304,4,1,2,65,0,1
64993,-86.9565217391304,4,1,1,65,0,1
65243,-86.9565217391304,4,1,2,65,0,1
65410,-86.9565217391304,4,1,1,65,0,1
65743,-86.9565217391304,4,1,2,65,0,1
65910,-86.9565217391304,4,1,1,65,0,1
66410,-86.9565217391304,4,1,2,65,0,1
66576,-86.9565217391304,4,1,1,65,0,1
66743,-86.9565217391304,4,1,2,65,0,1
66910,-86.9565217391304,4,1,1,65,0,1
67076,-86.9565217391304,4,1,2,65,0,1
67243,-86.9565217391304,4,1,1,65,0,1
67410,-86.9565217391304,4,1,2,65,0,1
67576,-86.9565217391304,4,1,1,65,0,1
67743,-86.9565217391304,4,1,2,65,0,1
67910,-86.9565217391304,4,1,1,65,0,1
68743,-76.9230769230769,4,1,1,65,0,1
69076,-86.9565217391304,4,1,1,65,0,1
69743,-86.9565217391304,4,1,2,65,0,1
69910,-86.9565217391304,4,1,1,65,0,1
71243,-86.9565217391304,4,1,2,65,0,1
71410,-86.9565217391304,4,1,1,65,0,1
71910,-86.9565217391304,4,1,2,65,0,1
72076,-86.9565217391304,4,1,1,65,0,1
72243,-86.9565217391304,4,1,2,65,0,1
72410,-86.9565217391304,4,1,1,65,0,1
72576,-86.9565217391304,4,1,2,65,0,1
72743,-86.9565217391304,4,1,1,65,0,1
72910,-86.9565217391304,4,1,2,65,0,1
72993,-86.9565217391304,4,1,1,65,0,1
73243,-86.9565217391304,4,1,2,65,0,1
73410,-86.9565217391304,4,1,1,65,0,1
73576,-86.9565217391304,4,1,2,65,0,1
73743,-86.9565217391304,4,1,1,65,0,1
73910,-86.9565217391304,4,1,2,65,0,1
74076,-86.9565217391304,4,1,1,65,0,1
74576,-86.9565217391304,4,1,2,65,0,1
74743,-86.9565217391304,4,1,1,65,0,1
74910,-86.9565217391304,4,1,2,65,0,1
75076,-86.9565217391304,4,1,1,65,0,1
75243,-86.9565217391304,4,1,2,65,0,1
75410,-86.9565217391304,4,1,1,65,0,1
75576,-86.9565217391304,4,1,2,65,0,1
75743,-86.9565217391304,4,1,1,65,0,1
77076,-86.9565217391304,4,1,2,65,0,1
77243,-86.9565217391304,4,1,1,65,0,1
77410,-86.9565217391304,4,1,2,65,0,1
77576,-86.9565217391304,4,1,1,65,0,1
77743,-86.9565217391304,4,1,2,65,0,1
77910,-86.9565217391304,4,1,1,65,0,1
78076,-86.9565217391304,4,1,2,65,0,1
78243,-86.9565217391304,4,1,1,65,0,1
78410,-86.9565217391304,4,1,2,65,0,1
78576,-86.9565217391304,4,1,1,65,0,1
79076,-86.9565217391304,4,1,2,65,0,1
79243,-86.9565217391304,4,1,1,65,0,1
79743,-86.9565217391304,4,1,2,65,0,1
79910,-86.9565217391304,4,1,1,65,0,1
81410,-86.9565217391304,4,1,1,65,0,0
85410,-100,4,1,1,65,0,0
86410,-90.9090909090909,4,1,2,65,0,0
86493,-90.9090909090909,4,1,1,65,0,0
86743,-100,4,1,1,65,0,0
88243,342.857142857143,4,1,1,65,1,0
88928,337.078651685393,4,1,1,65,1,0
89424,333.333333333333,4,1,1,65,1,0
92757,-100,4,1,2,65,0,0
93090,-100,4,1,1,65,0,0
93257,-90.9090909090909,4,1,1,65,0,0
93340,-100,4,1,1,65,0,0
94090,-100,4,1,2,65,0,0
94257,-100,4,1,1,65,0,0
94424,-100,4,1,2,65,0,0
94590,-100,4,1,1,65,0,0
95424,-100,4,1,2,65,0,0
95757,-100,4,1,1,65,0,0
97757,-100,4,1,2,65,0,0
97923,-100,4,1,1,65,0,0
98090,-100,4,1,2,65,0,0
98257,-100,4,1,1,65,0,0
98423,-100,4,1,2,65,0,0
98590,-100,4,1,1,65,0,0
98757,-100,4,1,2,65,0,0
98923,-100,4,1,1,65,0,0
99090,-100,4,1,2,65,0,0
99257,-100,4,1,1,65,0,0
100090,-40,4,1,1,65,0,0
100173,-100,4,1,1,65,0,0
100423,-100,4,1,2,65,0,0
100590,-100,4,1,1,65,0,0
100923,-100,4,1,2,65,0,0
101090,-100,4,1,1,65,0,0
102257,-83.3333333333333,4,1,1,65,0,0
102340,-100,4,1,1,65,0,0
102757,-100,4,1,1,50,0,0
103423,-40,4,1,1,50,0,0
107090,-100,4,1,1,65,0,0
107757,-86.9565217391304,4,1,1,65,0,0
108090,-90.9090909090909,4,1,1,65,0,1
108173,-90.9090909090909,4,1,1,65,0,0
108257,-100,4,1,1,65,0,0
109757,-100,4,1,2,65,0,0
109923,-100,4,1,1,65,0,0
110090,-100,4,1,2,65,0,0
110257,-100,4,1,1,65,0,0
110423,-100,4,1,2,65,0,0
110590,-100,4,1,1,65,0,0
113757,-100,4,1,2,65,0,0
113923,-100,4,1,1,65,0,0
114423,-100,4,1,2,65,0,0
114590,-100,4,1,1,65,0,0
114757,-100,4,1,2,65,0,0
114923,-100,4,1,1,65,0,0
115090,-100,4,1,2,65,0,0
115257,-100,4,1,1,65,0,0
115423,-100,4,1,2,65,0,0
115590,-100,4,1,1,65,0,0
115757,-100,4,1,2,65,0,0
115923,-100,4,1,1,65,0,0
116090,-100,4,1,2,65,0,0
116257,-100,4,1,1,65,0,0
116423,-100,4,1,2,65,0,0
116590,-100,4,1,1,65,0,0
116757,-100,4,1,2,65,0,0
116923,-90.9090909090909,4,1,1,65,0,0
117423,-90.9090909090909,4,1,2,65,0,0
117590,-90.9090909090909,4,1,1,65,0,0
117757,-90.9090909090909,4,1,2,65,0,0
117923,-90.9090909090909,4,1,1,65,0,0
118090,-90.9090909090909,4,1,2,65,0,0
118257,-90.9090909090909,4,1,1,65,0,0
119257,-90.9090909090909,4,1,2,65,0,0
119423,-90.9090909090909,4,1,1,65,0,0
120257,-90.9090909090909,4,1,2,65,0,0
120423,-90.9090909090909,4,1,1,65,0,0
120590,-90.9090909090909,4,1,2,65,0,0
120757,-90.9090909090909,4,1,1,65,0,0
122257,-90.9090909090909,4,1,2,65,0,0
122423,-90.9090909090909,4,1,1,65,0,0
123590,-100,4,1,1,65,0,0
123757,-125,4,1,1,65,0,0
123923,-166.666666666667,4,1,1,65,0,0
124090,-111.111111111111,4,1,1,65,0,0
124257,-111.111111111111,4,2,1,60,0,0
126757,-111.111111111111,4,2,1,65,0,0
129090,-111.111111111111,4,1,2,65,0,0
129257,-111.111111111111,4,2,1,65,0,0
129423,-100,4,1,1,65,0,0
130757,-100,4,1,1,68,0,0
132090,-100,4,1,1,70,0,0
133757,-100,4,1,1,40,0,0
134090,-100,4,1,1,50,0,0
134423,-100,4,1,1,60,0,0
134757,-90.9090909090909,4,1,1,65,0,0
136090,-86.9565217391304,4,1,1,65,0,1
136590,-86.9565217391304,4,1,2,65,0,1
136757,-86.9565217391304,4,1,1,65,0,1
137257,-86.9565217391304,4,1,2,65,0,1
137423,-86.9565217391304,4,1,1,65,0,1
137590,-86.9565217391304,4,1,2,65,0,1
137757,-86.9565217391304,4,1,1,65,0,1
137923,-86.9565217391304,4,1,2,65,0,1
138090,-86.9565217391304,4,1,1,65,0,1
138257,-86.9565217391304,4,1,2,65,0,1
138340,-86.9565217391304,4,1,1,65,0,1
138590,-86.9565217391304,4,1,2,65,0,1
138757,-86.9565217391304,4,1,1,65,0,1
138923,-86.9565217391304,4,1,2,65,0,1
139090,-86.9565217391304,4,1,1,65,0,1
139257,-86.9565217391304,4,1,2,65,0,1
139423,-86.9565217391304,4,1,1,65,0,1
139923,-86.9565217391304,4,1,2,65,0,1
140090,-86.9565217391304,4,1,1,65,0,1
140257,-86.9565217391304,4,1,2,65,0,1
140423,-86.9565217391304,4,1,1,65,0,1
140590,-86.9565217391304,4,1,2,65,0,1
140757,-86.9565217391304,4,1,1,65,0,1
140923,-86.9565217391304,4,1,2,65,0,1
141090,-86.9565217391304,4,1,1,65,0,1
142423,-86.9565217391304,4,1,2,65,0,1
142590,-86.9565217391304,4,1,1,65,0,1
143090,-86.9565217391304,4,1,2,65,0,1
143257,-86.9565217391304,4,1,1,65,0,1
143423,-86.9565217391304,4,1,2,65,0,1
143590,-86.9565217391304,4,1,1,65,0,1
143757,-86.9565217391304,4,1,2,65,0,1
143923,-86.9565217391304,4,1,1,65,0,1
144423,-86.9565217391304,4,1,2,65,0,1
144590,-86.9565217391304,4,1,1,65,0,1
145757,-86.9565217391304,4,1,2,65,0,1
145923,-86.9565217391304,4,1,1,65,0,1
147257,-86.9565217391304,4,1,2,65,0,1
147423,-86.9565217391304,4,1,1,65,0,1
147923,-86.9565217391304,4,1,2,65,0,1
148090,-86.9565217391304,4,1,1,65,0,1
148257,-86.9565217391304,4,1,2,65,0,1
148423,-86.9565217391304,4,1,1,65,0,1
148590,-86.9565217391304,4,1,2,65,0,1
148757,-86.9565217391304,4,1,1,65,0,1
148923,-86.9565217391304,4,1,2,65,0,1
149007,-86.9565217391304,4,1,1,65,0,1
149257,-86.9565217391304,4,1,2,65,0,1
149423,-86.9565217391304,4,1,1,65,0,1
149590,-86.9565217391304,4,1,2,65,0,1
149757,-86.9565217391304,4,1,1,65,0,1
149923,-86.9565217391304,4,1,2,65,0,1
150090,-86.9565217391304,4,1,1,65,0,1
150590,-86.9565217391304,4,1,2,65,0,1
150757,-86.9565217391304,4,1,1,65,0,1
150923,-86.9565217391304,4,1,2,65,0,1
151090,-86.9565217391304,4,1,1,65,0,1
151257,-86.9565217391304,4,1,2,65,0,1
151423,-86.9565217391304,4,1,1,65,0,1
152423,-86.9565217391304,4,1,2,65,0,1
152590,-86.9565217391304,4,1,1,65,0,1
153090,-86.9565217391304,4,1,2,65,0,1
153257,-86.9565217391304,4,1,1,65,0,1
153423,-86.9565217391304,4,1,2,65,0,1
153590,-86.9565217391304,4,1,1,65,0,1
153757,-86.9565217391304,4,1,2,65,0,1
153923,-86.9565217391304,4,1,1,65,0,1
154090,-86.9565217391304,4,1,2,65,0,1
154257,-86.9565217391304,4,1,1,65,0,1
154423,-86.9565217391304,4,1,2,65,0,1
154590,-86.9565217391304,4,1,1,65,0,1
154757,-86.9565217391304,4,1,2,65,0,1
154923,-86.9565217391304,4,1,1,65,0,1
155090,-86.9565217391304,4,1,2,65,0,1
155257,-86.9565217391304,4,1,1,65,0,1
155423,-86.9565217391304,4,1,2,65,0,1
155590,-86.9565217391304,4,1,1,65,0,1
155757,-86.9565217391304,4,1,2,65,0,1
155923,-86.9565217391304,4,1,1,65,0,1
156090,-90.9090909090909,4,1,1,70,0,1
157423,-100,4,1,1,65,0,0
169590,-100,4,1,1,50,0,0
170757,-100,4,1,1,65,0,0
171590,-100,4,1,2,65,0,0
171757,-100,4,1,1,65,0,0
171923,-100,4,1,2,65,0,0
172257,-100,4,1,1,65,0,0
172590,-100,4,1,1,68,0,0
172743,324.324324324324,4,1,1,70,1,0
173067,-100,4,1,1,74,0,0
173409,333.333333333333,4,1,1,75,1,1
173492,-100,4,1,1,75,0,0
173575,-100,4,1,1,45,0,0
175909,-100,4,1,2,45,0,0
177409,-100,4,1,2,50,0,0
177742,-100,4,1,2,53,0,0
178075,-100,4,1,2,56,0,0
178409,-100,4,1,2,60,0,0
178742,-100,4,2,1,50,0,0
184075,-100,4,1,1,50,0,0
185409,-100,4,1,1,55,0,0
186742,-100,4,1,1,60,0,0
187409,-83.3333333333333,4,1,1,65,0,0
188075,-100,4,1,1,65,0,0
190908,-100,4,1,1,75,0,0
191908,-100,4,2,1,25,0,0
192075,-100,4,2,1,55,0,0
192742,-100,4,2,1,60,0,0
193742,-83.3333333333333,4,1,1,65,0,0
194077,333.333333333333,4,1,1,65,1,1
194077,-86.9565217391304,4,1,1,65,0,1
194577,-86.9565217391304,4,1,2,65,0,1
194743,-86.9565217391304,4,1,1,65,0,1
195243,-86.9565217391304,4,1,2,65,0,1
195410,-86.9565217391304,4,1,1,65,0,1
195577,-86.9565217391304,4,1,2,65,0,1
195743,-86.9565217391304,4,1,1,65,0,1
195910,-86.9565217391304,4,1,2,65,0,1
196077,-86.9565217391304,4,1,1,65,0,1
196243,-86.9565217391304,4,1,2,65,0,1
196327,-86.9565217391304,4,1,1,65,0,1
196577,-86.9565217391304,4,1,2,65,0,1
196743,-86.9565217391304,4,1,1,65,0,1
196910,-86.9565217391304,4,1,2,65,0,1
197077,-86.9565217391304,4,1,1,65,0,1
197243,-86.9565217391304,4,1,2,65,0,1
197410,-86.9565217391304,4,1,1,65,0,1
197910,-86.9565217391304,4,1,2,65,0,1
198077,-86.9565217391304,4,1,1,65,0,1
198243,-86.9565217391304,4,1,2,65,0,1
198410,-86.9565217391304,4,1,1,65,0,1
198577,-86.9565217391304,4,1,2,65,0,1
198743,-86.9565217391304,4,1,1,65,0,1
198910,-86.9565217391304,4,1,2,65,0,1
199077,-86.9565217391304,4,1,1,65,0,1
200410,-86.9565217391304,4,1,2,65,0,1
200577,-86.9565217391304,4,1,1,65,0,1
201077,-86.9565217391304,4,1,2,65,0,1
201243,-86.9565217391304,4,1,1,65,0,1
201410,-86.9565217391304,4,1,2,65,0,1
201577,-86.9565217391304,4,1,1,65,0,1
201743,-86.9565217391304,4,1,2,65,0,1
201910,-86.9565217391304,4,1,1,65,0,1
202410,-86.9565217391304,4,1,2,65,0,1
202577,-86.9565217391304,4,1,1,65,0,1
205243,-86.9565217391304,4,1,2,65,0,1
205410,-86.9565217391304,4,1,1,65,0,1
205910,-86.9565217391304,4,1,2,65,0,1
206077,-86.9565217391304,4,1,1,65,0,1
206243,-86.9565217391304,4,1,2,65,0,1
206410,-86.9565217391304,4,1,1,65,0,1
206577,-86.9565217391304,4,1,2,65,0,1
206743,-86.9565217391304,4,1,1,65,0,1
206910,-86.9565217391304,4,1,2,65,0,1
206993,-86.9565217391304,4,1,1,65,0,1
207243,-86.9565217391304,4,1,2,65,0,1
207410,-86.9565217391304,4,1,1,65,0,1
207577,-86.9565217391304,4,1,2,65,0,1
207743,-86.9565217391304,4,1,1,65,0,1
207910,-86.9565217391304,4,1,2,65,0,1
208077,-86.9565217391304,4,1,1,65,0,1
208910,-86.9565217391304,4,1,2,65,0,1
209076,-86.9565217391304,4,1,1,65,0,1
209243,-86.9565217391304,4,1,2,65,0,1
209410,-86.9565217391304,4,1,1,65,0,1
209576,-86.9565217391304,4,1,2,65,0,1
209743,-86.9565217391304,4,1,1,65,0,1
210410,-86.9565217391304,4,1,2,65,0,1
210576,-86.9565217391304,4,1,1,65,0,1
210743,-86.9565217391304,4,1,2,65,0,1
210910,-86.9565217391304,4,1,1,65,0,1
211076,-86.9565217391304,4,1,2,65,0,1
211243,-86.9565217391304,4,1,1,65,0,1
211410,-86.9565217391304,4,1,2,65,0,1
211576,-86.9565217391304,4,1,1,65,0,1
211743,-86.9565217391304,4,1,2,65,0,1
211910,-86.9565217391304,4,1,1,65,0,1
212076,-86.9565217391304,4,1,2,65,0,1
212243,-86.9565217391304,4,1,1,65,0,1
212410,-86.9565217391304,4,1,2,65,0,1
212576,-86.9565217391304,4,1,1,65,0,1
212743,-86.9565217391304,4,1,2,65,0,1
212910,-86.9565217391304,4,1,1,65,0,1
213076,-86.9565217391304,4,1,2,65,0,1
213243,-86.9565217391304,4,1,1,65,0,1
213410,-86.9565217391304,4,1,2,65,0,1
213576,-86.9565217391304,4,1,1,65,0,1
213743,-86.9565217391304,4,1,2,65,0,1
213910,-86.9565217391304,4,1,1,65,0,1
215326,-86.9565217391304,4,1,1,65,0,0
215743,-74.0740740740741,4,1,1,65,0,1
216076,-74.0740740740741,4,1,3,65,0,1
216243,-74.0740740740741,4,1,1,65,0,1
216410,-74.0740740740741,4,1,3,65,0,1
216576,-74.0740740740741,4,1,1,65,0,1
216743,-74.0740740740741,4,1,3,65,0,1
216910,-74.0740740740741,4,1,1,65,0,1
217076,-74.0740740740741,4,1,3,65,0,1
217243,-74.0740740740741,4,1,1,65,0,1
217410,-74.0740740740741,4,1,3,65,0,1
217576,-74.0740740740741,4,1,1,65,0,1
217743,-74.0740740740741,4,1,3,65,0,1
217910,-74.0740740740741,4,1,1,65,0,1
218076,-74.0740740740741,4,1,3,65,0,1
218243,-74.0740740740741,4,1,1,65,0,1
218410,-74.0740740740741,4,1,3,65,0,1
218576,-74.0740740740741,4,1,1,65,0,1
218743,-74.0740740740741,4,1,3,65,0,1
218910,-74.0740740740741,4,1,1,65,0,1
219076,-74.0740740740741,4,1,3,65,0,1
219243,-74.0740740740741,4,1,1,65,0,1
219410,-74.0740740740741,4,1,3,65,0,1
219576,-74.0740740740741,4,1,1,65,0,1
219743,-74.0740740740741,4,1,3,65,0,1
219910,-74.0740740740741,4,1,1,65,0,1
220076,-74.0740740740741,4,1,3,65,0,1
220243,-74.0740740740741,4,1,1,65,0,1
220743,-74.0740740740741,4,1,3,65,0,1
220910,-74.0740740740741,4,1,1,65,0,1
221076,-74.0740740740741,4,1,3,65,0,1
221243,-74.0740740740741,4,1,1,65,0,1
221410,-74.0740740740741,4,1,3,65,0,1
221576,-74.0740740740741,4,1,1,65,0,1
221743,-74.0740740740741,4,1,3,65,0,1
221910,-74.0740740740741,4,1,1,65,0,1
222076,-74.0740740740741,4,1,3,65,0,1
222243,-74.0740740740741,4,1,1,65,0,1
222410,-74.0740740740741,4,1,3,65,0,1
222576,-74.0740740740741,4,1,1,65,0,1
222743,-74.0740740740741,4,1,3,65,0,1
222910,-74.0740740740741,4,1,1,65,0,1
223076,-74.0740740740741,4,1,3,65,0,1
223243,-74.0740740740741,4,1,1,65,0,1
223410,-74.0740740740741,4,1,3,65,0,1
223576,-74.0740740740741,4,1,1,65,0,1
223743,-74.0740740740741,4,1,3,65,0,1
223910,-74.0740740740741,4,1,1,65,0,1
225410,-32.258064516129,4,1,1,65,0,1
225743,-74.0740740740741,4,1,1,65,0,1
226410,-74.0740740740741,4,1,3,65,0,1
226576,-74.0740740740741,4,1,1,65,0,1
226743,-74.0740740740741,4,1,3,65,0,1
226910,-74.0740740740741,4,1,1,65,0,1
227076,-74.0740740740741,4,1,3,65,0,1
227243,-74.0740740740741,4,1,1,65,0,1
227410,-74.0740740740741,4,1,3,65,0,1
227576,-74.0740740740741,4,1,1,65,0,1
227743,-74.0740740740741,4,1,3,65,0,1
227910,-74.0740740740741,4,1,1,65,0,1
228076,-74.0740740740741,4,1,3,65,0,1
228243,-74.0740740740741,4,1,1,65,0,1
228410,-74.0740740740741,4,1,3,65,0,1
228493,-74.0740740740741,4,1,1,65,0,1
229076,-74.0740740740741,4,1,3,65,0,1
229243,-74.0740740740741,4,1,1,65,0,1
229410,-74.0740740740741,4,1,3,65,0,1
229576,-74.0740740740741,4,1,1,65,0,1
229743,-74.0740740740741,4,1,3,65,0,1
229910,-74.0740740740741,4,1,1,65,0,1
230076,-74.0740740740741,4,1,3,65,0,1
230160,-74.0740740740741,4,1,1,65,0,1
230410,-74.0740740740741,4,1,3,65,0,1
230576,-74.0740740740741,4,1,1,65,0,1
230743,-74.0740740740741,4,1,3,65,0,1
230910,-74.0740740740741,4,1,1,65,0,1
232743,-74.0740740740741,4,1,1,70,0,1
235743,-75.7575757575758,4,1,1,70,0,1
236743,-74.0740740740741,4,1,1,65,0,0
240910,-90.9090909090909,4,1,1,60,0,0
242076,-90.9090909090909,4,1,1,65,0,0
243243,-90.9090909090909,4,1,1,60,0,0
244743,-90.9090909090909,4,1,1,65,0,1
244826,-90.9090909090909,4,1,1,65,0,0
244910,-90.9090909090909,4,1,1,65,0,0
245076,-90.9090909090909,4,1,1,63,0,0
245243,-90.9090909090909,4,1,1,61,0,0
245410,-90.9090909090909,4,1,1,59,0,0
245576,-90.9090909090909,4,1,1,57,0,0
245743,-90.9090909090909,4,1,1,55,0,0
245910,-90.9090909090909,4,1,1,53,0,0
246076,-90.9090909090909,4,1,1,51,0,0
246243,-90.9090909090909,4,1,1,49,0,0
246410,-90.9090909090909,4,1,1,47,0,0
246576,-90.9090909090909,4,1,1,45,0,0
246743,-90.9090909090909,4,1,1,43,0,0
246910,-90.9090909090909,4,1,1,41,0,0
247076,-90.9090909090909,4,1,1,39,0,0
247243,-90.9090909090909,4,1,1,37,0,0
247410,-90.9090909090909,4,1,1,35,0,0
247576,-90.9090909090909,4,1,1,33,0,0
247743,-90.9090909090909,4,1,1,31,0,0
247910,-90.9090909090909,4,1,1,29,0,0
248076,-90.9090909090909,4,1,1,27,0,0
248243,-90.9090909090909,4,1,1,26,0,0
248410,-90.9090909090909,4,1,1,25,0,0
248576,-90.9090909090909,4,1,1,24,0,0
248743,-90.9090909090909,4,1,1,23,0,0
248910,-90.9090909090909,4,1,1,22,0,0
249076,-90.9090909090909,4,1,1,21,0,0
249243,-90.9090909090909,4,1,1,20,0,0
249410,-90.9090909090909,4,1,1,19,0,0
249576,-90.9090909090909,4,1,1,18,0,0
249743,-90.9090909090909,4,1,1,17,0,0
249910,-90.9090909090909,4,1,1,16,0,0
250076,-90.9090909090909,4,1,1,15,0,0
250326,-90.9090909090909,4,1,1,20,0,0

[Colours]
Combo1 : 133,201,231
Combo2 : 173,226,92
Combo3 : 243,233,107
Combo4 : 218,166,101
Combo5 : 228,137,179

[HitObjects]
256,192,744,12,0,3743,0:0:0:0:
385,191,4077,5,2,0:0:0:0:
127,191,4410,1,2,0:0:0:0:
385,329,4743,6,0,P|462:294|351:151,1,297,2|0,0:0|0:0,0:0:0:0:
243,200,5410,2,0,P|167:174|128:68,1,198,2|0,0:0|0:0,0:0:0:0:
321,113,6077,6,0,L|128:114,2,148.5,2|2|2,0:0|0:0|0:0,0:0:0:0:
197,171,6743,2,0,L|181:298,1,99,2|0,0:0|0:0,0:0:0:0:
338,205,7077,2,0,L|460:205,1,99,2|0,0:0|0:0,0:0:0:0:
127,329,7410,6,0,P|50:294|163:157,1,297,2|0,0:0|0:0,0:0:0:0:
425,140,8077,2,0,L|256:140,2,148.5,2|2|2,0:0|0:0|0:0,0:0:0:0:
260,227,8743,5,2,0:0:0:0:
259,89,8993,1,2,0:0:0:0:
443,77,9243,1,2,0:0:0:0:
285,132,9410,2,0,L|174:139,1,99,2|0,0:0|0:0,0:0:0:0:
448,198,9743,2,0,L|455:86,1,99,2|0,0:0|0:0,0:0:0:0:
134,334,10077,6,0,P|55:308|70:196,1,198,4|8,0:2|0:0,0:0:0:0:
296,55,10577,2,0,L|302:161,1,99,0|8,0:0|0:0,0:0:0:0:
144,153,10910,1,0,0:0:0:0:
396,260,11077,2,0,L|262:263,1,99,8|0,0:0|0:0,0:0:0:0:
45,350,11410,6,0,L|179:353,1,99,8|0,0:0|0:0,0:0:0:0:
289,286,11743,1,8,0:0:0:0:
129,254,11910,2,0,P|60:219|146:183,1,198
276,109,12410,2,0,L|142:112,1,99,8|0,0:0|0:0,0:0:0:0:
436,170,12743,5,4,0:2:0:0:
282,153,12910,1,0,0:0:0:0:
443,187,13077,1,8,0:0:0:0:
289,170,13244,1,0,0:0:0:0:
451,206,13410,1,8,0:0:0:0:
297,189,13577,1,0,0:0:0:0:
458,223,13744,1,8,0:0:0:0:
304,206,13911,1,0,0:0:0:0:
79,294,14077,5,8,0:0:0:0:
367,299,14243,1,8,0:0:0:0:
63,262,14410,1,8,0:0:0:0:
385,264,14576,1,8,0:0:0:0:
48,224,14743,1,8,0:0:0:0:
404,229,14909,1,8,0:0:0:0:
34,189,15077,1,8,0:0:0:0:
423,193,15243,1,8,0:0:0:0:
354,108,15910,6,0,L|275:108,1,49.5,0|0,3:0|3:0,3:0:0:0:
106,200,16077,6,0,P|36:152|120:121,1,198,4|8,0:2|0:0,0:0:0:0:
357,191,16577,1,0,0:0:0:0:
197,194,16743,2,0,L|196:315,1,99,8|0,0:0|0:0,0:0:0:0:
466,192,17077,1,8,0:0:0:0:
308,189,17243,1,0,0:0:0:0:
43,301,17410,6,0,L|44:190,1,99,8|0,1:0|0:0,0:0:0:0:
201,132,17743,2,0,L|86:131,1,99,8|0,0:0|0:0,0:0:0:0:
418,251,18076,1,8,0:0:0:0:
263,252,18243,1,0,0:0:0:0:
418,251,18410,1,8,0:0:0:0:
152,209,18576,2,0,L|152:129,1,49.5,0|0,3:0|3:0,3:0:0:0:
357,219,18743,6,0,P|423:203|422:86,1,198,4|8,0:2|0:0,0:0:0:0:
184,44,19243,2,0,L|173:160,1,99,0|8,0:0|0:0,0:0:0:0:
333,136,19576,1,0,0:0:0:0:
58,153,19743,2,0,L|47:269,1,99,8|0,0:0|0:0,0:0:0:0:
338,232,20076,5,8,0:0:0:0:
488,231,20243,1,0,0:0:0:0:
338,232,20410,1,8,0:0:0:0:
488,231,20576,1,0,0:0:0:0:
155,207,20743,2,0,L|146:109,1,99,8|0,0:0|0:0,0:0:0:0:
285,110,21076,2,0,L|210:111,1,49.5,0|0,3:0|3:0,3:0:0:0:
69,240,21243,2,0,L|144:241,1,49.5,0|0,3:0|3:0,3:0:0:0:
357,295,21410,6,0,P|417:270|351:191,1,198,4|8,0:2|0:0,0:0:0:0:
80,163,21910,2,0,L|200:164,1,99,0|8,0:0|0:0,0:0:0:0:
338,113,22243,1,0,0:0:0:0:
48,345,22410,2,0,L|39:247,1,99,8|0,0:0|0:0,0:0:0:0:
289,187,22743,6,0,L|297:73,1,99,8|0,0:0|0:0,0:0:0:0:
136,42,23076,2,0,L|256:42,1,99,8|0,0:0|0:0,0:0:0:0:
479,96,23410,1,8,0:0:0:0:
335,96,23576,1,0,0:0:0:0:
479,96,23743,1,8,0:0:0:0:
183,311,23910,2,0,L|175:215,1,49.5,0|0,3:0|3:0,3:0:0:0:
384,258,24076,6,0,P|439:250|488:118,1,198,4|8,0:2|0:0,0:0:0:0:
328,107,24576,2,0,L|320:211,1,99,0|8,0:0|0:0,0:0:0:0:
169,202,24910,1,0,0:0:0:0:
448,238,25076,2,0,L|456:342,1,99,8|0,0:0|0:0,0:0:0:0:
196,296,25410,5,0,3:0:0:0:
250,294,25493,1,0,3:0:0:0:
304,292,25576,1,0,3:0:0:0:
42,221,25743,1,8,0:0:0:0:
190,221,25910,1,0,3:0:0:0:
470,221,26076,1,8,1:0:0:0:
322,221,26243,1,0,3:0:0:0:
43,126,26410,2,0,L|117:127,1,54.4500016616822,8|0,0:0|3:0,0:0:0:0:
257,220,26576,2,0,L|183:221,1,54.4500016616822,0|0,3:0|3:0,3:0:0:0:
357,317,26743,6,0,P|438:308|463:202,1,198,4|0,0:2|0:0,0:0:0:0:
155,317,27410,2,0,P|74:308|49:202,1,198,0|0,0:2|0:0,0:0:0:0:
353,192,28076,2,0,L|150:160,3,198
157,161,29243,1,0,0:0:0:0:
407,356,29410,6,0,L|407:149,1,198
277,191,29910,2,0,P|211:171|243:57,1,198
387,63,30410,1,0,0:0:0:0:
191,140,30743,6,0,L|183:244,1,99
341,237,31076,1,0,0:0:0:0:
70,233,31243,1,0,0:0:0:0:
366,267,31576,2,0,L|491:268,1,99,8|0,0:0|0:0,0:0:0:0:
194,155,31910,2,0,L|123:155,1,49.5,8|0,0:0|0:0,0:0:0:0:
396,215,32076,6,0,P|459:187|413:78,1,198,0|8,0:0|0:0,0:0:0:0:
180,276,32576,1,0,0:0:0:0:
179,226,32659,1,0,0:0:0:0:
179,177,32742,1,0,0:0:0:0:
339,181,32910,1,0,0:0:0:0:
41,97,33076,2,0,L|171:98,1,99,8|0,0:0|0:0,0:0:0:0:
438,263,33410,6,0,L|308:264,1,99
104,188,33743,1,8,0:0:0:0:
343,141,33910,2,0,L|426:140,1,49.5,0|0,3:0|3:0,3:0:0:0:
218,50,34076,2,0,L|105:50,1,99
452,224,34410,2,0,L|339:224,1,99,8|0,0:0|0:0,0:0:0:0:
49,337,34743,6,0,L|41:215,1,99
181,235,35076,1,8,0:0:0:0:
319,234,35243,1,0,0:0:0:0:
68,261,35410,2,0,L|59:177,1,49.5,8|0,3:1|3:0,3:0:0:0:
203,172,35576,2,0,L|286:172,1,49.5,0|0,3:0|3:0,3:0:0:0:
412,146,35743,2,0,L|421:62,1,49.5,8|0,3:1|3:0,3:0:0:0:
277,57,35909,2,0,L|194:57,1,49.5,0|0,3:0|3:0,3:0:0:0:
413,238,36076,5,4,0:2:0:0:
102,239,36326,1,0,0:0:0:0:
416,321,36576,2,0,L|194:323,1,198,4|0,0:2|0:0,0:0:0:0:
367,254,37076,2,0,L|368:319,1,49.5,8|0,0:0|0:0,0:0:0:0:
199,199,37243,2,0,L|275:198,1,56.9250010857582,8|0,0:0|0:0,0:0:0:0:
96,208,37410,6,0,P|37:168|116:67,1,217.800006646729,0|8,0:0|0:0,0:0:0:0:
358,69,37910,2,0,L|247:69,1,99
412,141,38243,2,0,L|413:255,1,99,0|8,0:0|0:0,0:0:0:0:
144,281,38576,2,0,L|71:280,1,49.5
349,346,38743,6,0,P|423:323|365:215,1,198,0|8,0:0|0:0,0:0:0:0:
248,159,39243,1,0,0:0:0:0:
309,159,39326,1,0,0:0:0:0:
370,160,39409,1,0,0:0:0:0:
38,259,39576,2,0,L|25:123,1,99,0|8,0:0|0:0,0:0:0:0:
187,158,39910,1,0,0:0:0:0:
486,161,40076,5,0,0:0:0:0:
325,160,40243,1,0,0:0:0:0:
478,140,40410,1,8,0:0:0:0:
317,139,40577,1,0,0:0:0:0:
469,114,40743,1,0,0:0:0:0:
308,112,40910,1,0,0:0:0:0:
66,210,41076,1,8,0:0:0:0:
341,206,41243,1,0,0:0:0:0:
41,283,41410,5,8,0:0:0:0:
200,286,41576,1,0,0:0:0:0:
471,283,41743,1,8,0:0:0:0:
312,286,41909,1,0,0:0:0:0:
41,283,42076,2,0,L|42:167,1,99,8|0,0:0|3:0,0:0:0:0:
111,185,42326,1,0,3:0:0:0:
313,98,42410,2,0,L|241:97,1,54.4500016616822,0|0,3:0|3:0,3:0:0:0:
88,92,42576,2,0,L|16:91,1,54.4500016616822,0|0,3:0|3:0,3:0:0:0:
316,194,42743,5,8,0:0:0:0:
123,197,42993,1,8,0:0:0:0:
316,194,43243,1,8,0:0:0:0:
93,197,43576,1,0,3:0:0:0:
363,280,43743,2,0,L|482:279,1,99,4|0,0:2|3:0,0:0:0:0:
153,195,44076,5,4,0:2:0:0:
361,196,44326,1,0,0:0:0:0:
153,195,44576,1,0,0:0:0:0:
386,291,44743,2,0,L|311:291,1,49.5,8|0,3:0|3:0,3:0:0:0:
456,197,44993,2,0,L|534:196,1,49.5,8|0,3:0|3:0,3:0:0:0:
337,74,45243,1,8,3:0:0:0:
38,195,45410,6,0,L|217:195,2,148.5,4|0|0,0:2|0:0|0:0,0:0:0:0:
177,279,46076,2,0,L|190:159,1,99,8|0,0:0|0:0,0:0:0:0:
347,180,46410,1,0,0:0:0:0:
40,217,46576,6,0,P|62:139|189:91,1,198
315,89,47076,1,0,0:0:0:0:
160,88,47243,1,0,0:0:0:0:
483,196,47410,1,8,0:0:0:0:
320,195,47577,1,0,0:0:0:0:
45,254,47743,2,0,L|45:133,1,99,0|0,0:0|3:0,0:0:0:0:
273,152,48076,5,8,0:0:0:0:
45,155,48243,1,8,0:0:0:0:
439,360,49243,2,0,B|439:192|254:191|254:192|254:192|68:191|68:34,1,554.399983081055,4|0,0:2|3:0,0:0:0:0:
333,63,50743,5,8,0:0:0:0:
68,39,50910,1,8,0:0:0:0:
351,245,51910,2,0,L|116:251,2,198,4|8|8,0:2|0:0|3:0,0:0:0:0:
213,169,52743,2,0,L|208:281,1,99,4|0,3:0|3:0,0:0:0:0:
470,252,53076,1,4,1:2:0:0:
181,278,53410,5,8,0:0:0:0:
28,277,53576,1,0,0:0:0:0:
185,278,53743,1,8,0:0:0:0:
32,277,53909,1,0,0:0:0:0:
189,278,54076,1,8,0:0:0:0:
36,277,54242,1,0,0:0:0:0:
193,278,54410,1,8,0:0:0:0:
40,277,54576,1,0,0:0:0:0:
325,278,54743,5,8,0:0:0:0:
490,277,54909,1,0,0:0:0:0:
321,278,55076,1,8,0:0:0:0:
81,325,55243,2,8,L|162:324,1,49.5,8|8,3:0|3:0,3:0:0:0:
339,197,55410,1,8,0:0:0:0:
476,195,55576,1,0,0:0:0:0:
173,197,55743,1,8,0:0:0:0:
36,195,55909,1,0,3:0:0:0:
402,101,56076,6,0,L|228:99,1,148.5,4|0,0:2|3:0,0:0:0:0:
455,188,56410,1,8,0:0:0:0:
312,195,56576,1,0,3:0:0:0:
43,293,56743,2,0,L|240:292,1,178.199994561768,4|0,0:2|3:0,0:0:0:0:
411,295,57076,1,8,0:0:0:0:
127,293,57243,1,0,3:0:0:0:
355,287,57410,5,0,3:0:0:0:
403,263,57493,1,0,3:0:0:0:
419,211,57576,1,0,3:0:0:0:
393,162,57660,1,0,3:0:0:0:
202,145,57743,2,0,L|136:145,1,54.4500016616822,0|0,3:0|3:0,3:0:0:0:
229,76,57910,2,0,L|283:76,1,54.4500016616822,0|0,3:0|3:0,3:0:0:0:
63,285,58076,6,0,L|54:218,1,54.4500016616822,8|0,3:1|3:0,3:0:0:0:
137,225,58243,2,0,L|128:158,1,54.4500016616822,8|0,3:1|3:0,3:0:0:0:
298,257,58410,2,0,L|289:190,1,54.4500016616822,8|0,3:1|3:0,3:0:0:0:
473,181,58576,2,0,L|464:114,1,54.4500016616822,8|0,3:1|3:0,3:0:0:0:
103,80,58743,5,4,3:2:0:0:
256,192,58910,12,0,59743,0:0:0:0:
56,113,60076,6,0,L|192:114,1,113.850002171516,4|0,0:2|0:0,0:0:0:0:
335,194,60410,2,0,L|199:195,1,113.850002171516,8|0,0:0|0:0,0:0:0:0:
458,288,60743,2,0,P|440:224|322:161,1,170.775003257275,0|8,0:0|0:0,0:0:0:0:
165,268,61076,1,8,0:0:0:0:
325,266,61243,1,8,0:0:0:0:
49,279,61410,6,0,L|39:148,1,113.850002171516
226,94,61743,2,0,L|71:93,1,113.850002171516,8|0,0:0|0:0,0:0:0:0:
463,279,62076,2,0,L|473:148,1,113.850002171516
306,134,62326,1,8,0:0:0:0:
116,234,62410,2,0,L|126:103,1,113.850002171516,8|8,0:0|0:0,0:0:0:0:
356,243,62743,6,0,L|487:243,1,113.850002171516
156,243,63076,2,0,L|25:243,1,113.850002171516,8|0,0:0|0:0,0:0:0:0:
312,354,63410,2,0,P|385:333|416:214,1,170.775003257275,0|8,0:0|0:0,0:0:0:0:
229,190,63743,1,8,0:0:0:0:
459,184,63910,1,8,0:0:0:0:
207,112,64076,6,0,L|94:112,1,113.850002171516
334,112,64410,2,0,L|187:112,1,113.850002171516,8|0,0:0|0:0,0:0:0:0:
468,221,64743,2,0,L|350:220,1,113.850002171516
191,197,64993,1,8,0:0:0:0:
377,171,65076,2,0,L|491:172,1,113.850002171516,8|8,0:0|0:0,0:0:0:0:
187,331,65410,6,0,L|176:212,1,113.850002171516,4|0,0:2|0:0,0:0:0:0:
339,198,65743,1,8,0:0:0:0:
49,215,65910,2,0,L|306:217,1,227.700004343033
441,262,66410,2,0,L|452:143,1,113.850002171516,8|0,0:0|0:0,0:0:0:0:
210,101,66743,5,0,0:0:0:0:
365,99,66910,2,0,L|304:98,2,56.9250010857582,0|0|8,0:0|0:0|0:0,0:0:0:0:
211,184,67243,2,0,P|154:156|245:51,1,227.700004343033
473,297,67743,1,8,0:0:0:0:
314,307,67910,1,0,0:0:0:0:
39,225,68076,6,0,L|190:214,1,113.850002171516
309,139,68410,2,0,L|158:128,1,113.850002171516,8|0,0:0|0:0,0:0:0:0:
468,228,68743,2,0,L|386:215,1,64.3499970542909,0|0,3:0|3:0,3:0:0:0:
260,275,68910,2,0,L|176:287,1,64.3499970542909,0|0,3:0|3:0,3:0:0:0:
38,196,69076,1,8,0:0:0:0:
271,162,69243,6,0,L|403:175,1,113.850002171516,4|0,0:2|0:0,0:0:0:0:
114,218,69576,1,0,0:0:0:0:
369,258,69743,2,0,L|501:271,1,113.850002171516,8|8,0:0|1:0,0:0:0:0:
419,278,69993,1,0,1:0:0:0:
173,288,70076,1,0,1:0:0:0:
330,288,70243,2,0,L|330:200,1,56.9250010857582,0|0,3:0|3:0,3:0:0:0:
183,187,70410,2,0,L|117:187,1,56.9250010857582,8|0,3:1|3:1,3:1:0:0:
329,105,70576,2,0,L|263:103,1,56.9250010857582,8|0,3:1|3:1,3:1:0:0:
46,284,70743,6,0,L|45:156,1,113.850002171516,4|0,0:2|0:0,0:0:0:0:
221,122,71076,2,0,L|86:121,1,113.850002171516,8|0,0:0|0:0,0:0:0:0:
357,251,71410,2,0,P|436:240|462:138,1,170.775003257275,0|8,0:0|0:0,0:0:0:0:
251,142,71743,1,8,0:0:0:0:
405,140,71910,1,8,0:0:0:0:
151,109,72076,6,0,L|13:107,1,113.850002171516
361,109,72410,2,0,L|499:107,1,113.850002171516,8|0,0:0|0:0,0:0:0:0:
162,347,72743,2,0,L|145:218,1,113.850002171516
302,201,72993,1,8,0:0:0:0:
120,155,73076,2,0,L|-8:155,1,113.850002171516,8|8,0:0|0:0,0:0:0:0:
378,285,73410,6,0,L|500:284,1,113.850002171516
179,175,73743,1,8,0:0:0:0:
334,173,73910,1,0,0:0:0:0:
41,193,74076,2,0,L|250:192,1,170.775003257275,0|8,0:0|0:0,0:0:0:0:
409,84,74410,1,8,0:0:0:0:
171,83,74576,1,8,0:0:0:0:
456,223,74743,6,0,L|314:223,1,113.850002171516
186,127,75076,2,0,L|328:127,1,113.850002171516,8|0,0:0|0:0,0:0:0:0:
27,274,75410,2,0,L|169:274,1,113.850002171516
394,286,75743,2,8,L|320:285,1,56.9250010857582,8|8,3:0|3:0,3:0:0:0:
172,197,75910,2,8,L|98:196,1,56.9250010857582,8|8,3:0|3:0,3:0:0:0:
339,188,76076,5,4,0:2:0:0:
482,188,76243,1,0,0:0:0:0:
339,188,76410,1,8,0:0:0:0:
54,309,76576,2,0,L|39:45,1,227.700004343033
317,80,77076,1,8,0:0:0:0:
87,45,77243,2,0,L|12:46,1,56.9250010857582,0|0,3:0|3:0,3:0:0:0:
257,204,77410,6,0,L|396:205,1,113.850002171516,4|0,0:2|0:0,0:0:0:0:
104,246,77743,2,0,L|98:115,1,113.850002171516,8|0,0:0|0:0,0:0:0:0:
244,129,78076,1,8,0:0:0:0:
481,131,78243,1,0,0:0:0:0:
230,131,78410,1,8,0:0:0:0:
82,134,78576,2,0,L|177:134,1,56.9250010857582,0|0,3:0|3:0,3:0:0:0:
316,214,78743,5,4,0:2:0:0:
463,216,78910,1,0,0:0:0:0:
191,312,79076,2,0,P|116:264|205:194,1,227.700004343033,8|0,0:0|0:0,0:0:0:0:
360,187,79576,1,0,0:0:0:0:
191,170,79743,1,8,0:0:0:0:
356,168,79910,1,0,0:0:0:0:
114,332,80076,5,8,0:0:0:0:
371,351,80243,1,8,0:0:0:0:
86,331,80410,1,8,0:0:0:0:
399,350,80577,1,8,0:0:0:0:
62,332,80743,1,8,0:0:0:0:
351,264,80910,2,8,L|429:265,1,56.9250010857582,8|8,3:0|3:0,3:0:0:0:
218,171,81076,2,8,L|140:172,1,56.9250010857582,8|8,3:0|3:0,3:0:0:0:
449,88,81243,2,8,L|393:88,1,56.9250010857582,4|12,3:0|3:0,3:0:0:0:
123,30,81410,1,4,0:2:0:0:
291,129,85410,6,0,L|135:128,2,148.5,0|0|0,3:0|3:0|3:0,3:0:0:0:
160,78,86076,1,0,3:0:0:0:
109,99,86160,1,0,3:0:0:0:
91,150,86243,1,0,3:0:0:0:
116,198,86326,1,0,3:0:0:0:
176,223,86410,2,0,L|250:223,1,54.4500016616822,0|0,0:0|3:0,0:0:0:0:
399,276,86576,2,0,L|325:276,1,54.4500016616822,0|0,3:0|3:0,0:0:0:0:
122,288,86743,5,8,0:0:0:0:
454,275,86910,1,8,0:0:0:0:
177,183,87243,2,8,L|251:184,1,49.5,8|8,3:0|3:0,3:0:0:0:
434,179,87410,1,8,0:0:0:0:
294,179,87577,1,8,0:0:0:0:
46,179,87743,1,8,3:0:0:0:
301,297,87910,6,0,L|442:298,1,99,4|0,0:2|3:0,0:0:0:0:
255,297,88243,1,8,3:0:0:0:
109,313,88414,2,0,L|111:190,1,99,8|0,3:0|3:0,0:0:0:0:
248,180,88757,1,8,3:0:0:0:
108,175,88928,1,8,3:0:0:0:
359,253,89096,2,0,L|483:250,1,99,0|0,3:0|3:0,3:0:0:0:
49,121,89424,5,4,0:2:0:0:
256,192,89590,12,0,91757,0:0:0:0:
346,266,91924,6,0,L|346:183,1,49.5,0|0,3:0|3:0,3:0:0:0:
188,238,92090,2,0,P|131:209|150:89,1,198,4|0,1:2|0:0,0:0:0:0:
294,92,92590,1,0,3:0:0:0:
52,193,92757,2,0,L|51:307,1,99,8|0,1:0|0:0,0:0:0:0:
208,295,93090,1,0,0:0:0:0:
476,291,93257,6,0,L|226:294,1,217.800006646729,4|0,0:2|3:0,0:0:0:0:
476,212,93924,2,0,L|476:148,1,49.5,0|0,3:0|3:0,3:0:0:0:
261,131,94090,1,8,0:0:0:0:
111,132,94257,1,0,0:0:0:0:
340,50,94424,1,8,0:0:0:0:
490,51,94591,1,8,0:0:0:0:
167,289,94757,5,4,1:2:0:0:
375,290,95007,1,0,3:0:0:0:
167,289,95257,2,0,L|168:222,1,49.5,0|0,3:0|3:0,0:0:0:0:
357,165,95424,2,0,L|470:166,2,99,8|0|0,0:0|0:0|0:0,0:0:0:0:
115,233,95924,6,0,L|116:115,1,99,4|0,0:2|3:0,0:0:0:0:
427,92,96257,1,8,3:3:0:0:
277,93,96424,1,4,3:0:0:0:
427,92,96590,1,0,3:0:0:0:
169,287,96757,2,0,L|168:166,1,99,8|0,0:0|3:0,0:0:0:0:
320,164,97090,2,0,L|246:163,1,49.5,0|0,3:0|3:0,3:0:0:0:
119,166,97257,2,0,L|45:165,1,49.5,0|0,3:0|3:0,3:0:0:0:
271,317,97423,6,0,L|390:318,1,99,4|0,0:2|3:0,0:0:0:0:
214,317,97757,1,8,0:0:0:0:
472,244,97923,1,0,0:0:0:0:
318,243,98090,1,8,0:0:0:0:
472,244,98257,1,0,0:0:0:0:
178,157,98423,1,8,0:0:0:0:
332,158,98590,1,0,0:0:0:0:
57,280,98757,6,0,L|47:172,1,99,8|0,0:0|0:0,0:0:0:0:
207,179,99090,1,8,0:0:0:0:
367,183,99257,2,0,L|294:184,1,49.5,0|0,3:0|3:0,3:0:0:0:
42,107,99423,1,8,0:0:0:0:
189,107,99590,1,8,0:0:0:0:
37,89,99757,1,8,0:0:0:0:
185,90,99924,1,8,0:0:0:0:
490,185,100090,5,4,0:2:0:0:
260,184,100257,1,0,3:0:0:0:
243,74,100423,1,0,3:0:0:0:
18,208,100590,1,0,1:0:0:0:
156,206,100757,1,8,0:0:0:0:
18,208,100923,1,0,0:0:0:0:
289,261,101090,2,0,L|362:261,1,49.5,8|0,3:0|3:0,3:0:0:0:
130,261,101257,1,8,3:0:0:0:
466,260,101423,5,4,0:2:0:0:
327,260,101590,1,8,0:0:0:0:
466,260,101757,1,0,0:0:0:0:
185,261,101923,1,8,0:0:0:0:
327,260,102090,1,0,0:0:0:0:
185,261,102257,2,0,L|256:261,2,59.3999981872559,8|0|8,0:0|0:0|0:0,0:0:0:0:
336,262,102590,1,4,3:0:0:0:
64,260,102757,5,0,0:0:0:0:
293,253,102923,1,0,0:0:0:0:
64,260,103423,6,0,B|315:257|315:257|314:12,1,495,4|0,0:2|3:0,0:0:0:0:
69,182,103923,1,0,1:0:0:0:
64,260,104257,1,0,3:0:0:0:
293,253,104423,1,0,3:0:0:0:
59,180,104757,1,8,1:0:0:0:
446,260,105423,5,0,1:0:0:0:
216,254,105589,1,0,1:0:0:0:
448,260,106090,6,0,B|197:257|197:257|198:12,1,495,4|0,0:2|3:0,0:0:0:0:
443,182,106590,1,0,1:0:0:0:
446,260,106923,1,0,1:0:0:0:
198,12,107090,2,0,L|187:98,3,49.5,0|0|0|0,1:0|3:0|3:0|3:0,0:0:0:0:
353,93,107423,5,8,0:0:0:0:
493,92,107590,1,0,3:0:0:0:
197,189,107757,2,0,L|111:190,1,56.9250010857582,8|0,0:0|3:0,0:0:0:0:
355,253,107923,2,0,L|441:254,1,56.9250010857582,0|0,3:0|3:0,3:0:0:0:
197,325,108090,6,0,P|145:303|210:191,1,217.800006646729,4|8,0:2|0:0,0:0:0:0:
464,86,108590,2,0,L|464:206,1,99
315,184,108923,1,0,0:0:0:0:
465,184,109090,1,8,0:0:0:0:
114,269,109257,6,0,L|334:268,1,198,0|0,3:0|3:0,0:0:0:0:
38,180,109757,1,8,0:0:0:0:
186,179,109923,1,0,0:0:0:0:
474,180,110090,1,0,0:0:0:0:
326,179,110256,1,0,0:0:0:0:
38,180,110423,2,0,L|38:67,1,99,8|0,0:0|0:0,0:0:0:0:
374,102,110757,5,4,0:2:0:0:
116,108,110923,1,0,0:0:0:0:
229,223,111257,2,0,L|228:295,1,49.5
82,343,111424,2,0,L|192:343,1,99,8|0,0:0|0:0,0:0:0:0:
342,275,111757,2,0,L|228:274,1,99,8|0,0:0|0:0,0:0:0:0:
490,264,112090,5,4,0:2:0:0:
166,192,112257,1,0,0:0:0:0:
378,74,112590,2,0,L|390:185,1,99,8|0,0:0|0:0,0:0:0:0:
107,171,112923,1,0,3:0:0:0:
255,173,113090,2,0,L|264:236,3,49.5,8|0|0|0,0:0|3:0|3:0|3:0,0:0:0:0:
51,306,113423,6,0,L|196:306,1,99,4|0,0:2|0:0,0:0:0:0:
295,343,113757,2,0,L|428:343,1,99,8|0,0:0|0:0,0:0:0:0:
48,232,114090,2,0,L|47:72,1,148.5
127,120,114423,2,0,L|242:119,1,99,8|0,0:0|0:0,0:0:0:0:
461,306,114757,6,0,L|316:306,1,99
217,343,115091,2,0,L|84:343,1,99,8|0,0:0|0:0,0:0:0:0:
464,232,115424,2,0,L|465:98,1,99
221,180,115757,1,8,0:0:0:0:
377,175,115923,1,0,0:0:0:0:
41,266,116090,5,8,0:0:0:0:
197,261,116256,1,0,0:0:0:0:
41,266,116423,1,8,0:0:0:0:
413,186,116590,1,0,0:0:0:0:
267,191,116757,1,8,0:0:0:0:
108,186,116923,2,0,L|210:188,1,54.4500016616822
416,268,117090,1,8,0:0:0:0:
164,263,117257,1,0,0:0:0:0:
471,283,117423,5,8,0:0:0:0:
317,286,117589,1,0,0:0:0:0:
41,283,117756,1,8,0:0:0:0:
195,286,117922,1,0,0:0:0:0:
471,283,118090,1,8,0:0:0:0:
138,142,118257,2,0,L|138:206,1,54.4500016616822,8|0,0:0|3:0,0:0:0:0:
280,150,118423,2,0,L|344:150,1,54.4500016616822,0|0,3:0|3:0,3:0:0:0:
479,139,118590,2,0,L|479:203,1,54.4500016616822,0|0,3:0|3:0,3:0:0:0:
255,282,118757,6,0,L|381:280,1,108.900003323364,4|0,0:2|3:0,0:0:0:0:
202,278,119090,1,8,0:0:0:0:
483,281,119257,2,0,L|483:161,1,108.900003323364
168,174,119590,1,8,0:0:0:0:
25,174,119757,1,0,0:0:0:0:
315,315,119923,6,0,P|398:284|388:157,1,217.800006646729,4|0,0:2|0:0,0:0:0:0:
252,131,120423,2,0,L|234:261,1,108.900003323364,8|0,0:0|0:0,0:0:0:0:
76,237,120757,1,0,0:0:0:0:
312,220,120923,2,0,L|330:350,1,108.900003323364,0|8,0:0|0:0,0:0:0:0:
478,326,121257,1,0,0:0:0:0:
159,312,121423,6,0,P|74:271|89:134,1,217.800006646729,4|8,0:2|0:0,0:0:0:0:
211,169,121923,2,0,L|229:57,1,108.900003323364
468,143,122257,1,0,0:0:0:0:
320,141,122423,1,8,0:0:0:0:
44,143,122590,1,4,0:2:0:0:
468,216,122923,6,0,L|468:336,1,108.900003323364,8|8,3:0|1:0,0:0:0:0:
320,141,123257,1,0,3:0:0:0:
470,216,123423,1,0,3:0:0:0:
415,220,123506,1,0,3:0:0:0:
362,210,123589,1,0,3:0:0:0:
313,186,123672,1,0,3:0:0:0:
272,150,123756,1,0,3:0:0:0:
243,105,123839,1,0,3:0:0:0:
226,53,123922,1,0,3:0:0:0:
223,0,124006,1,0,3:0:0:0:
46,31,124090,6,0,P|141:56|213:198,2,267.299991842652,4|2|2,0:2|0:0|0:0,0:0:0:0:
212,198,125257,2,0,P|321:164|203:31,1,356.399989123535,2|2,0:0|0:0,0:0:0:0:
76,128,126257,1,0,0:0:0:0:
213,128,126423,1,2,0:0:0:0:
76,128,126590,1,0,0:0:0:0:
423,43,126757,6,0,P|328:68|256:210,2,267.299991842652,2|2|2,0:0|0:0|0:0,0:0:0:0:
256,210,127923,2,0,P|147:176|265:43,1,356.399989123535,2|2,0:0|0:0,0:0:0:0:
407,39,128923,1,2,0:0:0:0:
255,39,129090,1,0,0:0:0:0:
105,39,129257,1,0,0:0:0:0:
382,113,129423,5,0,0:0:0:0:
129,113,129757,1,0,0:0:0:0:
395,113,130090,1,0,0:0:0:0:
116,113,130424,1,0,0:0:0:0:
408,113,130757,1,0,0:0:0:0:
102,113,131091,1,0,0:0:0:0:
424,113,131423,1,0,0:0:0:0:
86,114,131757,2,0,L|205:112,1,99,0|0,0:0|3:0,0:0:0:0:
483,95,132090,5,4,0:2:0:0:
311,91,132340,1,8,0:0:0:0:
483,95,132590,1,8,0:0:0:0:
29,95,132757,5,4,0:2:0:0:
248,90,133007,1,8,0:0:0:0:
29,95,133257,1,8,0:0:0:0:
473,97,133423,1,4,0:2:0:0:
175,194,133757,5,8,0:0:0:0:
337,192,133923,1,8,0:0:0:0:
166,194,134090,1,8,0:0:0:0:
345,192,134256,1,8,0:0:0:0:
157,194,134423,1,8,0:0:0:0:
354,192,134589,1,8,0:0:0:0:
34,191,134757,5,4,0:2:0:0:
306,98,134923,2,0,L|227:98,1,54.4500016616822,0|0,3:0|3:0,3:0:0:0:
33,97,135090,1,8,0:0:0:0:
175,97,135257,1,0,3:0:0:0:
448,190,135423,2,0,L|369:190,1,54.4500016616822,0|0,3:0|3:0,3:0:0:0:
175,189,135590,1,8,0:0:0:0:
458,330,135757,2,0,L|458:188,1,108.900003323364,8|4,1:0|3:0,0:0:0:0:
295,221,136007,1,0,3:0:0:0:
132,116,136090,6,0,L|2:114,1,113.850002171516,4|0,0:2|0:0,0:0:0:0:
182,196,136423,2,0,L|312:194,1,113.850002171516,8|0,0:0|0:0,0:0:0:0:
34,314,136757,2,0,P|45:250|171:217,1,170.775003257275,0|8,0:0|0:0,0:0:0:0:
347,268,137090,1,8,0:0:0:0:
187,266,137257,1,8,0:0:0:0:
471,145,137423,6,0,L|346:145,1,113.850002171516
184,74,137757,2,0,L|321:74,1,113.850002171516,8|0,0:0|0:0,0:0:0:0:
59,309,138090,2,0,L|46:175,1,113.850002171516
205,169,138340,1,8,0:0:0:0:
370,53,138423,2,0,L|380:166,1,113.850002171516,8|8,0:0|0:0,0:0:0:0:
40,106,138757,6,0,L|156:106,1,113.850002171516
471,106,139090,2,0,L|352:105,1,113.850002171516,8|0,0:0|0:0,0:0:0:0:
56,230,139423,2,0,L|247:228,1,170.775003257275,0|8,0:0|0:0,0:0:0:0:
416,229,139757,1,8,0:0:0:0:
188,230,139923,1,8,0:0:0:0:
456,161,140090,6,0,L|457:300,1,113.850002171516
192,312,140423,2,0,L|347:312,1,113.850002171516,8|0,0:0|0:0,0:0:0:0:
26,180,140757,2,0,L|181:180,1,113.850002171516
381,137,141090,2,0,L|304:137,1,56.9250010857582,8|0,0:0|0:0,0:0:0:0:
139,136,141257,1,0,0:0:0:0:
471,304,141423,6,0,L|482:185,1,113.850002171516,4|0,0:2|0:0,0:0:0:0:
327,192,141757,1,8,0:0:0:0:
32,257,141923,2,0,L|299:256,1,227.700004343033
91,258,142423,2,0,L|80:139,1,113.850002171516,8|0,0:0|0:0,0:0:0:0:
318,131,142757,5,0,0:0:0:0:
163,130,142923,2,0,L|244:131,2,56.9250010857582,0|0|8,0:0|0:0|0:0,0:0:0:0:
318,131,143257,2,0,L|70:127,1,227.700004343033
324,299,143757,1,8,0:0:0:0:
484,301,143924,1,0,0:0:0:0:
120,174,144090,6,0,L|261:163,1,113.850002171516
392,174,144423,2,0,L|251:163,1,113.850002171516,8|0,0:0|0:0,0:0:0:0:
51,294,144757,2,0,L|45:197,1,56.9250010857582,8|0,0:0|3:0,0:0:0:0:
233,239,144923,2,0,L|239:142,1,56.9250010857582,0|0,3:0|3:0,0:0:0:0:
46,151,145090,1,8,0:0:0:0:
324,79,145257,6,0,L|178:80,1,113.850002171516,4|0,0:2|0:0,0:0:0:0:
463,135,145590,2,0,L|475:299,1,113.850002171516,0|8,3:0|0:0,0:0:0:0:
329,268,145923,2,0,L|247:269,1,56.9250010857582
128,192,146090,2,0,L|129:111,1,56.9250010857582,0|0,3:0|3:0,3:0:0:0:
338,136,146257,1,8,1:0:0:0:
193,137,146423,1,8,0:0:0:0:
457,295,146590,2,0,L|369:294,1,56.9250010857582,0|0,3:0|3:0,3:0:0:0:
163,223,146757,6,0,L|34:225,1,113.850002171516,4|0,0:2|0:0,0:0:0:0:
213,300,147090,2,0,L|342:302,1,113.850002171516,8|0,0:0|0:0,0:0:0:0:
42,163,147423,2,0,P|74:238|155:251,1,170.775003257275,0|8,0:0|0:0,0:0:0:0:
377,168,147756,1,8,0:0:0:0:
223,166,147923,1,8,0:0:0:0:
471,195,148090,6,0,L|472:335,1,113.850002171516
301,321,148423,2,0,L|429:320,1,113.850002171516,8|0,0:0|0:0,0:0:0:0:
155,128,148757,2,0,L|154:268,1,113.850002171516
304,243,149007,1,8,0:0:0:0:
141,279,149090,2,0,L|12:279,1,113.850002171516,8|8,0:0|0:0,0:0:0:0:
378,285,149423,6,0,L|500:284,1,113.850002171516
179,175,149756,1,8,0:0:0:0:
334,173,149923,1,0,0:0:0:0:
41,193,150090,2,0,L|250:192,1,170.775003257275,0|8,0:0|0:0,0:0:0:0:
400,85,150423,1,8,0:0:0:0:
150,85,150589,1,8,0:0:0:0:
418,287,150757,6,0,L|432:161,1,113.850002171516
159,177,151090,1,8,0:0:0:0:
314,175,151257,1,0,0:0:0:0:
52,344,151423,2,0,L|68:216,1,113.850002171516,0|8,0:0|0:0,0:0:0:0:
224,231,151673,1,0,0:0:0:0:
66,231,151757,2,0,L|52:344,1,113.850002171516,0|8,0:0|3:1,0:0:0:0:
224,231,152007,1,0,3:0:0:0:
429,184,152090,6,0,L|304:185,1,113.850002171516,4|0,0:2|0:0,0:0:0:0:
85,182,152423,1,8,0:0:0:0:
380,291,152590,2,0,P|448:263|369:173,1,227.700004343033
41,110,153090,1,8,0:0:0:0:
190,106,153257,1,0,0:0:0:0:
471,110,153423,5,0,0:0:0:0:
322,106,153590,1,0,0:0:0:0:
471,110,153757,1,8,0:0:0:0:
199,272,153923,2,0,L|197:206,1,56.9250010857582
377,207,154090,2,0,L|508:205,1,113.850002171516
256,120,154423,2,0,L|387:118,1,113.850002171516,8|0,0:0|0:0,0:0:0:0:
57,288,154757,6,0,L|57:144,1,113.850002171516,8|0,0:0|0:0,0:0:0:0:
325,193,155090,2,0,L|154:193,1,170.775003257275,8|0,0:0|0:0,0:0:0:0:
336,100,155423,1,8,0:0:0:0:
470,101,155590,1,0,0:0:0:0:
176,100,155757,1,8,0:0:0:0:
42,101,155924,1,0,0:0:0:0:
370,175,156090,5,8,0:0:0:0:
98,178,156257,1,8,0:0:0:0:
385,255,156423,1,8,0:0:0:0:
475,254,156535,1,0,0:0:0:0:
275,255,156646,1,0,0:0:0:0:
471,158,156757,1,4,3:0:0:0:
388,160,156868,1,0,3:0:0:0:
471,158,156979,1,0,3:0:0:0:
210,91,157090,1,4,3:0:0:0:
289,88,157201,1,0,3:0:0:0:
210,91,157312,1,0,3:0:0:0:
457,297,157423,6,0,L|456:179,1,99,4|0,0:2|3:0,0:0:0:0:
308,202,157757,2,0,L|168:203,1,99,0|0,3:0|3:0,0:0:0:0:
447,157,158090,1,8,0:0:0:0:
175,168,158257,2,0,L|175:56,1,99,0|0,3:0|3:0,0:0:0:0:
444,229,158589,6,0,L|245:228,1,198,0|0,3:0|3:0,0:0:0:0:
110,272,159090,2,0,L|250:273,1,99,0|0,3:0|3:0,0:0:0:0:
358,322,159423,2,0,L|498:323,1,99,8|0,0:0|3:0,0:0:0:0:
208,323,159756,1,8,3:1:0:0:
172,290,160090,6,0,L|32:291,1,99,4|0,0:2|3:0,0:0:0:0:
204,202,160424,2,0,L|344:203,1,99,0|0,3:0|3:0,3:0:0:0:
65,157,160757,1,8,0:0:0:0:
337,168,160924,2,0,L|337:56,1,99,0|0,3:0|3:0,3:0:0:0:
68,229,161257,6,0,L|267:228,1,198,4|8,3:2|3:3,3:0:0:0:
402,272,161757,2,0,L|262:273,1,99,0|0,3:0|3:0,0:0:0:0:
154,322,162090,2,0,L|154:198,1,99,8|0,0:0|3:0,0:0:0:0:
314,201,162423,2,0,L|450:201,1,99,2|0,3:3|3:0,3:0:0:0:
119,60,162757,6,0,L|16:59,1,99,4|0,0:2|3:0,0:0:0:0:
167,134,163090,2,0,L|270:135,1,99,0|0,3:0|3:0,3:0:0:0:
116,200,163423,1,8,0:0:0:0:
345,272,163590,2,0,L|483:272,1,99,0|0,3:0|3:0,3:0:0:0:
195,258,163923,6,0,P|125:215|209:181,1,198,0|0,3:0|3:0,3:0:0:0:
345,117,164423,2,0,L|228:116,1,99,0|0,3:0|3:0,3:0:0:0:
482,193,164757,2,0,L|483:312,1,99,8|0,0:0|3:0,0:0:0:0:
192,301,165090,1,8,3:1:0:0:
333,302,165423,5,4,0:2:0:0:
42,308,165590,2,0,L|43:191,1,99,0|0,3:0|3:0,3:0:0:0:
176,205,165923,1,0,3:0:0:0:
471,307,166090,2,0,L|472:190,1,99,8|0,0:0|3:0,0:0:0:0:
319,204,166423,1,0,3:0:0:0:
165,287,166590,6,0,L|270:287,1,99,4|0,3:2|3:0,3:0:0:0:
34,196,166923,2,0,L|32:90,1,99,8|0,3:3|3:0,0:0:0:0:
178,95,167257,1,0,3:0:0:0:
474,98,167423,2,0,L|475:215,1,99,8|8,0:0|3:3,0:0:0:0:
321,199,167757,1,4,3:3:0:0:
474,197,167923,1,4,3:3:0:0:
188,352,168090,5,8,0:0:0:0:
340,348,168257,1,0,3:0:0:0:
188,352,168423,1,8,0:0:0:0:
340,348,168590,1,0,3:0:0:0:
38,243,168757,1,8,0:0:0:0:
194,247,168923,1,0,3:0:0:0:
38,243,169090,1,8,0:0:0:0:
359,242,169257,1,8,0:0:0:0:
194,345,169590,5,2,0:2:0:0:
121,312,169757,1,2,0:2:0:0:
94,237,169923,1,0,3:0:0:0:
123,163,170090,1,2,0:2:0:0:
197,135,170257,1,0,3:0:0:0:
341,141,170423,2,0,L|351:31,1,99,2|0,0:2|3:0,0:0:0:0:
82,49,170757,5,8,0:0:0:0:
410,42,170923,1,8,0:0:0:0:
127,164,171257,1,8,0:0:0:0:
313,165,171590,1,8,0:0:0:0:
456,164,171757,1,8,0:0:0:0:
41,164,171923,1,8,0:0:0:0:
206,282,172257,5,0,3:0:0:0:
349,281,172424,1,0,3:0:0:0:
206,282,172590,1,0,3:0:0:0:
489,174,172743,1,0,3:0:0:0:
331,175,172905,1,0,3:0:0:0:
23,174,173067,1,0,3:0:0:0:
181,175,173229,1,0,3:0:0:0:
479,172,173409,5,4,1:2:0:0:
256,192,173575,12,0,175909,0:0:0:0:
254,189,176075,5,0,0:0:0:0:
256,192,176159,12,4,178742,0:2:0:0:
130,113,184075,5,0,3:0:0:0:
383,113,184409,1,0,3:0:0:0:
117,113,184742,1,0,3:0:0:0:
396,113,185076,1,0,3:0:0:0:
104,113,185409,1,0,3:0:0:0:
410,113,185743,1,0,3:0:0:0:
88,113,186075,1,0,3:0:0:0:
426,114,186409,2,0,L|307:112,1,99,0|0,3:0|3:0,0:0:0:0:
56,209,186742,6,0,L|226:209,2,148.5,4|0|0,3:0|3:0|3:0,1:0:0:0:
456,209,187409,6,0,L|258:209,2,178.199994561768,4|0|4,3:0|3:0|3:0,3:0:0:0:
150,274,188075,6,0,P|86:241|171:179,1,198,4|0,0:2|3:0,0:0:0:0:
300,171,188575,1,0,3:0:0:0:
43,209,188742,2,0,L|43:81,1,99,8|0,1:0|3:0,0:0:0:0:
192,107,189075,1,0,3:0:0:0:
475,107,189242,1,4,1:2:0:0:
181,296,189575,6,0,L|181:168,1,99,0|0,3:0|3:0,3:0:0:0:
330,194,189908,2,0,L|243:193,1,49.5,0|0,3:0|3:0,3:0:0:0:
78,193,190075,1,8,0:0:0:0:
280,284,190408,1,8,0:0:0:0:
435,284,190575,1,8,0:3:0:0:
26,278,190742,5,4,0:2:0:0:
256,192,190908,12,0,191908,0:0:0:0:
256,191,192075,5,2,0:0:0:0:
256,191,192742,1,2,0:0:0:0:
136,185,193742,2,0,L|205:186,1,59.3999981872559,2|0,3:2|3:0,3:0:0:0:
405,187,193908,2,0,L|342:187,1,59.3999981872559,2|0,3:2|3:0,3:0:0:0:
56,113,194077,6,0,L|192:114,1,113.850002171516,4|0,0:2|0:0,0:0:0:0:
335,194,194411,2,0,L|199:195,1,113.850002171516,8|0,0:0|0:0,0:0:0:0:
475,275,194743,2,0,L|291:276,1,170.775003257275,0|8,0:0|0:0,0:0:0:0:
44,318,195077,1,8,0:0:0:0:
204,316,195244,1,8,0:0:0:0:
459,99,195411,6,0,L|468:213,1,113.850002171516
299,293,195744,2,0,L|412:293,1,113.850002171516,8|0,0:0|0:0,0:0:0:0:
72,327,196077,2,0,L|82:196,1,113.850002171516
265,190,196327,1,8,0:0:0:0:
70,76,196411,2,0,L|61:189,1,113.850002171516,8|8,0:0|0:0,0:0:0:0:
376,118,196743,6,0,L|501:117,1,113.850002171516
192,253,197077,2,0,L|67:252,1,113.850002171516,8|0,0:0|0:0,0:0:0:0:
479,308,197410,2,0,L|263:307,1,170.775003257275,0|8,0:0|0:0,0:0:0:0:
111,312,197743,1,8,0:0:0:0:
350,308,197910,1,8,0:0:0:0:
93,228,198077,6,0,L|82:97,1,113.850002171516
330,114,198410,2,0,L|197:112,1,113.850002171516,8|0,0:0|0:0,0:0:0:0:
476,223,198743,2,0,L|337:222,1,113.850002171516
136,279,199077,2,0,L|56:281,1,56.9250010857582,8|0,0:0|3:0,0:0:0:0:
314,171,199243,2,0,L|234:173,1,56.9250010857582,0|0,3:0|3:0,3:0:0:0:
30,206,199410,6,0,L|30:57,1,113.850002171516,4|0,0:2|0:0,0:0:0:0:
312,86,199743,1,8,0:0:0:0:
31,294,199910,2,0,L|292:294,1,227.700004343033
439,283,200410,1,8,0:0:0:0:
290,281,200577,1,0,0:0:0:0:
61,221,200743,6,0,L|63:83,1,113.850002171516,0|0,0:0|3:0,0:0:0:0:
127,107,200993,1,0,3:0:0:0:
191,106,201077,1,8,0:0:0:0:
373,65,201243,2,0,P|437:98|341:194,1,227.700004343033
63,48,201743,1,8,0:0:0:0:
63,147,201910,1,0,0:0:0:0:
326,271,202077,5,0,0:0:0:0:
475,274,202243,1,0,0:0:0:0:
186,271,202410,1,8,0:0:0:0:
37,274,202576,1,0,0:0:0:0:
266,175,202743,2,0,L|190:175,1,56.9250010857582,8|0,3:0|3:0,3:0:0:0:
413,73,202910,2,0,L|339:75,1,56.9250010857582,0|0,3:0|3:0,3:0:0:0:
138,69,203077,1,8,1:0:0:0:
377,283,203243,6,0,P|445:244|354:158,1,227.700004343033,4|0,0:2|0:0,0:0:0:0:
61,254,203743,1,8,0:0:0:0:
211,252,203910,1,0,0:0:0:0:
435,127,204077,2,0,L|356:126,1,56.9250010857582,0|0,3:0|3:0,3:0:0:0:
196,120,204243,1,8,0:0:0:0:
435,210,204410,2,0,L|500:211,3,56.9250010857582,0|0|8|8,3:1|3:0|3:1|3:1,3:0:0:0:
262,338,204743,6,0,L|119:340,1,113.850002171516,4|0,0:2|0:0,0:0:0:0:
310,289,205077,2,0,L|453:291,1,113.850002171516,8|0,0:0|0:0,0:0:0:0:
34,314,205410,2,0,P|45:250|171:217,1,170.775003257275,0|8,0:0|0:0,0:0:0:0:
346,258,205743,1,8,0:0:0:0:
187,266,205910,1,8,0:0:0:0:
466,55,206077,6,0,L|477:179,1,113.850002171516
301,55,206410,2,0,L|290:179,1,113.850002171516,8|0,0:0|0:0,0:0:0:0:
26,263,206743,2,0,L|150:261,1,113.850002171516
316,307,206993,1,8,0:0:0:0:
138,233,207077,2,0,L|134:107,1,113.850002171516,8|8,0:0|0:0,0:0:0:0:
362,88,207410,6,0,L|490:87,1,113.850002171516
318,144,207743,2,0,L|181:144,1,113.850002171516,8|0,0:0|0:0,0:0:0:0:
474,247,208077,2,0,L|260:245,1,170.775003257275,0|8,0:0|0:0,0:0:0:0:
104,249,208410,1,8,0:0:0:0:
343,243,208576,1,8,0:0:0:0:
56,223,208743,6,0,L|198:223,1,113.850002171516
326,127,209076,2,0,L|184:127,1,113.850002171516,8|0,0:0|0:0,0:0:0:0:
485,274,209410,2,0,L|343:274,1,113.850002171516
118,286,209743,2,0,L|192:285,1,56.9250010857582,8|0,0:0|3:0,0:0:0:0:
340,197,209910,2,0,L|414:196,1,56.9250010857582,8|0,3:0|3:0,3:0:0:0:
41,56,210076,6,0,L|43:179,1,113.850002171516,4|0,0:2|0:0,0:0:0:0:
313,109,210410,1,8,0:0:0:0:
171,109,210576,1,0,0:0:0:0:
481,261,210743,1,8,0:0:0:0:
337,263,210910,1,0,0:0:0:0:
481,261,211076,1,8,0:0:0:0:
339,257,211243,1,0,0:0:0:0:
42,203,211410,6,0,L|167:203,1,113.850002171516,4|0,0:2|0:0,0:0:0:0:
331,273,211743,2,0,L|332:134,1,113.850002171516,8|0,0:0|0:0,0:0:0:0:
274,158,211993,1,0,0:0:0:0:
40,107,212076,1,8,0:0:0:0:
181,106,212243,1,0,0:0:0:0:
472,107,212410,1,8,0:0:0:0:
331,106,212577,1,0,0:0:0:0:
26,106,212743,6,0,L|34:225,1,113.850002171516,4|0,0:2|0:0,0:0:0:0:
181,106,213076,2,0,L|184:227,1,113.850002171516,8|0,0:0|0:0,0:0:0:0:
331,106,213410,2,0,L|328:227,1,113.850002171516,8|0,0:0|0:0,0:0:0:0:
485,106,213743,2,0,L|477:225,1,113.850002171516,8|0,0:0|0:0,0:0:0:0:
183,356,214076,6,0,L|186:278,1,56.9250010857582,8|0,0:0|0:0,0:0:0:0:
265,281,214243,2,0,L|262:203,1,56.9250010857582,8|0,0:0|0:0,0:0:0:0:
81,227,214410,2,0,L|84:149,1,56.9250010857582,8|0,0:0|0:0,0:0:0:0:
369,100,214576,2,0,L|375:232,1,113.850002171516,0|2,0:0|2:0,0:0:0:0:
38,199,214910,5,0,1:0:0:0:
342,197,215076,1,8,0:0:0:0:
117,202,215160,1,8,0:0:0:0:
55,203,215243,1,8,0:0:0:0:
342,197,215326,1,8,0:0:0:0:
185,196,215576,2,0,L|181:298,1,56.9250010857582,0|0,3:0|3:0,3:0:0:0:
471,292,215743,6,0,L|312:294,1,133.650000509834,4|0,0:2|0:0,0:0:0:0:
44,337,216076,2,0,L|203:339,1,133.650000509834,8|0,0:0|0:0,0:0:0:0:
468,231,216410,2,0,L|476:94,1,133.650000509834,8|0,0:0|0:0,0:0:0:0:
57,189,216743,6,0,L|293:189,1,200.475000764751,8|0,0:0|0:0,0:0:0:0:
477,101,217076,2,0,L|303:102,1,133.650000509834,8|0,0:0|0:0,0:0:0:0:
177,161,217410,1,8,0:0:0:0:
475,210,217576,2,0,L|389:209,1,66.8250002549171
177,267,217743,1,8,0:0:0:0:
474,314,217910,1,0,0:0:0:0:
160,182,218076,6,0,L|7:183,1,133.650000509834,8|0,0:0|0:0,0:0:0:0:
352,182,218410,2,0,L|505:183,1,133.650000509834,8|0,0:0|0:0,0:0:0:0:
291,178,218660,1,0,0:0:0:0:
91,289,218743,2,0,L|93:149,1,133.650000509834,8|0,0:0|0:0,0:0:0:0:
497,114,219076,1,8,0:0:0:0:
349,112,219243,1,0,0:0:0:0:
46,157,219410,6,0,L|47:290,1,133.650000509834,8|0,0:0|0:0,0:0:0:0:
326,97,219743,2,0,L|161:97,1,133.650000509834,8|0,0:0|0:0,0:0:0:0:
463,91,220076,2,0,L|464:224,1,133.650000509834,8|0,0:0|0:0,0:0:0:0:
230,210,220410,2,0,L|326:211,1,66.8250002549171,8|0,0:0|3:0,0:0:0:0:
383,285,220576,2,0,L|287:286,1,66.8250002549171,0|0,3:0|3:0,0:0:0:0:
69,161,220743,6,0,L|59:304,1,133.650000509834,4|0,0:2|0:0,0:0:0:0:
222,291,221076,1,8,0:0:0:0:
468,294,221243,2,0,L|377:295,1,66.8250002549171
164,211,221410,1,8,0:0:0:0:
332,210,221576,1,0,0:0:0:0:
168,372,221743,2,0,L|161:228,1,133.650000509834,8|0,0:0|0:0,0:0:0:0:
318,276,221993,1,0,0:0:0:0:
481,344,222076,6,0,L|484:203,1,133.650000509834,8|0,0:0|0:0,0:0:0:0:
323,122,222410,2,0,L|476:129,1,133.650000509834,8|0,0:0|0:0,0:0:0:0:
31,344,222743,2,0,L|28:203,1,133.650000509834,8|0,0:0|0:0,0:0:0:0:
319,207,223077,2,0,L|166:214,1,133.650000509834,8|0,0:0|0:0,0:0:0:0:
483,89,223410,6,0,L|349:82,1,133.650000509834,8|0,0:0|0:0,0:0:0:0:
29,89,223743,2,0,L|162:82,1,133.650000509834,8|0,0:0|0:0,0:0:0:0:
403,225,224076,2,0,L|393:137,1,66.8250002549171,8|0,0:0|3:0,0:0:0:0:
147,251,224243,2,0,L|157:163,1,66.8250002549171,0|0,3:0|3:0,3:0:0:0:
340,108,224410,1,0,3:0:0:0:
41,329,224576,6,0,L|351:330,1,267.300001019669,4|0,0:2|3:0,0:0:0:0:
36,257,225076,2,0,L|43:123,1,133.650000509834,8|0,0:0|3:0,0:0:0:0:
217,128,225326,1,0,3:0:0:0:
454,330,225410,2,2,L|140:330,1,306.900002341461
386,225,225743,2,0,L|394:297,1,66.8250002549171,8|0,0:0|3:0,0:0:0:0:
64,305,225909,2,0,L|56:377,1,66.8250002549171,0|0,3:0|3:0,3:0:0:0:
283,151,226076,6,0,L|499:149,1,200.475000764751,4|8,1:2|1:0,0:0:0:0:
242,64,226410,1,8,0:0:0:0:
387,67,226576,1,8,0:0:0:0:
47,284,226743,2,0,L|46:74,1,200.475000764751,0|8,0:0|0:0,0:0:0:0:
284,66,227077,1,8,0:0:0:0:
137,68,227243,1,8,0:0:0:0:
435,303,227410,6,0,L|439:90,1,200.475000764751,0|8,0:0|0:0,0:0:0:0:
257,141,227743,1,8,0:0:0:0:
403,142,227910,1,8,0:0:0:0:
123,342,228076,2,0,L|114:201,1,133.650000509834
181,200,228326,1,8,0:0:0:0:
451,342,228410,2,0,L|460:201,1,133.650000509834,8|8,0:0|0:0,0:0:0:0:
295,189,228660,1,8,0:0:0:0:
468,186,228743,6,0,P|456:107|326:52,1,200.475000764751,4|0,0:2|0:0,0:0:0:0:
171,64,229076,1,8,0:0:0:0:
311,60,229243,1,0,0:0:0:0:
60,254,229410,2,0,L|271:256,1,200.475000764751,0|8,0:0|0:0,0:0:0:0:
449,258,229743,1,8,0:0:0:0:
200,254,229910,1,8,0:0:0:0:
468,186,230076,6,0,P|456:107|326:52,1,200.475000764751,4|8,0:2|0:0,0:0:0:0:
121,55,230409,1,8,0:0:0:0:
256,55,230576,1,8,0:0:0:0:
485,312,230743,2,0,L|485:152,1,133.650000509834,8|0,3:0|0:0,0:0:0:0:
326,213,230993,1,0,0:0:0:0:
154,258,231076,2,0,L|246:258,1,66.8250002549171,8|0,3:1|3:0,3:0:0:0:
430,321,231243,2,0,L|364:320,1,66.8250002549171,0|0,3:0|3:0,3:0:0:0:
197,159,231410,5,4,0:2:0:0:
39,160,231576,1,0,3:0:0:0:
193,159,231743,1,0,3:0:0:0:
35,160,231909,1,0,3:0:0:0:
188,159,232076,1,0,3:0:0:0:
30,160,232242,1,0,3:0:0:0:
184,159,232410,1,0,3:0:0:0:
26,160,232576,1,0,3:0:0:0:
316,158,232743,5,4,0:2:0:0:
477,159,232909,1,8,0:0:0:0:
320,158,233076,1,8,0:0:0:0:
481,159,233242,1,8,0:0:0:0:
325,158,233409,1,8,0:0:0:0:
486,159,233575,1,8,0:0:0:0:
329,158,233743,1,8,0:0:0:0:
490,159,233909,1,8,0:0:0:0:
114,192,234076,5,4,0:2:0:0:
256,190,234243,1,4,3:0:0:0:
398,192,234410,1,8,3:0:0:0:
100,192,234576,1,4,1:2:0:0:
256,189,234743,1,4,3:0:0:0:
411,192,234910,1,8,3:0:0:0:
185,103,235076,1,4,1:2:0:0:
32,106,235243,1,0,3:0:0:0:
374,187,235410,5,4,1:2:0:0:
130,191,235576,1,0,0:0:0:0:
354,92,235743,2,0,L|444:93,1,65.3399998005982,8|0,0:0|0:0,0:0:0:0:
157,92,235910,2,0,L|67:93,1,65.3399998005982,8|0,0:0|0:0,0:0:0:0:
437,177,236076,2,0,L|370:177,1,65.3399998005982,8|0,0:0|0:0,0:0:0:0:
78,178,236243,2,0,L|144:178,1,65.3399998005982,8|0,0:0|0:0,0:0:0:0:
391,259,236410,2,8,L|458:259,1,65.3399998005982
125,261,236576,2,8,L|59:261,1,65.3399998005982
417,355,236743,5,4,0:2:0:0:
257,189,240910,5,4,3:0:0:0:
125,274,241243,2,0,L|125:189,1,54.4500016616822,0|0,3:0|3:0,3:0:0:0:
311,250,241410,2,0,L|429:250,1,108.900003323364,8|0,0:0|3:0,0:0:0:0:
128,126,241743,2,0,L|251:126,1,108.900003323364,8|0,0:0|3:0,0:0:0:0:
480,128,242076,5,4,1:2:0:0:
110,127,242243,1,4,1:2:0:0:
397,231,242576,2,0,L|318:232,1,54.4500016616822,0|0,3:0|3:0,3:0:0:0:
156,284,242743,2,0,L|156:166,1,108.900003323364,8|4,1:1|3:0,0:0:0:0:
307,171,243077,1,8,1:0:0:0:
52,311,243243,6,0,L|49:79,1,217.800006646729,4|8,0:2|3:0,0:0:0:0:
308,90,243743,1,0,1:0:0:0:
156,87,243910,1,0,3:0:0:0:
156,87,243993,1,0,3:0:0:0:
156,87,244076,1,8,3:0:0:0:
400,212,244243,2,0,P|471:184|389:115,1,217.800006646729,8|0,1:0|3:3,0:0:0:0:
51,123,244743,5,4,1:2:0:0:
256,192,244910,12,0,250326,0:0:0:0:
