osu file format v14

[General]
AudioFilename: audio.mp3
AudioLeadIn: 0
PreviewTime: 59336
Countdown: 0
SampleSet: Normal
StackLeniency: 0.7
Mode: 2
LetterboxInBreaks: 0
WidescreenStoryboard: 1

[Editor]
DistanceSpacing: 1.1
BeatDivisor: 4
GridSize: 4
TimelineZoom: 1.8

[Metadata]
Title:Tsuki ni Murakumo Hana ni Kaze ShinRa-Bansho Ver
TitleUnicode:月に叢雲華に風 森羅万象Ver
Artist:ShinRa-Bansho
ArtistUnicode:森羅万象
Creator:Spectator
Version:Benita's Platter
Source:東方地霊殿 ~ Subterranean Animism.
Tags:Greaper Benita Benny- BennyBananas ZUN あやぽんず* あよ ayaponzu* ayaponzu ayo ラストリモート 東方歌ってみた clouds over the moon and wind over the flowers touhou chireiden 2hu project 東方project japanese pop jpop j-pop video game
BeatmapID:2662814
BeatmapSetID:1267528

[Difficulty]
HPDrainRate:4
CircleSize:3.2
OverallDifficulty:8
ApproachRate:8
SliderMultiplier:1.7
SliderTickRate:2

[Events]
//Background and Video events
0,0,"bg.jpg",0,0
//Break Periods
2,81610,85993
2,124290,128673
2,178942,183325
2,236944,240160
//Storyboard Layer 0 (Background)
//Storyboard Layer 1 (Fail)
//Storyboard Layer 2 (Pass)
//Storyboard Layer 3 (Foreground)
//Storyboard Layer 4 (Overlay)
//Storyboard Sound Samples

[TimingPoints]
744,333.333333333333,4,2,1,15,1,0
827,-100,4,2,1,16,0,0
910,-100,4,2,1,17,0,0
993,-100,4,2,1,18,0,0
1077,-100,4,2,1,19,0,0
1160,-100,4,2,1,20,0,0
1243,-100,4,2,1,21,0,0
1327,-100,4,2,1,22,0,0
1410,-100,4,2,1,23,0,0
1493,-100,4,2,1,24,0,0
1577,-100,4,2,1,25,0,0
1660,-100,4,2,1,26,0,0
1743,-100,4,2,1,27,0,0
1827,-100,4,2,1,28,0,0
1910,-100,4,2,1,29,0,0
1993,-100,4,2,1,30,0,0
2077,-100,4,2,1,31,0,0
2160,-100,4,2,1,32,0,0
2243,-100,4,2,1,33,0,0
2327,-100,4,2,1,34,0,0
2410,-100,4,2,1,35,0,0
2493,-100,4,2,1,36,0,0
2577,-100,4,2,1,37,0,0
2660,-100,4,2,1,38,0,0
2743,-100,4,2,1,39,0,0
2827,-100,4,2,1,40,0,0
2910,-100,4,2,1,41,0,0
2993,-100,4,2,1,42,0,0
3077,-100,4,2,1,43,0,0
3160,-100,4,2,1,44,0,0
3243,-100,4,2,1,45,0,0
3327,-100,4,2,1,46,0,0
3410,-100,4,2,1,47,0,0
3493,-100,4,2,1,48,0,0
3577,-100,4,2,1,49,0,0
4077,-100,4,2,1,50,0,0
6743,-100,4,2,1,40,0,0
7410,-100,4,2,1,55,0,0
9577,-100,4,2,1,45,0,0
9743,-100,4,2,1,55,0,0
10077,-100,4,1,1,50,0,0
11410,-100,4,1,1,53,0,0
12743,-100,4,1,1,56,0,0
14077,-100,4,1,1,60,0,0
15910,-100,4,1,1,45,0,0
16077,333.333333333333,4,1,1,65,1,0
16410,-100,4,1,2,65,0,0
16577,-100,4,1,1,65,0,0
16743,-100,4,1,2,65,0,0
16910,-100,4,1,1,65,0,0
17077,-100,4,1,2,65,0,0
17243,-100,4,1,1,65,0,0
17410,-100,4,1,2,65,0,0
17577,-100,4,1,1,65,0,0
17743,-100,4,1,2,65,0,0
17910,-100,4,1,1,65,0,0
18076,-100,4,1,2,65,0,0
18243,-100,4,1,1,65,0,0
18410,-100,4,1,2,65,0,0
18576,-100,4,1,1,65,0,0
19076,-100,4,1,2,65,0,0
19243,-100,4,1,1,65,0,0
19410,-100,4,1,2,65,0,0
19576,-100,4,1,1,65,0,0
19743,-100,4,1,2,65,0,0
19910,-100,4,1,1,65,0,0
20076,-100,4,1,2,65,0,0
20243,-100,4,1,1,65,0,0
20410,-100,4,1,2,65,0,0
20576,-100,4,1,1,65,0,0
20743,-100,4,1,2,65,0,0
20910,-100,4,1,1,65,0,0
21743,-100,4,1,2,65,0,0
21910,-100,4,1,1,65,0,0
22076,-100,4,1,2,65,0,0
22243,-100,4,1,1,65,0,0
22410,-100,4,1,2,65,0,0
22576,-100,4,1,1,65,0,0
22743,-100,4,1,2,65,0,0
22910,-100,4,1,1,65,0,0
23076,-100,4,1,2,65,0,0
23243,-100,4,1,1,65,0,0
23410,-100,4,1,2,65,0,0
23576,-100,4,1,1,65,0,0
23743,-100,4,1,2,65,0,0
23910,-100,4,1,1,65,0,0
24410,-100,4,1,2,65,0,0
24576,-100,4,1,1,65,0,0
24743,-100,4,1,2,65,0,0
24910,-100,4,1,1,65,0,0
25076,-100,4,1,2,65,0,0
25243,-100,4,1,1,65,0,0
26410,-90.9090909090909,4,1,1,65,0,0
26743,-100,4,3,1,45,0,0
31576,-100,4,1,1,65,0,0
32410,-100,4,1,2,65,0,0
32576,-100,4,1,1,65,0,0
32743,-100,4,1,2,65,0,0
32910,-100,4,1,1,65,0,0
33076,-100,4,1,2,65,0,0
33243,-100,4,1,1,65,0,0
33410,-100,4,1,2,65,0,0
33576,-100,4,1,1,65,0,0
33743,-100,4,1,2,65,0,0
33910,-100,4,1,1,65,0,0
34076,-100,4,1,2,65,0,0
34243,-100,4,1,1,65,0,0
34410,-100,4,1,2,65,0,0
34576,-100,4,1,1,65,0,0
34743,-100,4,1,2,65,0,0
34910,-100,4,1,1,65,0,0
35076,-100,4,1,2,65,0,0
35243,-100,4,1,1,65,0,0
37160,-86.9565217391304,4,1,1,50,0,0
37410,-90.9090909090909,4,1,1,65,0,0
37743,-100,4,1,2,65,0,0
37910,-100,4,1,1,65,0,0
38076,-100,4,1,2,65,0,0
38243,-100,4,1,1,65,0,0
38410,-100,4,1,2,65,0,0
38576,-100,4,1,1,65,0,0
38743,-100,4,1,2,65,0,0
38910,-100,4,1,1,65,0,0
39076,-100,4,1,2,65,0,0
39243,-100,4,1,1,65,0,0
39410,-100,4,1,2,65,0,0
39576,-100,4,1,1,65,0,0
39743,-100,4,1,2,65,0,0
39910,-100,4,1,1,65,0,0
42410,-90.9090909090909,4,1,1,65,0,0
42743,-100,4,1,1,65,0,0
48076,-100,4,1,1,50,0,0
49243,-142.857142857143,4,1,1,50,0,0
50743,-100,4,1,1,50,0,0
53410,-100,4,1,1,50,0,0
54076,-100,4,1,1,55,0,0
54576,-100,4,1,2,58,0,0
54743,-100,4,1,1,58,0,0
55410,-100,4,1,1,60,0,0
56076,-100,4,1,1,62,0,0
56410,-100,4,1,2,65,0,0
56576,-100,4,1,1,65,0,0
56743,-100,4,1,2,65,0,0
56826,-100,4,1,1,65,0,0
57076,-100,4,1,2,65,0,0
57243,-83.3333333333333,4,1,1,65,0,0
57410,-90.9090909090909,4,1,1,65,0,0
58076,-90.9090909090909,4,1,1,65,0,0
58243,-90.9090909090909,4,1,1,40,0,0
58410,-90.9090909090909,4,1,1,47,0,0
58576,-90.9090909090909,4,1,1,53,0,0
58743,-90.9090909090909,4,1,1,60,0,0
60076,-100,4,1,1,65,0,1
60243,-100,4,1,2,65,0,1
60410,-100,4,1,1,65,0,1
60576,-100,4,1,2,65,0,1
60743,-100,4,1,1,65,0,1
61243,-100,4,1,2,65,0,1
61410,-100,4,1,1,65,0,1
61576,-100,4,1,2,65,0,1
61743,-100,4,1,1,65,0,1
61910,-100,4,1,2,65,0,1
62076,-100,4,1,1,65,0,1
62243,-100,4,1,2,65,0,1
62326,-100,4,1,1,65,0,1
62576,-100,4,1,2,65,0,1
62743,-100,4,1,1,65,0,1
62910,-100,4,1,2,65,0,1
63076,-100,4,1,1,65,0,1
63243,-100,4,1,2,65,0,1
63410,-100,4,1,1,65,0,1
63910,-100,4,1,2,65,0,1
64076,-100,4,1,1,65,0,1
64243,-100,4,1,2,65,0,1
64410,-100,4,1,1,65,0,1
64576,-100,4,1,2,65,0,1
64743,-100,4,1,1,65,0,1
64910,-100,4,1,2,65,0,1
64993,-100,4,1,1,65,0,1
65243,-100,4,1,2,65,0,1
65410,-100,4,1,1,65,0,1
65743,-100,4,1,2,65,0,1
65910,-100,4,1,1,65,0,1
66410,-100,4,1,2,65,0,1
66576,-100,4,1,1,65,0,1
66743,-100,4,1,2,65,0,1
66910,-100,4,1,1,65,0,1
67076,-100,4,1,2,65,0,1
67243,-100,4,1,1,65,0,1
67410,-100,4,1,2,65,0,1
67576,-100,4,1,1,65,0,1
67743,-100,4,1,2,65,0,1
67910,-100,4,1,1,65,0,1
68743,-100,4,1,1,65,0,1
69076,-100,4,1,1,65,0,1
69743,-100,4,1,2,65,0,1
69910,-100,4,1,1,65,0,1
71243,-100,4,1,2,65,0,1
71410,-100,4,1,1,65,0,1
71910,-100,4,1,2,65,0,1
72076,-100,4,1,1,65,0,1
72243,-100,4,1,2,65,0,1
72410,-100,4,1,1,65,0,1
72576,-100,4,1,2,65,0,1
72743,-100,4,1,1,65,0,1
72910,-100,4,1,2,65,0,1
72993,-100,4,1,1,65,0,1
73243,-100,4,1,2,65,0,1
73410,-100,4,1,1,65,0,1
73576,-100,4,1,2,65,0,1
73743,-100,4,1,1,65,0,1
73910,-100,4,1,2,65,0,1
74076,-100,4,1,1,65,0,1
74576,-100,4,1,2,65,0,1
74743,-100,4,1,1,65,0,1
74910,-100,4,1,2,65,0,1
75076,-100,4,1,1,65,0,1
75243,-100,4,1,2,65,0,1
75410,-100,4,1,1,65,0,1
75576,-100,4,1,2,65,0,1
75743,-100,4,1,1,65,0,1
77076,-100,4,1,2,65,0,1
77243,-100,4,1,1,65,0,1
77410,-100,4,1,2,65,0,1
77576,-100,4,1,1,65,0,1
77743,-100,4,1,2,65,0,1
77910,-100,4,1,1,65,0,1
78076,-100,4,1,2,65,0,1
78243,-100,4,1,1,65,0,1
78410,-100,4,1,2,65,0,1
78576,-100,4,1,1,65,0,1
79076,-100,4,1,2,65,0,1
79243,-100,4,1,1,65,0,1
79743,-100,4,1,2,65,0,1
79910,-100,4,1,1,65,0,1
81410,-100,4,1,1,65,0,0
85410,-100,4,1,1,65,0,0
86410,-100,4,1,2,65,0,0
86493,-100,4,1,1,65,0,0
86743,-100,4,1,1,65,0,0
87910,-91.743119266055,4,1,1,65,0,0
88243,342.857142857143,4,1,1,65,1,0
88928,337.078651685393,4,1,1,65,1,0
89424,333.333333333333,4,1,1,65,1,0
92757,-100,4,1,2,65,0,0
93090,-100,4,1,1,65,0,0
93257,-100,4,1,1,65,0,0
93340,-100,4,1,1,65,0,0
94090,-100,4,1,2,65,0,0
94257,-100,4,1,1,65,0,0
94424,-100,4,1,2,65,0,0
94590,-100,4,1,1,65,0,0
95424,-100,4,1,2,65,0,0
95757,-100,4,1,1,65,0,0
97757,-100,4,1,2,65,0,0
97923,-100,4,1,1,65,0,0
98090,-100,4,1,2,65,0,0
98257,-100,4,1,1,65,0,0
98423,-100,4,1,2,65,0,0
98590,-100,4,1,1,65,0,0
98757,-100,4,1,2,65,0,0
98923,-100,4,1,1,65,0,0
99090,-100,4,1,2,65,0,0
99257,-100,4,1,1,65,0,0
100090,-100,4,1,1,65,0,0
100173,-100,4,1,1,65,0,0
100423,-100,4,1,2,65,0,0
100590,-100,4,1,1,65,0,0
100923,-100,4,1,2,65,0,0
101090,-100,4,1,1,65,0,0
102757,-100,4,1,1,50,0,0
103423,-100,4,1,1,50,0,0
107090,-100,4,1,1,65,0,0
107757,-100,4,1,1,65,0,0
108090,-100,4,1,1,65,0,1
108173,-100,4,1,1,65,0,0
108257,-100,4,1,1,65,0,0
109757,-100,4,1,2,65,0,0
109923,-100,4,1,1,65,0,0
110090,-100,4,1,2,65,0,0
110257,-100,4,1,1,65,0,0
110423,-100,4,1,2,65,0,0
110590,-100,4,1,1,65,0,0
113757,-100,4,1,2,65,0,0
113923,-100,4,1,1,65,0,0
114423,-100,4,1,2,65,0,0
114590,-100,4,1,1,65,0,0
114757,-100,4,1,2,65,0,0
114923,-100,4,1,1,65,0,0
115090,-100,4,1,2,65,0,0
115257,-100,4,1,1,65,0,0
115423,-100,4,1,2,65,0,0
115590,-100,4,1,1,65,0,0
115757,-100,4,1,2,65,0,0
115923,-100,4,1,1,65,0,0
116090,-100,4,1,2,65,0,0
116257,-100,4,1,1,65,0,0
116423,-100,4,1,2,65,0,0
116590,-100,4,1,1,65,0,0
116757,-100,4,1,2,65,0,0
116923,-100,4,1,1,65,0,0
117423,-100,4,1,2,65,0,0
117590,-100,4,1,1,65,0,0
117757,-100,4,1,2,65,0,0
117923,-100,4,1,1,65,0,0
118090,-100,4,1,2,65,0,0
118257,-100,4,1,1,65,0,0
119257,-100,4,1,2,65,0,0
119423,-100,4,1,1,65,0,0
120257,-100,4,1,2,65,0,0
120423,-100,4,1,1,65,0,0
120590,-100,4,1,2,65,0,0
120757,-100,4,1,1,65,0,0
122257,-100,4,1,2,65,0,0
122423,-100,4,1,1,65,0,0
123590,-100,4,1,1,65,0,0
123757,-100,4,1,1,65,0,0
123923,-100,4,1,1,65,0,0
124090,-100,4,1,1,65,0,0
124257,-100,4,2,1,60,0,0
126757,-100,4,2,1,65,0,0
129090,-100,4,1,2,65,0,0
129257,-100,4,2,1,65,0,0
129423,-100,4,1,1,65,0,0
130757,-100,4,1,1,68,0,0
132090,-100,4,1,1,70,0,0
133757,-100,4,1,1,40,0,0
134090,-100,4,1,1,50,0,0
134423,-100,4,1,1,60,0,0
134757,-100,4,1,1,65,0,0
136090,-100,4,1,1,65,0,1
136590,-100,4,1,2,65,0,1
136757,-100,4,1,1,65,0,1
137257,-100,4,1,2,65,0,1
137423,-100,4,1,1,65,0,1
137590,-100,4,1,2,65,0,1
137757,-100,4,1,1,65,0,1
137923,-100,4,1,2,65,0,1
138090,-100,4,1,1,65,0,1
138257,-100,4,1,2,65,0,1
138340,-100,4,1,1,65,0,1
138590,-100,4,1,2,65,0,1
138757,-100,4,1,1,65,0,1
138923,-100,4,1,2,65,0,1
139090,-100,4,1,1,65,0,1
139257,-100,4,1,2,65,0,1
139423,-100,4,1,1,65,0,1
139923,-100,4,1,2,65,0,1
140090,-100,4,1,1,65,0,1
140257,-100,4,1,2,65,0,1
140423,-100,4,1,1,65,0,1
140590,-100,4,1,2,65,0,1
140757,-100,4,1,1,65,0,1
140923,-100,4,1,2,65,0,1
141090,-100,4,1,1,65,0,1
142423,-100,4,1,2,65,0,1
142590,-100,4,1,1,65,0,1
143090,-100,4,1,2,65,0,1
143257,-100,4,1,1,65,0,1
143423,-100,4,1,2,65,0,1
143590,-100,4,1,1,65,0,1
143757,-100,4,1,2,65,0,1
143923,-100,4,1,1,65,0,1
144423,-100,4,1,2,65,0,1
144590,-100,4,1,1,65,0,1
145757,-100,4,1,2,65,0,1
145923,-100,4,1,1,65,0,1
147257,-100,4,1,2,65,0,1
147423,-100,4,1,1,65,0,1
147923,-100,4,1,2,65,0,1
148090,-100,4,1,1,65,0,1
148257,-100,4,1,2,65,0,1
148423,-100,4,1,1,65,0,1
148590,-100,4,1,2,65,0,1
148757,-100,4,1,1,65,0,1
148923,-100,4,1,2,65,0,1
149007,-100,4,1,1,65,0,1
149257,-100,4,1,2,65,0,1
149423,-100,4,1,1,65,0,1
149590,-100,4,1,2,65,0,1
149757,-100,4,1,1,65,0,1
149923,-100,4,1,2,65,0,1
150090,-100,4,1,1,65,0,1
150590,-100,4,1,2,65,0,1
150757,-100,4,1,1,65,0,1
150923,-100,4,1,2,65,0,1
151090,-100,4,1,1,65,0,1
151257,-100,4,1,2,65,0,1
151423,-100,4,1,1,65,0,1
152423,-100,4,1,2,65,0,1
152590,-100,4,1,1,65,0,1
153090,-100,4,1,2,65,0,1
153257,-100,4,1,1,65,0,1
153423,-100,4,1,2,65,0,1
153590,-100,4,1,1,65,0,1
153757,-100,4,1,2,65,0,1
153923,-100,4,1,1,65,0,1
154090,-100,4,1,2,65,0,1
154257,-100,4,1,1,65,0,1
154423,-100,4,1,2,65,0,1
154590,-100,4,1,1,65,0,1
154757,-100,4,1,2,65,0,1
154923,-100,4,1,1,65,0,1
155090,-100,4,1,2,65,0,1
155257,-100,4,1,1,65,0,1
155423,-100,4,1,2,65,0,1
155590,-100,4,1,1,65,0,1
155757,-100,4,1,2,65,0,1
155923,-100,4,1,1,65,0,1
156090,-100,4,1,1,70,0,1
157423,-100,4,1,1,65,0,0
169590,-100,4,1,1,50,0,0
170757,-100,4,1,1,65,0,0
171590,-100,4,1,2,65,0,0
171757,-100,4,1,1,65,0,0
171923,-100,4,1,2,65,0,0
172257,-100,4,1,1,65,0,0
172590,-100,4,1,1,68,0,0
172743,324.324324324324,4,1,1,70,1,0
173067,-100,4,1,1,74,0,0
173409,333.333333333333,4,1,1,75,1,1
173492,-100,4,1,1,75,0,0
173575,-100,4,1,1,45,0,0
175909,-100,4,1,2,45,0,0
177409,-100,4,1,2,50,0,0
177742,-100,4,1,2,53,0,0
178075,-100,4,1,2,56,0,0
178409,-100,4,1,2,60,0,0
178742,-100,4,2,1,50,0,0
184075,-100,4,1,1,50,0,0
185409,-100,4,1,1,55,0,0
186742,-100,4,1,1,60,0,0
187409,-100,4,1,1,65,0,0
188075,-100,4,1,1,65,0,0
190908,-100,4,1,1,75,0,0
192075,-100,4,2,1,55,0,0
192742,-100,4,2,1,60,0,0
193742,-100,4,1,1,65,0,0
194077,333.333333333333,4,1,1,65,1,1
194077,-100,4,1,1,65,0,1
194577,-100,4,1,2,65,0,1
194743,-100,4,1,1,65,0,1
195243,-100,4,1,2,65,0,1
195410,-100,4,1,1,65,0,1
195577,-100,4,1,2,65,0,1
195743,-100,4,1,1,65,0,1
195910,-100,4,1,2,65,0,1
196077,-100,4,1,1,65,0,1
196243,-100,4,1,2,65,0,1
196327,-100,4,1,1,65,0,1
196577,-100,4,1,2,65,0,1
196743,-100,4,1,1,65,0,1
196910,-100,4,1,2,65,0,1
197077,-100,4,1,1,65,0,1
197243,-100,4,1,2,65,0,1
197410,-100,4,1,1,65,0,1
197910,-100,4,1,2,65,0,1
198077,-100,4,1,1,65,0,1
198243,-100,4,1,2,65,0,1
198410,-100,4,1,1,65,0,1
198577,-100,4,1,2,65,0,1
198743,-100,4,1,1,65,0,1
198910,-100,4,1,2,65,0,1
199077,-100,4,1,1,65,0,1
200410,-100,4,1,2,65,0,1
200577,-100,4,1,1,65,0,1
201077,-100,4,1,2,65,0,1
201243,-100,4,1,1,65,0,1
201410,-100,4,1,2,65,0,1
201577,-100,4,1,1,65,0,1
201743,-100,4,1,2,65,0,1
201910,-100,4,1,1,65,0,1
202410,-100,4,1,2,65,0,1
202577,-100,4,1,1,65,0,1
205243,-100,4,1,2,65,0,1
205410,-100,4,1,1,65,0,1
205910,-100,4,1,2,65,0,1
206077,-100,4,1,1,65,0,1
206243,-100,4,1,2,65,0,1
206410,-100,4,1,1,65,0,1
206577,-100,4,1,2,65,0,1
206743,-100,4,1,1,65,0,1
206910,-100,4,1,2,65,0,1
206993,-100,4,1,1,65,0,1
207243,-100,4,1,2,65,0,1
207410,-100,4,1,1,65,0,1
207577,-100,4,1,2,65,0,1
207743,-100,4,1,1,65,0,1
207910,-100,4,1,2,65,0,1
208077,-100,4,1,1,65,0,1
208910,-100,4,1,2,65,0,1
209076,-100,4,1,1,65,0,1
209243,-100,4,1,2,65,0,1
209410,-100,4,1,1,65,0,1
209576,-100,4,1,2,65,0,1
209743,-100,4,1,1,65,0,1
210410,-100,4,1,2,65,0,1
210576,-100,4,1,1,65,0,1
210743,-100,4,1,2,65,0,1
210910,-100,4,1,1,65,0,1
211076,-100,4,1,2,65,0,1
211243,-100,4,1,1,65,0,1
211410,-100,4,1,2,65,0,1
211576,-100,4,1,1,65,0,1
211743,-100,4,1,2,65,0,1
211910,-100,4,1,1,65,0,1
212076,-100,4,1,2,65,0,1
212243,-100,4,1,1,65,0,1
212410,-100,4,1,2,65,0,1
212576,-100,4,1,1,65,0,1
212743,-100,4,1,2,65,0,1
212910,-100,4,1,1,65,0,1
213076,-100,4,1,2,65,0,1
213243,-100,4,1,1,65,0,1
213410,-100,4,1,2,65,0,1
213576,-100,4,1,1,65,0,1
213743,-100,4,1,2,65,0,1
213910,-100,4,1,1,65,0,1
215326,-100,4,1,1,65,0,0
215743,-100,4,1,1,65,0,1
216076,-100,4,1,3,65,0,1
216243,-100,4,1,1,65,0,1
216410,-100,4,1,3,65,0,1
216576,-100,4,1,1,65,0,1
216743,-100,4,1,3,65,0,1
216910,-100,4,1,1,65,0,1
217076,-100,4,1,3,65,0,1
217243,-100,4,1,1,65,0,1
217410,-100,4,1,3,65,0,1
217576,-100,4,1,1,65,0,1
217743,-100,4,1,3,65,0,1
217910,-100,4,1,1,65,0,1
218076,-100,4,1,3,65,0,1
218243,-100,4,1,1,65,0,1
218410,-100,4,1,3,65,0,1
218576,-100,4,1,1,65,0,1
218743,-100,4,1,3,65,0,1
218910,-100,4,1,1,65,0,1
219076,-100,4,1,3,65,0,1
219243,-100,4,1,1,65,0,1
219410,-100,4,1,3,65,0,1
219576,-100,4,1,1,65,0,1
219743,-100,4,1,3,65,0,1
219910,-100,4,1,1,65,0,1
220076,-100,4,1,3,65,0,1
220243,-100,4,1,1,65,0,1
220743,-100,4,1,3,65,0,1
220910,-100,4,1,1,65,0,1
221076,-100,4,1,3,65,0,1
221243,-100,4,1,1,65,0,1
221410,-100,4,1,3,65,0,1
221576,-100,4,1,1,65,0,1
221743,-100,4,1,3,65,0,1
221910,-100,4,1,1,65,0,1
222076,-100,4,1,3,65,0,1
222243,-100,4,1,1,65,0,1
222410,-100,4,1,3,65,0,1
222576,-100,4,1,1,65,0,1
222743,-100,4,1,3,65,0,1
222910,-100,4,1,1,65,0,1
223076,-100,4,1,3,65,0,1
223243,-100,4,1,1,65,0,1
223410,-100,4,1,3,65,0,1
223576,-100,4,1,1,65,0,1
223743,-100,4,1,3,65,0,1
223910,-100,4,1,1,65,0,1
225410,-100,4,1,1,65,0,1
225743,-100,4,1,1,65,0,1
226410,-100,4,1,3,65,0,1
226576,-100,4,1,1,65,0,1
226743,-100,4,1,3,65,0,1
226910,-100,4,1,1,65,0,1
227076,-100,4,1,3,65,0,1
227243,-100,4,1,1,65,0,1
227410,-100,4,1,3,65,0,1
227576,-100,4,1,1,65,0,1
227743,-100,4,1,3,65,0,1
227910,-100,4,1,1,65,0,1
228076,-100,4,1,3,65,0,1
228243,-100,4,1,1,65,0,1
228410,-100,4,1,3,65,0,1
228493,-100,4,1,1,65,0,1
229076,-100,4,1,3,65,0,1
229243,-100,4,1,1,65,0,1
229410,-100,4,1,3,65,0,1
229576,-100,4,1,1,65,0,1
229743,-100,4,1,3,65,0,1
229910,-100,4,1,1,65,0,1
230076,-100,4,1,3,65,0,1
230160,-100,4,1,1,65,0,1
230410,-100,4,1,3,65,0,1
230576,-100,4,1,1,65,0,1
230743,-100,4,1,3,65,0,1
230910,-100,4,1,1,65,0,1
232743,-100,4,1,1,70,0,1
236743,-100,4,1,1,65,0,0
240910,-100,4,1,1,60,0,0
242076,-100,4,1,1,65,0,0
243243,-100,4,1,1,60,0,0
244743,-100,4,1,1,65,0,1
244826,-100,4,1,1,65,0,0
244910,-100,4,1,1,65,0,0
245076,-100,4,1,1,63,0,0
245243,-100,4,1,1,61,0,0
245410,-100,4,1,1,59,0,0
245576,-100,4,1,1,57,0,0
245743,-100,4,1,1,55,0,0
245910,-100,4,1,1,53,0,0
246076,-100,4,1,1,51,0,0
246243,-100,4,1,1,49,0,0
246410,-100,4,1,1,47,0,0
246576,-100,4,1,1,45,0,0
246743,-100,4,1,1,43,0,0
246910,-100,4,1,1,41,0,0
247076,-100,4,1,1,39,0,0
247243,-100,4,1,1,37,0,0
247410,-100,4,1,1,35,0,0
247576,-100,4,1,1,33,0,0
247743,-100,4,1,1,31,0,0
247910,-100,4,1,1,29,0,0
248076,-100,4,1,1,27,0,0
248243,-100,4,1,1,26,0,0
248410,-100,4,1,1,25,0,0
248576,-100,4,1,1,24,0,0
248743,-100,4,1,1,23,0,0
248910,-100,4,1,1,22,0,0
249076,-100,4,1,1,21,0,0
249243,-100,4,1,1,20,0,0
249410,-100,4,1,1,19,0,0
249576,-100,4,1,1,18,0,0
249743,-100,4,1,1,17,0,0
249910,-100,4,1,1,16,0,0
250076,-100,4,1,1,15,0,0
250326,-100,4,1,1,20,0,0

[Colours]
Combo1 : 133,201,231
Combo2 : 173,226,92
Combo3 : 243,233,107
Combo4 : 218,166,101
Combo5 : 228,137,179

[HitObjects]
256,192,744,12,0,3743,0:0:0:0:
111,323,4077,6,0,L|95:122,1,170,2|2,0:0|0:0,0:0:0:0:
390,215,4743,2,0,L|93:10,1,340,2|2,0:0|0:0,0:0:0:0:
231,24,5743,1,0,0:0:0:0:
327,108,6077,6,0,L|327:249,1,127.5,2|2,0:0|0:0,0:0:0:0:
167,288,6577,2,0,P|119:263|198:126,1,255,2|2,0:0|0:0,0:0:0:0:
454,145,7410,6,0,L|136:-25,1,340,2|2,0:0|0:0,0:0:0:0:
243,101,8327,2,0,L|237:229,1,127.5,2|2,0:0|0:0,0:0:0:0:
110,284,8743,6,0,L|248:287,1,127.5,2|2,0:0|0:0,0:0:0:0:
89,278,9243,2,0,P|46:217|22:99,1,170,2|0,0:0|0:0,0:0:0:0:
56,83,9743,1,2,0:0:0:0:
462,110,10077,5,4,0:2:0:0:
339,156,10410,2,0,L|344:249,1,85,8|0,0:0|0:0,0:0:0:0:
444,248,10743,2,0,L|458:348,1,85,8|0,0:0|0:0,0:0:0:0:
366,353,11077,1,8,0:0:0:0:
462,366,11243,1,0,0:0:0:0:
306,358,11410,6,0,L|209:343,1,85,8|0,0:0|0:0,0:0:0:0:
338,321,11743,2,0,P|380:287|322:189,1,170,8|0,0:0|0:0,0:0:0:0:
250,193,12243,2,0,L|426:190,1,170
146,104,12743,6,0,P|97:151|145:244,1,170,4|8,0:2|0:0,0:0:0:0:
316,256,13410,2,0,L|131:246,1,170,8|8,0:0|0:0,0:0:0:0:
439,212,14077,6,0,L|441:117,1,85,8|8,0:0|0:0,0:0:0:0:
359,105,14410,1,8,0:0:0:0:
445,62,14577,1,8,0:0:0:0:
279,212,14743,2,0,L|277:117,1,85,8|8,0:0|0:0,0:0:0:0:
359,105,15076,1,8,0:0:0:0:
273,62,15243,1,8,0:0:0:0:
103,259,15910,5,0,3:0:0:0:
346,263,16077,2,0,P|383:218|325:118,1,170,4|8,0:2|0:0,0:0:0:0:
222,140,16577,2,0,L|158:226,2,85,0|8|0,0:0|0:0|0:0,0:0:0:0:
334,128,17077,2,0,L|338:222,1,85,8|0,0:0|0:0,0:0:0:0:
201,223,17410,6,0,L|201:329,1,85,8|0,1:0|0:0,0:0:0:0:
292,333,17743,1,8,0:0:0:0:
139,166,17910,2,0,P|98:236|156:322,1,170
216,314,18410,1,8,0:0:0:0:
302,314,18576,1,0,3:0:0:0:
35,307,18743,6,0,P|16:258|76:161,1,170,4|8,0:2|0:0,0:0:0:0:
182,124,19243,2,0,L|12:120,1,170
70,88,19743,1,8,0:0:0:0:
145,59,19910,1,0,0:0:0:0:
287,114,20076,6,0,L|280:210,1,85,8|0,0:0|0:0,0:0:0:0:
192,231,20410,2,0,L|92:248,1,85,8|0,0:0|0:0,0:0:0:0:
213,315,20743,2,0,L|323:328,1,85,8|0,0:0|0:0,0:0:0:0:
170,314,21076,2,0,L|156:354,2,42.5,0|0|0,3:0|3:0|3:0,0:0:0:0:
482,269,21410,6,0,P|506:217|443:124,1,170,4|8,0:2|0:0,0:0:0:0:
360,109,21910,1,0,0:0:0:0:
264,163,22076,2,0,L|272:266,1,85,8|0,0:0|0:0,0:0:0:0:
364,257,22410,2,0,L|352:362,1,85,8|0,0:0|0:0,0:0:0:0:
188,346,22743,6,0,L|182:238,1,85,8|0,0:0|0:0,0:0:0:0:
275,260,23076,2,0,L|268:169,1,85,8|0,0:0|0:0,0:0:0:0:
109,176,23410,1,8,0:0:0:0:
249,161,23576,1,0,0:0:0:0:
108,162,23743,2,0,L|109:66,1,85,8|0,0:0|3:0,0:0:0:0:
367,77,24076,6,0,P|419:100|377:190,1,170,4|8,0:2|0:0,0:0:0:0:
288,210,24576,2,0,P|246:180|294:81,1,170
384,78,25076,2,0,L|397:178,1,85,8|0,0:0|0:0,0:0:0:0:
113,215,25410,6,0,L|101:266,2,42.5,0|0|0,3:0|3:0|3:0,0:0:0:0:
218,213,25743,2,0,L|223:143,1,42.5,8|0,0:0|0:0,0:0:0:0:
163,143,25910,1,0,3:0:0:0:
56,140,26076,2,0,L|47:90,2,42.5,8|0|0,1:0|0:0|3:0,0:0:0:0:
146,194,26410,1,8,0:0:0:0:
108,219,26493,1,0,3:0:0:0:
70,248,26576,1,0,3:0:0:0:
403,274,26743,6,0,P|427:234|359:142,1,170,4|0,0:2|0:0,0:0:0:0:
175,155,27410,2,0,L|375:140,1,170,0|0,0:2|0:0,0:0:0:0:
37,239,28076,6,0,L|229:218,2,170
247,286,29076,2,0,L|257:194,1,85
100,202,29410,6,0,P|103:130|197:63,1,170
285,64,29910,2,0,L|21:49,1,255
231,217,30743,6,0,L|422:223,1,170
38,287,31576,2,0,L|76:107,1,170,8|8,0:0|0:0,0:0:0:0:
346,109,32076,6,0,P|406:146|350:241,1,170,0|8,0:0|0:0,0:0:0:0:
295,251,32576,2,0,L|111:246,1,170
42,217,33076,1,8,0:0:0:0:
376,320,33410,6,0,P|411:270|348:171,1,170,0|8,0:0|0:0,0:0:0:0:
260,172,33910,1,0,3:0:0:0:
159,169,34076,2,0,L|356:159,1,170,0|8,0:0|0:0,0:0:0:0:
41,249,34743,6,0,L|234:227,1,170,0|8,0:0|0:0,0:0:0:0:
120,213,35243,2,0,L|86:123,2,85,0|8|0,0:0|3:1|3:0,0:0:0:0:
216,247,35743,1,8,3:1:0:0:
116,284,35910,1,0,3:0:0:0:
364,343,36076,5,4,0:2:0:0:
246,318,36326,1,0,0:0:0:0:
371,298,36576,2,0,P|404:258|356:153,1,170,4|0,0:2|0:0,0:0:0:0:
242,115,37076,1,8,0:0:0:0:
278,87,37160,1,0,0:0:0:0:
316,58,37243,1,8,0:0:0:0:
52,111,37410,6,0,P|9:155|62:266,1,187.000005706787,0|8,0:0|0:0,0:0:0:0:
223,302,38076,2,0,L|227:209,1,85
130,212,38410,2,0,L|129:118,1,85,8|0,0:0|0:0,0:0:0:0:
290,132,38743,6,0,L|485:128,1,170,0|8,0:0|0:0,0:0:0:0:
379,102,39243,1,0,0:0:0:0:
293,76,39410,1,0,0:0:0:0:
115,123,39576,2,0,P|86:187|160:291,1,170
411,280,40076,6,0,L|414:179,1,85
336,172,40410,1,8,0:0:0:0:
418,124,40576,1,0,0:0:0:0:
269,133,40743,2,0,L|258:234,1,85
408,224,41076,2,0,L|463:145,1,85,8|0,0:0|0:0,0:0:0:0:
221,143,41410,6,0,L|41:134,2,170,8|8|8,0:0|0:0|0:0,0:0:0:0:
390,187,42410,2,0,L|398:289,1,93.5000028533936,0|0,3:0|3:0,0:0:0:0:
163,318,42743,6,0,L|26:309,2,127.5,8|8|8,0:0|0:0|0:0,0:0:0:0:
392,326,43576,2,0,L|398:228,1,85,0|4,3:0|0:2,0:0:0:0:
134,217,44076,6,0,L|281:207,2,127.5,4|0|0,0:2|0:0|0:0,0:0:0:0:
234,240,44743,2,0,L|240:139,1,85,8|0,3:0|0:0,0:0:0:0:
151,147,45076,2,0,L|148:52,1,85,0|8,3:0|3:0,0:0:0:0:
379,95,45410,6,0,L|507:95,2,127.5,4|0|0,0:2|0:0|0:0,0:0:0:0:
264,152,46076,2,0,P|212:188|268:284,1,170,8|0,0:0|0:0,0:0:0:0:
406,283,46576,6,0,L|223:269,1,170
127,252,47076,2,0,L|143:166,1,85
246,175,47410,2,0,L|226:75,1,85,8|0,0:0|0:0,0:0:0:0:
123,61,47743,1,0,0:0:0:0:
404,139,48076,6,0,L|411:245,1,85,8|8,0:0|0:0,0:0:0:0:
176,359,49243,6,0,P|98:338|225:54,1,535.499983657837,4|8,0:2|0:0,0:0:0:0:
194,27,50910,1,8,0:0:0:0:
402,86,51910,6,0,P|440:122|392:237,1,170,4|8,0:2|0:0,0:0:0:0:
237,236,52576,2,0,L|232:341,1,85,8|4,3:0|3:0,0:0:0:0:
41,304,53076,1,4,1:2:0:0:
486,310,53410,6,0,P|498:263|420:171,1,170,8|8,0:0|0:0,0:0:0:0:
332,170,53910,2,0,P|282:155|277:41,1,170
355,29,54410,1,8,0:0:0:0:
458,37,54576,6,0,P|496:78|435:179,1,170
359,180,55076,1,8,0:0:0:0:
190,194,55243,2,0,P|150:167|201:57,1,170,8|0,3:0|0:0,0:0:0:0:
277,63,55743,2,0,L|285:167,1,85,8|0,0:0|3:0,0:0:0:0:
42,286,56076,6,0,L|171:183,2,127.5,4|0|0,0:2|3:0|3:0,0:0:0:0:
189,324,56743,2,0,L|306:224,2,127.5,4|0|0,0:2|3:0|3:0,0:0:0:0:
442,331,57410,6,0,P|484:290|414:183,1,187.000005706787,0|0,3:0|3:0,0:0:0:0:
343,180,57910,1,0,3:0:0:0:
240,220,58076,2,0,L|250:329,1,93.5000028533936,8|8,3:1|3:1,0:0:0:0:
398,307,58410,2,0,L|408:407,1,93.5000028533936,8|8,3:1|3:1,0:0:0:0:
117,384,58743,6,0,P|73:280|273:115,1,374.000011413575,4|0,3:2|0:0,0:0:0:0:
476,193,59743,1,0,0:0:0:0:
37,257,60076,6,0,P|16:204|101:108,1,170,4|8,0:2|0:0,0:0:0:0:
252,111,60743,1,0,0:0:0:0:
360,197,60993,2,0,L|370:272,1,42.5,8|8,0:0|0:0,0:0:0:0:
303,298,61243,1,8,0:0:0:0:
133,302,61410,6,0,L|143:155,1,127.5
346,150,61910,2,0,L|151:135,1,170
258,115,62410,1,8,0:0:0:0:
356,82,62576,1,8,0:0:0:0:
125,162,62743,6,0,P|104:216|180:307,1,170,0|8,0:0|0:0,0:0:0:0:
342,302,63410,1,0,0:0:0:0:
245,233,63660,2,0,L|240:176,1,42.5,8|8,0:0|0:0,0:0:0:0:
308,139,63910,1,8,0:0:0:0:
138,141,64076,6,0,L|124:296,1,127.5
329,311,64576,2,0,L|142:323,1,170
63,291,65076,1,8,0:0:0:0:
150,205,65243,1,8,0:0:0:0:
405,209,65410,6,0,P|448:157|384:68,1,170,4|8,0:2|0:0,0:0:0:0:
236,71,65910,2,0,P|198:108|266:217,1,170
326,207,66410,2,0,L|333:313,1,85,8|0,0:0|0:0,0:0:0:0:
157,320,66743,6,0,L|55:315,1,85
194,285,67076,2,0,P|234:232|185:123,1,170,8|0,0:0|0:0,0:0:0:0:
47,148,67576,2,0,P|22:99|96:9,1,170
377,260,68076,6,0,P|422:218|368:110,1,170,0|8,0:0|0:0,0:0:0:0:
270,119,68576,2,0,L|256:176,2,42.5,0|0|0,0:0|0:0|3:0,0:0:0:0:
391,116,68910,2,0,L|408:213,1,85,0|8,3:0|0:0,0:0:0:0:
140,279,69243,6,0,P|90:255|156:162,1,170,4|0,0:2|0:0,0:0:0:0:
223,164,69743,2,0,L|230:68,1,85,8|8,0:0|1:0,0:0:0:0:
178,58,69993,1,0,1:0:0:0:
127,51,70076,1,0,1:0:0:0:
218,161,70243,2,0,L|218:231,1,42.5,0|0,3:0|3:0,0:0:0:0:
161,248,70410,2,0,L|113:251,2,42.5,8|0|8,3:1|3:1|3:1,0:0:0:0:
432,249,70743,6,0,P|480:194|427:115,1,170,4|8,0:2|0:0,0:0:0:0:
270,106,71410,1,0,0:0:0:0:
333,187,71660,2,0,L|323:262,1,42.5,8|8,0:0|0:0,0:0:0:0:
248,278,71910,1,8,0:0:0:0:
78,257,72076,6,0,L|214:243,1,127.5
23,157,72577,2,0,L|218:142,1,170
100,84,73077,1,8,0:0:0:0:
191,46,73243,1,8,0:0:0:0:
459,111,73410,6,0,P|480:165|404:256,1,170,0|8,0:0|0:0,0:0:0:0:
257,312,74077,1,0,0:0:0:0:
159,263,74327,2,0,L|164:206,1,42.5,8|8,0:0|0:0,0:0:0:0:
247,182,74577,1,8,0:0:0:0:
73,191,74743,6,0,L|87:346,1,127.5
324,326,75243,2,0,L|511:338,1,170
426,263,75743,1,8,3:0:0:0:
339,257,75910,1,8,3:0:0:0:
107,209,76076,6,0,L|7:206,2,85,4|0|8,0:2|0:0|0:0,0:0:0:0:
281,193,76576,2,0,L|90:169,1,170
230,213,77077,2,0,L|223:319,1,85,8|0,0:0|3:0,0:0:0:0:
53,294,77410,6,0,L|58:194,1,85,4|0,0:2|0:0,0:0:0:0:
150,211,77743,2,0,L|0:127,1,170,8|8,0:0|0:0,0:0:0:0:
284,163,78243,2,0,L|381:165,2,85,0|8|0,0:0|0:0|3:0,0:0:0:0:
43,268,78743,6,0,P|60:221|161:145,1,170,4|8,0:2|0:0,0:0:0:0:
251,137,79243,1,0,0:0:0:0:
356,152,79410,2,0,L|355:249,1,85
278,286,79743,1,8,0:0:0:0:
349,322,79910,1,0,0:0:0:0:
83,332,80076,6,0,P|31:303|66:204,1,170,8|8,0:0|0:0,0:0:0:0:
170,180,80576,1,8,0:0:0:0:
170,180,80660,1,0,0:0:0:0:
170,180,80743,1,8,0:0:0:0:
299,83,80910,1,8,3:0:0:0:
354,113,80993,1,8,3:0:0:0:
371,155,81076,1,8,3:0:0:0:
356,199,81160,1,8,3:0:0:0:
306,240,81243,1,4,3:0:0:0:
40,248,81410,5,4,0:2:0:0:
71,156,86743,6,0,L|63:268,1,85,8|8,0:0|0:0,0:0:0:0:
220,291,87243,2,0,L|228:247,2,42.5,8|8|8,3:0|3:0|0:0,0:0:0:0:
140,327,87576,1,8,0:0:0:0:
50,340,87743,1,8,3:0:0:0:
327,353,87910,6,0,P|366:310|321:197,1,185.300001979218,4|0,0:2|0:0,0:0:0:0:
245,199,88414,1,0,0:0:0:0:
163,195,88585,1,8,3:0:0:0:
354,260,88928,2,0,P|402:215|332:133,1,170,8|0,3:0|3:0,0:0:0:0:
120,140,89424,5,4,0:2:0:0:
256,192,89757,12,0,91757,0:0:0:0:
346,263,92090,6,0,P|383:218|325:118,1,170,4|0,1:2|0:0,0:0:0:0:
232,119,92590,2,0,L|235:223,1,85,0|8,3:0|1:0,0:0:0:0:
403,308,93090,5,0,0:0:0:0:
228,309,93257,2,0,P|183:278|220:176,1,170,4|0,0:2|3:0,0:0:0:0:
471,148,93924,2,0,L|298:137,1,170,0|0,3:0|0:0,0:0:0:0:
389,84,94423,1,8,0:0:0:0:
475,84,94589,1,0,0:0:0:0:
212,292,94757,6,0,L|91:160,1,170,4|0,1:2|0:0,0:0:0:0:
191,163,95257,1,0,3:0:0:0:
286,162,95424,1,8,0:0:0:0:
104,95,95756,5,0,0:0:0:0:
281,99,95924,2,0,L|265:291,1,170,4|8,0:2|3:3,0:0:0:0:
165,262,96424,1,4,3:0:0:0:
61,254,96590,1,0,3:0:0:0:
174,229,96756,2,0,L|185:121,1,85,8|0,0:0|3:0,0:0:0:0:
64,148,97090,2,0,L|50:188,2,42.5,0|0|0,3:0|3:0|3:0,0:0:0:0:
313,153,97423,6,0,P|353:120|291:28,1,170,4|8,0:2|0:0,0:0:0:0:
226,41,97923,1,0,0:0:0:0:
142,115,98090,2,0,L|145:219,1,85,8|0,0:0|0:0,0:0:0:0:
236,216,98423,2,0,L|225:327,1,85,8|0,0:0|0:0,0:0:0:0:
125,330,98757,6,0,L|35:338,1,85,8|0,0:0|0:0,0:0:0:0:
141,293,99090,2,0,L|235:282,1,85,8|0,0:0|3:0,0:0:0:0:
49,242,99423,2,0,L|45:150,1,85,8|8,0:0|0:0,0:0:0:0:
127,136,99757,1,8,0:0:0:0:
34,93,99923,1,8,0:0:0:0:
267,98,100090,6,0,P|319:121|277:211,1,170,4|0,0:2|3:0,0:0:0:0:
190,217,100590,2,0,L|386:238,1,170,0|0,1:0|0:0,0:0:0:0:
460,252,101090,2,0,L|473:352,1,85,8|8,3:0|3:0,0:0:0:0:
171,346,101423,5,4,0:2:0:0:
72,287,101590,1,8,0:0:0:0:
70,190,101757,1,0,0:0:0:0:
167,122,101923,1,8,0:0:0:0:
334,122,102090,2,0,L|336:232,1,85,0|8,0:0|0:0,0:0:0:0:
240,234,102423,2,0,L|153:245,1,85,8|4,0:0|3:0,0:0:0:0:
424,314,102757,6,0,L|427:218,1,85
162,190,103423,2,0,L|424:180,1,255,4|0,0:2|1:0,0:0:0:0:
257,139,104257,2,0,L|241:243,1,85,0|0,3:0|3:0,0:0:0:0:
402,277,104757,1,8,1:0:0:0:
214,284,105090,2,0,L|209:176,1,85
469,192,105423,6,0,L|469:94,1,85,0|0,1:0|1:0,0:0:0:0:
398,81,105757,1,0,0:0:0:0:
476,49,105923,1,0,0:0:0:0:
305,94,106090,1,4,0:2:0:0:
224,105,106257,6,0,P|189:138|234:241,1,170,0|0,0:0|1:0,0:0:0:0:
463,248,106923,2,0,L|467:149,1,85,0|0,1:0|1:0,0:0:0:0:
224,150,107423,2,0,L|401:145,1,170,8|8,0:0|0:0,0:0:0:0:
441,111,107840,1,0,3:0:0:0:
441,111,107923,1,0,3:0:0:0:
168,212,108090,6,0,L|57:202,2,85,4|0|8,0:2|0:0|0:0,0:0:0:0:
259,222,108590,2,0,P|295:187|251:84,1,170
167,74,109090,1,8,0:0:0:0:
332,124,109257,6,0,P|378:159|391:276,1,170,0|0,3:0|3:0,0:0:0:0:
224,291,109757,2,0,L|217:177,1,85,8|0,0:0|0:0,0:0:0:0:
314,206,110090,2,0,L|322:112,1,85
238,107,110423,1,8,0:0:0:0:
153,95,110590,1,0,0:0:0:0:
399,158,110757,6,0,L|393:265,1,85,4|0,0:2|0:0,0:0:0:0:
251,320,111257,1,0,0:0:0:0:
148,297,111423,2,0,L|158:203,1,85,8|0,0:0|0:0,0:0:0:0:
254,224,111757,2,0,L|253:129,1,85,8|0,0:0|0:0,0:0:0:0:
23,154,112090,6,0,L|28:60,1,85,4|0,0:2|0:0,0:0:0:0:
295,262,112590,2,0,L|115:253,1,170,8|0,0:0|3:0,0:0:0:0:
29,246,113090,1,8,0:0:0:0:
29,246,113173,1,0,3:0:0:0:
29,246,113257,1,0,3:0:0:0:
288,141,113423,6,0,P|319:197|281:292,1,170,4|8,0:2|0:0,0:0:0:0:
92,283,114090,2,0,L|88:190,1,85
185,193,114423,2,0,L|186:99,1,85,8|0,0:0|0:0,0:0:0:0:
24,133,114757,6,0,L|219:129,1,170,0|8,0:0|0:0,0:0:0:0:
132,97,115256,1,0,0:0:0:0:
41,74,115423,1,0,0:0:0:0:
211,85,115589,2,0,L|19:101,1,170
317,292,116090,6,0,L|320:191,1,85,8|0,0:0|0:0,0:0:0:0:
242,184,116423,1,8,0:0:0:0:
324,136,116589,1,0,0:0:0:0:
175,145,116756,2,0,L|164:246,1,85,8|0,0:0|0:0,0:0:0:0:
314,236,117090,2,0,L|369:157,1,85,8|0,0:0|0:0,0:0:0:0:
189,138,117423,6,0,L|369:129,2,170,8|8|8,0:0|0:0|0:0,0:0:0:0:
43,193,118423,2,0,L|36:287,1,85,0|0,3:0|3:0,0:0:0:0:
285,327,118757,6,0,L|291:231,1,85,4|0,0:2|3:0,0:0:0:0:
196,243,119090,2,0,L|191:140,1,85,8|0,0:0|0:0,0:0:0:0:
366,153,119423,2,0,P|407:115|364:17,1,170
96,131,119923,6,0,P|36:167|79:257,1,170,4|0,0:2|0:0,0:0:0:0:
166,257,120423,1,8,0:0:0:0:
66,240,120590,1,0,0:0:0:0:
181,228,120756,2,0,L|175:127,1,85
82,141,121090,2,0,L|85:46,1,85,8|0,0:0|0:0,0:0:0:0:
342,57,121423,6,0,P|391:122|337:178,1,170,4|8,0:2|0:0,0:0:0:0:
250,179,121923,1,0,0:0:0:0:
162,181,122089,2,0,P|110:217|166:313,1,170,0|8,0:0|0:0,0:0:0:0:
371,314,122589,6,0,P|424:251|375:181,1,170,4|8,0:2|3:0,0:0:0:0:
203,253,123257,2,0,L|202:157,1,85,0|0,3:0|3:0,0:0:0:0:
31,193,123756,1,0,3:0:0:0:
486,192,124090,5,4,0:2:0:0:
218,207,129423,6,0,L|44:199,1,170
287,154,130090,2,0,L|100:138,1,170
351,58,130757,6,0,P|414:113|369:187,1,170
291,193,131257,2,0,L|476:211,1,170
394,275,131757,1,0,0:0:0:0:
315,274,131923,1,0,3:0:0:0:
80,269,132090,6,0,P|76:192|132:126,1,127.5,4|8,0:2|0:0,0:0:0:0:
243,106,132590,1,8,0:0:0:0:
414,137,132757,2,0,P|426:199|395:273,1,127.5,4|8,0:2|0:0,0:0:0:0:
281,294,133257,1,8,0:0:0:0:
28,294,133423,6,0,P|21:237|107:140,1,170,4|8,0:2|0:0,0:0:0:0:
168,129,133923,1,8,0:0:0:0:
262,130,134090,2,0,L|269:227,1,85,8|8,0:0|0:0,0:0:0:0:
182,228,134423,2,0,L|190:334,1,85,8|8,0:0|0:0,0:0:0:0:
425,318,134757,6,0,P|475:266|411:182,1,170,4|8,0:2|0:0,0:0:0:0:
333,177,135257,1,0,3:0:0:0:
211,181,135423,1,0,3:0:0:0:
170,170,135506,1,0,3:0:0:0:
139,142,135589,1,8,0:0:0:0:
127,102,135673,1,0,0:0:0:0:
136,61,135756,1,8,1:0:0:0:
164,29,135839,1,0,0:0:0:0:
204,17,135923,1,4,3:0:0:0:
475,257,136090,6,0,P|496:204|411:108,1,170,4|8,0:2|0:0,0:0:0:0:
260,111,136757,1,0,0:0:0:0:
349,190,137007,2,0,L|339:265,1,42.5,8|8,0:0|0:0,0:0:0:0:
269,290,137257,1,8,0:0:0:0:
99,274,137424,6,0,L|229:212,1,127.5
454,235,137924,2,0,L|286:146,1,170
378,157,138424,1,8,0:0:0:0:
459,156,138590,1,8,0:0:0:0:
189,158,138757,6,0,L|15:176,1,170,0|8,0:0|0:0,0:0:0:0:
191,305,139424,1,0,0:0:0:0:
288,236,139674,2,0,L|293:179,1,42.5,8|8,0:0|0:0,0:0:0:0:
225,142,139924,1,8,0:0:0:0:
55,167,140090,6,0,L|69:322,1,127.5
321,313,140590,2,0,L|508:325,1,170
416,257,141090,1,8,0:0:0:0:
339,253,141257,1,0,0:0:0:0:
70,240,141423,6,0,P|27:188|91:99,1,170,4|8,0:2|0:0,0:0:0:0:
237,103,141923,2,0,L|60:93,1,170
140,167,142423,1,8,0:0:0:0:
224,172,142590,1,0,0:0:0:0:
396,281,142757,6,0,L|398:194,1,85
308,195,143090,2,0,P|275:140|342:68,1,170,8|0,0:0|0:0,0:0:0:0:
448,175,143590,2,0,P|495:145|458:45,1,170
216,167,144090,6,0,L|42:154,1,170,0|8,0:0|0:0,0:0:0:0:
163,72,144590,2,0,L|152:30,2,42.5,0|0|8,0:0|0:0|0:0,0:0:0:0:
284,124,144924,2,0,L|301:221,1,85,0|8,3:0|0:0,0:0:0:0:
59,324,145257,6,0,P|30:275|105:193,1,170,4|0,0:2|3:0,0:0:0:0:
189,200,145757,1,8,0:0:0:0:
91,147,145923,1,0,0:0:0:0:
91,147,146007,1,0,0:0:0:0:
91,147,146090,1,0,3:0:0:0:
221,154,146257,2,0,L|225:96,1,42.5,8|0,1:0|0:0,0:0:0:0:
182,93,146423,1,8,0:0:0:0:
146,87,146507,1,0,0:0:0:0:
108,83,146590,1,0,3:0:0:0:
384,97,146757,6,0,P|426:164|377:227,1,170,4|8,0:2|0:0,0:0:0:0:
204,102,147424,1,0,0:0:0:0:
132,181,147674,2,0,L|142:256,1,42.5,8|8,0:0|0:0,0:0:0:0:
200,282,147924,1,8,0:0:0:0:
370,286,148090,6,0,L|506:278,1,127.5
258,249,148591,2,0,L|63:234,1,170
6,185,149091,1,8,0:0:0:0:
98,152,149257,1,8,0:0:0:0:
331,194,149423,6,0,P|376:145|330:55,1,170,0|8,0:0|0:0,0:0:0:0:
200,317,150091,1,0,0:0:0:0:
109,290,150341,2,0,L|104:233,1,42.5,0|8,0:0|0:0,0:0:0:0:
170,180,150591,1,0,0:0:0:0:
342,190,150757,6,0,L|221:280,1,127.5
36,345,151257,2,0,L|202:272,1,170,0|8,0:0|0:0,0:0:0:0:
101,257,151757,1,0,0:0:0:0:
24,236,151924,1,8,3:1:0:0:
299,270,152090,6,0,L|399:267,2,85,4|0|8,0:2|0:0|0:0,0:0:0:0:
216,273,152590,2,0,P|170:239|209:142,1,170
295,147,153091,2,0,L|302:253,1,85,8|0,0:0|0:0,0:0:0:0:
131,262,153424,6,0,L|126:162,1,85
220,177,153757,2,0,L|398:164,1,170,8|0,0:0|0:0,0:0:0:0:
124,164,154257,2,0,L|32:148,2,85,0|8|0,0:0|0:0|0:0,0:0:0:0:
398,292,154757,6,0,P|423:243|344:150,1,170,8|8,0:0|0:0,0:0:0:0:
282,152,155257,1,0,0:0:0:0:
197,204,155424,2,0,L|198:301,1,85,8|0,0:0|0:0,0:0:0:0:
288,314,155757,1,8,0:0:0:0:
194,348,155924,1,0,0:0:0:0:
466,335,156090,6,0,P|475:267|396:211,1,170,8|8,0:0|0:0,0:0:0:0:
332,204,156535,1,0,0:0:0:0:
306,163,156646,1,0,0:0:0:0:
326,122,156757,1,4,3:0:0:0:
395,97,156868,1,0,0:0:0:0:
455,117,156979,1,0,0:0:0:0:
486,158,157090,1,4,3:0:0:0:
472,208,157201,1,0,0:0:0:0:
171,307,157423,6,0,P|126:278|161:163,1,170,4|0,0:2|3:0,0:0:0:0:
225,152,157923,1,0,3:0:0:0:
397,140,158090,2,0,L|486:132,2,85,8|0|0,0:0|3:0|3:0,0:0:0:0:
227,203,158590,6,0,P|160:176|111:78,1,170,0|0,3:0|3:0,0:0:0:0:
244,97,159090,2,0,L|318:137,1,85,0|0,3:0|3:0,0:0:0:0:
149,236,159423,2,0,L|63:230,2,85,8|0|8,0:0|3:0|3:1,0:0:0:0:
431,210,160090,6,0,L|231:198,1,170,4|0,0:2|3:0,0:0:0:0:
326,132,160590,1,0,3:0:0:0:
154,121,160757,2,0,L|151:231,1,85,8|0,0:0|3:0,0:0:0:0:
240,245,161090,1,0,3:0:0:0:
411,234,161257,6,0,P|461:208|411:120,1,170,4|8,3:2|3:3,0:0:0:0:
331,108,161757,2,0,L|320:195,1,85,0|0,3:0|3:0,0:0:0:0:
492,202,162090,2,0,L|499:313,1,85,8|0,0:0|3:0,0:0:0:0:
418,308,162423,1,2,3:3:0:0:
338,315,162590,1,0,3:0:0:0:
107,313,162757,6,0,P|78:273|132:175,1,170,4|0,0:2|3:0,0:0:0:0:
224,170,163257,1,0,3:0:0:0:
394,159,163424,2,0,L|403:60,1,85,8|0,0:0|3:0,0:0:0:0:
307,53,163757,1,0,3:0:0:0:
137,132,163923,6,0,L|314:122,1,170,0|0,3:0|3:0,0:0:0:0:
223,207,164424,2,0,L|213:302,1,85,0|0,3:0|3:0,0:0:0:0:
383,286,164757,2,0,L|467:291,2,85,8|0|8,0:0|3:0|3:1,0:0:0:0:
108,313,165423,6,0,P|71:234|138:165,1,170,4|0,0:2|3:0,0:0:0:0:
202,160,165924,1,0,3:0:0:0:
373,88,166091,2,0,L|370:198,1,85,8|0,0:0|3:0,0:0:0:0:
276,190,166424,1,0,3:0:0:0:
106,251,166590,6,0,P|61:226|109:116,1,170,4|8,3:2|3:3,0:0:0:0:
243,250,167091,2,0,L|232:337,1,85,0|0,3:0|3:0,0:0:0:0:
377,251,167424,2,0,L|384:362,1,85,8|8,0:0|3:3,0:0:0:0:
312,349,167757,1,4,3:3:0:0:
389,360,167924,1,4,3:3:0:0:
134,321,168090,6,0,L|128:229,1,85,8|0,0:0|3:0,0:0:0:0:
209,213,168423,1,8,0:0:0:0:
133,173,168590,1,0,3:0:0:0:
303,172,168757,2,0,L|385:193,2,85,8|0|8,0:0|3:0|0:0,0:0:0:0:
45,162,169257,1,8,0:0:0:0:
66,281,170757,6,0,L|57:176,1,85,8|8,0:0|0:0,0:0:0:0:
308,194,171257,1,8,0:0:0:0:
67,183,171590,1,8,0:0:0:0:
326,148,171923,6,0,P|365:189|315:281,1,170,8|0,0:0|3:0,0:0:0:0:
246,288,172423,1,0,3:0:0:0:
168,284,172590,1,0,3:0:0:0:
328,269,172743,2,0,L|331:167,1,85,0|0,3:0|3:0,0:0:0:0:
241,177,173067,1,0,3:0:0:0:
149,171,173229,1,0,3:0:0:0:
409,143,173409,5,4,1:2:0:0:
256,192,173742,12,4,178742,0:2:0:0:
78,277,184075,6,0,P|45:245|107:128,1,170,0|0,3:0|3:0,0:0:0:0:
316,135,184742,2,0,P|364:212|321:276,1,170,0|0,3:0|3:0,0:0:0:0:
48,274,185409,6,0,L|230:267,1,170,0|0,3:0|3:0,0:0:0:0:
468,241,186075,2,0,L|277:223,1,170,0|0,3:0|3:0,0:0:0:0:
51,195,186742,6,0,L|186:185,2,127.5,4|0|0,3:0|3:0|3:0,0:0:0:0:
213,266,187409,2,0,L|352:259,2,127.5,4|0|4,3:0|3:0|3:0,0:0:0:0:
471,266,188075,6,0,P|497:223|387:73,1,255,4|0,0:2|3:0,0:0:0:0:
312,68,188742,1,8,1:0:0:0:
56,236,189242,6,0,L|254:244,2,170,4|0|0,1:2|3:0|3:0,0:0:0:0:
164,229,190075,2,0,P|211:190|158:96,1,170,8|8,0:0|0:0,0:0:0:0:
95,89,190575,1,8,0:3:0:0:
348,98,190742,6,0,P|400:145|327:229,1,170,4|0,0:2|0:0,0:0:0:0:
181,266,191408,2,0,L|366:257,1,170
79,200,192075,5,2,0:0:0:0:
79,200,192742,1,2,0:0:0:0:
389,273,194077,6,0,L|191:262,1,170,4|8,0:2|0:0,0:0:0:0:
388,77,194744,1,0,0:0:0:0:
280,163,194994,2,0,L|270:238,1,42.5,8|8,0:0|0:0,0:0:0:0:
337,264,195244,1,8,0:0:0:0:
167,274,195411,6,0,P|131:228|187:180,1,127.5
373,148,195911,2,0,L|203:161,1,170
122,170,196411,1,8,0:0:0:0:
39,178,196577,1,8,0:0:0:0:
317,156,196744,6,0,P|365:214|308:274,1,170,0|8,0:0|0:0,0:0:0:0:
139,289,197411,1,0,0:0:0:0:
42,220,197661,2,0,L|38:177,1,42.5,8|8,0:0|0:0,0:0:0:0:
105,126,197911,1,8,0:0:0:0:
275,117,198077,6,0,L|430:103,1,127.5
183,311,198577,2,0,P|155:218|193:152,1,170
281,156,199077,1,8,0:0:0:0:
373,157,199244,1,0,3:0:0:0:
107,209,199411,6,0,P|64:157|128:68,1,170,4|8,0:2|0:0,0:0:0:0:
276,71,199911,2,0,L|426:172,1,170
342,243,200410,1,8,0:0:0:0:
419,243,200577,1,0,0:0:0:0:
247,259,200743,6,0,L|241:174,1,85,0|0,0:0|3:0,0:0:0:0:
333,173,201077,2,0,P|376:103|346:26,1,170,8|0,0:0|0:0,0:0:0:0:
175,72,201577,2,0,L|352:64,1,170
90,259,202077,6,0,P|45:217|99:109,1,170,0|8,0:0|0:0,0:0:0:0:
222,130,202577,2,0,L|227:76,1,42.5
168,61,202743,1,8,3:0:0:0:
30,157,202911,2,0,L|41:259,1,85,0|8,3:0|1:0,0:0:0:0:
291,277,203244,6,0,P|337:240|275:160,1,170,4|0,0:2|0:0,0:0:0:0:
194,161,203743,1,8,0:0:0:0:
301,152,203910,1,0,0:0:0:0:
301,152,203993,1,0,0:0:0:0:
301,152,204077,1,0,3:0:0:0:
406,299,204243,1,8,0:0:0:0:
457,295,204326,1,0,0:0:0:0:
495,269,204409,1,0,3:1:0:0:
498,213,204493,1,0,3:0:0:0:
466,174,204576,1,8,3:1:0:0:
232,207,204744,6,0,L|42:194,1,170,4|8,0:2|0:0,0:0:0:0:
242,106,205411,1,0,0:0:0:0:
179,187,205661,2,0,L|189:262,1,42.5,8|8,0:0|0:0,0:0:0:0:
264,278,205911,1,8,0:0:0:0:
434,257,206078,6,0,L|298:243,1,127.5
489,157,206578,2,0,L|294:142,1,170
412,84,207078,1,8,0:0:0:0:
321,46,207244,1,8,0:0:0:0:
53,111,207411,6,0,P|32:165|108:256,1,170,0|8,0:0|0:0,0:0:0:0:
255,312,208078,1,0,0:0:0:0:
353,263,208328,2,0,L|348:206,1,42.5,8|8,0:0|0:0,0:0:0:0:
265,182,208576,1,8,0:0:0:0:
439,191,208744,6,0,L|425:346,1,127.5
188,326,209244,2,0,L|1:338,1,170
86,263,209744,1,8,0:0:0:0:
173,257,209911,1,8,3:0:0:0:
405,209,210077,6,0,L|505:206,2,85,4|0|8,0:2|0:0|0:0,0:0:0:0:
231,193,210577,2,0,L|422:169,1,170
282,213,211076,2,0,L|289:319,1,85,8|0,0:0|0:0,0:0:0:0:
459,294,211411,6,0,L|454:194,1,85,4|0,0:2|0:0,0:0:0:0:
362,211,211744,2,0,L|171:204,1,170,8|8,0:0|0:0,0:0:0:0:
440,192,212244,2,0,L|503:132,2,85,0|8|0,0:0|0:0|3:0,0:0:0:0:
158,298,212744,6,0,L|9:205,1,170,4|8,0:2|0:0,0:0:0:0:
104,175,213244,1,0,0:0:0:0:
195,167,213409,1,8,0:0:0:0:
104,175,213576,1,0,0:0:0:0:
13,185,213743,1,8,0:0:0:0:
104,175,213911,1,0,0:0:0:0:
373,313,214076,6,0,L|468:303,2,85,8|8|8,0:0|0:0|0:0,0:0:0:0:
228,310,214576,2,0,L|401:295,1,170,8|0,0:0|1:0,0:0:0:0:
269,247,215076,2,0,L|264:194,1,42.5,8|8,0:0|0:0,0:0:0:0:
328,185,215243,1,8,0:0:0:0:
481,186,215410,1,0,0:0:0:0:
37,167,215743,5,4,0:2:0:0:
209,134,216076,2,0,L|218:244,1,85,8|0,0:0|0:0,0:0:0:0:
119,215,216410,2,0,L|109:316,1,85,8|0,0:0|0:0,0:0:0:0:
274,333,216743,6,0,L|428:327,2,127.5,8|0|0,0:0|0:0|0:0,0:0:0:0:
104,338,217410,2,0,L|111:246,1,85,8|0,0:0|0:0,0:0:0:0:
216,238,217743,2,0,L|313:218,1,85,8|0,0:0|0:0,0:0:0:0:
44,177,218077,6,0,P|23:231|99:322,1,170,8|8,0:0|0:0,0:0:0:0:
177,317,218576,1,0,0:0:0:0:
342,302,218743,2,0,L|479:274,2,127.5,8|0|0,0:0|0:0|0:0,0:0:0:0:
168,147,219410,6,0,L|154:302,1,127.5,8|0,0:0|0:0,0:0:0:0:
329,311,219910,2,0,L|142:323,1,170
63,291,220410,1,8,0:0:0:0:
150,205,220577,1,0,3:0:0:0:
405,209,220743,6,0,L|410:116,1,85,4|0,0:2|0:0,0:0:0:0:
321,91,221076,1,8,0:0:0:0:
151,164,221243,2,0,L|53:179,2,85,0|8|0,0:0|0:0|0:0,0:0:0:0:
322,220,221744,2,0,L|329:326,1,85,8|0,0:0|0:0,0:0:0:0:
224,312,222077,6,0,L|221:221,1,85,8|0,0:0|0:0,0:0:0:0:
391,205,222410,2,0,P|381:126|296:59,1,170,8|8,0:0|0:0,0:0:0:0:
149,83,222910,2,0,L|141:182,1,85,0|8,0:0|0:0,0:0:0:0:
237,190,223243,1,0,0:0:0:0:
470,295,223410,6,0,P|479:243|410:143,1,170,8|8,0:0|0:0,0:0:0:0:
270,119,223910,2,0,L|256:176,2,42.5,0|0|8,0:0|0:0|0:0,0:0:0:0:
391,116,224244,2,0,L|408:213,1,85,0|0,3:0|3:0,0:0:0:0:
140,279,224577,6,0,P|90:255|156:162,1,170,4|0,0:2|3:0,0:0:0:0:
223,164,225077,2,0,L|230:68,1,85,8|0,0:0|3:0,0:0:0:0:
167,58,225327,1,0,3:0:0:0:
111,51,225410,1,2,0:0:0:0:
218,161,225577,2,0,L|218:231,1,42.5,2|0,0:0|0:0,0:0:0:0:
161,248,225744,2,0,L|113:251,2,42.5,8|0|0,0:0|3:0|3:0,0:0:0:0:
432,255,226076,6,0,P|467:208|435:140,1,127.5,4|8,1:2|1:0,0:0:0:0:
410,135,226410,1,8,0:0:0:0:
319,128,226576,1,8,0:0:0:0:
218,149,226743,2,0,P|179:207|208:266,1,127.5,0|8,0:0|0:0,0:0:0:0:
240,282,227076,1,8,0:0:0:0:
333,275,227244,1,8,0:0:0:0:
78,256,227410,6,0,L|81:127,1,127.5,0|8,0:0|0:0,0:0:0:0:
116,113,227743,1,8,0:0:0:0:
288,183,227911,2,0,P|325:128|270:55,1,170,8|0,0:0|0:0,0:0:0:0:
180,59,228411,1,8,0:0:0:0:
97,63,228577,1,8,0:0:0:0:
374,59,228744,6,0,P|421:108|394:189,1,127.5,4|0,0:2|0:0,0:0:0:0:
363,194,229076,1,8,0:0:0:0:
278,214,229243,1,0,0:0:0:0:
126,220,229410,2,0,L|276:219,1,127.5,0|8,0:0|0:0,0:0:0:0:
297,218,229743,1,8,0:0:0:0:
383,213,229910,1,8,0:0:0:0:
113,176,230077,6,0,L|127:331,1,127.5,4|8,0:2|0:0,0:0:0:0:
175,325,230410,1,8,0:0:0:0:
345,324,230577,2,0,P|404:273|362:195,1,170,8|0,0:0|0:0,0:0:0:0:
288,191,231077,1,8,3:1:0:0:
375,152,231244,1,0,3:0:0:0:
141,274,231410,6,0,P|95:218|140:128,1,170,4|0,0:2|3:0,0:0:0:0:
300,135,231910,2,0,L|104:124,1,170,0|0,3:0|3:0,0:0:0:0:
216,70,232410,1,0,3:0:0:0:
313,68,232576,1,0,3:0:0:0:
137,314,232744,6,0,L|142:214,1,85,4|8,0:2|0:0,0:0:0:0:
237,210,233076,2,0,L|56:202,1,170,8|8,0:0|0:0,0:0:0:0:
306,189,233577,2,0,L|407:184,1,85,0|8,0:0|0:0,0:0:0:0:
430,158,233826,1,0,0:0:0:0:
380,95,233910,1,8,0:0:0:0:
95,304,234077,6,0,P|50:262|104:154,1,170,4|8,0:2|3:0,0:0:0:0:
305,149,234576,1,4,1:2:0:0:
389,153,234744,2,0,L|281:147,1,85,4|8,3:0|3:0,0:0:0:0:
73,221,235077,1,4,1:2:0:0:
70,307,235244,1,0,3:0:0:0:
324,327,235410,6,0,P|376:298|341:199,1,170,4|8,1:2|0:0,0:0:0:0:
237,175,235910,1,8,0:0:0:0:
237,175,235994,1,0,0:0:0:0:
237,175,236077,1,8,0:0:0:0:
108,78,236244,1,8,0:0:0:0:
53,108,236327,1,0,0:0:0:0:
36,150,236410,1,8,0:0:0:0:
51,194,236494,1,8,0:0:0:0:
101,235,236577,1,8,0:0:0:0:
367,243,236744,5,4,0:2:0:0:
71,228,240910,6,0,L|255:216,1,170,4|0,3:0|3:0,0:0:0:0:
160,217,241410,2,0,P|126:190|178:78,1,170,8|8,0:0|0:0,0:0:0:0:
460,79,242076,6,0,L|479:180,1,85,4|4,1:2|1:2,0:0:0:0:
259,278,242576,2,0,L|247:230,2,42.5,0|0|8,3:0|3:0|1:1,0:0:0:0:
347,288,242910,1,4,3:0:0:0:
436,302,243076,1,8,1:0:0:0:
206,343,243243,6,0,P|169:317|218:213,1,170,4|8,0:2|3:0,0:0:0:0:
295,201,243743,1,0,1:0:0:0:
388,189,243910,1,0,3:0:0:0:
122,176,244243,2,0,P|85:222|146:308,1,170,8|0,1:0|3:2,0:0:0:0:
410,312,244743,5,4,1:2:0:0:
256,192,245076,12,0,250326,0:0:0:0:
